osu file format v14

[General]
AudioFilename: audio.mp3
AudioLeadIn: 0
PreviewTime: 22413
Countdown: 0
SampleSet: Soft
StackLeniency: 0.2
Mode: 0
LetterboxInBreaks: 0
WidescreenStoryboard: 1

[Editor]
DistanceSpacing: 0.6
BeatDivisor: 4
GridSize: 4
TimelineZoom: 2.300001

[Metadata]
Title:Nanatsu Issenzakura
TitleUnicode:七つ一旋桜
Artist:A.SAKA
ArtistUnicode:A.SAKA
Creator:yf_bmp
Version:Petals
Source:
Tags:sakura seven rotating revolving rotate revolve cherry blossom 木製みゅーと Mokuse Mute 神楽ノ花 Kagura no Hana imoutosan Fushimi Rio Syameimaru-Aya Gust Moecho Pata-Mon
BeatmapID:1094998
BeatmapSetID:513731

[Difficulty]
HPDrainRate:5
CircleSize:4
OverallDifficulty:9
ApproachRate:9.5
SliderMultiplier:2.1
SliderTickRate:1

[Events]
//Background and Video events
0,0,"BG.jpg",0,0
//Break Periods
//Storyboard Layer 0 (Background)
//Storyboard Layer 1 (Fail)
//Storyboard Layer 2 (Pass)
//Storyboard Layer 3 (Foreground)
//Storyboard Sound Samples

[TimingPoints]
175,348.837209302326,4,2,16,80,1,0
11337,-166.666666666667,4,2,15,60,0,0
15523,-133.333333333333,4,2,15,60,0,0
16570,-133.333333333333,4,2,15,40,0,0
16919,-166.666666666667,4,2,15,60,0,0
21454,-125,4,2,15,60,0,0
22500,-76.9230769230769,4,2,16,80,0,0
27907,-200,4,2,16,80,0,0
28081,-76.9230769230769,4,2,16,80,0,0
33663,-66.6666666666667,4,2,16,80,0,1
34012,-50,4,2,16,80,0,1
35058,-66.6666666666667,4,2,16,80,0,1
36454,-50,4,2,16,80,0,1
36802,-40,4,2,16,80,0,1
37849,-30,4,2,16,80,0,1
39070,-66.6666666666667,4,2,16,80,0,1
39244,-66.6666666666667,4,2,16,80,0,1
39593,-50,4,2,16,80,0,1
40640,-66.6666666666667,4,2,16,80,0,1
42384,-40,4,2,16,80,0,1
43430,-30,4,2,16,80,0,1
44477,-200,4,2,16,80,0,1
44826,-200,4,2,15,80,0,0
45872,-133.333333333333,4,2,15,80,0,0
46570,-200,4,2,15,80,0,0
47616,-133.333333333333,4,2,15,80,0,0
47965,-200,4,2,15,80,0,0
49012,-133.333333333333,4,2,15,80,0,0
49361,-200,4,2,15,80,0,0
50407,-200,4,2,15,80,0,0
51802,-133.333333333333,4,2,15,80,0,0
52151,-200,4,2,15,80,0,0
53198,-133.333333333333,4,2,15,80,0,0
53547,-200,4,2,15,80,0,0
54593,-133.333333333333,4,2,15,80,0,0
54942,-200,4,2,15,80,0,0
55988,-133.333333333333,4,2,16,80,0,0
56250,-100,4,2,16,80,0,0
56512,-133.333333333333,4,2,16,80,0,0
57645,-100,4,2,16,80,0,0
57907,-133.333333333333,4,2,16,80,0,0
59041,-100,4,2,16,80,0,0
59302,-133.333333333333,4,2,16,80,0,0
60436,-100,4,2,16,80,0,0
60698,-133.333333333333,4,2,16,80,0,0
61047,-133.333333333333,4,2,17,80,0,0
61090,-133.333333333333,4,2,16,80,0,0
61395,-133.333333333333,4,2,17,80,0,0
61439,-133.333333333333,4,2,16,80,0,0
61570,-133.333333333333,4,2,17,80,0,0
61613,-133.333333333333,4,2,16,80,0,0
62965,-133.333333333333,4,2,17,80,0,0
63009,-133.333333333333,4,2,16,80,0,0
63663,-111.111111111111,4,2,16,80,0,0
64361,-111.111111111111,4,2,17,80,0,0
64404,-111.111111111111,4,2,16,80,0,0
65058,-111.111111111111,4,2,17,80,0,0
65102,-111.111111111111,4,2,16,80,0,0
65756,-40,4,2,15,80,0,1
66279,-30,4,2,15,80,0,1
67151,-66.6666666666667,4,2,16,80,0,0
72035,-83.3333333333333,4,2,16,80,0,0
72733,-100,4,2,16,80,0,0
73256,-125,4,2,16,80,0,0
73779,-111.111111111111,4,2,16,80,0,0
74128,-100,4,2,16,80,0,0
76744,-100,4,2,16,80,0,0
77093,-83.3333333333333,4,2,16,80,0,0
77442,-66.6666666666667,4,2,16,80,0,0
78314,-66.6666666666667,4,2,16,80,0,0
82675,-76.9230769230769,4,2,16,80,0,0
82849,-90.9090909090909,4,2,16,80,0,0
83023,-111.111111111111,4,2,16,80,0,0
83198,-142.857142857143,4,2,16,80,0,0
83372,-100,4,2,16,80,0,0
83547,-100,4,2,17,80,0,0
83590,-100,4,2,16,80,0,0
83721,-66.6666666666667,4,2,16,80,0,0
83895,-100,4,2,16,80,0,0
84768,-133.333333333333,4,2,16,80,0,0
84942,-100,4,2,16,80,0,0
86163,-133.333333333333,4,2,16,80,0,0
86337,-100,4,2,16,80,0,0
88081,-83.3333333333333,4,2,16,80,0,0
88430,-100,4,2,16,80,0,0
88954,-66.6666666666667,4,2,16,80,0,0
89477,-76.9230769230769,4,2,16,80,0,0
92268,-58.8235294117647,4,2,16,80,0,0
92616,-76.9230769230769,4,2,16,80,0,0
93663,-52.6315789473684,4,2,16,80,0,0
94012,-58.8235294117647,4,2,16,80,0,0
94361,-76.9230769230769,4,2,16,80,0,0
94709,-133.333333333333,4,2,16,80,0,0
95058,-76.9230769230769,4,2,16,80,0,0
99593,-58.8235294117647,4,2,16,80,0,0
100116,-66.6666666666667,4,2,16,80,0,0
100640,-66.6666666666667,4,2,16,80,0,1
100988,-50,4,2,16,80,0,1
102035,-66.6666666666667,4,2,16,80,0,1
103779,-40,4,2,16,80,0,1
104826,-30,4,2,16,80,0,1
106047,-66.6666666666667,4,2,16,80,0,1
106221,-66.6666666666667,4,2,16,80,0,1
106570,-50,4,2,16,80,0,1
107616,-66.6666666666667,4,2,16,80,0,1
109012,-66.6666666666667,4,2,16,80,0,1
109361,-40,4,2,16,80,0,1
110407,-30,4,2,16,80,0,1
111454,-200,4,2,16,80,0,1
111628,-620,4,2,16,80,0,0
112326,-620,4,2,15,80,0,0

[Colours]
Combo1 : 255,142,199
Combo2 : 138,175,193
Combo3 : 255,62,158
Combo4 : 45,208,139

[HitObjects]
272,136,11337,6,0,P|317:146|359:126,1,94.499997116089,0|0,0:0|3:0,0:0:0:0:
308,64,11686,1,0,0:0:0:0:
348,248,11861,1,0,0:0:0:0:
160,256,12035,2,0,L|124:204,1,62.9999980773926,0|0,0:0|3:0,0:0:0:0:
384,320,12384,2,0,P|338:330|296:310,1,94.499997116089,0|0,0:0|3:0,0:0:0:0:
268,232,12733,5,0,0:0:0:0:
432,40,12907,1,0,0:0:0:0:
460,80,12994,1,0,0:0:0:0:
468,128,13081,1,0,0:0:0:0:
384,320,13256,1,0,0:0:0:0:
176,308,13430,5,0,0:0:0:0:
296,310,13605,1,0,0:0:0:0:
396,176,13779,1,0,0:0:0:0:
284,8,13954,1,0,0:0:0:0:
56,84,14128,6,0,P|84:100|120:100,1,62.9999980773926,2|0,3:2|0:2,0:0:0:0:
356,51,14477,2,0,P|336:75|308:88,1,62.9999980773926,2|0,3:2|0:2,0:0:0:0:
0,208,14826,70,0,P|31:216|65:206,1,62.9999980773926,2|0,3:2|0:2,0:0:0:0:
452,152,15175,2,0,P|426:170|395:175,1,62.9999980773926,2|0,3:2|0:2,0:0:0:0:
48,324,15523,6,0,P|120:316|156:260,1,118.125004506111,2|0,3:2|3:0,0:0:0:0:
144,200,15872,1,0,0:0:0:0:
64,12,16047,5,0,0:0:0:0:
48,120,16221,1,0,0:0:0:0:
148,284,16395,1,2,3:2:0:0:
264,224,16570,1,0,0:0:0:0:
356,280,16744,1,0,0:0:0:0:
384,356,16919,6,0,P|424:380|480:360,1,94.499997116089,4|0,0:1|3:0,0:0:0:0:
512,304,17268,5,0,0:0:0:0:
384,356,17442,1,2,0:0:0:0:
292,340,17616,1,0,0:0:0:0:
232,264,17791,1,0,0:0:0:0:
252,136,17965,1,0,0:0:0:0:
144,44,18140,1,2,0:0:0:0:
0,120,18314,6,0,P|-9:166|17:204,1,94.499997116089,0|0,0:0|3:0,0:0:0:0:
80,248,18663,5,0,0:0:0:0:
168,200,18837,1,0,0:0:0:0:
148,72,19012,1,0,0:0:0:0:
20,36,19186,1,0,0:0:0:0:
16,203,19361,1,0,0:0:0:0:
176,292,19535,1,0,0:0:0:0:
364,192,19709,70,0,B|436:212|428:172|496:188,1,125.999996154785,0|0,1:0|3:0,0:0:0:0:
304,116,20233,1,2,0:0:0:0:
392,96,20407,2,0,P|453:105|500:67,1,125.999996154785,0|0,1:0|3:0,0:0:0:0:
224,160,20930,1,2,0:0:0:0:
124,24,21105,6,0,P|98:6|67:1,1,62.9999980773926,0|2,1:0|2:0,0:0:0:0:
200,280,21454,6,0,P|193:318|215:362,1,84,0|2,1:0|3:2,0:0:0:0:
392,96,21802,69,0,1:0:0:0:
216,8,21977,1,0,1:0:0:0:
168,0,22064,1,0,1:0:0:0:
124,24,22151,1,0,1:0:0:0:
72,208,22326,1,0,1:0:0:0:
211,358,22500,6,0,P|228:294|286:261,1,136.499993751526,6|2,2:1|0:0,0:0:0:0:
448,274,22761,1,0,0:0:0:0:
369,250,22849,6,0,P|352:221|347:188,1,68.2499968757631,10|0,1:0|3:0,0:0:0:0:
458,0,23023,2,0,P|454:33|438:62,1,68.2499968757631,2|0,0:0|3:0,0:0:0:0:
298,125,23198,6,0,B|264:104|228:124|236:136|208:160|172:141,1,136.499993751526,2|10,2:1|0:0,0:0:0:0:
26,81,23459,1,8,0:0:0:0:
108,76,23547,70,0,P|102:109|85:138,1,68.2499968757631,10|0,1:0|3:0,0:0:0:0:
28,352,23721,2,0,P|11:322|7:288,1,68.2499968757631,2|0,0:0|3:0,0:0:0:0:
8,176,23895,6,0,P|58:219|125:213,1,136.499993751526,4|2,2:3|0:0,0:0:0:0:
172,141,24157,1,0,0:0:0:0:
179,276,24244,6,0,P|169:308|174:341,1,68.2499968757631,8|0,1:0|3:0,0:0:0:0:
271,155,24418,2,0,P|255:126|249:93,1,68.2499968757631,2|0,0:0|3:0,0:0:0:0:
404,220,24593,6,0,B|364:248|324:216|324:216|344:196|372:200,1,136.499993751526,2|8,0:1|0:0,0:0:0:0:
428,144,24854,1,8,0:0:0:0:
470,265,24942,2,0,P|482:297|477:330,1,68.2499968757631,8|0,1:2|3:0,0:0:0:0:
242,213,25116,2,0,P|248:179|271:155,1,68.2499968757631,2|0,2:1|3:0,0:0:0:0:
360,20,25291,70,0,P|336:64|376:32,1,136.499993751526,2|2,0:1|0:0,0:0:0:0:
248,8,25552,1,0,0:0:0:0:
249,92,25640,6,0,P|266:121|305:144,1,68.2499968757631,10|0,1:0|3:0,0:0:0:0:
431,167,25814,2,0,P|464:159|497:129,1,68.2499968757631,2|0,0:0|3:0,0:0:0:0:
332,272,25988,6,0,P|349:242|349:197,1,68.2499968757631,2|0,0:1|3:0,0:0:0:0:
249,92,26163,1,8,0:0:0:0:
197,160,26250,1,8,0:0:0:0:
181,244,26337,2,0,P|183:277|200:307,1,68.2499968757631,10|0,1:0|3:0,0:0:0:0:
420,372,26512,2,0,P|447:352|464:323,1,68.2499968757631,10|0,0:0|3:0,0:0:0:0:
331,272,26686,70,0,P|298:268|269:250,1,68.2499968757631,2|0,1:0|3:0,0:0:0:0:
101,272,26861,2,0,P|72:290|38:293,1,68.2499968757631,8|8,2:0|3:2,0:0:0:0:
269,250,27035,102,0,P|255:219|256:185,1,68.2499968757631,10|0,1:0|3:0,0:0:0:0:
114,208,27209,2,0,P|115:241|101:272,1,68.2499968757631,8|8,0:2|3:2,0:0:0:0:
256,185,27384,6,0,P|275:157|305:141,1,68.2499968757631,2|0,1:0|3:0,0:0:0:0:
66,164,27558,2,0,P|95:179|114:207,1,68.2499968757631,0|0,1:0|3:0,0:0:0:0:
208,344,27733,2,0,P|189:315|187:281,1,68.2499968757631,8|0,1:1|1:1,0:0:0:0:
216,32,27907,6,0,L|220:0,1,26.25,0|0,1:1|3:0,0:0:0:0:
300,20,28081,22,0,P|283:84|225:117,1,136.499993751526,6|2,2:1|0:0,0:0:0:0:
63,104,28342,1,0,0:0:0:0:
142,128,28430,6,0,P|159:157|164:190,1,68.2499968757631,10|0,1:0|3:0,0:0:0:0:
53,379,28604,2,0,P|57:346|73:317,1,68.2499968757631,2|0,0:0|3:0,0:0:0:0:
205,259,28779,6,0,B|239:280|275:260|267:248|295:224|331:243,1,136.499993751526,2|10,2:1|0:0,0:0:0:0:
477,303,29040,1,8,0:0:0:0:
395,308,29128,6,0,P|401:275|418:246,1,68.2499968757631,10|0,1:0|3:0,0:0:0:0:
475,32,29302,2,0,P|492:62|496:96,1,68.2499968757631,2|0,0:0|3:0,0:0:0:0:
495,208,29476,70,0,P|445:165|378:171,1,136.499993751526,4|2,2:3|0:0,0:0:0:0:
331,243,29738,1,0,0:0:0:0:
323,108,29825,6,0,P|333:76|328:42,1,68.2499968757631,8|0,1:0|3:0,0:0:0:0:
231,228,29999,2,0,P|247:257|253:291,1,68.2499968757631,2|0,0:0|3:0,0:0:0:0:
134,184,30174,6,0,B|159:188|179:168|179:168|139:136|99:164,1,136.499993751526,2|8,0:1|0:0,0:0:0:0:
75,240,30435,1,8,0:0:0:0:
231,228,30523,2,0,P|254:204|261:171,1,68.2499968757631,8|0,1:1|3:0,0:0:0:0:
25,54,30697,2,0,P|20:87|32:118,1,68.2499968757631,2|0,2:1|3:0,0:0:0:0:
184,48,30872,6,0,P|142:20|165:64,1,136.499993751526,10|2,1:0|0:0,0:0:0:0:
264,8,31134,1,0,0:0:0:0:
260,92,31221,70,0,P|243:121|204:144,1,68.2499968757631,0|0,0:1|3:0,0:0:0:0:
81,167,31395,2,0,P|48:159|15:129,1,68.2499968757631,2|0,0:0|3:0,0:0:0:0:
181,272,31570,6,0,P|164:242|164:197,1,68.2499968757631,10|0,1:1|3:0,0:0:0:0:
260,92,31744,1,10,0:0:0:0:
312,160,31831,1,8,0:0:0:0:
328,244,31919,2,0,P|326:277|309:307,1,68.2499968757631,0|0,2:0|3:0,0:0:0:0:
92,372,32093,2,0,P|65:352|48:323,1,68.2499968757631,10|0,0:0|3:0,0:0:0:0:
181,272,32268,70,0,P|214:268|243:250,1,68.2499968757631,10|0,1:1|3:0,0:0:0:0:
412,272,32442,2,0,P|441:290|475:293,1,68.2499968757631,8|8,0:2|0:0,0:0:0:0:
243,249,32616,6,0,P|257:218|256:184,1,68.2499968757631,10|0,1:1|3:0,0:0:0:0:
399,208,32791,2,0,P|398:241|412:272,1,68.2499968757631,8|8,0:2|1:2,0:0:0:0:
256,184,32965,6,0,P|237:156|207:140,1,68.2499968757631,10|0,1:1|3:0,0:0:0:0:
448,164,33140,2,0,P|419:179|400:207,1,68.2499968757631,8|8,1:2|1:2,0:0:0:0:
320,360,33314,5,8,1:1:0:0:
320,360,33401,1,0,1:0:0:0:
320,360,33488,2,0,L|324:292,1,68.2499968757631,0|0,1:0|3:0,0:0:0:0:
249,53,33663,6,0,B|237:57|209:37|233:-3|293:17|265:77|265:77|237:105|233:149|256:184,1,236.250009012223,6|2,0:1|0:0,0:0:0:0:
312,256,34012,6,0,B|327:282|357:268|357:268|360:236|330:230,1,105,10|0,1:0|3:0,0:0:0:0:
340,159,34186,2,0,B|370:152|366:120|366:120|337:107|321:133,1,105,2|0,0:0|3:0,0:0:0:0:
177,163,34361,2,0,B|149:151|133:179|133:179|149:207|177:195,1,105,2|0,0:1|3:0,0:0:0:0:
255,183,34535,1,10,0:0:0:0:
255,183,34622,1,8,0:0:0:0:
211,258,34709,2,0,B|191:281|213:305|213:305|244:298|241:268,1,105,10|0,1:0|3:0,0:0:0:0:
258,102,34884,2,0,B|261:72|229:65|229:65|208:89|228:112,1,105,10|0,0:0|3:0,0:0:0:0:
499,136,35058,6,0,B|452:161|452:213|452:213|420:257|368:261|330:229,1,236.250009012223,4|2,0:3|0:0,0:0:0:0:
262,282,35407,6,0,B|250:302|254:322|254:322|274:318|287:301,1,78.7500030040742,10|0,1:0|3:0,0:0:0:0:
358,311,35581,2,0,B|373:328|393:330|393:330|395:310|384:293,1,78.7500030040742,8|0,0:0|3:0,0:0:0:0:
354,148,35756,2,0,B|351:124|336:110|336:110|323:125|321:142,1,78.7500030040742,2|0,0:1|3:0,0:0:0:0:
260,181,35930,1,10,0:0:0:0:
260,181,36018,1,8,0:0:0:0:
260,181,36105,2,0,B|237:175|219:185|219:185|229:203|249:211,1,78.7500030040742,10|0,1:1|3:0,0:0:0:0:
415,228,36279,2,0,B|436:218|444:200|444:200|426:191|405:197,1,78.7500030040742,10|0,0:0|3:0,0:0:0:0:
168,304,36454,70,0,B|108:335|108:335|76:295|104:231|148:219,1,210,2|2,0:1|0:0,0:0:0:0:
180,140,36715,1,0,0:0:0:0:
180,140,36802,70,0,B|198:107|163:83|163:83|126:99|139:136,1,131.25,10|0,1:0|3:0,0:0:0:0:
167,304,36977,2,0,B|170:341|213:340|213:340|233:305|201:283,1,131.25,8|0,0:0|3:0,0:0:0:0:
82,165,37151,2,0,B|56:136|22:163|22:163|27:202|63:201,1,131.25,2|0,0:1|3:0,0:0:0:0:
147,219,37326,1,10,0:0:0:0:
147,219,37413,1,8,0:0:0:0:
233,227,37500,2,0,B|270:234|281:193|281:193|255:164|224:187,1,131.25,10|0,1:1|3:0,0:0:0:0:
74,264,37675,2,0,B|39:279|53:319|53:319|93:327|104:290,1,131.25,10|0,0:0|3:0,0:0:0:0:
180,140,37849,22,0,B|208:98|164:66|164:66|112:90|140:138,1,175,2|0,0:1|3:0,0:0:0:0:
201,283,38023,22,0,B|222:328|272:306|272:306|277:249|222:249,1,175,8|8,0:1|0:1,0:0:0:0:
56,228,38198,22,0,B|5:224|-1:278|-1:278|46:311|74:263,1,175,10|0,1:0|3:0,0:0:0:0:
233,207,38372,22,0,B|283:210|289:156|289:156|242:123|214:171,1,175,8|8,0:1|0:1,0:0:0:0:
116,300,38547,22,0,B|87:341|131:373|131:373|183:349|155:301,1,175,10|0,1:0|3:0,2:0:0:0:
94,152,38721,22,0,B|72:106|22:128|22:128|17:185|72:185,1,175,8|0,1:0|3:0,2:0:0:0:
160,104,38895,5,8,1:0:0:0:
160,104,38983,1,8,1:0:0:0:
160,104,39070,2,0,B|167:83|164:64|164:64|176:48|172:27,1,78.7500030040742,10|0,0:1|3:0,0:0:0:0:
335,73,39244,86,0,B|268:76|239:132|239:132|219:196|263:240,1,236.250009012223,6|2,1:0|0:0,0:0:0:0:
315,172,39593,6,0,B|330:146|360:160|360:160|363:192|333:198,1,105,10|0,1:0|3:0,0:0:0:0:
343,269,39768,2,0,B|373:276|369:308|369:308|340:321|324:295,1,105,8|0,0:0|3:0,0:0:0:0:
180,265,39942,2,0,B|152:277|136:249|136:249|152:221|180:233,1,105,2|0,0:1|3:0,0:0:0:0:
263,240,40116,1,10,0:0:0:0:
263,240,40204,1,8,0:0:0:0:
214,170,40291,2,0,B|194:147|216:123|216:123|247:130|244:160,1,105,10|0,1:0|3:0,0:0:0:0:
261,326,40465,2,0,B|264:356|232:363|232:363|211:339|231:316,1,105,10|0,0:0|3:0,0:0:0:0:
466,347,40640,6,0,L|434:91,1,236.250009012223,4|0,0:3|0:0,0:0:0:0:
454,40,40989,6,0,B|455:81|455:81|451:101|437:112,1,78.7500030040742,10|0,1:1|3:0,0:0:0:0:
306,24,41164,2,0,B|346:35|346:35|364:45|370:63,1,78.7500030040742,2|0,0:0|3:0,0:0:0:0:
358,256,41338,2,0,B|333:222|333:222|325:204|330:186,1,78.7500030040742,2|0,0:1|3:0,0:0:0:0:
486,184,41512,1,10,0:0:0:0:
486,184,41600,1,8,0:0:0:0:
486,184,41687,2,0,B|447:197|447:197|427:200|412:189,1,78.7500030040742,10|0,1:1|3:0,0:0:0:0:
246,156,41861,2,0,B|270:121|270:121|285:107|304:107,1,78.7500030040742,10|0,0:2|3:0,0:0:0:0:
476,332,42035,70,0,B|409:339|377:287|377:287|341:227|277:235,1,236.250009012223,2|8,1:0|0:0,0:0:0:0:
193,243,42384,70,0,B|211:276|176:300|176:300|139:284|152:247,1,131.25,8|0,1:0|3:0,0:0:0:0:
180,79,42558,2,0,B|183:42|226:43|226:43|246:78|214:100,1,131.25,8|0,0:0|3:0,0:0:0:0:
95,218,42733,2,0,B|69:247|35:220|35:220|40:181|76:181,1,131.25,2|8,1:1|0:2,0:0:0:0:
160,166,42907,1,8,0:1:0:0:
160,166,42994,1,8,0:1:0:0:
246,156,43081,2,0,B|283:149|294:190|294:190|268:219|237:196,1,131.25,10|0,1:0|3:0,0:0:0:0:
87,119,43256,2,0,B|52:104|66:64|66:64|106:56|117:93,1,131.25,8|8,0:1|3:2,0:0:0:0:
193,243,43430,22,0,B|221:285|177:317|177:317|125:293|153:245,1,175,10|0,1:1|3:0,0:0:0:0:
214,100,43605,22,0,B|235:55|285:77|285:77|290:134|235:134,1,175,0|0,1:0|3:0,0:0:0:0:
69,155,43779,22,0,B|18:159|12:105|12:105|59:72|87:120,1,175,10|8,1:0|1:2,0:0:0:0:
246,176,43954,22,0,B|296:173|302:227|302:227|255:260|227:212,1,175,8|8,1:0|1:0,0:0:0:0:
129,83,44128,22,0,B|100:42|144:10|144:10|196:34|168:82,1,175,8|8,1:0|1:0,2:0:0:0:
107,231,44302,22,0,B|85:277|35:255|35:255|30:198|85:198,1,175,8|8,1:0|1:0,2:0:0:0:
160,166,44477,38,0,L|144:160,7,13.125,0|0|0|0|0|0|0|0,1:0|1:0|1:0|1:0|1:0|1:0|1:0|1:0,0:0:0:0:
179,167,44826,6,0,B|192:180|216:184|216:184|232:168|236:152,1,78.75,2|0,0:3|3:0,0:0:0:0:
308,124,45175,2,0,B|312:106|304:83|304:83|282:77|266:82,1,78.75,4|0,0:0|3:0,0:0:0:0:
204,32,45523,2,0,B|186:36|170:55|170:55|176:77|188:88,1,78.75,4|0,0:0|3:0,0:0:0:0:
236,153,45872,5,2,3:2:0:0:
192,260,46047,1,0,0:0:0:0:
48,304,46221,6,0,P|32:304|0:288,1,39.3750015020371,4|0,0:0|3:0,0:0:0:0:
64,264,46395,2,0,P|51:279|35:289,1,39.3750015020371,2|0,3:2|3:0,0:0:0:0:
64,192,46570,22,0,P|62:230|43:264,1,78.75,0|0,0:0|3:0,0:0:0:0:
0,152,46919,2,0,P|33:172|52:206,1,78.75,2|0,0:2|3:0,0:0:0:0:
10,295,47268,5,0,0:2:0:0:
0,152,47442,1,2,3:2:0:0:
96,20,47616,70,0,P|112:20|144:36,1,39.3750015020371,2|0,0:3|3:0,0:0:0:0:
80,60,47790,2,0,P|93:45|109:35,1,39.3750015020371,2|0,3:2|3:0,0:0:0:0:
80,132,47965,22,0,P|82:94|101:60,1,78.75,0|0,0:0|3:0,0:0:0:0:
144,172,48314,2,0,P|111:152|92:118,1,78.75,2|0,0:2|3:0,0:0:0:0:
154,29,48663,5,0,0:2:0:0:
144,172,48837,1,2,3:2:0:0:
268,276,49012,70,0,P|252:276|220:260,1,39.3750015020371,4|0,0:0|3:0,0:0:0:0:
379,296,49186,2,0,P|362:304|343:307,1,39.3750015020371,2|0,3:2|3:0,0:0:0:0:
456,176,49361,22,0,B|460:194|452:217|452:217|430:223|414:218,1,78.75,0|0,0:0|3:0,0:0:0:0:
333,224,49709,2,0,L|317:164,1,52.5,2|0,0:2|3:2,0:0:0:0:
203,267,50058,5,0,0:2:0:0:
307,359,50233,1,2,3:2:0:0:
333,224,50407,38,0,B|320:211|296:207|296:207|280:223|276:239,1,78.75,4|0,0:0|3:0,0:0:0:0:
203,267,50756,2,0,B|199:285|207:308|207:308|229:314|245:309,1,78.75,0|0,0:0|3:0,0:0:0:0:
307,359,51104,2,0,B|325:355|341:336|341:336|335:314|323:303,1,78.75,2|0,0:2|3:0,0:0:0:0:
276,238,51453,5,0,0:2:0:0:
319,131,51628,1,2,3:2:0:0:
448,40,51802,70,0,P|464:40|496:56,1,39.3750015020371,4|0,0:0|3:0,0:0:0:0:
405,57,51976,2,0,P|418:42|434:32,1,39.3750015020371,2|0,3:2|3:0,0:0:0:0:
453,117,52151,22,0,B|434:120|413:114|413:114|401:94|399:76,1,78.75,0|0,0:0|3:0,0:0:0:0:
500,56,52500,2,0,B|507:73|504:95|504:95|486:110|469:115,1,78.75,2|0,0:2|3:0,0:0:0:0:
399,78,52849,5,0,0:2:0:0:
452,200,53023,1,2,3:2:0:0:
364,344,53198,70,0,P|348:344|316:328,1,39.3750015020371,2|0,0:3|3:0,0:0:0:0:
407,327,53372,2,0,P|394:342|378:352,1,39.3750015020371,2|0,3:2|3:0,0:0:0:0:
359,267,53547,22,0,B|378:264|399:270|399:270|411:290|413:308,1,78.75,0|0,0:0|3:0,0:0:0:0:
312,328,53896,2,0,B|305:311|308:289|308:289|326:274|343:269,1,78.75,2|0,0:2|3:0,0:0:0:0:
413,306,54244,5,0,0:2:0:0:
256,384,54418,1,2,3:2:0:0:
88,348,54593,70,0,P|72:348|40:332,1,39.3750015020371,4|0,0:0|3:0,0:0:0:0:
208,312,54767,2,0,P|193:323|175:331,1,39.3750015020371,2|0,3:2|3:0,0:0:0:0:
117,267,54942,22,0,B|98:270|77:264|77:264|65:244|63:226,1,78.75,0|0,0:0|3:0,0:0:0:0:
146,208,55291,2,0,B|153:225|150:247|150:247|132:262|115:267,1,78.75,2|0,0:2|3:0,0:0:0:0:
64,229,55639,5,0,0:2:0:0:
208,312,55814,1,2,3:2:0:0:
436,282,55988,85,12,0:0:0:0:
88,140,56163,1,0,0:0:0:0:
208,108,56250,6,0,P|176:81|181:122,1,105,8|0,0:0|3:0,0:0:0:0:
300,16,56512,1,0,0:0:0:0:
116,8,56686,37,0,0:0:0:0:
204,112,56861,1,0,0:0:0:0:
92,144,57035,1,0,0:0:0:0:
168,232,57209,1,0,0:0:0:0:
136,312,57384,85,4,0:0:0:0:
476,208,57559,1,0,0:0:0:0:
348,132,57645,38,0,B|420:101|463:140|401:179|415:109,1,105,8|0,0:0|3:0,0:0:0:0:
480,72,57908,1,0,0:0:0:0:
268,48,58081,69,0,0:0:0:0:
258,76,58169,1,8,0:0:0:0:
344,128,58256,69,8,0:0:0:0:
336,92,58344,1,8,0:0:0:0:
268,156,58430,69,0,0:0:0:0:
256,200,58518,1,8,0:0:0:0:
348,264,58605,69,8,0:0:0:0:
333,204,58693,1,8,0:0:0:0:
268,280,58779,5,10,0:3:0:0:
64,148,58954,1,0,0:0:0:0:
140,256,59041,38,0,B|158:246|144:216|108:228|118:282|64:268,1,105,8|0,0:0|3:0,0:0:0:0:
12,212,59303,1,0,0:0:0:0:
156,80,59477,37,8,0:0:0:0:
144,260,59652,1,0,0:0:0:0:
244,300,59826,1,0,0:0:0:0:
288,368,60000,1,0,0:0:0:0:
400,376,60175,85,4,0:0:0:0:
372,76,60350,1,0,0:0:0:0:
344,173,60436,38,0,B|368:188|396:172|392:168|420:152|444:172,1,105,8|0,0:0|3:0,0:0:0:0:
372,80,60699,1,0,0:0:0:0:
360,252,60872,69,0,0:0:0:0:
280,252,60960,1,8,0:0:0:0:
256,220,61047,69,2,0:1:0:0:
304,152,61135,1,8,0:0:0:0:
344,168,61221,69,0,0:0:0:0:
356,256,61309,1,8,0:0:0:0:
320,332,61396,69,2,0:1:0:0:
280,340,61484,1,8,0:0:0:0:
204,300,61570,6,0,P|182:265|176:208,2,78.7500030040742,2|0|0,0:1|0:0|0:0,0:0:0:0:
320,332,62093,1,2,0:0:0:0:
488,272,62268,2,0,P|508:220|504:112,1,157.500006008148,8|0,0:1|3:0,0:0:0:0:
260,224,62791,1,0,0:0:0:0:
72,64,62965,22,0,P|33:72|0:93,2,78.7500030040742,6|0|0,0:1|0:0|0:0,0:0:0:0:
176,120,63488,1,2,0:0:0:0:
392,44,63663,2,0,P|323:25|253:26,1,141.749995674133,8|0,0:1|3:0,0:0:0:0:
172,124,64012,21,8,0:0:0:0:
192,164,64099,1,8,0:0:0:0:
160,236,64186,1,0,0:0:0:0:
140,248,64273,1,8,0:0:0:0:
120,236,64361,21,6,0:1:0:0:
392,236,64709,1,8,0:1:0:0:
204,320,64884,21,2,0:0:0:0:
216,296,64971,1,2,0:0:0:0:
296,296,65058,1,2,0:1:0:0:
308,320,65145,1,0,0:0:0:0:
256,96,65407,1,8,0:1:0:0:
100,296,65581,1,0,0:0:0:0:
100,296,65669,1,0,0:0:0:0:
100,296,65756,38,0,B|92:316|76:328|100:332|108:352|108:352|125:334|150:332|132:320|128:298,1,131.25,0|0,1:0|3:0,0:0:0:0:
79,153,65930,2,0,B|68:140|63:119|48:136|25:135|25:135|32:156|22:178|44:172|63:178,1,131.25,0|0,1:0|3:0,0:0:0:0:
224,208,66105,2,0,B|240:204|261:211|256:188|265:170|265:170|244:164|230:145|224:168|209:181,1,131.25,2|0,1:2|3:0,0:0:0:0:
48,228,66279,22,0,B|24:236|-2:225|4:256|-8:279|-8:279|20:288|39:312|44:280|67:264,1,175,0|0,1:0|3:0,0:0:0:0:
165,135,66454,2,0,B|174:110|194:94|164:88|148:60|148:60|128:84|98:86|120:108|125:131,1,175,2|0,1:2|3:0,2:0:0:0:
187,283,66628,2,0,B|208:300|209:329|232:308|259:307|259:307|252:280|264:250|236:260|209:250,1,175,0|0,1:0|3:0,2:0:0:0:
137,215,66802,37,2,1:2:0:0:
137,215,66890,1,0,1:0:0:0:
137,215,66977,1,2,1:2:0:0:
420,180,67151,38,0,B|457:204|486:165|486:165|464:118|421:143,1,157.500006008148,6|0,1:0|3:0,0:0:0:0:
296,210,67413,2,0,B|255:230|275:274|275:274|326:279|326:229,1,157.500006008148,2|0,0:0|3:0,0:0:0:0:
332,92,67675,2,0,B|334:47|286:41|286:41|256:83|299:109,1,157.500006008148,2|2,0:0|0:1,0:0:0:0:
400,328,68023,37,8,0:0:0:0:
416,312,68111,1,8,0:0:0:0:
420,288,68198,1,8,1:0:0:0:
299,108,68372,1,2,0:0:0:0:
92,180,68547,38,0,B|54:204|25:165|25:165|47:118|90:143,1,157.500006008148,4|0,0:3|3:0,0:0:0:0:
216,210,68808,2,0,B|256:230|236:274|236:274|185:279|185:229,1,157.500006008148,2|0,0:0|3:0,0:0:0:0:
180,92,69070,2,0,B|177:47|225:41|225:41|255:83|212:109,1,157.500006008148,2|2,0:0|0:1,0:0:0:0:
112,376,69419,5,8,0:0:0:0:
88,336,69506,1,8,0:0:0:0:
92,288,69593,1,8,1:0:0:0:
213,109,69768,1,2,0:0:0:0:
420,180,69942,21,2,0:1:0:0:
268,340,70116,5,2,0:0:0:0:
228,328,70204,1,0,0:0:0:0:
257,302,70291,1,8,1:0:0:0:
379,142,70465,5,2,0:2:0:0:
420,180,70552,1,0,0:0:0:0:
369,196,70640,1,2,0:1:0:0:
145,87,70814,5,0,0:0:0:0:
197,39,70901,1,0,0:0:0:0:
212,108,70988,1,8,1:0:0:0:
187,316,71163,5,0,0:0:0:0:
112,340,71250,1,2,0:0:0:0:
133,264,71337,70,0,P|167:282|187:316,1,78.7500030040742,2|0,0:1|3:0,0:0:0:0:
397,189,71512,1,10,0:0:0:0:
397,189,71599,1,0,1:0:0:0:
397,189,71686,2,0,P|378:223|380:262,1,78.7500030040742,8|0,1:0|3:0,0:0:0:0:
183,70,71861,2,0,P|221:70|254:48,1,78.7500030040742,14|0,0:0|3:0,0:0:0:0:
313,288,72035,22,0,P|280:288|257:305,1,62.9999980773926,2|0,1:1|3:0,0:0:0:0:
310,93,72209,2,0,P|325:120|353:134,1,62.9999980773926,8|0,1:0|3:0,0:0:0:0:
143,193,72384,1,8,1:0:0:0:
143,193,72471,1,8,1:0:0:0:
143,193,72558,2,0,P|159:167|157:136,1,62.9999980773926,6|0,1:2|3:0,0:0:0:0:
0,8,72733,5,6,1:0:0:0:
152,132,72907,1,2,0:0:0:0:
180,64,72994,1,2,0:0:0:0:
107,73,73081,1,8,1:0:0:0:
348,140,73256,22,0,P|441:139|529:104,1,168,2|0,0:0|3:0,0:0:0:0:
144,280,73779,2,0,P|93:293|41:288,1,94.499997116089,8|0,1:1|0:0,0:0:0:0:
316,360,74128,2,0,P|287:302|276:244,1,105,4|2,3:0|0:2,0:0:0:0:
288,188,74390,1,2,0:0:0:0:
348,140,74477,1,8,1:0:0:0:
392,368,74651,1,10,0:0:0:0:
176,356,74826,22,0,P|152:344|132:320,1,52.5,2|0,0:1|3:0,0:0:0:0:
142,192,75000,2,0,P|150:176|186:156,1,52.5,10|0,0:0|3:0,0:0:0:0:
320,240,75175,2,0,P|320:272|295:286,1,52.5,8|0,1:0|3:0,0:0:0:0:
80,248,75349,2,0,P|64:220|60:156,1,52.5,2|0,0:0|3:0,0:0:0:0:
164,20,75523,22,0,P|196:24|204:64,1,52.5,10|0,1:1|3:0,0:0:0:0:
242,238,75698,5,8,0:0:0:0:
222,156,75785,1,8,0:0:0:0:
302,180,75872,1,8,0:0:0:0:
153,357,76047,6,0,P|140:327|171:301,1,52.5,8|0,1:1|3:0,0:0:0:0:
450,197,76221,1,8,0:0:0:0:
209,202,76395,5,8,0:0:0:0:
270,144,76482,1,8,0:0:0:0:
289,225,76569,1,8,1:0:0:0:
450,197,76744,22,0,P|431:215|406:224,1,52.5,2|0,1:2|3:0,0:0:0:0:
480,124,76919,1,10,1:0:0:0:
424,264,77093,22,0,P|393:271|362:266,1,62.9999980773926,2|0,1:2|3:0,0:0:0:0:
456,84,77268,1,8,1:1:0:0:
380,352,77442,22,0,P|340:347|308:328,1,78.7500030040742,2|0,1:2|3:0,0:0:0:0:
384,48,77616,1,8,1:0:0:0:
252,384,77791,21,2,1:2:0:0:
180,356,77878,1,0,1:0:0:0:
126,297,77965,1,0,1:0:0:0:
192,256,78052,1,0,1:0:0:0:
272,260,78140,1,2,1:2:0:0:
92,196,78314,22,0,B|55:172|53:201|21:209|21:209|49:225|48:258|91:233,1,157.500006008148,6|0,1:0|3:0,0:0:0:0:
213,169,78576,2,0,B|252:148|228:132|237:101|237:101|209:117|181:99|181:149,1,157.500006008148,2|0,0:0|3:0,0:0:0:0:
176,283,78837,2,0,B|173:327|199:314|222:337|222:337|222:305|251:290|208:265,1,157.500006008148,2|2,0:0|0:1,0:0:0:0:
88,48,79186,37,8,0:0:0:0:
84,72,79273,1,8,0:0:0:0:
92,96,79361,1,8,1:0:0:0:
211,267,79535,1,2,0:0:0:0:
420,196,79709,38,0,B|457:172|459:201|491:209|491:209|463:225|464:258|421:233,1,157.500006008148,4|0,0:3|3:0,0:0:0:0:
299,169,79971,2,0,B|259:148|283:132|274:101|274:101|302:117|330:99|330:149,1,157.500006008148,2|0,0:0|3:0,0:0:0:0:
336,283,80232,2,0,B|338:327|312:314|289:337|289:337|289:305|260:290|303:265,1,157.500006008148,2|2,0:0|0:1,0:0:0:0:
400,8,80581,5,8,0:0:0:0:
424,48,80669,1,8,0:0:0:0:
420,96,80756,1,8,1:0:0:0:
299,267,80930,1,10,0:0:0:0:
92,204,81105,21,2,0:1:0:0:
249,44,81279,1,0,0:0:0:0:
296,36,81366,1,0,0:0:0:0:
332,68,81454,1,8,1:0:0:0:
380,296,81628,1,2,0:0:0:0:
116,284,81802,69,2,0:1:0:0:
170,223,81890,1,8,0:0:0:0:
246,215,81977,1,0,0:0:0:0:
305,266,82064,1,8,0:0:0:0:
313,342,82151,1,8,1:0:0:0:
325,68,82326,85,2,0:0:0:0:
325,68,82413,1,8,0:0:0:0:
325,68,82500,2,0,P|345:102|380:120,1,78.7500030040742,4|0,2:1|3:0,0:0:0:0:
328,314,82675,86,0,P|296:314|267:332,1,68.2499968757631,0|0,0:0|3:0,0:0:0:0:
114,194,82849,22,0,P|128:170|127:141,1,57.7500017623902,8|0,0:0|3:0,0:0:0:0:
368,191,83023,86,0,P|356:210|358:233,1,47.2499985580445,0|0,0:0|3:0,0:0:0:0:
202,291,83198,86,0,P|193:275|177:267,1,36.749998878479,0|0,0:0|3:0,0:0:0:0:
198,96,83372,21,0,0:1:0:0:
198,96,83459,1,0,0:1:0:0:
198,96,83547,2,0,P|224:96|246:82,1,52.5,4|0,0:2|3:0,0:0:0:0:
72,4,83721,22,0,P|89:38|123:57,1,78.7500030040742,0|0,0:1|3:0,0:0:0:0:
288,4,83895,37,6,1:0:0:0:
56,112,84070,1,2,0:0:0:0:
126,140,84157,1,10,0:0:0:0:
126,140,84244,2,0,P|99:141|75:131,1,52.5,8|0,1:0|3:0,0:0:0:0:
200,12,84419,1,2,0:0:0:0:
200,180,84593,21,2,0:1:0:0:
280,336,84768,2,0,P|264:336|228:328,1,39.3750015020371,8|8,0:0|0:0,0:0:0:0:
288,324,84942,2,0,P|314:324|338:314,1,52.5,8|0,1:0|3:0,0:0:0:0:
448,180,85116,1,2,0:0:0:0:
380,24,85291,21,4,0:3:0:0:
424,292,85465,1,2,0:0:0:0:
500,280,85552,1,8,0:0:0:0:
500,280,85640,2,0,P|473:280|449:270,1,52.5,8|0,1:0|3:0,0:0:0:0:
256,52,85814,1,2,0:0:0:0:
256,236,85988,21,2,0:1:0:0:
52,288,86163,2,0,P|28:286|2:269,1,39.3750015020371,8|8,0:0|0:0,0:0:0:0:
64,276,86337,2,0,P|90:276|114:266,1,52.5,8|0,1:0|3:0,0:0:0:0:
256,60,86512,1,2,0:0:0:0:
200,360,86686,38,0,P|188:340|188:284,1,52.5,4|0,1:3|3:0,0:0:0:0:
292,164,86861,1,8,0:0:0:0:
262,237,86948,1,8,0:0:0:0:
213,174,87035,1,0,0:0:0:0:
308,0,87209,1,0,0:0:0:0:
429,156,87384,22,0,P|418:176|369:204,1,52.5,4|0,1:3|3:0,0:0:0:0:
206,171,87558,1,8,0:0:0:0:
297,159,87645,1,8,0:0:0:0:
262,245,87732,1,0,0:0:0:0:
63,242,87907,1,2,0:0:0:0:
138,60,88081,6,0,P|176:68|172:104,1,62.9999980773926,4|0,1:3|3:0,0:0:0:0:
68,168,88256,1,0,1:0:0:0:
68,168,88430,22,0,P|42:105|52:80,1,52.5,0|0,1:0|3:0,0:0:0:0:
240,24,88605,1,0,1:0:0:0:
316,52,88692,1,0,1:0:0:0:
392,24,88779,1,0,1:0:0:0:
404,16,88954,5,0,1:0:0:0:
384,88,89041,1,0,1:0:0:0:
392,164,89128,1,0,1:0:0:0:
328,208,89215,1,0,1:0:0:0:
372,268,89302,2,0,P|388:318|388:348,1,78.7500030040742,0|0,1:0|3:0,0:0:0:0:
174,294,89477,6,0,P|234:325|299:311,1,136.499993751526,6|2,2:1|0:0,0:0:0:0:
452,284,89738,1,0,0:0:0:0:
372,268,89826,6,0,P|355:239|350:206,1,68.2499968757631,10|0,1:0|3:0,0:0:0:0:
460,16,90000,2,0,P|456:49|440:78,1,68.2499968757631,2|0,0:0|3:0,0:0:0:0:
308,136,90175,6,0,B|274:115|238:135|246:147|218:171|182:152,1,136.499993751526,2|10,2:1|0:0,0:0:0:0:
36,92,90436,1,8,0:0:0:0:
118,87,90524,6,0,P|112:120|95:149,1,68.2499968757631,10|0,1:0|3:0,0:0:0:0:
279,248,90698,2,0,P|282:281|298:310,1,68.2499968757631,2|0,0:0|3:0,0:0:0:0:
135,224,90872,6,0,P|70:231|19:188,1,136.499993751526,4|2,2:3|0:0,0:0:0:0:
182,152,91134,1,0,0:0:0:0:
236,84,91221,6,0,P|253:54|259:21,1,68.2499968757631,10|0,1:0|3:0,0:0:0:0:
200,272,91395,2,0,P|191:304|195:338,1,68.2499968757631,2|0,0:0|3:0,0:0:0:0:
444,252,91570,70,0,B|404:224|364:256|364:256|384:276|412:272,1,136.499993751526,2|8,0:1|0:0,0:0:0:0:
468,328,91831,1,8,0:0:0:0:
504,200,91919,2,0,P|481:174|475:141,1,68.2499968757631,10|0,1:2|3:0,0:0:0:0:
299,311,92093,2,0,P|276:336|270:369,1,68.2499968757631,2|0,2:1|3:0,0:0:0:0:
228,144,92268,6,0,B|184:104|236:84|256:28|256:28|276:84|328:104|284:144,1,267.750005106926,2|2,0:1|0:0,0:0:0:0:
108,208,92616,6,0,P|111:242|128:272,1,68.2499968757631,10|0,1:0|3:0,0:0:0:0:
384,272,92791,2,0,P|400:242|403:208,1,68.2499968757631,2|0,0:0|3:0,0:0:0:0:
256,84,92965,5,2,0:1:0:0:
216,292,93140,1,2,0:0:0:0:
296,292,93227,1,8,0:0:0:0:
324,216,93314,70,0,P|322:183|305:153,1,68.2499968757631,10|0,1:0|3:0,0:0:0:0:
207,152,93488,2,0,P|190:182|188:216,1,68.2499968757631,10|0,0:2|3:0,0:0:0:0:
372,348,93663,6,0,B|388:364|408:348|408:348|460:312,1,99.7499973363877,10|0,1:0|3:0,0:0:0:0:
55,314,93837,2,0,B|104:348|104:348|124:364|140:348,1,99.7499973363877,8|8,2:0|3:2,0:0:0:0:
384,272,94012,6,0,P|400:242|400:184,1,89.2500017023087,10|0,1:0|3:0,0:0:0:0:
110,188,94186,2,0,P|108:232|128:272,1,89.2500017023087,8|8,0:0|3:2,0:0:0:0:
371,116,94361,6,0,P|368:82|351:54,1,68.2499968757631,10|0,1:0|3:0,0:0:0:0:
161,54,94535,2,0,P|143:83|141:117,1,68.2499968757631,8|0,1:0|3:0,0:0:0:0:
296,224,94709,70,0,P|309:206|301:190,1,39.3750015020371,8|8,1:0|1:0,0:0:0:0:
208,192,94884,2,0,P|202:210|215:223,1,39.3750015020371,8|0,1:0|3:0,0:0:0:0:
350,53,95058,6,0,L|224:106,1,136.499993751526,6|2,2:1|0:0,0:0:0:0:
60,100,95319,1,0,0:0:0:0:
141,117,95407,6,0,P|158:146|163:179,1,68.2499968757631,10|0,1:0|3:0,0:0:0:0:
52,368,95581,2,0,P|56:335|72:306,1,68.2499968757631,2|0,0:0|3:0,0:0:0:0:
204,248,95756,6,0,B|238:269|274:249|266:237|294:213|330:232,1,136.499993751526,2|10,2:1|0:0,0:0:0:0:
476,292,96017,1,8,0:0:0:0:
394,297,96105,70,0,P|400:264|417:235,1,68.2499968757631,10|0,1:0|3:0,0:0:0:0:
233,136,96279,2,0,P|230:103|214:74,1,68.2499968757631,2|0,0:0|3:0,0:0:0:0:
377,160,96453,6,0,P|442:153|493:196,1,136.499993751526,4|2,2:3|0:0,0:0:0:0:
330,232,96715,1,0,0:0:0:0:
276,300,96802,6,0,P|259:330|253:363,1,68.2499968757631,10|0,1:0|3:0,0:0:0:0:
312,112,96976,2,0,P|321:80|317:46,1,68.2499968757631,2|0,0:0|3:0,0:0:0:0:
68,132,97151,6,0,B|108:160|148:128|148:128|128:108|100:112,1,136.499993751526,2|8,0:1|0:0,0:0:0:0:
44,56,97412,1,8,0:0:0:0:
8,184,97500,2,0,P|31:210|37:243,1,68.2499968757631,8|0,1:2|3:0,0:0:0:0:
213,73,97674,2,0,P|236:48|242:15,1,68.2499968757631,2|0,2:1|3:0,0:0:0:0:
243,269,97849,70,0,P|258:338|264:268,1,204.749990627289,10|2,1:1|0:0,0:0:0:0:
164,236,98198,6,0,P|118:252|120:296,1,68.2499968757631,0|0,0:0|3:0,0:0:0:0:
398,267,98372,2,0,P|379:239|346:235,1,68.2499968757631,8|0,0:0|3:0,0:0:0:0:
144,348,98547,5,10,1:1:0:0:
368,348,98721,1,2,0:0:0:0:
398,267,98808,1,8,0:0:0:0:
404,180,98895,86,0,P|412:152|436:112,1,68.2499968757631,0|0,0:0|3:0,0:0:0:0:
108,180,99070,2,0,P|100:152|76:112,1,68.2499968757631,8|0,0:0|3:0,0:0:0:0:
409,257,99244,6,0,P|376:253|347:235,1,68.2499968757631,10|0,1:1|3:0,0:0:0:0:
164,236,99419,2,0,P|135:254|102:259,1,68.2499968757631,8|8,0:0|3:0,0:0:0:0:
373,313,99593,70,0,P|346:279|347:235,1,89.2500017023087,10|0,1:1|3:0,0:0:0:0:
164,236,99768,2,0,P|165:280|138:314,1,89.2500017023087,8|8,0:1|3:1,0:0:0:0:
256,354,99942,6,0,B|256:325|256:325|252:321|252:321|260:313|260:313|256:309|256:309|256:265,1,89.2500017023087,10|0,1:1|3:0,0:0:0:0:
296,73,100116,5,8,1:0:0:0:
196,145,100204,5,8,1:0:0:0:
316,145,100291,5,8,1:1:0:0:
216,73,100378,5,8,1:0:0:0:
256,193,100465,70,0,L|256:273,1,78.7500030040742,8|0,1:0|3:0,0:0:0:0:
256,354,100640,21,6,0:1:0:0:
200,121,100814,69,0,0:0:0:0:
200,121,100901,1,0,0:0:0:0:
200,121,100988,2,0,B|185:95|155:109|155:109|152:141|182:147,1,105,10|0,1:0|3:0,0:0:0:0:
335,214,101163,2,0,B|363:226|379:198|379:198|363:170|335:182,1,105,0|0,0:0|3:0,0:0:0:0:
172,218,101337,2,0,B|142:225|146:257|146:257|175:270|191:244,1,105,2|0,0:1|3:0,0:0:0:0:
256,192,101512,1,10,0:0:0:0:
256,192,101599,1,8,0:0:0:0:
301,119,101686,2,0,B|321:96|299:72|299:72|268:79|271:109,1,105,10|0,1:0|3:0,0:0:0:0:
254,275,101861,2,0,B|251:305|283:312|283:312|304:288|284:265,1,105,10|0,0:0|3:0,0:0:0:0:
124,108,102035,5,4,0:3:0:0:
176,176,102209,5,2,0:0:0:0:
176,176,102297,1,0,0:0:0:0:
176,176,102384,2,0,B|166:197|173:216|173:216|155:207|146:187,1,78.7500030040742,10|0,1:0|3:0,0:0:0:0:
122,23,102558,2,0,B|141:12|149:-9|149:-9|157:8|154:30,1,78.7500030040742,0|0,0:0|3:0,0:0:0:0:
76,179,102733,2,0,B|52:174|37:188|37:188|40:168|55:153,1,78.7500030040742,2|0,0:1|3:0,0:0:0:0:
205,79,102907,1,10,0:0:0:0:
205,79,102994,1,8,0:0:0:0:
205,79,103081,2,0,B|219:95|243:93|243:93|229:108|207:110,1,78.7500030040742,10|0,1:1|3:0,0:0:0:0:
43,85,103256,2,0,B|37:63|22:50|22:50|46:45|60:57,1,78.7500030040742,10|0,0:0|3:0,0:0:0:0:
255,182,103430,5,2,0:1:0:0:
288,261,103605,5,2,0:0:0:0:
288,261,103692,1,0,0:0:0:0:
288,261,103779,2,0,B|306:294|271:318|271:318|234:302|247:265,1,131.25,10|0,1:0|3:0,0:0:0:0:
275,97,103954,2,0,B|278:60|321:61|321:61|341:96|309:118,1,131.25,0|0,0:0|3:0,0:0:0:0:
190,236,104128,2,0,B|164:265|130:238|130:238|135:199|173:199,1,131.25,2|0,0:1|3:0,0:0:0:0:
255,182,104302,1,10,0:0:0:0:
255,182,104390,1,8,0:0:0:0:
341,174,104477,2,0,B|378:167|389:208|389:208|363:237|332:214,1,131.25,10|0,1:1|3:0,0:0:0:0:
182,137,104651,2,0,B|147:122|161:82|161:82|201:74|212:111,1,131.25,10|0,0:0|3:0,0:0:0:0:
288,261,104826,22,0,B|316:303|272:335|272:335|220:311|248:263,1,175,2|0,0:1|3:0,0:0:0:0:
309,118,105000,22,0,B|330:73|380:95|380:95|385:152|330:152,1,175,8|8,0:1|0:1,0:0:0:0:
164,173,105175,22,0,B|113:177|107:123|107:123|154:90|182:138,1,175,10|0,1:0|3:0,0:0:0:0:
341,194,105349,22,0,B|391:191|397:245|397:245|350:278|322:230,1,175,8|8,0:1|0:1,0:0:0:0:
224,101,105523,22,0,B|195:60|239:28|239:28|291:52|263:100,1,175,10|0,1:0|3:0,2:0:0:0:
202,249,105698,22,0,B|180:295|130:273|130:273|125:216|180:216,1,175,8|0,1:0|3:0,2:0:0:0:
268,296,105872,5,10,1:0:0:0:
268,296,105959,1,8,1:0:0:0:
268,296,106047,2,0,B|276:320|268:336|268:336|280:352|279:373,1,78.7500030040742,8|0,1:0|3:0,0:0:0:0:
253,181,106221,85,6,1:0:0:0:
321,129,106395,5,2,0:0:0:0:
321,129,106483,1,0,0:0:0:0:
321,129,106570,2,0,B|347:114|333:84|333:84|301:81|295:111,1,105,10|0,1:0|3:0,0:0:0:0:
228,264,106744,2,0,B|216:292|244:308|244:308|272:292|260:264,1,105,0|0,0:0|3:0,0:0:0:0:
224,101,106919,2,0,B|217:71|185:75|185:75|172:104|198:120,1,105,2|0,0:1|3:0,0:0:0:0:
253,181,107093,1,10,0:0:0:0:
253,181,107180,1,8,0:0:0:0:
323,230,107268,2,0,B|346:250|370:228|370:228|363:197|333:200,1,105,10|0,1:0|3:0,0:0:0:0:
167,183,107442,2,0,B|137:180|130:212|130:212|154:233|177:213,1,105,10|0,0:0|3:0,0:0:0:0:
272,36,107616,5,4,0:3:0:0:
48,76,107791,5,2,0:0:0:0:
48,76,107878,1,0,0:0:0:0:
48,76,107965,2,0,B|47:117|47:117|51:137|65:148,1,78.7500030040742,10|0,1:1|3:0,0:0:0:0:
144,292,108140,2,0,B|169:258|169:258|177:240|172:222,1,78.7500030040742,2|0,0:0|3:0,0:0:0:0:
196,60,108314,2,0,B|156:71|156:71|138:81|132:99,1,78.7500030040742,2|0,0:1|3:0,0:0:0:0:
16,220,108488,1,10,0:0:0:0:
16,220,108576,1,8,0:0:0:0:
16,220,108663,2,0,B|55:233|55:233|75:236|90:225,1,78.7500030040742,10|0,1:1|3:0,0:0:0:0:
256,192,108837,2,0,B|232:157|232:157|217:143|198:143,1,78.7500030040742,10|0,0:2|3:0,0:0:0:0:
262,341,109012,70,0,B|267:354|247:375|247:375|222:358|215:329|267:310|243:250|243:250|235:217|256:193,1,236.250009012223,2|8,1:0|0:0,0:0:0:0:
332,232,109361,70,0,B|363:252|390:220|390:220|377:181|339:191,1,131.25,8|0,1:0|3:0,0:0:0:0:
169,204,109535,2,0,B|131:203|129:246|129:246|162:269|186:239,1,131.25,8|0,0:0|3:0,0:0:0:0:
315,132,109709,2,0,B|346:108|322:72|322:72|282:73|279:111,1,131.25,2|8,1:1|0:2,0:0:0:0:
256,192,109884,1,8,1:0:0:0:
256,192,109971,1,8,1:2:0:0:
240,277,110058,2,0,B|229:313|269:327|269:327|300:304|280:271,1,131.25,10|0,1:0|3:0,0:0:0:0:
217,115,110233,2,0,B|205:78|164:89|164:89|152:128|188:142,1,131.25,8|8,1:0|3:2,0:0:0:0:
332,232,110407,22,0,B|371:263|380:235|407:222|407:222|387:203|387:168|337:192,1,175,10|0,1:1|3:0,0:0:0:0:
187,240,110581,22,0,B|140:256|155:279|157:308|157:308|185:306|214:318|219:263,1,175,0|0,1:0|3:0,0:0:0:0:
255,100,110756,22,0,B|263:49|232:52|210:39|210:39|198:65|173:82|218:114,1,175,10|8,1:0|1:2,0:0:0:0:
260,278,110930,22,0,B|252:327|280:321|305:338|305:338|313:308|342:294|297:262,1,175,8|8,1:0|1:0,0:0:0:0:
178,154,111105,22,0,B|139:121|131:148|103:162|103:162|124:184|123:216|173:192,1,175,8|8,1:0|1:0,2:0:0:0:
327,145,111279,22,0,B|374:127|355:104|357:75|357:75|325:81|300:65|296:120,1,175,8|8,1:0|1:0,2:0:0:0:
255,191,111454,37,0,1:0:0:0:
255,191,111541,1,8,1:1:0:0:
255,191,111628,1,8,1:1:0:0:
255,191,111715,1,8,1:1:0:0:
255,191,112326,37,10,3:3:0:0:
