osu file format v14

[General]
AudioFilename: audio.mp3
AudioLeadIn: 0
PreviewTime: 22413
Countdown: 0
SampleSet: Soft
StackLeniency: 0.3
Mode: 0
LetterboxInBreaks: 0
WidescreenStoryboard: 1

[Editor]
DistanceSpacing: 1.3
BeatDivisor: 4
GridSize: 4
TimelineZoom: 0.9000007

[Metadata]
Title:Nanatsu Issenzakura
TitleUnicode:七つ一旋桜
Artist:A.SAKA
ArtistUnicode:A.SAKA
Creator:yf_bmp
Version:Normal
Source:
Tags:sakura seven rotating revolving rotate revolve cherry blossom 木製みゅーと Mokuse Mute 神楽ノ花 Kagura no Hana imoutosan Fushimi Rio Syameimaru-Aya Gust Moecho Pata-Mon
BeatmapID:1093844
BeatmapSetID:513731

[Difficulty]
HPDrainRate:3
CircleSize:2.3
OverallDifficulty:3
ApproachRate:3
SliderMultiplier:1
SliderTickRate:1

[Events]
//Background and Video events
0,0,"BG.jpg",0,0
//Break Periods
2,45026,48967
2,50607,54548
//Storyboard Layer 0 (Background)
//Storyboard Layer 1 (Fail)
//Storyboard Layer 2 (Pass)
//Storyboard Layer 3 (Foreground)
//Storyboard Sound Samples

[TimingPoints]
175,348.837209302326,4,2,16,80,1,0
11337,-133.333333333333,4,2,15,60,0,0
22500,-133.333333333333,4,2,16,60,0,0
33663,-133.333333333333,4,2,16,80,0,1
44826,-133.333333333333,4,2,15,80,0,0
55988,-133.333333333333,4,2,16,80,0,0
67151,-133.333333333333,4,2,16,80,0,0
100640,-133.333333333333,4,2,16,80,0,1
111628,-133.333333333333,4,2,16,80,0,0

[Colours]
Combo1 : 255,142,199
Combo2 : 138,175,193
Combo3 : 255,62,158
Combo4 : 45,208,139

[HitObjects]
160,364,11337,6,0,P|214:367|258:333,1,112.500004291535,0|0,0:0|0:0,0:0:0:0:
279,335,12035,2,0,P|295:303|295:259,1,75.000002861023
255,175,12733,1,0,0:0:0:0:
452,156,13430,6,0,P|397:159|353:125,1,112.500004291535,0|0,0:0|0:0,0:0:0:0:
333,127,14128,2,0,P|317:95|317:51,1,75.000002861023,2|2,3:2|3:2,0:0:0:0:
228,12,14826,2,0,P|227:49|210:82,1,75.000002861023,2|2,3:2|3:2,0:0:0:0:
128,136,15523,6,0,P|64:140|28:108,1,112.500004291535,2|0,3:2|0:0,0:0:0:0:
20,128,16221,2,0,L|28:212,1,75.000002861023,0|0,0:0|0:0,0:0:0:0:
116,240,16919,5,4,0:1:0:0:
116,240,18314,1,0,0:0:0:0:
116,240,19709,6,0,B|188:212|184:272|261:237,2,150.000005722046,0|0|0,1:0|1:0|1:0,0:0:0:0:
152,332,21454,1,0,1:0:0:0:
248,348,21802,2,0,L|332:324,1,75.0000028610231,0|0,1:0|1:0,0:0:0:0:
404,380,22500,6,0,P|418:308|378:247,1,150.000005722046,6|2,2:1|0:1,0:0:0:0:
343,157,23547,1,10,1:0:0:0:
384,68,23895,2,0,P|336:57|305:64,1,75.0000028610231,2|10,2:1|1:0,0:0:0:0:
248,136,24593,2,0,L|160:132,1,75.0000028610231,2|10,0:1|1:0,0:0:0:0:
104,200,25291,5,2,0:1:0:0:
220,44,25988,1,2,0:1:0:0:
52,144,26686,2,0,L|103:199,1,75.0000028610231,2|10,1:0|1:0,0:0:0:0:
48,280,27384,2,0,P|44:320|60:364,1,75.0000028610231,2|10,1:0|1:0,0:0:0:0:
148,372,28081,6,0,L|228:356,1,75.0000028610231,6|10,2:1|1:0,0:0:0:0:
296,292,28779,2,0,P|336:304|360:336,1,75.0000028610231,2|10,0:1|1:0,0:0:0:0:
452,352,29477,2,0,L|472:192,1,150.000005722046,4|2,2:3|0:1,0:0:0:0:
412,123,30523,1,10,1:1:0:0:
512,112,30872,5,10,1:0:0:0:
320,84,31570,1,10,1:1:0:0:
320,280,32268,2,0,L|259:238,1,75.0000028610231,10|10,1:1|1:1,0:0:0:0:
177,293,32965,2,0,P|162:259|162:222,1,75.0000028610231,10|10,1:1|1:1,0:0:0:0:
228,148,33663,6,0,P|268:116|280:56,1,112.500004291535,6|0,0:1|0:0,0:0:0:0:
286,32,34361,2,0,L|323:28,2,37.5000014305115,2|10|8,0:1|0:0|1:0,0:0:0:0:
196,68,35058,2,0,P|140:80|80:60,1,112.500004291535,4|0,0:3|0:0,0:0:0:0:
69,45,35756,2,0,L|77:-7,2,37.5000014305115,2|10|8,0:1|0:0|1:0,0:0:0:0:
16,128,36454,6,0,P|7:164|4:208,1,75.0000028610231,2|10,0:1|1:0,0:0:0:0:
36,292,37151,2,0,L|124:276,1,75.0000028610231,2|10,0:1|1:1,0:0:0:0:
164,196,37849,2,0,L|172:116,2,75.0000028610231,2|10|10,0:1|1:0|1:0,0:0:0:0:
260,200,38895,1,10,1:0:0:0:
280,296,39244,6,0,P|321:326|382:322,1,112.500004291535,6|0,1:0|0:0,0:0:0:0:
406,322,39942,2,0,L|419:356,2,37.5000014305115,2|10|8,0:1|0:0|1:0,0:0:0:0:
348,244,40640,2,0,P|321:193|325:129,1,112.500004291535,4|0,0:3|0:0,0:0:0:0:
340,120,41337,2,0,L|392:114,2,37.5000014305115,2|10|8,0:1|0:0|1:0,0:0:0:0:
252,72,42035,6,0,P|215:74|184:95,1,75.0000028610231,2|8,1:0|1:0,0:0:0:0:
92,128,42733,2,0,P|83:164|93:199,1,75.0000028610231,2|10,1:1|1:0,0:0:0:0:
116,296,43430,2,0,P|147:315|184:316,1,75.0000028610231,10|10,1:1|1:0,0:0:0:0:
284,328,44128,2,0,P|311:304|324:269,1,75.0000028610231,8|0,1:0|1:0,0:0:0:0:
256,196,44826,5,2,0:3:0:0:
256,196,50407,5,4,0:0:0:0:
108,32,55988,6,0,L|168:24,1,56.2500021457673,12|8,0:0|0:0,0:0:0:0:
280,60,56686,2,0,P|336:72|356:92,1,75.0000028610231,0|0,0:0|0:0,0:0:0:0:
284,156,57384,2,0,L|224:164,1,56.2500021457673,4|8,0:0|0:0,0:0:0:0:
112,128,58081,2,0,L|32:140,1,75.0000028610231,0|0,0:0|0:0,0:0:0:0:
92,224,58779,6,0,L|152:216,1,56.2500021457673,10|8,0:3|0:0,0:0:0:0:
264,252,59477,2,0,P|320:264|340:284,1,75.0000028610231,8|0,0:0|0:0,0:0:0:0:
272,352,60175,2,0,L|212:360,1,56.2500021457673,4|8,0:0|0:0,0:0:0:0:
100,324,60872,2,0,P|80:288|80:244,1,75.0000028610231,0|0,0:0|0:0,0:0:0:0:
176,264,61570,6,0,P|248:264|292:188,1,150.000005722046,2|8,0:1|1:1,0:0:0:0:
491,215,62965,2,0,P|419:215|375:139,1,150.000005722046,4|8,0:3|1:0,0:0:0:0:
308,88,64012,6,0,L|328:16,1,75.0000028610231,8|4,0:0|0:3,0:0:0:0:
412,68,64709,1,8,1:0:0:0:
376,157,65058,2,0,L|348:228,1,75.0000028610231,2|8,0:1|1:0,0:0:0:0:
260,184,65756,6,0,B|187:217|191:146|116:182,1,150.000005722046,2|2,1:0|1:2,0:0:0:0:
24,212,66802,1,2,1:2:0:0:
96,276,67151,6,0,P|84:316|88:340,2,56.2500021457673,6|2|2,1:0|0:0|0:0,0:0:0:0:
236,324,68198,1,8,1:0:0:0:
240,228,68547,2,0,P|214:228|184:244,2,56.2500021457673,4|2|2,0:3|0:0|0:0,0:0:0:0:
380,180,69594,1,8,1:0:0:0:
416,92,69942,6,0,P|356:84|336:92,1,75.0000028610231,2|8,0:1|1:0,0:0:0:0:
272,24,70640,2,0,P|235:30|199:20,1,75.0000028610231,2|8,0:1|1:0,0:0:0:0:
131,91,71337,2,0,P|78:78|24:104,1,112.500004291535,2|14,0:1|0:0,0:0:0:0:
4,252,72384,1,8,1:0:0:0:
96,288,72733,6,0,L|88:176,2,112.500004291535,6|2|8,1:0|0:0|1:0,0:0:0:0:
176,344,74128,2,0,P|209:348|252:324,1,75.0000028610231,4|8,0:3|1:0,0:0:0:0:
324,268,74826,2,0,P|357:263|400:288,1,75.0000028610231,2|8,0:1|1:0,0:0:0:0:
464,352,75523,5,10,1:1:0:0:
456,204,76047,2,0,P|436:138|444:44,1,150.000005722046,10|2,1:0|1:2,0:0:0:0:
348,20,77093,2,0,L|268:24,2,75.0000028610231,2|2|2,1:2|1:2|1:2,0:0:0:0:
340,168,78314,6,0,P|352:208|348:232,2,56.2500021457673,6|2|2,1:0|0:0|0:0,0:0:0:0:
200,216,79361,1,8,1:0:0:0:
196,120,79710,2,0,P|221:120|252:136,2,56.2500021457673,4|2|2,0:3|0:0|0:0,0:0:0:0:
64,60,80757,1,8,1:0:0:0:
69,157,81105,6,0,P|71:217|62:236,1,75.0000028610231,2|8,0:1|1:0,0:0:0:0:
124,306,81803,2,0,P|114:342|121:379,1,75.0000028610231,2|8,0:1|1:0,0:0:0:0:
212,344,82500,2,0,P|265:357|224:256,1,225.000008583069,4|4,2:1|0:2,0:0:0:0:
272,160,83896,6,0,L|388:148,2,112.500004291535,6|2|8,1:0|0:0|1:0,0:0:0:0:
176,176,85291,2,0,P|171:142|196:100,1,75.0000028610231,4|8,0:3|1:0,0:0:0:0:
276,64,85989,2,0,L|352:56,1,75.0000028610231,2|8,0:1|1:0,0:0:0:0:
436,12,86686,5,4,1:3:0:0:
444,208,87384,2,0,P|452:272|436:328,1,112.500004291535,2|2,1:0|0:0,0:0:0:0:
420,335,88081,2,0,L|340:331,1,75.0000028610231,2|0,1:0|1:0,0:0:0:0:
256,292,88779,2,0,L|188:328,1,75.0000028610231,0|0,1:0|1:0,0:0:0:0:
104,371,89477,6,0,P|93:323|100:292,1,75.0000028610231,6|10,2:1|1:0,0:0:0:0:
172,232,90175,2,0,L|168:144,1,75.0000028610231,2|10,0:1|1:0,0:0:0:0:
124,68,90872,2,0,P|172:57|203:64,1,75.0000028610231,4|10,2:3|1:0,0:0:0:0:
264,136,91570,2,0,L|352:132,1,75.0000028610231,2|10,0:1|1:1,0:0:0:0:
408,200,92268,5,2,0:1:0:0:
292,44,92965,1,2,0:1:0:0:
459,145,93663,2,0,L|407:200,1,75.0000028610231,10|10,1:0|1:0,0:0:0:0:
464,280,94361,2,0,P|468:320|452:364,1,75.0000028610231,10|10,1:0|1:0,0:0:0:0:
364,372,95058,6,0,L|284:356,1,75.0000028610231,6|10,2:1|1:0,0:0:0:0:
216,292,95756,2,0,P|176:304|152:336,1,75.0000028610231,2|10,0:1|1:1,0:0:0:0:
56,332,96454,2,0,L|72:252,1,75.0000028610231,4|10,2:3|1:1,0:0:0:0:
136,184,97151,2,0,P|124:144|92:120,1,75.0000028610231,2|10,0:1|1:1,0:0:0:0:
4,112,97849,5,10,1:1:0:0:
196,84,98547,1,10,1:1:0:0:
188,280,99244,2,0,L|249:238,1,75.0000028610231,10|10,1:1|1:1,0:0:0:0:
332,292,99942,2,0,P|348:264|348:216,1,75.0000028610231,10|10,1:1|1:1,0:0:0:0:
284,148,100640,6,0,P|244:116|232:56,1,112.500004291535,6|0,0:1|0:0,0:0:0:0:
223,33,101337,2,0,L|186:26,2,37.5000014305115,2|10|0,0:1|0:0|0:0,0:0:0:0:
316,68,102035,2,0,P|372:80|432:60,1,112.500004291535,4|0,0:3|0:0,0:0:0:0:
442,46,102733,2,0,L|434:-6,2,37.5000014305115,2|10|0,0:1|0:0|0:0,0:0:0:0:
496,128,103430,6,0,P|505:164|508:208,1,75.0000028610231,2|10,0:1|1:1,0:0:0:0:
476,292,104128,2,0,L|388:276,1,75.0000028610231,2|10,0:1|1:1,0:0:0:0:
348,196,104825,2,0,L|340:116,2,75.0000028610231,10|10|10,1:0|1:0|1:0,0:0:0:0:
252,200,105871,1,10,1:0:0:0:
232,296,106221,6,0,P|191:326|130:322,1,112.500004291535,6|0,1:0|0:0,0:0:0:0:
104,324,106919,2,0,L|91:358,2,37.5000014305115,2|10|0,0:1|0:0|0:0,0:0:0:0:
164,244,107616,2,0,P|191:193|187:129,1,112.500004291535,4|0,0:3|0:0,0:0:0:0:
172,120,108314,2,0,L|120:114,2,37.5000014305115,2|10|0,0:1|0:0|0:0,0:0:0:0:
259,73,109012,6,0,P|296:75|327:96,1,75.0000028610231,10|8,1:1|1:0,0:0:0:0:
420,128,109709,2,0,P|428:165|418:200,1,75.0000028610231,10|10,1:1|1:0,0:0:0:0:
396,296,110407,2,0,P|364:316|327:317,1,75.0000028610231,8|10,1:2|1:0,0:0:0:0:
232,337,111105,2,0,P|203:313|192:240,1,112.500004291535,8|4,1:0|1:2,0:0:0:0:
326,96,112326,5,8,2:0:0:0:
