osu file format v14

[General]
AudioFilename: audio.mp3
AudioLeadIn: 0
PreviewTime: 22413
Countdown: 0
SampleSet: Soft
StackLeniency: 0.3
Mode: 0
LetterboxInBreaks: 0
WidescreenStoryboard: 1

[Editor]
DistanceSpacing: 1
BeatDivisor: 4
GridSize: 4
TimelineZoom: 1.3

[Metadata]
Title:Nanatsu Issenzakura
TitleUnicode:七つ一旋桜
Artist:A.SAKA
ArtistUnicode:A.SAKA
Creator:yf_bmp
Version:Moecho's Delusional Echo Extra
Source:
Tags:sakura seven rotating revolving rotate revolve cherry blossom 木製みゅーと Mokuse Mute 神楽ノ花 Kagura no Hana imoutosan Fushimi Rio Syameimaru-Aya Gust Moecho Pata-Mon
BeatmapID:1266192
BeatmapSetID:513731

[Difficulty]
HPDrainRate:6
CircleSize:4.5
OverallDifficulty:8
ApproachRate:9.5
SliderMultiplier:1.8
SliderTickRate:1

[Events]
//Background and Video events
0,0,"BG.jpg",0,0
//Break Periods
//Storyboard Layer 0 (Background)
//Storyboard Layer 1 (Fail)
//Storyboard Layer 2 (Pass)
//Storyboard Layer 3 (Foreground)
//Storyboard Sound Samples

[TimingPoints]
175,348.837209302326,4,2,15,50,1,0
11337,-100,4,2,15,60,0,0
14477,-133.333333333333,4,2,15,60,0,0
14826,-100,4,2,15,60,0,0
15175,-133.333333333333,4,2,15,60,0,0
15523,-100,4,2,15,60,0,0
22500,-66.6666666666667,4,2,16,80,0,1
30872,-80,4,2,16,80,0,0
33663,-66.6666666666667,4,2,16,80,0,1
44826,-80,4,2,15,80,0,0
55988,-100,4,2,16,80,0,0
61657,-100,4,2,16,80,0,0
61744,-100,4,2,16,80,0,0
62704,-100,4,2,16,5,0,0
62791,-100,4,2,16,80,0,0
65756,-100,4,2,15,60,0,0
66105,-100,4,2,15,70,0,0
66454,-100,4,2,15,75,0,0
67151,-80,4,2,16,80,0,1
75523,-80,4,2,16,80,0,0
78314,-80,4,2,16,80,0,1
82500,-80,4,2,16,80,0,0
83895,-80,4,2,16,80,0,1
88081,-80,4,2,16,80,0,0
89477,-66.6666666666667,4,2,16,80,0,1
97849,-66.6666666666667,4,2,16,80,0,0
100116,-100,4,2,16,80,0,0
100640,-66.6666666666667,4,2,16,80,0,1
110407,-57.1428571428571,4,2,16,80,0,1
111628,-57.1428571428571,4,2,16,80,0,0
112326,-200,4,2,16,80,0,0
112675,-80,4,2,16,80,0,0
113023,-80,4,2,16,30,0,0
113372,-80,4,2,16,5,0,0

[Colours]
Combo1 : 255,142,199
Combo2 : 138,175,193
Combo3 : 255,191,223
Combo4 : 45,208,139

[HitObjects]
37,285,175,6,0,L|80:295,3,45,4|0|0|0,0:0|3:0|3:0|3:0,0:0:0:0:
136,354,523,2,0,L|159:315,1,45,0|0,0:0|3:0,0:0:0:0:
232,281,698,2,0,L|202:246,1,45,0|0,0:0|3:0,0:0:0:0:
192,167,872,2,0,L|150:184,1,45,0|0,0:0|3:0,0:0:0:0:
71,169,1047,2,0,L|74:213,1,45,0|0,0:0|3:0,0:0:0:0:
37,285,1221,2,0,L|80:295,3,45,0|0|0|0,0:0|0:0|0:0|0:0,0:0:0:0:
192,167,1570,6,0,P|169:171|151:182,3,45,2|0|0|0,0:3|3:0|3:0|3:0,0:0:0:0:
232,281,1919,2,0,P|221:261|204:246,1,45,0|0,0:0|3:0,0:0:0:0:
136,354,2094,2,0,P|151:337|159:316,1,45,0|0,0:0|3:0,0:0:0:0:
37,285,2268,2,0,P|57:294|79:296,1,45,0|0,0:0|3:0,0:0:0:0:
71,169,2443,2,0,P|68:191|73:212,1,45,0|0,0:0|3:0,0:0:0:0:
192,167,2616,2,0,P|169:171|151:182,3,45,0|0|0|0,3:0|3:0|3:0|3:0,0:0:0:0:
286,177,2965,6,0,L|329:187,3,45,4|0|0|0,0:0|3:0|3:0|3:0,0:0:0:0:
385,246,3313,2,0,L|408:207,1,45,0|0,0:0|3:0,0:0:0:0:
481,173,3488,2,0,L|451:138,1,45,0|0,0:0|3:0,0:0:0:0:
441,59,3662,2,0,L|399:76,1,45,0|0,0:0|3:0,0:0:0:0:
320,61,3837,2,0,L|323:105,1,45,0|0,0:0|3:0,0:0:0:0:
286,177,4011,2,0,L|329:187,3,45,0|0|0|0,0:0|3:0|3:0|3:0,0:0:0:0:
481,43,4361,6,0,P|458:47|440:58,3,45,2|0|0|0,0:3|3:0|3:0|3:0,0:0:0:0:
508,207,4709,2,0,P|498:187|481:173,1,45,0|0,0:0|3:0,0:0:0:0:
361,283,4884,2,0,P|376:266|385:246,1,45,0|0,0:0|3:0,0:0:0:0:
243,165,5058,2,0,P|263:175|286:177,1,45,0|0,0:0|3:0,0:0:0:0:
317,17,5233,2,0,P|314:39|320:61,1,45,0|0,0:0|3:0,0:0:0:0:
481,43,5407,2,0,P|458:47|440:58,3,45,0|0|0|0,0:0|0:0|0:0|0:0,0:0:0:0:
405,138,5756,6,0,L|360:134,3,45,4|0|0|0,0:1|3:0|3:0|3:0,0:0:0:0:
283,206,6105,2,0,L|327:202,1,45,0|0,0:0|3:0,0:0:0:0:
405,272,6279,2,0,L|360:268,1,45,0|0,0:0|3:0,0:0:0:0:
283,206,6454,2,0,L|327:202,1,45,0|0,0:0|3:0,0:0:0:0:
405,272,6628,2,0,L|360:268,1,45,0|0,0:0|3:0,0:0:0:0:
283,340,6802,2,0,L|327:336,3,45
208,247,7151,6,0,L|163:241,3,45,2|0|0|0,0:3|3:0|3:0|3:0,0:0:0:0:
100,190,7500,2,0,L|81:230,1,45,0|0,0:0|3:0,0:0:0:0:
13,274,7675,2,0,L|46:304,1,45,0|0,0:0|3:0,0:0:0:0:
69,384,7848,2,0,L|108:362,1,45,0|0,0:0|3:0,0:0:0:0:
188,365,8023,2,0,L|179:320,1,45,0|0,0:0|3:0,0:0:0:0:
208,247,8198,2,0,L|163:241,3,45,0|0|0|0,3:0|3:0|3:0|3:0,0:0:0:0:
283,206,8547,6,0,L|327:202,3,45,4|0|0|0,0:0|3:0|3:0|3:0,0:0:0:0:
405,138,8895,2,0,L|360:134,1,45,0|0,0:0|3:0,0:0:0:0:
283,72,9070,2,0,L|327:68,1,45,0|0,0:0|3:0,0:0:0:0:
405,4,9244,6,0,L|360:0,3,45,0|0|0|0,0:0|3:0|3:0|3:0,0:0:0:0:
283,72,9593,2,0,L|327:68,3,45,0|0|0|0,0:0|3:0|3:0|3:0,0:0:0:0:
405,138,9942,2,0,L|360:134,3,45,2|0|0|0,0:3|3:0|3:0|3:0,0:0:0:0:
283,206,10291,2,0,L|327:202,5,45
208,247,10814,6,0,L|163:243,1,45,0|0,0:0|3:0,0:0:0:0:
86,179,10988,2,0,L|130:175,1,45,0|0,0:0|3:0,0:0:0:0:
208,113,11163,2,0,L|163:109,1,45,0|0,0:0|3:0,0:0:0:0:
86,45,11337,6,0,L|130:41,3,45,6|0|0|0,3:2|3:0|3:0|3:0,0:0:0:0:
208,113,11686,2,0,L|163:109,1,45,0|0,0:0|3:0,0:0:0:0:
86,179,11861,2,0,L|130:175,1,45,2|0,3:2|3:0,0:0:0:0:
208,113,12035,2,0,L|163:109,1,45,2|0,3:2|3:0,0:0:0:0:
86,179,12209,2,0,L|130:175,1,45,0|0,0:0|3:0,0:0:0:0:
208,247,12384,2,0,L|163:243,3,45,2|0|0|0,3:2|3:0|3:0|3:0,0:0:0:0:
103,329,12733,6,0,P|94:308|93:285,1,45,2|0,3:2|3:0,0:0:0:0:
212,172,12907,1,2,3:2:0:0:
212,172,12994,1,2,3:2:0:0:
212,172,13081,2,0,P|234:175|254:185,1,45,2|0,3:2|3:0,0:0:0:0:
293,344,13256,2,0,P|279:361|260:373,1,45,2|0,3:2|3:0,0:0:0:0:
163,243,13430,6,0,L|208:247,1,45,0|0,0:0|3:0,0:0:0:0:
293,271,13605,2,0,L|310:229,1,45,2|0,3:2|3:0,0:0:0:0:
359,156,13779,2,0,L|324:126,1,45,0|0,0:0|3:0,0:0:0:0:
270,57,13954,2,0,L|231:80,1,45,2|0,3:2|3:0,0:0:0:0:
148,111,14128,6,0,L|158:154,1,45,2|0,3:2|3:0,0:0:0:0:
78,61,14302,2,0,L|89:18,1,45,0|0,0:2|3:0,0:0:0:0:
148,111,14477,6,0,L|104:124,1,33.7500012874604,2|0,3:2|3:0,0:0:0:0:
78,61,14651,2,0,L|122:48,1,33.7500012874604,0|0,0:2|3:0,0:0:0:0:
152,116,14826,6,0,L|162:159,1,45,2|0,3:2|3:0,0:0:0:0:
76,56,15000,2,0,L|87:13,1,45,0|0,0:2|3:0,0:0:0:0:
152,116,15175,6,0,L|108:129,1,33.7500012874604,2|0,3:2|3:0,0:0:0:0:
76,56,15349,2,0,L|120:43,1,33.7500012874604,0|0,0:2|3:0,0:0:0:0:
5,178,15523,6,0,P|23:190|45:194,3,45,2|0|0|0,3:2|3:0|3:0|3:0,0:0:0:0:
64,287,15872,2,0,P|81:273|92:253,1,45,0|0,0:0|3:0,0:0:0:0:
185,265,16046,2,0,P|177:243|162:227,1,45,2|0,3:2|3:0,0:0:0:0:
200,143,16221,2,0,P|178:144|158:154,1,45,0|0,0:0|3:0,0:0:0:0:
90,88,16395,2,0,P|83:109|86:131,1,45,2|0,3:2|3:0,0:0:0:0:
64,287,16570,2,0,P|81:273|92:253,1,45,0|0,0:0|3:0,0:0:0:0:
185,265,16744,2,0,P|177:243|162:227,1,45,0|0,0:0|3:0,0:0:0:0:
200,143,16919,6,0,P|178:144|158:154,3,45,4|0|0|0,0:1|3:0|3:0|3:0,0:0:0:0:
274,121,17268,2,0,P|266:100|250:84,1,45,0|0,0:0|3:0,0:0:0:0:
317,184,17442,2,0,P|334:170|344:150,1,45,2|0,3:2|3:0,0:0:0:0:
270,244,17616,2,0,P|288:256|310:259,1,45,0|0,0:0|3:0,0:0:0:0:
198,217,17791,2,0,P|192:238|195:260,1,45,2|0,3:2|3:0,0:0:0:0:
200,143,17965,2,0,P|178:144|158:154,3,45,0|0|2|0,0:0|0:0|3:2|0:0,0:0:0:0:
317,184,18314,6,0,P|334:170|344:150,3,45,2|0|0|0,3:3|3:0|3:0|3:0,0:0:0:0:
274,121,18663,2,0,P|266:100|250:84,1,45,0|0,0:0|3:0,0:0:0:0:
200,143,18837,2,0,P|178:144|158:154,1,45,2|0,3:2|3:0,0:0:0:0:
198,217,19012,2,0,P|192:238|195:260,1,45,0|0,0:0|3:0,0:0:0:0:
270,244,19186,2,0,P|288:256|310:259,1,45,2|0,3:2|3:0,0:0:0:0:
317,184,19361,2,0,P|334:170|344:150,1,45,0|0,0:0|3:0,0:0:0:0:
274,121,19535,2,0,P|266:100|250:84,1,45,0|0,0:0|3:0,0:0:0:0:
200,143,19709,6,0,P|178:144|158:154,1,45,4|0,1:2|3:0,0:0:0:0:
48,183,19884,2,0,P|67:193|90:194,1,45,2|0,3:2|3:0,0:0:0:0:
75,80,20058,6,0,P|76:102|86:122,1,45,0|0,2:0|3:0,0:0:0:0:
186,259,20233,2,0,P|196:239|198:217,1,45,0|0,0:0|3:0,0:0:0:0:
200,143,20407,6,0,P|178:144|158:154,1,45,0|0,1:0|3:0,0:0:0:0:
48,183,20581,2,0,P|67:193|90:194,1,45,2|0,3:2|3:0,0:0:0:0:
186,259,20756,6,0,P|196:239|198:217,1,45,0|0,2:0|3:0,0:0:0:0:
75,80,20930,2,0,P|76:102|86:122,1,45,2|0,3:2|3:0,0:0:0:0:
200,143,21105,6,0,L|244:134,1,45,0|0,1:0|3:0,0:0:0:0:
352,98,21279,2,0,L|307:89,1,45,2|0,3:2|3:0,0:0:0:0:
198,216,21454,6,0,L|242:207,1,45,0|0,1:0|3:0,0:0:0:0:
350,171,21628,2,0,L|305:162,1,45,2|0,3:2|3:0,0:0:0:0:
196,289,21803,6,0,L|240:280,1,45,0|0,1:0|3:0,0:0:0:0:
348,244,21977,1,2,1:2:0:0:
348,244,22064,1,0,1:0:0:0:
348,244,22151,2,0,L|303:235,1,45,0|0,1:0|3:0,0:0:0:0:
194,362,22326,2,0,L|238:353,1,45,4|0,1:2|3:0,0:0:0:0:
363,337,22500,6,0,P|334:319|301:315,1,67.5000025749208,6|0,2:1|3:0,0:0:0:0:
134,310,22675,1,2,0:0:0:0:
134,310,22762,1,0,0:0:0:0:
134,310,22849,2,0,P|162:293|196:289,1,67.5000025749208,8|0,1:0|3:0,0:0:0:0:
301,315,23023,2,0,L|290:248,1,67.5000025749208,2|0,0:0|3:0,0:0:0:0:
115,217,23198,6,0,P|143:199|176:195,1,67.5000025749208,0|0,2:1|3:0,0:0:0:0:
343,190,23373,1,10,0:0:0:0:
343,190,23460,1,8,0:0:0:0:
343,190,23547,2,0,P|314:172|281:168,1,67.5000025749208,8|0,1:0|3:0,0:0:0:0:
177,195,23721,2,0,L|187:128,1,67.5000025749208,2|0,0:0|3:0,0:0:0:0:
130,4,23895,6,0,P|128:37|144:66,1,67.5000025749208,4|0,2:0|3:0,0:0:0:0:
262,95,24070,1,2,0:0:0:0:
262,95,24157,1,0,0:0:0:0:
262,95,24244,2,0,L|328:84,1,67.5000025749208,8|0,1:0|3:0,0:0:0:0:
177,195,24419,2,0,L|110:184,1,67.5000025749208,2|0,0:0|3:0,0:0:0:0:
266,179,24593,6,0,P|267:212|251:241,1,67.5000025749208,0|0,0:1|3:0,0:0:0:0:
134,270,24768,1,8,0:0:0:0:
134,270,24855,1,8,0:0:0:0:
134,270,24942,2,0,L|67:259,1,67.5000025749208,8|0,1:0|3:0,0:0:0:0:
219,370,25117,2,0,L|285:359,1,67.5000025749208,0|0,2:1|3:0,0:0:0:0:
149,332,25291,6,0,P|133:303|134:269,1,67.5000025749208,0|0,0:1|3:0,0:0:0:0:
266,179,25465,1,2,0:0:0:0:
266,179,25552,1,0,0:0:0:0:
266,179,25640,2,0,L|332:168,1,67.5000025749208,8|0,1:0|3:0,0:0:0:0:
212,57,25814,2,0,P|195:86|196:119,1,67.5000025749208,2|0,0:0|3:0,0:0:0:0:
275,333,25988,6,0,P|291:303|290:270,1,67.5000025749208,0|0,0:1|3:0,0:0:0:0:
158,179,26162,1,8,0:0:0:0:
158,179,26249,1,8,0:0:0:0:
158,179,26337,2,0,L|92:168,1,67.5000025749208,8|0,1:0|3:0,0:0:0:0:
212,57,26511,2,0,P|228:86|227:119,1,67.5000025749208,10|0,0:0|3:0,0:0:0:0:
93,245,26686,6,0,L|27:256,1,67.5000025749208,4|0,1:2|3:0,0:0:0:0:
189,355,26861,1,8,2:2:0:0:
189,355,26948,1,8,3:2:0:0:
189,355,27035,2,0,P|205:325|204:292,1,67.5000025749208,8|0,1:0|3:0,0:0:0:0:
158,179,27209,2,0,L|92:168,1,67.5000025749208,8|8,0:2|3:2,0:0:0:0:
212,57,27384,6,0,L|278:46,1,67.5000025749208,0|0,1:0|3:0,0:0:0:0:
343,134,27558,2,0,L|277:123,1,67.5000025749208,0|0,1:0|3:0,0:0:0:0:
271,261,27733,1,8,2:1:0:0:
271,261,27820,1,8,2:1:0:0:
271,261,27907,2,0,P|254:231|255:198,1,67.5000025749208,8|0,0:1|3:0,0:0:0:0:
343,134,28081,6,0,L|409:123,1,67.5000025749208,6|0,2:1|3:0,0:0:0:0:
459,5,28256,1,2,0:0:0:0:
459,5,28343,1,0,0:0:0:0:
459,5,28430,2,0,P|475:34|474:67,1,67.5000025749208,8|0,1:0|3:0,0:0:0:0:
433,252,28605,2,0,P|449:222|448:189,1,67.5000025749208,2|0,0:0|3:0,0:0:0:0:
343,134,28779,6,0,L|277:123,1,67.5000025749208,0|0,2:1|3:0,0:0:0:0:
227,5,28954,1,10,0:0:0:0:
227,5,29041,1,8,0:0:0:0:
227,5,29128,2,0,P|210:34|211:67,1,67.5000025749208,8|0,1:0|3:0,0:0:0:0:
253,252,29303,2,0,P|236:222|237:189,1,67.5000025749208,0|0,0:0|3:0,0:0:0:0:
343,134,29477,6,0,L|343:201,1,67.5000025749208,4|0,2:0|3:0,0:0:0:0:
283,83,29651,1,2,0:0:0:0:
310,63,29738,1,0,0:0:0:0:
343,59,29826,2,0,P|376:65|402:86,1,67.5000025749208,8|0,1:0|3:0,0:0:0:0:
341,276,30000,2,0,P|309:269|283:248,1,67.5000025749208,2|0,0:0|3:0,0:0:0:0:
343,134,30175,6,0,L|343:201,1,67.5000025749208,0|0,0:1|3:0,0:0:0:0:
402,86,30349,1,8,0:0:0:0:
375,64,30436,1,8,0:0:0:0:
342,58,30524,2,0,P|309:64|283:85,1,67.5000025749208,8|0,1:1|3:0,0:0:0:0:
344,276,30698,2,0,P|376:269|402:248,1,67.5000025749208,0|0,2:1|3:0,0:0:0:0:
443,185,30872,6,0,L|448:128,1,56.25,10|0,1:0|3:0,0:0:0:0:
231,132,31047,1,2,0:0:0:0:
231,132,31134,1,0,0:0:0:0:
231,132,31221,2,0,L|237:189,1,56.25,0|0,0:1|3:0,0:0:0:0:
343,190,31395,2,0,L|343:134,1,56.25,2|0,0:0|3:0,0:0:0:0:
26,137,31570,6,0,L|20:193,1,56.25,8|0,1:1|3:0,0:0:0:0:
237,189,31745,1,10,0:0:0:0:
237,189,31832,1,8,0:0:0:0:
237,189,31919,2,0,L|231:132,1,56.25,0|0,2:0|3:0,0:0:0:0:
126,131,32093,2,0,L|126:187,1,56.25,10|0,0:0|3:0,0:0:0:0:
73,250,32268,6,0,P|97:264|125:269,1,56.25,4|0,1:2|3:0,0:0:0:0:
177,69,32442,2,0,P|153:55|126:50,1,56.25,8|8,0:2|0:0,0:0:0:0:
175,249,32616,2,0,P|151:263|124:268,1,56.25,8|0,1:1|3:0,0:0:0:0:
48,116,32791,1,8,0:1:0:0:
55,89,32878,1,8,0:1:0:0:
74,67,32965,2,0,P|98:53|125:49,1,56.25,0|0,1:0|3:0,0:0:0:0:
242,111,33140,5,8,1:0:0:0:
293,132,33227,1,8,1:0:0:0:
348,127,33314,1,8,1:1:0:0:
385,85,33401,1,8,1:0:0:0:
370,30,33488,2,0,L|313:34,1,56.25,8|0,1:0|3:0,0:0:0:0:
242,111,33663,6,0,L|245:178,1,67.5000025749208,6|0,0:1|3:0,0:0:0:0:
421,213,33837,1,0,0:0:0:0:
421,213,33925,1,2,0:0:0:0:
421,213,34012,2,0,P|428:180|417:149,1,67.5000025749208,8|0,1:0|3:0,0:0:0:0:
307,217,34186,6,0,L|310:284,1,67.5000025749208,2|0,0:0|3:0,0:0:0:0:
402,349,34361,2,0,P|413:317|406:284,1,67.5000025749208,0|0,0:1|3:0,0:0:0:0:
239,294,34535,5,10,0:0:0:0:
239,294,34622,1,8,0:0:0:0:
239,294,34709,2,0,L|235:361,1,67.5000025749208,8|0,1:0|3:0,0:0:0:0:
87,377,34884,2,0,P|75:345|82:312,1,67.5000025749208,10|0,0:0|3:0,0:0:0:0:
164,221,35058,6,0,L|231:213,1,67.5000025749208,4|0,0:0|3:0,0:0:0:0:
114,81,35233,1,0,0:0:0:0:
114,81,35320,1,2,0:0:0:0:
114,81,35407,2,0,P|102:112|109:145,1,67.5000025749208,8|0,1:0|3:0,0:0:0:0:
302,241,35581,2,0,P|308:208|297:176,1,67.5000025749208,8|0,0:0|3:0,0:0:0:0:
164,221,35756,6,0,L|96:228,1,67.5000025749208,0|0,0:1|3:0,0:0:0:0:
225,340,35931,1,10,0:0:0:0:
225,340,36018,1,8,0:0:0:0:
225,340,36105,2,0,P|231:307|220:275,1,67.5000025749208,8|0,1:1|3:0,0:0:0:0:
28,202,36279,2,0,P|21:234|32:266,1,67.5000025749208,10|0,0:0|3:0,0:0:0:0:
87,377,36454,6,0,L|154:384,1,67.5000025749208,0|0,0:1|3:0,0:0:0:0:
265,331,36628,1,2,0:0:0:0:
277,300,36715,1,0,0:0:0:0:
287,268,36802,2,0,L|220:275,1,67.5000025749208,8|0,1:0|3:0,0:0:0:0:
87,377,36977,6,0,L|154:384,1,67.5000025749208,8|0,0:0|3:0,0:0:0:0:
144,149,37151,2,0,P|137:181|148:213,1,67.5000025749208,0|0,0:0|3:0,0:0:0:0:
265,331,37326,1,10,0:0:0:0:
277,300,37413,1,8,0:0:0:0:
287,268,37500,2,0,L|220:275,1,67.5000025749208,8|0,1:1|3:0,0:0:0:0:
144,149,37675,2,0,P|137:181|148:213,1,67.5000025749208,10|0,0:0|3:0,0:0:0:0:
353,325,37849,6,0,L|420:332,1,67.5000025749208,6|0,0:2|3:0,0:0:0:0:
454,234,38023,1,8,0:1:0:0:
454,234,38111,1,8,0:1:0:0:
454,234,38198,2,0,P|422:227|390:238,1,67.5000025749208,8|0,1:0|3:0,0:0:0:0:
265,331,38372,2,0,P|233:338|201:327,1,67.5000025749208,8|8,0:1|0:1,0:0:0:0:
77,198,38547,6,0,L|66:131,1,67.5000025749208,2|0,1:2|3:0,0:0:0:0:
0,276,38721,2,0,P|32:283|64:272,1,67.5000025749208,8|0,1:0|3:0,0:0:0:0:
166,199,38895,1,8,1:0:0:0:
166,199,38983,1,8,1:0:0:0:
166,199,39070,2,0,P|198:192|230:203,1,67.5000025749208,8|0,0:1|3:0,0:0:0:0:
353,324,39244,6,0,L|420:331,1,67.5000025749208,6|0,1:0|3:0,0:0:0:0:
487,254,39419,1,0,0:0:0:0:
500,223,39506,1,2,0:0:0:0:
510,191,39593,2,0,L|443:198,1,67.5000025749208,8|0,1:0|3:0,0:0:0:0:
310,238,39768,2,0,L|377:245,1,67.5000025749208,8|0,0:0|3:0,0:0:0:0:
267,152,39942,6,0,L|200:145,1,67.5000025749208,0|0,0:1|3:0,0:0:0:0:
133,222,40117,1,10,0:0:0:0:
120,253,40204,1,8,0:0:0:0:
110,285,40291,2,0,L|177:278,1,67.5000025749208,8|0,1:0|3:0,0:0:0:0:
310,238,40466,2,0,L|243:231,1,67.5000025749208,10|0,0:0|3:0,0:0:0:0:
138,80,40640,6,0,P|119:107|115:141,1,67.5000025749208,4|0,0:2|3:0,0:0:0:0:
226,364,40814,1,0,0:0:0:0:
226,364,40901,1,0,0:0:0:0:
226,364,40988,2,0,P|245:336|249:303,1,67.5000025749208,8|0,1:1|3:0,0:0:0:0:
133,222,41163,2,0,L|66:229,1,67.5000025749208,2|0,0:0|3:0,0:0:0:0:
342,161,41337,6,0,L|409:168,1,67.5000025749208,0|0,0:1|3:0,0:0:0:0:
256,310,41511,1,10,0:0:0:0:
256,310,41598,1,0,0:0:0:0:
256,310,41685,2,0,P|236:282|232:249,1,67.5000025749208,8|0,1:0|3:0,0:0:0:0:
337,20,41861,2,0,P|356:47|360:80,1,67.5000025749208,10|0,0:2|3:0,0:0:0:0:
217,143,42035,6,0,L|150:150,1,67.5000025749208,2|0,1:0|3:0,0:0:0:0:
311,260,42209,1,0,0:0:0:0:
311,260,42297,1,8,0:0:0:0:
311,260,42384,2,0,L|378:267,1,67.5000025749208,8|0,1:0|3:0,0:0:0:0:
217,143,42558,2,0,L|150:150,1,67.5000025749208,8|0,0:0|3:0,0:0:0:0:
359,80,42733,6,0,L|459:90,1,67.5000025749208,0|0,1:1|3:2,0:0:0:0:
170,243,42907,1,8,0:1:0:0:
170,243,42995,1,8,0:1:0:0:
170,243,43082,2,0,L|69:253,1,67.5000025749208,8|0,1:0|3:0,0:0:0:0:
359,80,43256,2,0,L|459:90,1,67.5000025749208,8|0,0:1|3:2,0:0:0:0:
134,16,43430,6,0,P|138:49|153:80,1,67.5000025749208,8|0,1:1|3:0,0:0:0:0:
377,16,43605,2,0,P|373:49|359:80,1,67.5000025749208,0|0,1:0|3:0,0:0:0:0:
57,148,43779,6,0,P|87:161|121:163,1,67.5000025749208,8|8,1:0|1:2,0:0:0:0:
455,148,43954,2,0,P|424:161|390:163,1,67.5000025749208,8|8,1:0|1:0,0:0:0:0:
124,290,44128,6,0,P|151:270|169:242,1,67.5000025749208,8|8,1:0|1:0,0:0:0:0:
388,290,44302,2,0,P|360:270|342:242,1,67.5000025749208,8|8,1:0|1:0,0:0:0:0:
142,353,44477,6,0,P|138:320|124:290,1,67.5000025749208,0|0,1:0|1:0,0:0:0:0:
369,353,44651,2,0,P|373:320|388:290,1,67.5000025749208,0|0,1:0|1:0,0:0:0:0:
256,192,44826,5,2,0:3:0:0:
219,152,45175,1,4,0:0:0:0:
178,146,45523,1,4,0:0:0:0:
154,159,45872,1,2,3:2:0:0:
189,220,46221,5,4,0:0:0:0:
256,192,47616,5,2,0:3:0:0:
279,164,47965,1,0,0:0:0:0:
312,150,48313,1,2,0:2:0:0:
338,153,48662,1,0,0:2:0:0:
323,220,49011,5,4,0:0:0:0:
189,220,50407,5,4,0:0:0:0:
323,220,51802,5,4,0:0:0:0:
256,192,53198,5,2,0:3:0:0:
251,156,53547,1,0,0:0:0:0:
261,131,53895,1,2,0:2:0:0:
254,114,54244,1,0,0:2:0:0:
256,256,54593,5,4,0:0:0:0:
40,187,55988,5,12,0:0:0:0:
259,258,56163,1,0,0:0:0:0:
259,258,56250,2,0,L|251:213,1,45,8|0,0:0|3:0,0:0:0:0:
89,65,56512,5,0,0:0:0:0:
95,146,56686,1,0,0:0:0:0:
175,167,56861,1,0,0:0:0:0:
217,97,57035,1,0,0:0:0:0:
165,35,57209,1,0,0:0:0:0:
89,65,57384,5,4,0:0:0:0:
259,170,57558,1,0,0:0:0:0:
259,170,57645,2,0,L|251:214,1,45,8|0,0:0|3:0,0:0:0:0:
472,187,57907,5,0,0:0:0:0:
472,187,58081,5,0,0:0:0:0:
450,159,58168,1,8,0:0:0:0:
417,146,58255,1,8,0:0:0:0:
380,146,58343,1,8,0:0:0:0:
348,163,58430,1,0,0:0:0:0:
292,194,58518,1,8,0:0:0:0:
235,167,58605,1,8,0:0:0:0:
210,109,58692,1,8,0:0:0:0:
247,58,58779,5,10,0:3:0:0:
402,245,58954,1,0,0:0:0:0:
402,245,59041,2,0,L|395:289,1,45,8|0,0:0|3:0,0:0:0:0:
160,334,59302,5,0,0:0:0:0:
235,167,59477,5,8,0:0:0:0:
77,259,59651,1,0,0:0:0:0:
257,276,59826,1,0,0:0:0:0:
122,155,60000,1,0,0:0:0:0:
160,334,60175,5,4,0:0:0:0:
291,115,60349,1,0,0:0:0:0:
291,115,60436,2,0,L|284:70,1,45,8|0,0:0|3:0,0:0:0:0:
235,167,60698,5,0,0:0:0:0:
469,259,60872,5,0,0:0:0:0:
484,217,60959,1,8,0:0:0:0:
472,174,61047,1,2,0:1:0:0:
439,144,61134,1,8,0:0:0:0:
395,137,61221,1,0,0:0:0:0:
354,154,61308,1,8,0:0:0:0:
320,183,61395,1,2,0:1:0:0:
275,186,61483,1,8,0:0:0:0:
235,167,61570,5,2,0:1:0:0:
401,218,61744,1,0,0:0:0:0:
386,288,61919,1,0,0:0:0:0:
371,358,62093,1,2,0:0:0:0:
235,167,62268,6,0,B|226:118|266:93|266:93|316:160|387:142,1,225,8|0,0:1|3:0,0:0:0:0:
456,165,62791,5,0,0:0:0:0:
184,267,62965,5,4,0:3:0:0:
169,197,63139,1,0,0:0:0:0:
154,127,63314,1,0,0:0:0:0:
139,57,63489,1,2,0:0:0:0:
12,249,63663,6,0,B|119:212|88:307|213:257,1,180,8|8,0:1|0:0,0:0:0:0:
211,333,64099,1,8,0:0:0:0:
245,303,64186,1,0,0:0:0:0:
251,258,64273,1,8,0:0:0:0:
233,216,64361,5,4,0:3:0:0:
392,169,64709,1,8,0:1:0:0:
251,258,65058,5,2,0:1:0:0:
422,258,65407,1,8,0:1:0:0:
211,333,65756,5,0,1:0:0:0:
331,377,65930,1,0,1:0:0:0:
245,303,66105,5,2,1:2:0:0:
386,329,66279,1,0,1:0:0:0:
251,258,66454,5,2,1:2:0:0:
422,258,66628,1,0,1:0:0:0:
232,215,66802,6,0,L|239:170,1,45,2|0,1:2|1:0,0:0:0:0:
391,168,66977,2,0,L|398:123,1,45,2|0,1:2|3:0,0:0:0:0:
169,15,67151,6,0,P|159:41|161:69,2,56.25,6|0|0,1:0|3:0|3:0,0:0:0:0:
240,171,67413,2,0,P|222:149|196:137,2,56.25,2|8|0,0:0|1:0|3:0,0:0:0:0:
69,154,67675,2,0,P|96:149|119:133,3,56.25,2|0|0|0,0:0|3:0|0:1|3:0,0:0:0:0:
57,82,68023,5,8,0:0:0:0:
10,113,68111,1,8,0:0:0:0:
0,168,68198,2,0,L|11:223,1,56.25,8|0,1:0|3:0,0:0:0:0:
78,290,68372,2,0,L|89:345,1,56.25,2|0,0:0|3:0,0:0:0:0:
196,137,68547,6,0,P|222:149|240:171,2,56.25,4|0|0,0:2|3:0|3:0,0:0:0:0:
375,226,68808,2,0,P|352:241|324:246,2,56.25,2|8|0,0:0|1:0|3:0,0:0:0:0:
209,336,69070,2,0,P|206:308|216:281,3,56.25,2|0|0|0,0:0|3:0|0:1|3:0,0:0:0:0:
272,130,69419,5,8,0:0:0:0:
291,184,69506,1,8,0:0:0:0:
268,236,69593,2,0,L|324:246,1,56.25,8|0,1:0|3:0,0:0:0:0:
399,124,69768,2,0,L|343:134,1,56.25,2|0,0:0|3:0,0:0:0:0:
268,236,69942,6,0,L|324:246,1,56.25,0|0,0:1|3:0,0:0:0:0:
465,163,70116,1,2,0:0:0:0:
474,106,70204,1,0,0:0:0:0:
440,58,70291,2,0,P|415:48|387:47,1,56.25,8|0,1:0|3:0,0:0:0:0:
261,74,70465,2,0,L|272:130,1,56.25,2|0,0:0|3:0,0:0:0:0:
268,236,70640,6,0,L|324:246,1,56.25,0|0,0:1|3:0,0:0:0:0:
75,224,70814,5,0,0:0:0:0:
66,281,70902,1,0,0:0:0:0:
100,328,70989,2,0,P|125:338|153:339,1,56.25,8|0,1:0|3:0,0:0:0:0:
139,182,71163,5,2,0:0:0:0:
94,145,71251,1,8,0:0:0:0:
36,151,71338,2,0,P|13:167|0:191,1,56.25,0|0,0:1|3:0,0:0:0:0:
143,258,71511,5,10,0:0:0:0:
197,237,71599,1,0,1:0:0:0:
221,184,71686,2,0,P|217:156|204:131,1,56.25,8|0,1:0|3:0,0:0:0:0:
100,328,71861,6,0,P|125:338|153:339,1,56.25,14|0,0:0|3:0,0:0:0:0:
6,267,72035,6,0,P|9:293|22:318,1,56.25,0|0,1:0|3:0,0:0:0:0:
36,151,72209,2,0,P|13:167|0:191,1,56.25,8|0,1:0|3:0,0:0:0:0:
143,258,72384,5,8,1:0:0:0:
197,237,72472,1,8,1:0:0:0:
221,184,72559,2,0,L|215:128,1,56.25,6|0,1:2|3:0,0:0:0:0:
274,325,72733,6,0,L|268:380,1,56.25,6|0,1:0|3:0,0:0:0:0:
332,263,72907,1,2,0:0:0:0:
332,263,72994,2,0,P|360:254|387:257,2,56.25,2|8|0,0:0|1:0|3:0,0:0:0:0:
221,184,73256,6,0,L|215:128,3,56.25,2|0|0|0,0:0|3:0|3:1|3:0,0:0:0:0:
90,111,73605,2,0,P|68:129|55:153,1,56.25,0|0,0:0|3:0,0:0:0:0:
115,255,73779,2,0,P|143:257|170:249,3,56.25,8|0|0|0,1:0|3:0|0:0|3:0,0:0:0:0:
221,184,74128,6,0,L|215:128,1,56.25,4|0,0:2|3:0,0:0:0:0:
370,51,74302,5,2,0:0:0:0:
329,11,74390,1,2,0:0:0:0:
273,22,74477,2,0,L|279:78,1,56.25,8|0,1:0|3:0,0:0:0:0:
438,126,74651,2,0,P|416:142|389:148,1,56.25,10|0,0:0|3:0,0:0:0:0:
221,184,74826,6,0,L|215:128,1,56.25,0|0,0:1|3:0,0:0:0:0:
273,22,75000,2,0,L|279:78,1,56.25,10|0,0:0|3:0,0:0:0:0:
146,209,75175,6,0,L|140:153,1,56.25,8|0,1:0|3:0,0:0:0:0:
33,9,75349,2,0,L|39:65,1,56.25,2|0,0:0|3:0,0:0:0:0:
0,231,75523,6,0,P|27:237|49:253,1,56.25,8|0,1:1|3:0,0:0:0:0:
101,378,75698,1,8,0:0:0:0:
101,378,75785,1,8,0:0:0:0:
101,378,75872,2,0,P|115:354|138:337,1,56.25,8|0,0:0|3:0,0:0:0:0:
272,327,76047,6,0,P|253:305|245:279,3,56.25,8|0|8|8,1:0|3:0|0:0|0:0,0:0:0:0:
276,148,76395,1,0,0:0:0:0:
276,148,76483,1,8,0:0:0:0:
276,148,76570,2,0,P|250:158|222:158,1,56.25,8|0,1:0|3:0,0:0:0:0:
107,89,76744,6,0,P|109:116|100:143,3,56.25,2|0|8|0,1:2|3:0|1:0|3:0,0:0:0:0:
0,231,77093,6,0,P|27:237|49:253,3,56.25,2|0|8|0,1:2|3:0|1:0|3:0,0:0:0:0:
101,378,77442,5,10,2:2:0:0:
101,378,77529,1,8,2:0:0:0:
101,378,77616,2,0,P|115:354|138:337,1,56.25,8|0,1:0|3:0,0:0:0:0:
247,284,77791,5,0,1:2:0:0:
298,263,77878,1,0,1:0:0:0:
353,274,77965,1,8,1:0:0:0:
404,297,78052,1,8,1:0:0:0:
446,260,78140,2,0,L|389:264,1,56.25,2|0,1:2|3:0,0:0:0:0:
179,319,78314,6,0,P|170:292|173:264,2,56.25,6|0|0,1:0|3:0|3:0,0:0:0:0:
245,207,78576,2,0,L|249:150,2,56.25,2|8|0,0:0|1:0|3:0,0:0:0:0:
183,50,78837,2,0,P|174:76|177:104,3,56.25,2|0|0|0,0:0|3:0|0:1|3:0,0:0:0:0:
112,184,79186,5,8,0:0:0:0:
112,184,79273,1,8,0:0:0:0:
112,184,79361,2,0,L|182:176,1,56.25,8|0,1:0|3:0,0:0:0:0:
300,213,79535,2,0,L|245:207,1,56.25,2|0,0:0|3:0,0:0:0:0:
210,363,79709,6,0,P|189:344|179:319,2,56.25,4|0|0,0:2|3:0|3:0,0:0:0:0:
245,207,79971,2,0,L|249:150,2,56.25,2|8|0,0:0|1:0|3:0,0:0:0:0:
225,15,80232,2,0,P|200:27|183:50,3,56.25,2|0|0|0,0:0|3:0|0:1|3:0,0:0:0:0:
316,107,80581,6,0,L|386:99,1,56.25,8|0,0:0|3:0,0:0:0:0:
167,190,80756,2,0,L|112:184,1,56.25,8|0,1:0|3:0,0:0:0:0:
316,107,80930,2,0,L|371:100,1,56.25,10|0,0:0|3:0,0:0:0:0:
167,190,81105,2,0,L|112:184,1,56.25,0|0,0:1|3:0,0:0:0:0:
256,310,81279,5,0,0:0:0:0:
256,310,81366,1,0,0:0:0:0:
256,309,81454,2,0,P|265:282|264:254,1,56.25,8|0,1:0|3:0,0:0:0:0:
111,183,81628,2,0,L|56:189,1,56.25,2|0,0:0|3:0,0:0:0:0:
200,62,81802,5,0,0:1:0:0:
200,62,81889,1,8,0:0:0:0:
200,63,81977,2,0,P|209:89|208:117,1,56.25,0|8,0:0|0:0,0:0:0:0:
55,189,82151,2,0,L|0:183,1,56.25,8|0,1:0|3:0,0:0:0:0:
129,365,82326,5,2,0:0:0:0:
160,318,82413,1,8,0:0:0:0:
145,263,82500,2,0,L|90:269,1,56.25,4|0,2:1|3:0,0:0:0:0:
208,117,82675,2,0,L|153:111,1,56.25,0|0,0:0|3:0,0:0:0:0:
277,223,82849,2,0,L|222:229,1,56.25,8|0,0:0|3:0,0:0:0:0:
338,102,83023,2,0,L|283:96,1,56.25,0|0,0:0|3:0,0:0:0:0:
453,55,83198,6,0,L|398:49,1,56.25,0|0,0:0|3:0,0:0:0:0:
408,256,83372,2,0,L|353:262,1,56.25,8|8,0:1|0:1,0:0:0:0:
338,102,83547,2,0,L|283:96,1,56.25,4|0,0:2|3:0,0:0:0:0:
277,223,83721,2,0,L|222:229,1,56.25,8|0,0:1|3:0,0:0:0:0:
111,183,83895,6,0,L|56:189,1,56.25,6|0,1:0|3:0,0:0:0:0:
208,117,84070,2,0,L|153:111,3,56.25,2|0|8|0,0:0|0:0|1:0|3:0,0:0:0:0:
277,223,84419,6,0,L|222:229,1,56.25,2|0,0:0|3:0,0:0:0:0:
338,102,84593,2,0,L|283:96,1,56.25,0|0,0:1|3:0,0:0:0:0:
111,183,84768,5,2,0:0:0:0:
111,183,84855,1,2,0:0:0:0:
111,183,84942,2,0,L|56:189,1,56.25,8|0,1:0|3:0,0:0:0:0:
208,117,85116,2,0,L|153:111,1,56.25,2|0,0:0|3:0,0:0:0:0:
408,256,85291,6,0,L|353:262,1,56.25,4|0,0:2|3:0,0:0:0:0:
453,55,85465,2,0,L|398:49,3,56.25,8|8|8|0,0:0|0:0|1:0|3:0,0:0:0:0:
277,223,85814,6,0,L|222:229,1,56.25,2|0,0:0|3:0,0:0:0:0:
338,102,85988,2,0,L|283:96,1,56.25,0|0,0:1|3:0,0:0:0:0:
111,183,86163,5,10,0:0:0:0:
111,183,86250,1,10,0:0:0:0:
111,183,86337,2,0,L|56:189,1,56.25,8|0,1:0|3:0,0:0:0:0:
208,117,86512,2,0,L|153:111,1,56.25,2|0,0:0|3:0,0:0:0:0:
74,11,86686,6,0,P|68:38|75:65,1,56.25,8|0,1:1|3:0,0:0:0:0:
278,153,86861,1,8,0:0:0:0:
286,110,86948,1,8,0:0:0:0:
271,68,87035,2,0,P|249:50|222:42,1,56.25,0|0,0:0|3:0,0:0:0:0:
122,209,87209,2,0,P|148:199|168:180,1,56.25,0|0,0:0|3:0,0:0:0:0:
74,11,87384,6,0,P|68:38|75:65,1,56.25,8|0,1:0|3:0,0:0:0:0:
363,86,87558,1,0,0:0:0:0:
363,86,87645,1,8,0:0:0:0:
363,86,87733,2,0,P|368:113|361:140,1,56.25,8|0,0:0|3:0,0:0:0:0:
239,226,87907,2,0,L|244:282,1,56.25,2|0,0:0|3:0,0:0:0:0:
344,369,88081,6,0,P|349:341|342:314,3,56.25,8|0|0|0,1:0|3:0|1:0|3:0,0:0:0:0:
157,312,88430,2,0,P|151:284|158:257,1,56.25,0|0,1:0|3:0,0:0:0:0:
291,166,88605,1,0,1:0:0:0:
291,166,88692,1,0,1:0:0:0:
291,166,88779,2,0,L|285:109,1,56.25,0|0,1:0|3:0,0:0:0:0:
58,71,88954,5,0,1:0:0:0:
94,45,89041,1,0,1:0:0:0:
137,35,89128,1,0,1:0:0:0:
181,41,89215,1,0,1:0:0:0:
218,66,89302,2,0,L|212:122,1,56.25,0|0,1:0|3:0,0:0:0:0:
48,209,89477,6,0,P|36:177|39:144,1,67.5000025749208,6|0,2:1|3:0,0:0:0:0:
305,45,89651,1,2,0:0:0:0:
305,45,89738,1,0,0:0:0:0:
305,45,89826,2,0,P|308:78|296:109,1,67.5000025749208,8|0,1:0|3:0,0:0:0:0:
196,225,90000,2,0,L|129:217,1,67.5000025749208,2|0,0:0|3:0,0:0:0:0:
47,79,90175,6,0,P|35:110|38:143,1,67.5000025749208,0|0,2:1|3:0,0:0:0:0:
304,243,90349,1,10,0:0:0:0:
304,243,90436,1,8,0:0:0:0:
304,243,90524,2,0,P|307:209|295:178,1,67.5000025749208,8|0,1:0|3:0,0:0:0:0:
196,62,90698,2,0,L|126:69,1,67.5000025749208,2|0,0:0|3:0,0:0:0:0:
129,218,90872,6,0,L|197:226,1,67.5000025749208,4|0,2:2|3:0,0:0:0:0:
35,344,91047,1,2,0:0:0:0:
35,344,91134,1,0,0:0:0:0:
35,344,91221,2,0,P|23:312|26:279,1,67.5000025749208,8|0,1:0|3:0,0:0:0:0:
67,101,91395,2,0,P|63:134|75:165,1,67.5000025749208,2|0,0:0|3:0,0:0:0:0:
184,303,91570,6,0,L|251:295,1,67.5000025749208,0|0,0:1|3:0,0:0:0:0:
368,345,91744,1,8,0:0:0:0:
368,345,91831,1,8,0:0:0:0:
368,345,91918,2,0,P|379:313|376:280,1,67.5000025749208,8|0,1:0|3:0,0:0:0:0:
336,102,92092,2,0,P|339:135|327:166,1,67.5000025749208,0|0,2:1|3:0,0:0:0:0:
197,226,92268,6,0,L|129:218,1,67.5000025749208,0|0,0:1|3:0,0:0:0:0:
372,225,92442,1,0,0:0:0:0:
365,191,92529,1,2,0:0:0:0:
327,166,92617,2,0,L|259:173,1,67.5000025749208,8|0,1:0|3:0,0:0:0:0:
130,218,92791,2,0,L|198:226,1,67.5000025749208,2|0,0:0|3:0,0:0:0:0:
451,113,92965,6,0,L|383:120,1,67.5000025749208,0|0,0:1|3:2,0:0:0:0:
200,81,93140,1,2,0:0:0:0:
207,47,93227,1,8,0:0:0:0:
245,22,93315,2,0,L|312:29,1,67.5000025749208,8|0,1:0|3:0,0:0:0:0:
451,113,93488,2,0,L|383:120,1,67.5000025749208,10|0,0:2|3:0,0:0:0:0:
130,218,93663,6,0,L|198:226,1,67.5000025749208,8|0,1:0|3:0,0:0:0:0:
354,288,93837,1,8,2:0:0:0:
354,288,93925,1,8,3:2:0:0:
354,288,94012,2,0,P|369:258|372:225,1,67.5000025749208,8|0,1:0|3:0,0:0:0:0:
275,148,94186,2,0,L|207:155,1,67.5000025749208,8|8,0:0|3:2,0:0:0:0:
130,218,94361,6,0,L|198:226,1,67.5000025749208,8|0,1:0|3:0,0:0:0:0:
275,148,94535,2,0,L|207:155,1,67.5000025749208,8|0,1:0|3:0,0:0:0:0:
66,270,94709,1,8,1:0:0:0:
66,270,94797,1,8,1:0:0:0:
66,270,94884,2,0,P|51:239|48:206,1,67.5000025749208,8|0,1:0|3:0,0:0:0:0:
231,12,95058,6,0,L|224:80,1,67.5000025749208,6|0,2:1|3:0,0:0:0:0:
361,191,95233,1,2,0:0:0:0:
361,191,95320,1,0,0:0:0:0:
361,191,95407,2,0,L|354:123,1,67.5000025749208,8|0,1:0|3:0,0:0:0:0:
159,93,95581,2,0,P|190:79|224:79,1,67.5000025749208,2|0,0:0|3:0,0:0:0:0:
361,191,95756,6,0,L|368:259,1,67.5000025749208,0|0,2:1|3:0,0:0:0:0:
231,370,95931,1,10,0:0:0:0:
231,370,96018,1,8,0:0:0:0:
231,370,96105,2,0,L|238:302,1,67.5000025749208,8|0,1:0|3:0,0:0:0:0:
432,272,96279,2,0,P|401:258|367:257,1,67.5000025749208,2|0,0:0|3:0,0:0:0:0:
174,288,96454,6,0,P|205:302|239:303,1,67.5000025749208,0|0,2:3|3:0,0:0:0:0:
432,272,96628,1,2,0:0:0:0:
432,272,96715,1,0,0:0:0:0:
432,272,96802,2,0,P|401:258|367:257,1,67.5000025749208,8|0,1:0|3:0,0:0:0:0:
238,303,96977,2,0,L|231:371,1,67.5000025749208,2|0,0:0|3:0,0:0:0:0:
266,140,97151,6,0,P|235:153|201:154,1,67.5000025749208,0|0,0:1|3:0,0:0:0:0:
6,124,97325,1,8,0:0:0:0:
6,124,97412,1,8,0:0:0:0:
6,124,97499,2,0,P|36:110|70:109,1,67.5000025749208,8|0,1:0|3:0,0:0:0:0:
200,154,97674,2,0,L|207:222,1,67.5000025749208,0|0,2:1|3:0,0:0:0:0:
393,115,97849,6,0,P|362:101|328:100,1,67.5000025749208,10|0,1:1|3:0,0:0:0:0:
139,22,98023,1,0,0:0:0:0:
139,22,98111,1,2,0:0:0:0:
139,22,98198,2,0,L|146:90,1,67.5000025749208,0|0,0:0|3:0,0:0:0:0:
328,100,98372,2,0,L|321:168,1,67.5000025749208,8|0,0:0|3:0,0:0:0:0:
74,267,98547,6,0,P|104:253|138:252,1,67.5000025749208,8|0,1:1|3:2,0:0:0:0:
328,174,98721,1,2,0:0:0:0:
328,174,98809,1,8,0:0:0:0:
328,174,98896,2,0,L|321:242,1,67.5000025749208,0|0,0:0|3:0,0:0:0:0:
139,252,99070,2,0,L|146:320,1,67.5000025749208,10|0,0:0|3:0,0:0:0:0:
23,117,99244,6,0,P|56:120|85:136,1,67.5000025749208,8|0,1:1|3:0,0:0:0:0:
255,176,99419,2,0,P|221:179|192:195,1,67.5000025749208,8|8,0:0|3:0,0:0:0:0:
475,117,99593,6,0,P|441:120|412:136,1,67.5000025749208,8|0,1:1|3:0,0:0:0:0:
255,244,99768,1,8,0:1:0:0:
255,210,99855,1,8,3:1:0:0:
255,176,99942,2,0,P|288:179|317:195,1,67.5000025749208,8|0,1:1|3:0,0:0:0:0:
179,273,100116,5,8,1:0:0:0:
135,283,100203,1,8,1:0:0:0:
89,276,100291,1,8,1:1:0:0:
54,247,100378,1,8,1:0:0:0:
34,207,100465,2,0,L|39:263,1,45,8|0,1:0|3:0,0:0:0:0:
26,25,100640,6,0,L|93:32,1,67.5000025749208,6|0,0:1|3:0,0:0:0:0:
133,121,100814,1,0,0:0:0:0:
160,119,100901,1,0,0:0:0:0:
187,115,100988,2,0,L|254:107,1,67.5000025749208,8|0,1:0|3:0,0:0:0:0:
300,25,101163,2,0,L|367:32,1,67.5000025749208,0|0,0:0|3:0,0:0:0:0:
472,106,101337,6,0,L|404:113,1,67.5000025749208,0|0,0:1|3:0,0:0:0:0:
338,223,101512,1,10,0:0:0:0:
304,220,101599,1,8,0:0:0:0:
270,215,101686,2,0,L|202:207,1,67.5000025749208,8|0,1:0|3:0,0:0:0:0:
133,121,101861,2,0,L|65:128,1,67.5000025749208,10|0,0:0|3:0,0:0:0:0:
0,212,102035,6,0,L|67:219,1,67.5000025749208,4|0,0:2|3:0,0:0:0:0:
116,301,102209,1,2,0:0:0:0:
143,299,102296,1,0,0:0:0:0:
170,295,102384,2,0,L|236:286,1,67.5000025749208,8|0,1:0|3:0,0:0:0:0:
304,220,102558,2,0,L|371:227,1,67.5000025749208,2|0,0:0|3:0,0:0:0:0:
492,293,102733,6,0,L|425:301,1,67.5000025749208,0|0,0:1|3:0,0:0:0:0:
366,384,102907,1,10,0:0:0:0:
339,382,102994,1,8,0:0:0:0:
312,378,103081,2,0,L|245:369,1,67.5000025749208,8|0,1:1|3:0,0:0:0:0:
143,299,103256,2,0,L|76:307,1,67.5000025749208,10|0,0:0|3:0,0:0:0:0:
202,207,103430,6,0,P|212:175|207:141,1,67.5000025749208,0|0,0:1|3:0,0:0:0:0:
127,4,103605,1,2,0:0:0:0:
127,4,103692,1,0,0:0:0:0:
127,4,103779,2,0,P|122:37|132:69,1,67.5000025749208,8|0,1:0|3:0,0:0:0:0:
65,177,103954,2,0,L|132:168,1,67.5000025749208,2|0,0:0|3:0,0:0:0:0:
307,224,104128,6,0,P|296:192|301:158,1,67.5000025749208,0|0,0:1|3:0,0:0:0:0:
422,10,104303,1,10,0:0:0:0:
422,10,104390,1,8,0:0:0:0:
422,10,104477,2,0,P|426:43|416:75,1,67.5000025749208,8|0,1:1|3:0,0:0:0:0:
498,195,104652,2,0,L|430:186,1,67.5000025749208,10|0,0:0|3:0,0:0:0:0:
210,274,104826,6,0,L|202:207,1,67.5000025749208,4|0,0:2|3:0,0:0:0:0:
331,33,105000,1,8,0:1:0:0:
331,33,105087,1,8,0:1:0:0:
331,33,105175,2,0,L|339:100,1,67.5000025749208,8|0,1:0|3:0,0:0:0:0:
210,274,105349,2,0,L|202:207,1,67.5000025749208,8|8,0:1|0:1,0:0:0:0:
181,33,105523,6,0,L|172:100,1,67.5000025749208,8|0,1:0|3:0,0:0:0:0:
301,274,105698,2,0,L|310:207,1,67.5000025749208,8|0,1:0|3:0,0:0:0:0:
181,33,105872,1,8,1:0:0:0:
181,33,105959,1,8,1:0:0:0:
181,33,106047,2,0,L|172:100,1,67.5000025749208,8|0,1:0|3:0,0:0:0:0:
29,154,106221,6,0,P|61:163|94:160,1,67.5000025749208,6|0,1:0|3:0,0:0:0:0:
214,257,106395,1,2,0:0:0:0:
214,257,106483,1,0,0:0:0:0:
214,257,106570,2,0,P|206:224|187:196,1,67.5000025749208,8|0,1:0|3:0,0:0:0:0:
211,46,106744,2,0,P|186:69|172:99,1,67.5000025749208,2|0,0:0|3:0,0:0:0:0:
129,263,106919,6,0,L|148:327,1,67.5000025749208,0|0,0:1|3:0,0:0:0:0:
333,364,107093,1,10,0:0:0:0:
333,364,107180,1,8,0:0:0:0:
333,364,107268,2,0,L|379:315,1,67.5000025749208,8|0,1:0|3:0,0:0:0:0:
319,136,107442,2,0,L|253:120,1,67.5000025749208,10|0,0:0|3:0,0:0:0:0:
462,190,107616,6,0,P|429:199|396:196,1,67.5000025749208,4|0,0:2|3:0,0:0:0:0:
277,293,107790,1,2,0:0:0:0:
277,293,107878,1,0,0:0:0:0:
277,293,107965,2,0,P|284:260|303:232,1,67.5000025749208,8|0,1:1|3:0,0:0:0:0:
280,82,108139,2,0,P|304:105|318:135,1,67.5000025749208,2|0,0:0|3:0,0:0:0:0:
396,196,108314,6,0,L|376:260,1,67.5000025749208,0|0,0:1|3:0,0:0:0:0:
263,373,108488,1,10,0:0:0:0:
263,373,108576,1,8,0:0:0:0:
263,373,108663,2,0,L|216:324,1,67.5000025749208,8|0,1:1|3:0,0:0:0:0:
176,169,108837,2,0,L|241:153,1,67.5000025749208,10|0,0:2|3:0,0:0:0:0:
126,47,109012,6,0,P|118:79|126:112,1,67.5000025749208,8|0,1:0|3:0,0:0:0:0:
240,236,109186,1,0,0:0:0:0:
240,236,109273,1,8,0:0:0:0:
240,236,109361,2,0,L|305:251,1,67.5000025749208,8|0,1:0|3:0,0:0:0:0:
242,88,109535,6,0,P|249:120|241:153,1,67.5000025749208,8|0,0:0|3:0,0:0:0:0:
128,277,109709,1,8,1:1:0:0:
128,277,109796,1,8,0:2:0:0:
128,277,109884,2,0,L|62:292,1,67.5000025749208,8|0,1:0|2:2,0:0:0:0:
204,313,110058,6,0,L|219:378,1,67.5000025749208,8|0,1:0|3:0,0:0:0:0:
145,186,110233,2,0,L|160:120,1,67.5000025749208,8|8,1:0|3:2,0:0:0:0:
348,43,110407,6,0,P|341:82|352:120,1,78.7500007510185,8|0,1:1|3:0,0:0:0:0:
163,43,110581,2,0,P|170:82|160:120,1,78.7500007510185,0|0,1:0|3:0,0:0:0:0:
500,116,110756,6,0,P|461:121|428:142,1,78.7500007510185,8|8,1:0|1:2,0:0:0:0:
12,116,110930,2,0,P|50:121|83:142,1,78.7500007510185,8|8,1:0|1:0,0:0:0:0:
478,282,111105,6,0,P|460:246|430:222,1,78.7500007510185,8|8,1:0|1:0,0:0:0:0:
34,282,111279,2,0,P|51:246|81:222,1,78.7500007510185,8|8,1:0|1:0,0:0:0:0:
313,312,111454,6,0,P|341:284|354:248,1,78.7500007510185,0|0,1:0|1:0,0:0:0:0:
199,312,111628,2,0,P|170:284|157:248,1,78.7500007510185,2|0,1:2|1:0,0:0:0:0:
286,156,112326,6,0,P|248:180|204:184,3,90,10|0|0|0,0:3|3:0|3:0|3:0,0:0:0:0:
