osu file format v14

[General]
AudioFilename: audio.mp3
AudioLeadIn: 0
PreviewTime: 22413
Countdown: 0
SampleSet: Soft
StackLeniency: 0.3
Mode: 0
LetterboxInBreaks: 0
WidescreenStoryboard: 1

[Editor]
Bookmarks: 11337,22500,33663,44826,55988,61570,67151,69942,72733,75523,78314,81105,82500,83895,86686,88081,89477,100640,106221,109012,111628,112326
DistanceSpacing: 1.1
BeatDivisor: 4
GridSize: 4
TimelineZoom: 2.600001

[Metadata]
Title:Nanatsu Issenzakura
TitleUnicode:七つ一旋桜
Artist:A.SAKA
ArtistUnicode:A.SAKA
Creator:yf_bmp
Version:Gust's Insane
Source:
Tags:sakura seven rotating revolving rotate revolve cherry blossom 木製みゅーと Mokuse Mute 神楽ノ花 Kagura no Hana imoutosan Fushimi Rio Syameimaru-Aya Gust Moecho Pata-Mon
BeatmapID:1350672
BeatmapSetID:513731

[Difficulty]
HPDrainRate:5
CircleSize:4.5
OverallDifficulty:7
ApproachRate:8
SliderMultiplier:2
SliderTickRate:1

[Events]
//Background and Video events
0,0,"BG.jpg",0,0
//Break Periods
2,56188,60147
//Storyboard Layer 0 (Background)
//Storyboard Layer 1 (Fail)
//Storyboard Layer 2 (Pass)
//Storyboard Layer 3 (Foreground)
//Storyboard Sound Samples

[TimingPoints]
175,348.837209302326,4,2,16,80,1,0
175,-200,4,2,16,80,0,0
11337,-133.333333333333,4,2,16,80,0,0
19709,-133.333333333333,4,1,0,50,0,0
22500,-100,4,2,16,80,0,0
44826,-100,4,2,15,80,0,0
55988,-100,4,2,16,80,0,0
61047,-100,4,1,0,40,0,0
67151,-133.333333333333,4,2,16,80,0,0
89477,-100,4,2,16,80,0,1
106221,-100,4,2,16,80,0,1
111628,-76.9230769230769,4,2,16,80,0,0

[Colours]
Combo1 : 248,248,10
Combo2 : 202,62,104
Combo3 : 174,113,156
Combo4 : 138,175,193
Combo5 : 236,84,40
Combo6 : 243,67,243
Combo7 : 24,218,218

[HitObjects]
32,68,175,6,0,P|68:96|136:100,1,100,2|0,0:0|0:0,0:0:0:0:
140,32,698,1,0,0:0:0:0:
196,80,872,2,0,P|208:104|208:136,2,50
480,68,1570,5,4,0:0:0:0:
302,126,1919,2,0,P|304:102|316:80,1,50
376,32,2268,1,0,0:0:0:0:
412,100,2442,1,0,0:0:0:0:
480,68,2616,1,0,0:0:0:0:
344,360,2965,6,0,L|448:352,1,100,2|0,0:0|0:0,0:0:0:0:
484,288,3488,1,0,0:0:0:0:
444,224,3663,2,0,L|373:227,1,50
292,288,4012,2,0,L|341:286,1,50
144,296,4361,5,4,0:0:0:0:
144,296,4709,1,0,0:0:0:0:
100,356,4883,1,0,0:0:0:0:
27,334,5058,1,0,0:0:0:0:
28,258,5233,1,0,0:0:0:0:
99,235,5407,1,0,0:0:0:0:
44,36,5756,6,0,L|64:144,1,100,4|0,0:1|0:0,0:0:0:0:
132,152,6279,1,0,0:0:0:0:
204,136,6454,2,0,L|216:84,2,50
468,36,7151,6,0,L|448:144,1,100,4|0,0:0|0:0,0:0:0:0:
380,152,7675,1,0,0:0:0:0:
308,136,7849,1,0,0:0:0:0:
292,84,8023,1,0,0:0:0:0:
300,48,8198,1,0,0:0:0:0:
60,192,8547,6,0,P|48:232|56:280,1,75,2|0,0:0|3:3,0:0:0:0:
76,292,8895,2,0,L|144:308,1,50
156,372,9244,2,0,L|264:360,1,100
356,248,9942,2,0,L|256:259,1,100,4|0,0:0|0:0,0:0:0:0:
504,124,10640,6,0,L|440:132,1,50
384,164,10989,2,0,L|320:172,1,50
256,8,11337,6,0,L|428:16,1,150.000005722046,2|0,0:0|0:0,0:0:0:0:
396,90,11861,1,0,0:0:0:0:
384,164,12035,2,0,L|492:168,2,75.0000028610231
136,8,12733,5,4,0:0:0:0:
83,61,12907,1,0,0:0:0:0:
83,61,12994,1,0,0:0:0:0:
83,61,13081,2,0,L|99:158,1,75.0000028610231
42,188,13430,2,0,P|42:284|106:212,1,225.000008583069
180,264,14128,6,0,L|264:268,2,75.0000028610231
332,120,14826,2,0,L|248:116,2,75.0000028610231
388,68,15349,1,0,0:0:0:0:
215,51,15523,6,0,P|160:46|106:62,1,112.500004291535,4|0,0:0|3:0,0:0:0:0:
32,64,15872,2,0,L|20:140,1,75.0000028610231
72,192,16221,2,0,L|60:266,1,75.0000028610231
112,320,16570,1,0,0:0:0:0:
256,40,16919,5,4,0:1:0:0:
256,192,18314,5,4,0:0:0:0:
256,344,19709,5,0,0:0:0:0:
256,192,20407,1,0,0:0:0:0:
256,40,21105,5,0,0:0:0:0:
256,192,21454,1,0,0:0:0:0:
256,344,21802,5,0,0:0:0:0:
256,192,21977,1,0,0:0:0:0:
256,192,22064,1,0,0:0:0:0:
256,192,22151,1,0,0:0:0:0:
256,40,22326,1,0,0:0:0:0:
48,104,22500,6,0,L|181:93,1,100,6|0,1:1|0:0,0:0:0:0:
166,94,22762,1,0,0:0:0:0:
185,93,22849,1,8,0:0:0:0:
256,140,23023,1,0,0:0:0:0:
185,187,23198,1,2,0:1:0:0:
327,93,23372,1,0,0:0:0:0:
346,94,23459,1,0,0:0:0:0:
364,95,23547,2,0,L|464:104,1,100,8|0,0:0|0:0,0:0:0:0:
424,192,23895,6,0,P|400:264|472:328,1,150,2|0,0:1|0:0,0:0:0:0:
360,372,24244,2,0,L|228:376,1,100,8|0,0:0|0:0,0:0:0:0:
160,280,24593,2,0,L|259:283,1,100,8|8,0:0|0:0,0:0:0:0:
280,284,24855,1,0,0:0:0:0:
300,285,24942,1,8,0:0:0:0:
28,108,25291,5,2,0:1:0:0:
112,80,25465,1,0,0:0:0:0:
112,80,25552,1,0,0:0:0:0:
112,80,25640,1,8,0:0:0:0:
112,80,25988,5,2,0:1:0:0:
176,140,26162,1,0,0:0:0:0:
176,140,26249,1,0,0:0:0:0:
176,140,26337,1,8,0:0:0:0:
256,108,26512,1,0,0:0:0:0:
256,108,26686,6,0,L|412:108,1,150,8|0,0:0|0:0,0:0:0:0:
504,192,27035,2,0,L|348:192,1,150,8|0,0:0|3:0,0:0:0:0:
380,284,27384,1,8,0:0:0:0:
256,348,27558,1,8,0:0:0:0:
132,284,27733,1,8,0:0:0:0:
132,284,27820,1,0,0:0:0:0:
132,284,27907,1,8,0:0:0:0:
140,116,28081,5,6,0:1:0:0:
100,36,28256,1,0,0:0:0:0:
100,36,28343,1,0,0:0:0:0:
100,36,28430,2,0,L|216:44,1,100,8|0,0:0|0:0,0:0:0:0:
328,42,28779,1,2,0:1:0:0:
368,122,28954,1,0,0:0:0:0:
368,122,29041,1,0,0:0:0:0:
368,122,29128,1,8,0:0:0:0:
424,52,29302,1,0,0:0:0:0:
472,236,29477,5,2,0:1:0:0:
384,212,29651,1,0,0:0:0:0:
384,212,29738,1,0,0:0:0:0:
384,212,29826,1,8,0:0:0:0:
336,288,30000,1,0,0:0:0:0:
272,224,30175,1,2,0:1:0:0:
204,284,30349,1,8,0:0:0:0:
204,284,30436,1,0,0:0:0:0:
204,284,30523,2,0,L|64:280,1,100,8|0,0:0|0:0,0:0:0:0:
24,192,30872,6,0,L|127:193,1,100,10|0,0:1|0:0,0:0:0:0:
123,193,31134,1,0,0:0:0:0:
123,193,31221,1,0,0:0:0:0:
228,104,31395,1,0,0:0:0:0:
228,104,31570,2,0,L|327:103,1,100,10|0,0:1|0:0,0:0:0:0:
327,103,31832,1,0,0:0:0:0:
327,103,31919,1,0,0:0:0:0:
432,14,32093,1,0,0:0:0:0:
432,14,32268,6,0,L|452:182,1,150,10|0,0:1|3:0,0:0:0:0:
364,192,32616,2,0,L|382:341,1,150,10|0,0:1|0:0,0:0:0:0:
296,370,32965,1,10,0:1:0:0:
200,344,33140,1,8,0:1:0:0:
175,344,33227,1,8,0:1:0:0:
150,345,33314,1,10,0:1:0:0:
125,346,33401,1,0,0:1:0:0:
100,347,33488,1,10,0:1:0:0:
24,284,33663,6,0,P|60:232|12:148,1,150,6|0,0:1|0:0,0:0:0:0:
52,84,34012,2,0,L|156:76,1,100,8|0,0:0|0:0,0:0:0:0:
234,111,34361,1,2,0:1:0:0:
221,22,34535,1,0,0:0:0:0:
221,22,34622,1,0,0:0:0:0:
221,22,34709,1,8,0:0:0:0:
508,296,35058,6,0,L|392:300,1,100,2|0,0:1|0:0,0:0:0:0:
408,299,35320,1,0,0:0:0:0:
408,299,35407,1,8,0:0:0:0:
364,238,35581,1,0,0:0:0:0:
292,261,35755,1,8,0:0:0:0:
292,336,35930,1,8,0:0:0:0:
364,360,36105,1,8,0:0:0:0:
484,84,36454,5,2,0:1:0:0:
400,112,36628,1,0,0:0:0:0:
400,112,36715,1,0,0:0:0:0:
400,112,36802,1,8,0:0:0:0:
400,112,37151,5,2,0:1:0:0:
348,36,37326,1,0,0:0:0:0:
348,36,37413,1,0,0:0:0:0:
348,36,37500,1,8,0:0:0:0:
256,28,37675,1,0,0:0:0:0:
256,28,37849,6,0,L|72:28,1,150,8|0,0:0|0:0,0:0:0:0:
8,116,38198,2,0,L|184:116,1,150,8|0,0:0|0:0,0:0:0:0:
120,212,38547,1,8,0:0:0:0:
256,276,38721,1,8,0:0:0:0:
392,212,38895,1,8,0:0:0:0:
392,212,38983,1,0,0:0:0:0:
392,212,39070,1,0,0:0:0:0:
480,316,39244,6,0,P|408:308|344:360,1,150,6|0,0:1|0:0,0:0:0:0:
260,368,39593,2,0,L|144:360,1,100,8|0,0:0|0:0,0:0:0:0:
0,280,39942,2,0,L|100:286,1,100,2|0,0:1|0:0,0:0:0:0:
100,286,40204,1,0,0:0:0:0:
100,286,40291,1,8,0:0:0:0:
24,48,40640,6,0,L|176:44,1,150,2|0,0:1|0:0,0:0:0:0:
256,12,40988,2,0,P|296:40|368:32,1,100,8|0,0:0|0:0,0:0:0:0:
500,72,41337,1,8,0:0:0:0:
416,100,41512,1,8,0:0:0:0:
432,12,41686,1,8,0:0:0:0:
480,308,42035,6,0,L|488:132,1,150,2|0,0:1|0:0,0:0:0:0:
388,188,42384,2,0,L|392:287,1,100,8|0,0:0|0:0,0:0:0:0:
296,60,42733,2,0,L|300:159,1,100,2|8,0:1|0:0,0:0:0:0:
244,232,42994,1,0,0:0:0:0:
244,232,43081,2,0,L|248:331,1,100,2|8,0:1|0:0,0:0:0:0:
168,104,43430,5,10,0:1:0:0:
160,288,43605,1,0,0:0:0:0:
160,288,43692,1,0,0:0:0:0:
160,288,43779,1,8,0:1:0:0:
168,104,43954,1,8,0:1:0:0:
80,316,44128,1,8,0:1:0:0:
56,60,44302,1,8,0:1:0:0:
56,60,44390,1,8,0:1:0:0:
56,60,44477,1,8,0:1:0:0:
80,316,44651,1,8,0:1:0:0:
80,316,44826,5,4,0:0:0:0:
256,360,45175,1,0,0:0:0:0:
256,360,45523,1,6,0:0:0:0:
126,194,46047,5,0,0:0:0:0:
87,259,46222,1,4,0:0:0:0:
136,316,46396,1,0,0:0:0:0:
206,285,46570,1,0,0:0:0:0:
200,211,46919,1,2,0:0:0:0:
16,68,47616,5,6,0:0:0:0:
192,24,47965,1,0,0:0:0:0:
192,24,48313,1,2,0:0:0:0:
62,190,48837,5,0,0:0:0:0:
23,125,49012,1,6,0:0:0:0:
72,68,49186,1,0,0:0:0:0:
142,99,49360,1,0,0:0:0:0:
136,173,49709,1,2,0:0:0:0:
488,240,50407,5,6,0:0:0:0:
312,196,50756,1,0,0:0:0:0:
312,196,51104,1,2,0:0:0:0:
442,362,51628,5,0,0:0:0:0:
481,297,51803,1,6,0:0:0:0:
432,240,51977,1,0,0:0:0:0:
362,271,52151,1,0,0:0:0:0:
368,345,52500,1,2,0:0:0:0:
266,74,53198,5,2,0:0:0:0:
442,30,53547,1,0,0:0:0:0:
442,30,53895,1,2,0:0:0:0:
312,196,54419,5,0,0:0:0:0:
273,131,54594,1,6,0:0:0:0:
322,74,54768,1,0,0:0:0:0:
392,105,54942,1,0,0:0:0:0:
386,179,55291,1,2,0:0:0:0:
156,120,55640,5,2,0:0:0:0:
79,101,55814,1,0,0:0:0:0:
2,81,55988,1,4,0:0:0:0:
510,81,61047,5,0,0:1:0:0:
510,81,61395,1,0,0:0:0:0:
492,160,61570,5,0,0:3:0:0:
302,17,62268,1,0,0:0:0:0:
302,17,62791,1,0,0:0:0:0:
316,96,62965,5,0,0:0:0:0:
116,352,63663,1,0,0:0:0:0:
116,352,64012,1,0,0:0:0:0:
124,274,64186,1,0,0:0:0:0:
133,194,64361,5,0,0:0:0:0:
28,368,64709,1,0,0:0:0:0:
116,352,64884,1,0,0:0:0:0:
204,336,65058,1,0,0:0:0:0:
504,192,65407,1,0,0:0:0:0:
416,176,65582,1,0,0:0:0:0:
328,160,65756,5,0,0:0:0:0:
282,238,65930,1,0,0:0:0:0:
345,304,66105,1,0,0:0:0:0:
427,265,66279,1,0,0:0:0:0:
468,140,66454,5,0,0:0:0:0:
376,48,66628,1,0,0:0:0:0:
248,52,66802,1,0,0:0:0:0:
172,160,66977,1,0,0:0:0:0:
26,4,67151,6,0,P|70:32|78:52,1,75.0000028610231,4|0,0:1|3:0,0:0:0:0:
77,52,67413,2,0,P|117:97|149:97,1,75.0000028610231,8|0,0:0|3:0,0:0:0:0:
128,99,67675,2,0,P|194:40|254:56,1,150.000005722046,8|0,0:0|0:0,0:0:0:0:
247,52,68111,1,0,0:0:0:0:
247,52,68198,1,8,0:0:0:0:
316,224,68372,1,8,0:0:0:0:
496,192,68547,6,0,P|456:164|456:120,1,75.0000028610231,4|0,0:0|3:0,0:0:0:0:
480,72,68808,2,0,P|448:48|392:44,1,75.0000028610231,8|0,0:0|3:0,0:0:0:0:
340,28,69070,2,0,P|312:108|248:108,1,150.000005722046,8|0,0:0|0:0,0:0:0:0:
236,101,69506,1,0,0:0:0:0:
221,83,69593,1,8,0:0:0:0:
51,20,69768,1,8,0:0:0:0:
100,192,69942,5,8,0:0:0:0:
140,272,70116,1,0,0:0:0:0:
140,296,70204,1,0,0:0:0:0:
140,320,70291,1,8,0:0:0:0:
212,204,70465,1,0,0:0:0:0:
264,344,70640,1,8,0:0:0:0:
324,264,70814,1,8,0:0:0:0:
324,240,70901,1,0,0:0:0:0:
324,216,70988,1,0,0:0:0:0:
404,328,71163,1,8,0:0:0:0:
404,304,71250,1,0,0:0:0:0:
404,280,71337,5,4,0:0:0:0:
270,191,71512,1,8,0:0:0:0:
408,120,71686,1,8,0:0:0:0:
274,31,71861,1,8,0:0:0:0:
274,31,72209,5,8,0:0:0:0:
180,40,72384,1,8,0:0:0:0:
88,48,72558,1,8,0:0:0:0:
2,76,72733,5,4,0:1:0:0:
2,166,72907,1,0,0:0:0:0:
88,194,73081,1,0,0:0:0:0:
140,121,73256,1,0,0:0:0:0:
140,121,73605,5,0,0:0:0:0:
232,129,73779,1,8,0:0:0:0:
324,137,73954,1,0,0:0:0:0:
480,240,74128,5,8,0:0:0:0:
408,316,74302,1,0,0:0:0:0:
408,316,74390,1,0,0:0:0:0:
408,316,74477,1,8,0:0:0:0:
320,250,74651,1,8,0:0:0:0:
232,372,74826,5,8,0:0:0:0:
89,325,75000,1,8,0:0:0:0:
89,175,75175,1,8,0:0:0:0:
232,129,75349,1,8,0:0:0:0:
36,52,75523,5,8,0:0:0:0:
140,4,75698,1,0,0:0:0:0:
140,4,75785,1,0,0:0:0:0:
140,4,75872,1,0,0:0:0:0:
140,4,76047,1,8,0:1:0:0:
256,28,76395,5,0,0:0:0:0:
256,28,76483,1,0,0:0:0:0:
256,28,76570,1,0,0:0:0:0:
256,28,76744,1,8,0:1:0:0:
372,4,77093,1,8,0:1:0:0:
372,4,77442,1,8,0:1:0:0:
476,52,77616,5,8,0:1:0:0:
476,52,77791,1,8,0:1:0:0:
476,52,77878,1,0,0:0:0:0:
476,52,77965,2,0,L|472:152,1,75.0000028610231,8|0,0:1|0:0,0:0:0:0:
372,196,78314,6,0,P|392:236|428:256,1,75.0000028610231,4|0,0:1|3:0,0:0:0:0:
492,260,78576,2,0,P|476:308|436:332,1,75.0000028610231,8|0,0:0|3:0,0:0:0:0:
384,324,78837,2,0,P|320:308|256:356,1,150.000005722046,8|0,0:0|0:0,0:0:0:0:
256,355,79273,1,0,0:0:0:0:
256,355,79361,1,8,0:0:0:0:
280,196,79535,1,8,0:0:0:0:
156,276,79709,6,0,L|68:284,1,75.0000028610231,12|0,0:0|3:0,0:0:0:0:
192,192,79971,2,0,L|104:192,1,75.0000028610231,8|0,0:0|3:0,0:0:0:0:
224,104,80233,2,0,L|72:96,1,150.000005722046,8|8,0:0|0:0,0:0:0:0:
300,24,80756,1,8,0:0:0:0:
212,20,80930,1,8,0:0:0:0:
388,28,81105,5,8,0:0:0:0:
340,104,81279,1,0,0:0:0:0:
340,104,81366,1,0,0:0:0:0:
340,104,81454,1,8,0:0:0:0:
484,216,81628,1,8,0:0:0:0:
412,160,81802,1,8,0:0:0:0:
412,160,81890,1,0,0:0:0:0:
412,160,81977,1,0,0:0:0:0:
316,312,82151,1,8,0:0:0:0:
364,236,82326,1,0,0:0:0:0:
364,236,82413,1,0,0:0:0:0:
364,236,82500,5,4,0:1:0:0:
288,188,82675,1,8,0:0:0:0:
305,58,82849,1,0,0:1:0:0:
236,115,83024,1,0,0:0:0:0:
116,60,83197,1,0,0:1:0:0:
150,143,83372,1,8,0:0:0:0:
60,240,83546,1,4,0:0:0:0:
149,233,83721,1,8,0:0:0:0:
214,349,83895,5,4,0:1:0:0:
236,261,84070,2,0,P|296:220|352:264,1,150.000005722046
488,324,84594,1,8,0:0:0:0:
444,244,84768,1,8,0:0:0:0:
444,244,84855,1,0,0:0:0:0:
444,244,84942,1,8,0:0:0:0:
480,160,85116,1,8,0:0:0:0:
298,35,85291,5,4,0:0:0:0:
276,123,85465,2,0,P|216:164|160:120,1,150.000005722046
24,60,85988,1,8,0:0:0:0:
68,140,86162,1,8,0:0:0:0:
68,140,86249,1,0,0:0:0:0:
68,140,86336,1,8,0:0:0:0:
32,224,86512,1,8,0:0:0:0:
108,256,86686,5,8,0:0:0:0:
47,311,86861,1,0,0:0:0:0:
49,349,86948,1,0,0:0:0:0:
76,380,87035,1,8,0:0:0:0:
160,380,87209,1,0,0:0:0:0:
175,298,87384,5,8,0:0:0:0:
251,262,87558,1,0,0:0:0:0:
290,256,87645,1,0,0:0:0:0:
326,270,87733,1,8,0:0:0:0:
396,317,87907,1,0,0:0:0:0:
475,320,88081,1,8,0:0:0:0:
396,317,88430,5,8,0:1:0:0:
326,270,88605,1,0,0:0:0:0:
290,256,88692,1,0,0:0:0:0:
251,262,88779,1,8,0:1:0:0:
175,298,88954,1,8,0:1:0:0:
140,322,89041,1,0,0:0:0:0:
101,333,89128,1,8,0:1:0:0:
61,326,89215,1,8,0:1:0:0:
23,310,89302,1,8,0:1:0:0:
12,128,89477,6,0,L|148:132,1,100,6|0,0:1|0:0,0:0:0:0:
204,52,89738,1,0,0:0:0:0:
204,52,89826,2,0,L|64:48,1,100,8|0,0:0|0:0,0:0:0:0:
308,132,90175,2,0,P|372:144|427:124,1,100,2|0,0:1|0:0,0:0:0:0:
484,44,90436,1,0,0:0:0:0:
484,44,90523,2,0,P|428:32|368:48,1,100,8|0,0:0|0:0,0:0:0:0:
200,220,90872,6,0,L|52:224,1,100,2|0,0:1|0:0,0:0:0:0:
12,304,91134,1,0,0:0:0:0:
12,304,91221,2,0,L|140:300,1,100,8|0,0:0|0:0,0:0:0:0:
326,349,91570,1,8,0:0:0:0:
255,290,91744,1,0,0:0:0:0:
255,290,91831,1,0,0:0:0:0:
255,290,91919,1,8,0:0:0:0:
290,206,92093,1,8,0:0:0:0:
400,300,92268,5,2,0:1:0:0:
380,212,92442,1,0,0:0:0:0:
380,212,92529,1,0,0:0:0:0:
380,212,92616,2,4,L|496:212,1,100,8|0,0:0|0:0,0:0:0:0:
328,100,92965,1,2,0:1:0:0:
360,16,93139,1,0,0:0:0:0:
360,16,93226,1,0,0:0:0:0:
360,16,93314,2,0,L|220:16,1,100,8|0,0:0|0:0,0:0:0:0:
104,100,93663,6,0,L|254:100,1,150,8|0,0:0|0:0,0:0:0:0:
406,192,94012,2,0,L|256:192,1,150,8|0,0:0|3:0,0:0:0:0:
94,280,94361,1,8,0:0:0:0:
256,360,94535,1,8,0:0:0:0:
420,280,94709,1,8,0:0:0:0:
420,280,94797,1,0,0:0:0:0:
420,280,94884,1,8,0:0:0:0:
228,104,95058,5,6,0:1:0:0:
136,104,95233,1,0,0:0:0:0:
136,104,95320,1,0,0:0:0:0:
136,104,95407,1,8,0:0:0:0:
44,104,95581,1,0,0:0:0:0:
284,16,95756,1,2,0:1:0:0:
376,16,95930,1,0,0:0:0:0:
376,16,96018,1,0,0:0:0:0:
376,16,96105,1,8,0:0:0:0:
468,16,96279,1,0,0:0:0:0:
492,192,96454,5,2,0:1:0:0:
400,192,96628,1,0,0:0:0:0:
400,192,96716,1,0,0:0:0:0:
400,192,96803,1,8,0:0:0:0:
308,192,96977,1,0,0:0:0:0:
204,280,97151,1,2,0:1:0:0:
112,280,97326,1,0,0:0:0:0:
112,280,97413,1,0,0:0:0:0:
112,280,97500,1,8,0:0:0:0:
20,280,97674,1,8,0:0:0:0:
308,368,97849,6,0,L|408:358,1,100,10|0,0:1|0:0,0:0:0:0:
434,357,98111,1,0,0:0:0:0:
459,354,98198,1,0,0:0:0:0:
504,248,98372,1,0,0:0:0:0:
504,248,98547,2,0,L|404:238,1,100,10|0,0:1|0:0,0:0:0:0:
379,237,98809,1,0,0:0:0:0:
354,234,98896,1,0,0:0:0:0:
352,120,99070,1,0,0:0:0:0:
352,120,99244,6,0,L|164:128,1,150,10|0,0:1|3:0,0:0:0:0:
440,24,99593,2,0,L|260:32,1,150,10|0,0:1|0:0,0:0:0:0:
194,0,99942,2,0,L|130:4,1,50,8|0,0:1|3:0,0:0:0:0:
84,68,100116,2,0,L|15:71,1,50,8|8,0:1|0:1,0:0:0:0:
152,128,100291,2,0,L|208:125,2,50,10|0|10,0:1|0:0|0:1,0:0:0:0:
476,191,100640,6,0,P|431:246|362:226,1,150,6|0,0:1|0:0,0:0:0:0:
280,196,100988,1,8,0:0:0:0:
272,288,101163,1,0,0:0:0:0:
187,252,101337,1,2,0:1:0:0:
179,344,101512,1,0,0:0:0:0:
179,344,101599,1,0,0:0:0:0:
179,344,101687,1,8,0:0:0:0:
94,308,101861,1,0,0:0:0:0:
40,80,102035,5,2,0:1:0:0:
112,136,102209,1,0,0:0:0:0:
112,136,102297,1,0,0:0:0:0:
112,136,102384,1,8,0:0:0:0:
164,60,102558,1,0,0:0:0:0:
236,116,102733,1,2,0:1:0:0:
284,40,102907,1,0,0:0:0:0:
284,40,102994,1,0,0:0:0:0:
284,40,103081,1,8,0:0:0:0:
356,96,103256,1,0,0:0:0:0:
441,22,103430,6,0,L|441:129,1,100,2|0,0:1|0:0,0:0:0:0:
492,192,103692,1,0,0:0:0:0:
492,216,103779,2,0,L|492:316,1,100,8|0,0:0|0:0,0:0:0:0:
372,176,104128,1,2,0:1:0:0:
252,312,104302,1,8,0:0:0:0:
252,288,104390,1,0,0:0:0:0:
252,264,104477,1,0,0:0:0:0:
123,178,104651,1,0,0:0:0:0:
72,348,104826,6,0,L|72:212,1,100,8|0,0:0|0:0,0:0:0:0:
123,178,105087,1,0,0:0:0:0:
124,152,105175,1,0,0:0:0:0:
288,192,105349,1,0,0:0:0:0:
124,64,105523,5,0,0:0:0:0:
288,100,105698,1,0,0:0:0:0:
452,64,105872,1,0,0:0:0:0:
452,88,105960,1,0,0:0:0:0:
452,112,106047,1,0,0:0:0:0:
149,44,106221,6,0,P|68:80|32:168,1,150,6|0,0:1|0:0,0:0:0:0:
128,144,106570,2,0,P|104:204|108:244,1,100,8|0,0:0|0:0,0:0:0:0:
192,216,106919,2,0,P|204:272|264:312,1,100,2|0,0:1|0:0,0:0:0:0:
288,224,107180,1,0,0:0:0:0:
288,224,107268,2,0,P|336:264|376:272,1,100,8|8,0:0|0:0,0:0:0:0:
392,24,107616,6,0,P|461:49|503:110,1,150,4|0,0:3|0:0,0:0:0:0:
413,127,107965,2,0,P|434:171|434:221,1,100,8|0,0:0|0:0,0:0:0:0:
371,271,108314,1,2,0:1:0:0:
233,300,108488,1,0,0:0:0:0:
233,300,108575,1,0,0:0:0:0:
233,300,108662,1,8,0:0:0:0:
106,238,108837,1,0,0:0:0:0:
135,37,109012,6,0,P|178:60|203:103,1,100,2|0,0:1|0:0,0:0:0:0:
205,131,109273,1,0,0:0:0:0:
197,159,109361,1,8,0:0:0:0:
314,232,109535,1,0,0:0:0:0:
287,243,109623,1,0,0:0:0:0:
258,244,109709,1,8,0:0:0:0:
226,379,109884,1,0,0:0:0:0:
207,356,109972,1,0,0:0:0:0:
197,329,110058,1,8,0:0:0:0:
59,340,110233,1,0,0:0:0:0:
75,314,110321,1,0,0:0:0:0:
97,296,110407,5,8,0:0:0:0:
97,191,110581,1,8,0:0:0:0:
197,159,110756,1,8,0:0:0:0:
258,244,110930,1,8,0:0:0:0:
197,329,111104,1,8,0:0:0:0:
56,244,111279,1,8,0:0:0:0:
93,84,111454,1,8,0:0:0:0:
257,69,111628,1,8,0:0:0:0:
321,221,112326,5,4,0:0:0:0:
