osu file format v14

[General]
AudioFilename: audio.mp3
AudioLeadIn: 0
PreviewTime: 22413
Countdown: 0
SampleSet: Soft
StackLeniency: 0.3
Mode: 0
LetterboxInBreaks: 0
WidescreenStoryboard: 1

[Editor]
DistanceSpacing: 1.8
BeatDivisor: 4
GridSize: 4
TimelineZoom: 0.9000007

[Metadata]
Title:Nanatsu Issenzakura
TitleUnicode:七つ一旋桜
Artist:A.SAKA
ArtistUnicode:A.SAKA
Creator:yf_bmp
Version:Expert
Source:
Tags:sakura seven rotating revolving rotate revolve cherry blossom 木製みゅーと Mokuse Mute 神楽ノ花 Kagura no Hana imoutosan Fushimi Rio Syameimaru-Aya Gust Moecho Pata-Mon
BeatmapID:1091511
BeatmapSetID:513731

[Difficulty]
HPDrainRate:6.5
CircleSize:4.5
OverallDifficulty:8
ApproachRate:9
SliderMultiplier:1.6
SliderTickRate:1

[Events]
//Background and Video events
0,0,"BG.jpg",0,0
//Break Periods
//Storyboard Layer 0 (Background)
//Storyboard Layer 1 (Fail)
//Storyboard Layer 2 (Pass)
//Storyboard Layer 3 (Foreground)
//Storyboard Sound Samples

[TimingPoints]
175,348.837209302326,4,2,16,80,1,0
11337,-166.666666666667,4,2,15,60,0,0
15523,-133.333333333333,4,2,15,60,0,0
16919,-166.666666666667,4,2,15,60,0,0
22500,-100,4,2,16,80,0,0
33663,-100,4,2,16,80,0,1
43081,-76.9230769230769,4,2,16,80,0,1
44826,-133.333333333333,4,2,15,80,0,0
55988,-133.333333333333,4,2,16,80,0,0
61570,-166.666666666667,4,2,16,80,0,0
62268,-200,4,2,16,80,0,0
62965,-166.666666666667,4,2,16,80,0,0
63663,-200,4,2,16,80,0,0
65756,-66.6666666666667,4,2,15,80,0,0
67151,-66.6666666666667,4,2,16,80,0,0
68547,-55.5555555555556,4,2,16,80,0,0
69070,-66.6666666666667,4,2,16,80,0,0
71163,-100,4,2,16,80,0,0
71337,-66.6666666666667,4,2,16,80,0,0
72035,-55.5555555555556,4,2,16,80,0,0
72733,-100,4,2,16,80,0,0
75523,-66.6666666666667,4,2,16,80,0,0
78314,-58.8235294117647,4,2,16,80,0,0
78837,-66.6666666666667,4,2,16,80,0,0
79709,-55.5555555555556,4,2,16,80,0,0
80233,-66.6666666666667,4,2,16,80,0,0
81105,-100,4,2,16,80,0,0
82500,-133.333333333333,4,2,16,80,0,0
83895,-100,4,2,16,80,0,0
87907,-100,4,2,16,80,0,0
100640,-100,4,2,16,80,0,1
110058,-76.9230769230769,4,2,16,80,0,1
111628,-76.9230769230769,4,2,16,80,0,0

[Colours]
Combo1 : 255,142,199
Combo2 : 138,175,193
Combo3 : 255,62,158
Combo4 : 45,208,139

[HitObjects]
92,160,11337,6,0,P|94:183|104:205,1,47.9999985351563,0|0,0:0|3:0,0:0:0:0:
173,160,11686,1,0,0:0:0:0:
173,160,11861,1,0,0:0:0:0:
213,92,12035,2,0,P|192:82|168:79,1,47.9999985351563,0|0,0:0|3:0,0:0:0:0:
209,232,12384,2,0,P|227:218|241:199,1,47.9999985351563,0|0,0:0|3:0,0:0:0:0:
173,160,12733,5,0,0:0:0:0:
144,268,12907,1,0,0:0:0:0:
148,292,12994,1,0,0:0:0:0:
152,316,13081,1,0,0:0:0:0:
209,232,13256,1,0,0:0:0:0:
68,272,13430,5,0,0:0:0:0:
152,316,13605,1,0,0:0:0:0:
280,300,13779,1,0,0:0:0:0:
376,168,13954,1,0,0:0:0:0:
320,0,14128,6,0,P|320:28|328:48,1,47.9999985351563,2|0,3:2|0:2,0:0:0:0:
480,60,14477,2,0,P|472:87|459:104,1,47.9999985351563,2|0,3:2|0:2,0:0:0:0:
259,84,14826,2,0,P|275:106|294:117,1,47.9999985351563,2|0,3:2|0:2,0:0:0:0:
412,0,15175,2,0,P|412:23|404:46,1,47.9999985351563,2|0,3:2|0:2,0:0:0:0:
186,99,15523,6,0,P|235:131|291:116,1,120.000004577637,2|0,3:2|0:0,0:0:0:0:
248,52,16047,1,0,0:0:0:0:
176,88,16221,5,0,0:0:0:0:
72,140,16395,1,2,3:2:0:0:
152,184,16570,1,0,0:0:0:0:
144,264,16744,1,0,0:0:0:0:
156,276,16919,6,0,B|196:315|328:175|344:371|172:434|180:231|244:239|240:191|212:147,1,335.999989746094,4|0,0:1|0:0,0:0:0:0:
156,72,18314,6,0,B|91:103|34:60|34:60|0:120|0:120|47:172|127:160,1,335.999989746094,0|0,0:0|0:0,0:0:0:0:
212,148,19709,5,0,1:0:0:0:
224,164,20407,1,0,1:0:0:0:
228,184,21105,5,0,1:0:0:0:
220,204,21454,1,0,1:0:0:0:
216,224,21802,5,0,1:0:0:0:
216,244,21977,1,0,1:0:0:0:
220,256,22064,1,0,1:0:0:0:
228,268,22151,1,0,1:0:0:0:
244,280,22326,1,0,1:0:0:0:
296,220,22500,5,6,2:1:0:0:
348,160,22675,1,2,0:0:0:0:
356,128,22762,1,0,0:0:0:0:
352,96,22849,1,10,1:0:0:0:
316,24,23023,1,2,0:0:0:0:
156,36,23198,5,2,2:1:0:0:
232,60,23372,1,10,0:0:0:0:
264,84,23459,1,8,0:0:0:0:
276,124,23547,1,10,1:0:0:0:
224,256,23721,1,2,0:0:0:0:
92,264,23895,5,4,2:3:0:0:
40,204,24070,1,2,0:0:0:0:
32,172,24157,1,0,0:0:0:0:
36,140,24244,1,8,1:0:0:0:
72,68,24419,1,2,0:0:0:0:
232,80,24593,5,2,0:1:0:0:
156,104,24768,1,8,0:0:0:0:
124,128,24855,1,8,0:0:0:0:
112,168,24942,1,8,1:2:0:0:
164,300,25116,1,2,2:1:0:0:
304,276,25291,5,2,0:1:0:0:
420,360,25465,1,2,0:0:0:0:
460,368,25552,1,0,0:0:0:0:
500,356,25640,1,10,1:0:0:0:
244,336,25814,5,2,0:0:0:0:
344,352,25988,1,2,0:1:0:0:
80,292,26163,5,8,0:0:0:0:
92,348,26250,1,8,0:0:0:0:
136,380,26337,1,10,1:0:0:0:
44,176,26512,2,0,L|36:244,1,40,10|0,0:0|3:0,0:0:0:0:
164,300,26686,5,2,1:0:0:0:
168,308,26861,2,0,P|176:292|180:264,1,40,8|8,2:0|3:2,0:0:0:0:
136,128,27035,5,10,1:0:0:0:
128,123,27210,2,0,P|130:142|139:160,1,40,8|8,0:2|3:2,0:0:0:0:
276,252,27384,6,0,P|262:237|244:228,1,40,2|0,1:0|3:0,0:0:0:0:
76,232,27558,6,0,P|95:235|115:232,1,40,0|0,1:0|3:0,0:0:0:0:
248,136,27733,6,0,P|230:144|216:158,1,40,8|8,2:1|2:1,0:0:0:0:
208,372,27907,1,8,0:1:0:0:
216,158,28081,5,6,2:1:0:0:
160,232,28256,1,2,0:0:0:0:
153,264,28343,1,0,0:0:0:0:
159,296,28430,1,10,1:0:0:0:
208,372,28605,1,2,0:0:0:0:
352,348,28779,5,2,2:1:0:0:
276,324,28954,1,10,0:0:0:0:
244,300,29041,1,8,0:0:0:0:
232,260,29128,1,10,1:0:0:0:
284,128,29302,1,2,0:0:0:0:
416,120,29477,5,4,2:3:0:0:
468,180,29651,1,2,0:0:0:0:
476,212,29738,1,0,0:0:0:0:
472,244,29826,1,8,1:0:0:0:
436,316,30000,1,2,0:0:0:0:
276,304,30175,5,2,0:1:0:0:
352,280,30349,1,8,0:0:0:0:
384,256,30436,1,8,0:0:0:0:
396,216,30523,1,8,1:1:0:0:
344,84,30698,1,2,2:1:0:0:
204,108,30872,5,10,1:0:0:0:
88,24,31047,1,2,0:0:0:0:
48,16,31134,1,0,0:0:0:0:
8,28,31221,1,0,0:1:0:0:
264,48,31395,5,2,0:0:0:0:
164,32,31570,1,10,1:1:0:0:
428,92,31744,5,10,0:0:0:0:
416,36,31831,1,8,0:0:0:0:
372,4,31919,1,0,2:0:0:0:
464,208,32093,2,0,L|472:140,1,40,10|0,0:0|3:0,0:0:0:0:
348,84,32268,5,10,1:1:0:0:
344,76,32443,2,0,P|335:91|332:120,1,40,8|8,0:2|0:0,0:0:0:0:
376,256,32617,5,10,1:1:0:0:
384,261,32792,2,0,P|381:241|372:223,1,40,8|8,0:1|0:1,0:0:0:0:
236,132,32966,6,0,P|249:146|267:155,1,40,10|0,1:1|3:0,0:0:0:0:
436,152,33140,6,0,P|416:148|396:151,1,40,8|8,1:0|1:0,0:0:0:0:
264,248,33315,6,0,P|281:239|295:225,1,40,8|8,1:1|1:0,0:0:0:0:
344,76,33488,2,0,L|346:36,1,40,8|0,1:0|3:0,0:0:0:0:
267,155,33663,5,6,0:1:0:0:
333,301,33837,1,2,0:0:0:0:
375,313,33925,1,2,0:0:0:0:
418,301,34012,1,10,1:0:0:0:
463,235,34186,1,2,0:0:0:0:
264,256,34361,5,2,0:1:0:0:
184,272,34535,1,10,0:0:0:0:
164,272,34622,1,8,0:0:0:0:
148,264,34709,1,10,1:0:0:0:
100,200,34884,1,10,0:0:0:0:
136,48,35058,5,4,0:3:0:0:
32,156,35233,1,2,0:0:0:0:
20,200,35320,1,2,0:0:0:0:
32,244,35407,1,10,1:0:0:0:
140,348,35581,1,8,0:0:0:0:
284,312,35756,5,2,0:1:0:0:
332,248,35930,1,10,0:0:0:0:
340,228,36018,1,8,0:0:0:0:
340,208,36105,1,10,1:1:0:0:
304,136,36279,1,10,0:0:0:0:
480,208,36454,5,2,0:1:0:0:
372,312,36628,1,2,0:0:0:0:
328,324,36715,1,0,0:0:0:0:
284,312,36802,1,10,1:0:0:0:
180,204,36977,1,8,0:0:0:0:
280,28,37151,5,2,0:1:0:0:
232,92,37326,1,10,0:0:0:0:
224,112,37413,1,8,0:0:0:0:
224,132,37500,1,10,1:1:0:0:
260,204,37675,1,10,0:0:0:0:
416,248,37849,5,2,0:1:0:0:
248,280,38023,5,8,0:1:0:0:
296,276,38111,1,8,0:1:0:0:
344,272,38198,1,10,1:0:0:0:
228,356,38371,5,8,0:1:0:0:
300,350,38459,1,8,0:1:0:0:
372,344,38547,2,0,L|416:340,1,40,10|0,1:0|3:0,0:0:0:0:
228,356,38721,2,0,L|184:360,1,40,8|0,1:0|3:0,0:0:0:0:
296,276,38895,6,0,L|292:224,1,40,8|8,1:0|1:0,0:0:0:0:
300,350,39070,1,8,1:0:0:0:
12,308,39244,5,6,1:0:0:0:
136,268,39419,1,2,0:0:0:0:
164,232,39506,1,2,0:0:0:0:
168,188,39593,1,10,1:0:0:0:
112,68,39768,1,8,0:0:0:0:
0,236,39942,5,2,0:1:0:0:
80,224,40116,1,10,0:0:0:0:
96,204,40204,1,8,0:0:0:0:
100,180,40291,1,10,1:0:0:0:
56,112,40465,1,10,0:0:0:0:
236,216,40640,5,4,0:3:0:0:
367,216,40814,1,2,0:0:0:0:
405,190,40901,1,0,0:0:0:0:
422,150,40988,1,10,1:1:0:0:
406,18,41163,1,2,0:0:0:0:
339,43,41337,5,2,0:1:0:0:
360,121,41512,1,10,0:0:0:0:
349,143,41599,1,8,0:0:0:0:
327,157,41686,1,10,1:1:0:0:
247,143,41861,1,10,0:2:0:0:
224,292,42035,5,2,1:0:0:0:
404,280,42209,1,8,0:0:0:0:
460,240,42297,1,8,0:0:0:0:
492,180,42384,1,8,1:0:0:0:
480,0,42558,1,8,0:0:0:0:
468,312,42733,5,2,1:1:0:0:
364,156,42907,1,8,0:1:0:0:
424,188,42994,1,8,0:1:0:0:
491,180,43081,2,0,P|508:159|513:134,1,51.999997619629,10|0,1:0|3:0,0:0:0:0:
340,40,43256,2,0,P|345:65|361:85,1,51.999997619629,8|8,0:1|3:2,0:0:0:0:
512,64,43430,5,10,1:1:0:0:
508,56,43605,2,0,L|452:52,1,51.999997619629,0|0,1:0|3:0,0:0:0:0:
296,124,43779,5,10,1:0:0:0:
228,132,43866,1,8,1:0:0:0:
172,92,43954,1,8,1:0:0:0:
204,152,44041,1,8,1:0:0:0:
196,220,44128,6,0,P|175:236|150:241,1,51.999997619629,8|8,1:0|1:0,0:0:0:0:
36,164,44302,2,0,P|14:149|1:127,1,51.999997619629,8|8,1:0|1:0,0:0:0:0:
56,0,44477,2,0,L|96:4,7,25.9999988098145,0|0|0|0|0|0|0|0,1:0|1:0|1:0|1:0|1:0|1:0|1:0|1:0,0:0:0:0:
48,12,44826,5,2,0:3:0:0:
56,32,45175,1,4,0:0:0:0:
56,52,45523,1,4,0:0:0:0:
48,72,45872,5,2,3:2:0:0:
0,128,46047,1,0,0:0:0:0:
75,255,46221,6,0,P|80:285|71:314,1,60.0000022888184,4|2,0:0|3:2,0:0:0:0:
200,352,46570,2,0,P|173:332|160:252,1,90.0000034332277,0|0,0:0|3:0,0:0:0:0:
136,206,46919,2,0,P|140:176|132:148,1,60.0000022888184,2|0,0:2|3:2,0:0:0:0:
75,255,47268,1,0,0:2:0:0:
232,280,47442,1,2,3:2:0:0:
220,108,47616,6,0,P|224:137|215:166,1,60.0000022888184,2|2,0:3|3:2,0:0:0:0:
344,204,47965,2,0,P|317:184|304:104,1,90.0000034332277,0|0,0:0|3:0,0:0:0:0:
280,58,48314,2,0,P|284:28|275:0,1,60.0000022888184,2|0,0:2|3:2,0:0:0:0:
220,108,48663,1,0,0:2:0:0:
376,132,48837,1,2,3:2:0:0:
296,288,49012,6,0,P|291:317|300:346,1,60.0000022888184,4|2,0:0|3:2,0:0:0:0:
172,384,49361,2,0,P|198:364|212:284,1,90.0000034332277,0|0,0:0|3:0,0:0:0:0:
236,238,49709,2,0,P|231:208|240:179,1,60.0000022888184,2|0,0:2|3:2,0:0:0:0:
297,287,50058,1,0,0:2:0:0:
140,312,50233,1,2,3:2:0:0:
272,366,50407,6,0,P|301:361|330:370,1,60.0000022888184,4|2,0:0|3:2,0:0:0:0:
368,241,50756,2,0,P|348:267|268:281,1,90.0000034332277,0|0,0:0|3:0,0:0:0:0:
222,305,51105,2,0,P|192:300|163:309,1,60.0000022888184,2|0,0:2|3:2,0:0:0:0:
271,366,51454,1,0,0:2:0:0:
296,209,51628,1,2,3:2:0:0:
124,221,51802,6,0,P|153:216|182:225,1,60.0000022888184,4|2,0:0|3:2,0:0:0:0:
220,97,52151,2,0,P|200:123|120:137,1,90.0000034332277,0|0,0:0|3:0,0:0:0:0:
74,161,52500,2,0,P|44:156|15:165,1,60.0000022888184,2|0,0:2|3:2,0:0:0:0:
123,222,52849,1,0,0:2:0:0:
148,65,53023,1,2,3:2:0:0:
304,144,53198,6,0,P|333:148|362:139,1,60.0000022888184,2|2,0:3|3:2,0:0:0:0:
400,269,53547,2,0,P|380:242|300:229,1,90.0000034332277,0|0,0:0|3:0,0:0:0:0:
254,205,53895,2,0,P|224:209|195:200,1,60.0000022888184,2|0,0:2|3:2,0:0:0:0:
303,144,54244,1,0,0:2:0:0:
328,301,54419,1,2,3:2:0:0:
195,200,54593,6,0,P|190:170|199:141,1,60.0000022888184,4|2,0:0|3:2,0:0:0:0:
71,104,54942,2,0,P|97:123|111:204,1,90.0000034332277,0|0,0:0|3:0,0:0:0:0:
135,250,55291,2,0,P|130:279|139:308,1,60.0000022888184,2|0,0:2|3:2,0:0:0:0:
195,200,55640,1,0,0:2:0:0:
39,176,55814,1,2,3:2:0:0:
96,28,55988,5,12,0:0:0:0:
56,248,56163,1,0,0:0:0:0:
60,256,56250,1,8,0:0:0:0:
60,256,56512,5,0,0:0:0:0:
135,250,56686,1,0,0:0:0:0:
208,276,56861,1,0,0:0:0:0:
268,328,57035,1,0,0:0:0:0:
148,328,57209,5,0,0:0:0:0:
344,336,57384,5,4,0:0:0:0:
388,144,57558,1,0,0:0:0:0:
384,136,57645,1,8,0:0:0:0:
384,136,57907,5,0,0:0:0:0:
309,142,58081,2,0,L|304:180,1,30.0000011444092,0|8,0:0|0:0,0:0:0:0:
236,116,58256,2,0,L|220:148,1,30.0000011444092,8|8,0:0|0:0,0:0:0:0:
296,36,58430,2,0,L|301:74,1,30.0000011444092,0|8,0:0|0:0,0:0:0:0:
369,10,58605,2,0,L|385:42,1,30.0000011444092,8|8,0:0|0:0,0:0:0:0:
384,136,58779,5,10,0:3:0:0:
164,96,58954,1,0,0:0:0:0:
156,100,59041,1,8,0:0:0:0:
156,100,59302,5,0,0:0:0:0:
136,248,59477,1,8,0:0:0:0:
162,175,59651,1,0,0:0:0:0:
84,304,59826,1,0,0:0:0:0:
84,188,60000,5,0,0:0:0:0:
44,372,60175,5,4,0:0:0:0:
232,364,60349,1,0,0:0:0:0:
240,360,60436,1,8,0:0:0:0:
240,360,60698,5,0,0:0:0:0:
234,285,60872,2,0,L|196:280,1,30.0000011444092,0|8,0:0|0:0,0:0:0:0:
260,212,61047,2,0,L|228:196,1,30.0000011444092,2|8,0:1|0:0,0:0:0:0:
340,272,61221,2,0,L|302:277,1,30.0000011444092,0|8,0:0|0:0,0:0:0:0:
366,345,61395,2,0,L|334:361,1,30.0000011444092,2|0,0:1|0:0,0:0:0:0:
416,284,61570,6,0,L|456:292,1,23.9999992675781,2|0,0:1|3:0,0:0:0:0:
368,196,61744,2,0,L|398:222,1,23.9999992675781,0|0,0:0|3:0,0:0:0:0:
360,96,61919,2,0,L|373:134,1,23.9999992675781,0|0,0:0|3:0,0:0:0:0:
412,10,62093,2,0,L|404:50,1,23.9999992675781,2|0,0:0|3:0,0:0:0:0:
300,156,62268,6,0,L|232:176,1,60,8|0,0:1|3:0,0:0:0:0:
182,232,62616,1,0,0:0:0:0:
174,132,62791,1,0,0:0:0:0:
126,44,62965,6,0,L|86:36,1,23.9999992675781,4|0,0:3|3:0,0:0:0:0:
174,132,63140,2,0,L|143:105,1,23.9999992675781,0|0,0:0|3:0,0:0:0:0:
182,232,63314,2,0,L|168:193,1,23.9999992675781,0|0,0:0|3:0,0:0:0:0:
130,318,63488,2,0,L|138:277,1,23.9999992675781,2|0,0:0|3:0,0:0:0:0:
242,172,63663,6,0,L|310:152,1,60,8|0,0:1|3:0,0:0:0:0:
173,209,64012,5,8,0:0:0:0:
140,204,64099,1,8,0:0:0:0:
108,200,64186,1,0,0:0:0:0:
76,196,64273,1,8,0:0:0:0:
44,192,64361,5,4,0:3:0:0:
468,192,64709,1,8,0:1:0:0:
339,209,64884,5,2,0:0:0:0:
372,204,64971,1,2,0:0:0:0:
404,200,65058,1,2,0:1:0:0:
436,196,65145,1,0,0:0:0:0:
256,220,65407,5,8,0:1:0:0:
200,132,65581,1,0,0:0:0:0:
192,108,65669,1,0,0:0:0:0:
196,84,65756,6,0,P|180:120|184:144,1,60.0000022888184,0|0,1:0|3:0,0:0:0:0:
252,300,65930,2,0,P|213:291|196:274,1,60.0000022888184,0|0,1:0|3:0,0:0:0:0:
68,280,66105,6,0,P|104:296|128:292,1,60.0000022888184,2|0,1:2|3:0,0:0:0:0:
278,167,66279,2,0,P|269:205|252:222,1,60.0000022888184,0|0,1:0|3:0,0:0:0:0:
153,342,66454,6,0,P|131:321|123:292,1,60.0000022888184,2|0,1:2|3:0,0:0:0:0:
104,144,66628,2,0,P|106:173|124:197,1,60.0000022888184,0|0,1:0|3:0,0:0:0:0:
305,279,66802,6,0,P|281:297|252:300,1,60.0000022888184,2|0,1:2|1:0,0:0:0:0:
36,208,66977,1,2,1:2:0:0:
278,167,67151,6,0,P|220:184|176:136,1,120.000004577637,6|0,1:0|3:0,0:0:0:0:
246,71,67413,2,0,P|289:112|270:174,1,120.000004577637,2|0,0:0|3:0,0:0:0:0:
188,256,67675,5,2,0:0:0:0:
104,144,67849,1,2,0:1:0:0:
184,24,68023,1,8,0:0:0:0:
172,44,68111,1,8,0:0:0:0:
168,68,68198,1,8,1:0:0:0:
277,166,68372,1,2,0:0:0:0:
452,164,68547,6,0,B|437:127|398:119|398:119|360:131|351:172,1,143.999995605469,4|0,0:3|3:0,0:0:0:0:
406,252,68808,2,0,B|444:258|471:228|471:228|479:189|448:160,1,143.999995605469,2|0,0:0|3:0,0:0:0:0:
360,54,69070,5,2,0:0:0:0:
276,166,69244,1,2,0:1:0:0:
348,300,69419,1,8,0:0:0:0:
336,280,69506,1,8,0:0:0:0:
332,256,69593,1,8,1:0:0:0:
451,162,69768,1,2,0:0:0:0:
352,168,69942,5,2,0:1:0:0:
428,316,70116,1,2,0:0:0:0:
464,334,70204,1,0,0:0:0:0:
506,332,70291,1,8,1:0:0:0:
264,245,70465,5,2,0:0:0:0:
356,286,70640,1,2,0:1:0:0:
117,162,70814,5,0,0:0:0:0:
114,219,70901,1,0,0:0:0:0:
148,261,70988,1,8,1:0:0:0:
112,40,71163,2,0,L|96:76,1,40,2|0,0:0|3:0,0:0:0:0:
36,190,71337,22,0,P|65:189|91:204,1,60.0000022888184,2|0,0:1|3:0,0:0:0:0:
168,356,71512,2,0,P|175:327|167:298,1,60.0000022888184,10|0,0:0|1:0,0:0:0:0:
66,330,71686,2,0,P|73:301|94:280,1,60.0000022888184,8|0,1:0|3:0,0:0:0:0:
260,248,71861,2,0,P|234:233|204:233,1,60.0000022888184,14|0,0:0|3:0,0:0:0:0:
36,190,72035,6,0,P|71:193|103:177,1,71.9999978027344,2|0,1:1|3:0,0:0:0:0:
194,22,72209,2,0,P|199:57|187:90,1,71.9999978027344,8|0,1:0|3:0,0:0:0:0:
83,39,72384,2,0,P|88:74|111:101,1,71.9999978027344,8|8,1:0|1:0,0:0:0:0:
289,145,72558,2,0,P|256:159|221:156,1,71.9999978027344,6|0,1:2|3:0,0:0:0:0:
24,116,72733,5,6,1:0:0:0:
123,254,72907,2,0,L|93:280,1,40,2|2,0:0|0:0,0:0:0:0:
16,268,73081,1,8,1:0:0:0:
315,248,73256,6,0,P|241:228|220:155,1,160,2|0,0:0|0:0,0:0:0:0:
172,363,73779,2,0,P|194:332|193:292,1,80,8|0,1:0|0:0,0:0:0:0:
376,304,74128,2,0,P|344:327|304:331,1,80,4|2,0:3|0:0,0:0:0:0:
304,331,74390,1,2,0:0:0:0:
304,331,74477,1,8,1:0:0:0:
416,376,74651,1,10,0:0:0:0:
512,240,74826,5,2,0:1:0:0:
376,304,75000,1,10,0:0:0:0:
248,176,75175,5,8,1:0:0:0:
444,272,75349,1,2,0:0:0:0:
500,36,75523,6,0,L|480:100,1,60.0000022888184,10|0,1:1|3:0,0:0:0:0:
448,196,75698,1,8,0:0:0:0:
448,196,75785,1,8,0:0:0:0:
448,196,75872,1,8,0:0:0:0:
428,8,76047,6,0,L|408:72,1,60.0000022888184,10|0,1:0|3:0,0:0:0:0:
372,200,76221,1,8,0:0:0:0:
372,200,76308,1,8,0:0:0:0:
372,200,76395,1,0,0:0:0:0:
372,200,76483,1,8,0:0:0:0:
372,200,76570,1,8,1:0:0:0:
359,342,76744,6,0,P|381:321|389:292,1,60.0000022888184,2|0,1:2|3:0,0:0:0:0:
316,84,76919,6,0,P|332:120|328:144,1,60.0000022888184,10|0,1:0|3:0,0:0:0:0:
260,300,77093,2,0,P|299:291|316:274,1,60.0000022888184,2|0,1:2|3:0,0:0:0:0:
444,280,77268,6,0,P|408:296|384:292,1,60.0000022888184,8|0,1:0|3:0,0:0:0:0:
234,167,77442,2,0,P|243:205|260:222,1,60.0000022888184,2|0,1:2|3:0,0:0:0:0:
408,144,77616,6,0,P|406:173|388:197,1,60.0000022888184,8|0,1:0|3:0,0:0:0:0:
207,279,77791,1,2,1:2:0:0:
207,279,77878,1,2,1:0:0:0:
207,279,77965,2,0,P|231:297|260:300,1,60.0000022888184,2|0,1:0|1:0,0:0:0:0:
476,208,78140,1,2,1:2:0:0:
233,166,78314,6,0,B|275:168|295:191|295:191|298:159|331:137,1,136.000002593994,6|0,1:0|3:0,0:0:0:0:
258,67,78576,2,0,B|235:102|205:108|205:108|230:126|233:166,1,136.000002593994,2|0,0:0|3:0,0:0:0:0:
324,256,78837,5,2,0:0:0:0:
408,144,79012,1,2,0:1:0:0:
328,24,79186,1,8,0:0:0:0:
340,44,79273,1,8,0:0:0:0:
344,68,79361,1,8,1:0:0:0:
233,166,79535,1,2,0:0:0:0:
63,142,79709,6,0,B|91:115|130:125|130:125|159:152|149:193,1,143.999995605469,4|0,0:3|3:0,0:0:0:0:
65,241,79970,2,0,B|27:229|16:190|16:190|26:152|66:140,1,143.999995605469,2|0,0:0|3:0,0:0:0:0:
152,54,80233,5,2,0:0:0:0:
233,166,80407,1,2,0:1:0:0:
156,286,80581,1,8,0:0:0:0:
168,266,80669,1,8,0:0:0:0:
172,242,80756,1,8,1:0:0:0:
63,142,80930,1,10,0:0:0:0:
84,316,81105,5,2,0:1:0:0:
304,204,81279,1,0,0:0:0:0:
280,232,81367,1,0,0:0:0:0:
248,244,81454,1,8,1:0:0:0:
96,240,81628,1,2,0:0:0:0:
236,324,81802,5,2,0:1:0:0:
284,316,81890,1,8,0:0:0:0:
332,304,81977,1,0,0:0:0:0:
360,264,82064,1,8,0:0:0:0:
384,220,82151,1,8,1:0:0:0:
213,126,82326,2,0,L|236:160,1,40,2|8,0:0|0:0,0:0:0:0:
380,368,82500,5,4,2:1:0:0:
332,304,82675,1,0,0:0:0:0:
227,255,82849,5,8,0:0:0:0:
235,159,83023,1,0,0:0:0:0:
128,84,83198,5,0,0:0:0:0:
296,24,83372,1,8,0:1:0:0:
296,24,83459,1,8,0:1:0:0:
296,24,83547,2,0,P|303:53|300:84,1,60.0000022888184,4|8,0:2|0:1,0:1:0:0:
152,204,83895,5,6,1:0:0:0:
368,136,84070,1,2,0:0:0:0:
368,136,84157,1,10,0:0:0:0:
368,136,84244,2,0,P|379:92|376:44,1,80,8|2,1:0|0:0,0:0:0:0:
228,60,84593,1,2,0:1:0:0:
272,252,84768,1,2,0:0:0:0:
272,252,84855,1,2,0:0:0:0:
272,252,84942,2,0,P|260:208|264:160,1,80,8|2,1:0|0:0,0:0:0:0:
388,328,85291,5,4,0:3:0:0:
252,340,85465,2,0,L|200:340,1,40,2|8,0:0|0:0,0:0:0:0:
96,384,85639,1,8,1:0:0:0:
0,248,85814,5,2,0:0:0:0:
136,312,85988,1,2,0:1:0:0:
261,181,86163,1,10,0:0:0:0:
261,181,86250,1,8,0:0:0:0:
261,181,86337,5,8,1:0:0:0:
68,280,86511,1,2,0:0:0:0:
17,63,86685,6,0,L|28:101,1,40,4|0,1:3|3:0,0:0:0:0:
64,204,86860,1,8,0:0:0:0:
64,204,86947,1,8,0:0:0:0:
64,204,87034,1,0,0:0:0:0:
224,228,87209,1,0,0:0:0:0:
137,23,87384,6,0,L|148:61,1,40,4|0,1:3|3:0,0:0:0:0:
184,164,87559,1,0,0:0:0:0:
184,164,87646,1,8,0:0:0:0:
184,164,87733,1,8,0:0:0:0:
68,280,87907,1,2,0:0:0:0:
298,264,88081,5,4,1:3:0:0:
306,268,88256,2,0,P|291:277|262:280,1,40,0|0,1:0|3:0,0:0:0:0:
126,236,88430,5,0,1:0:0:0:
121,228,88605,2,0,P|141:231|159:240,1,40,0|0,1:0|1:0,0:0:0:0:
250,376,88779,6,0,P|236:363|227:345,1,40,0|0,1:0|3:0,0:0:0:0:
230,176,88953,6,0,P|234:196|231:216,1,40,0|0,1:0|1:0,0:0:0:0:
134,348,89128,6,0,P|143:331|157:317,1,40,0|0,1:0|1:0,0:0:0:0:
306,268,89302,2,0,L|346:266,1,40,0|0,1:0|3:0,0:0:0:0:
232,216,89477,5,6,2:1:0:0:
180,156,89651,1,2,0:0:0:0:
172,124,89738,1,0,0:0:0:0:
176,92,89826,1,10,1:0:0:0:
212,20,90000,1,2,0:0:0:0:
372,32,90175,5,2,2:1:0:0:
296,56,90349,1,10,0:0:0:0:
264,80,90436,1,8,0:0:0:0:
252,120,90523,1,10,1:0:0:0:
304,252,90698,1,2,0:0:0:0:
436,260,90872,5,4,2:3:0:0:
488,200,91047,1,2,0:0:0:0:
496,168,91134,1,0,0:0:0:0:
492,136,91221,1,10,1:0:0:0:
456,64,91395,1,2,0:0:0:0:
296,76,91570,5,2,0:1:0:0:
372,100,91744,1,8,0:0:0:0:
404,124,91831,1,8,0:0:0:0:
416,164,91919,1,10,1:2:0:0:
364,296,92093,1,2,2:1:0:0:
224,272,92268,5,2,0:1:0:0:
108,356,92442,1,2,0:0:0:0:
68,364,92529,1,2,0:0:0:0:
28,352,92616,1,10,1:0:0:0:
284,332,92791,5,2,0:0:0:0:
184,348,92965,1,2,0:1:0:0:
448,288,93140,5,2,0:0:0:0:
436,344,93227,1,8,0:0:0:0:
392,376,93314,1,10,1:0:0:0:
472,168,93488,2,0,L|480:236,1,40,10|0,0:2|3:0,0:0:0:0:
504,340,93663,5,10,1:0:0:0:
500,348,93837,2,0,L|444:344,1,40,8|8,2:0|3:2,0:0:0:0:
348,216,94012,5,10,1:0:0:0:
352,224,94186,2,0,L|408:220,1,40,8|8,0:0|3:2,0:0:0:0:
504,340,94361,6,0,L|448:336,1,40,10|0,1:0|3:0,0:0:0:0:
348,216,94535,2,0,L|404:212,1,40,8|0,1:0|3:0,0:0:0:0:
320,360,94709,6,0,L|264:356,1,40,8|8,1:0|1:0,0:0:0:0:
164,236,94884,2,0,L|220:232,1,40,8|0,1:0|3:0,0:0:0:0:
300,164,95058,5,6,2:1:0:0:
352,224,95233,1,2,0:0:0:0:
360,256,95320,1,0,0:0:0:0:
356,288,95407,1,10,1:0:0:0:
320,360,95581,1,2,0:0:0:0:
160,348,95756,5,2,2:1:0:0:
236,324,95930,1,10,0:0:0:0:
268,300,96018,1,8,0:0:0:0:
280,260,96105,1,10,1:0:0:0:
228,128,96279,1,2,0:0:0:0:
96,120,96454,5,4,2:3:0:0:
44,180,96628,1,2,0:0:0:0:
36,212,96715,1,0,0:0:0:0:
40,244,96802,1,10,1:0:0:0:
76,316,96977,1,2,0:0:0:0:
236,304,97151,5,2,0:1:0:0:
160,280,97326,1,8,0:0:0:0:
128,256,97413,1,8,0:0:0:0:
116,216,97500,1,8,1:2:0:0:
168,84,97675,1,2,2:1:0:0:
308,108,97849,5,10,1:1:0:0:
424,24,98023,1,2,0:0:0:0:
464,16,98111,1,2,0:0:0:0:
504,28,98198,1,0,0:0:0:0:
248,48,98372,5,8,0:0:0:0:
348,32,98547,1,10,1:1:0:0:
84,92,98721,5,2,0:0:0:0:
96,36,98808,1,8,0:0:0:0:
140,4,98895,1,0,0:0:0:0:
48,208,99070,2,0,L|40:140,1,40,10|0,0:0|3:0,0:0:0:0:
12,44,99244,5,10,1:1:0:0:
16,36,99419,2,0,L|72:40,1,40,8|8,0:0|3:0,0:0:0:0:
168,168,99593,5,10,1:1:0:0:
164,160,99768,2,0,L|108:164,1,40,8|8,0:1|3:1,0:0:0:0:
12,44,99942,6,0,L|68:48,1,40,10|0,1:1|3:0,0:0:0:0:
168,168,100116,2,0,L|112:172,1,40,8|8,1:0|1:0,0:0:0:0:
164,44,100291,6,0,L|160:100,1,40,10|8,1:1|1:0,0:0:0:0:
40,200,100465,2,0,L|36:144,1,40,8|0,1:0|3:0,0:0:0:0:
236,120,100640,5,6,0:1:0:0:
170,266,100814,1,0,0:0:0:0:
128,278,100901,1,0,0:0:0:0:
85,266,100988,1,10,1:0:0:0:
40,200,101163,1,0,0:0:0:0:
248,256,101337,5,2,0:1:0:0:
328,272,101512,1,10,0:0:0:0:
348,272,101599,1,8,0:0:0:0:
364,264,101686,1,10,1:0:0:0:
412,200,101861,1,10,0:0:0:0:
376,48,102035,5,4,0:3:0:0:
480,156,102209,1,2,0:0:0:0:
492,200,102297,1,0,0:0:0:0:
480,244,102384,1,10,1:0:0:0:
372,348,102558,1,0,0:0:0:0:
228,312,102733,5,2,0:1:0:0:
180,248,102907,1,10,0:0:0:0:
172,228,102994,1,8,0:0:0:0:
172,208,103081,1,10,1:1:0:0:
208,136,103256,1,10,0:0:0:0:
32,208,103430,5,2,0:1:0:0:
140,312,103605,1,2,0:0:0:0:
184,324,103692,1,0,0:0:0:0:
228,312,103779,1,10,1:0:0:0:
332,204,103954,1,0,0:0:0:0:
232,28,104128,5,2,0:1:0:0:
280,92,104302,1,10,0:0:0:0:
288,112,104390,1,8,0:0:0:0:
288,132,104477,1,10,1:1:0:0:
252,204,104651,1,10,0:0:0:0:
96,248,104826,5,2,0:1:0:0:
264,280,105000,5,8,0:1:0:0:
216,272,105088,1,8,0:1:0:0:
180,240,105175,1,10,1:0:0:0:
256,356,105348,5,8,0:1:0:0:
184,340,105436,1,8,0:1:0:0:
128,292,105524,2,0,P|112:276|108:244,1,40,10|0,1:0|3:0,0:0:0:0:
256,356,105698,2,0,P|277:358|300:348,1,40,8|0,1:0|3:0,0:0:0:0:
252,204,105872,6,0,L|272:164,1,40,8|8,1:0|1:0,0:0:0:0:
184,340,106047,1,8,1:0:0:0:
500,308,106221,5,6,1:0:0:0:
376,268,106395,1,2,0:0:0:0:
348,232,106483,1,0,0:0:0:0:
344,188,106570,1,10,1:0:0:0:
400,68,106744,1,0,0:0:0:0:
512,236,106919,5,2,0:1:0:0:
432,224,107093,1,10,0:0:0:0:
416,204,107180,1,8,0:0:0:0:
412,180,107268,1,10,1:0:0:0:
456,112,107442,1,10,0:0:0:0:
276,216,107616,5,4,0:3:0:0:
145,216,107791,1,2,0:0:0:0:
107,190,107878,1,0,0:0:0:0:
90,150,107965,1,10,1:1:0:0:
106,18,108140,1,2,0:0:0:0:
173,43,108314,5,2,0:1:0:0:
152,121,108488,1,10,0:0:0:0:
163,143,108576,1,8,0:0:0:0:
185,157,108663,1,10,1:1:0:0:
265,143,108837,1,10,0:2:0:0:
288,292,109012,5,2,1:0:0:0:
108,280,109186,1,8,0:0:0:0:
52,240,109273,1,8,0:0:0:0:
21,180,109361,1,8,1:0:0:0:
32,0,109535,1,8,0:0:0:0:
0,288,109709,5,2,1:1:0:0:
152,172,109884,1,8,1:0:0:0:
88,200,109971,1,8,1:2:0:0:
21,180,110058,2,0,P|4:159|-1:134,1,51.999997619629,10|0,1:0|3:0,0:0:0:0:
108,8,110233,2,0,P|128:24|153:29,1,51.999997619629,8|8,1:0|3:2,0:0:0:0:
352,104,110407,6,0,P|326:106|307:123,1,51.999997619629,10|0,1:0|3:0,0:0:0:0:
160,104,110581,2,0,P|185:106|204:123,1,51.999997619629,8|0,1:0|3:0,0:0:0:0:
256,268,110756,5,8,1:0:0:0:
348,108,110930,1,8,1:0:0:0:
316,168,111018,1,8,1:0:0:0:
324,236,111105,6,0,P|345:252|370:257,1,51.999997619629,8|8,1:0|1:0,0:0:0:0:
188,236,111279,2,0,P|167:252|142:257,1,51.999997619629,8|8,1:0|1:0,0:0:0:0:
308,325,111454,2,0,P|312:350|326:372,1,51.999997619629,8|8,1:0|1:0,0:0:0:0:
205,325,111628,2,0,P|201:350|187:372,1,51.6129032258064,2|8,1:2|1:0,0:0:0:0:
256,192,112326,5,10,0:3:0:0:
