osu file format v14

[General]
AudioFilename: audio.mp3
AudioLeadIn: 0
PreviewTime: 22413
Countdown: 0
SampleSet: Soft
StackLeniency: 0.3
Mode: 0
LetterboxInBreaks: 0
WidescreenStoryboard: 1

[Editor]
DistanceSpacing: 1.6
BeatDivisor: 4
GridSize: 4
TimelineZoom: 0.9000007

[Metadata]
Title:Nanatsu Issenzakura
TitleUnicode:七つ一旋桜
Artist:A.SAKA
ArtistUnicode:A.SAKA
Creator:yf_bmp
Version:Advanced
Source:
Tags:sakura seven rotating revolving rotate revolve cherry blossom 木製みゅーと Mokuse Mute 神楽ノ花 Kagura no Hana imoutosan Fushimi Rio Syameimaru-Aya Gust Moecho Pata-Mon
BeatmapID:1093774
BeatmapSetID:513731

[Difficulty]
HPDrainRate:4
CircleSize:3.1
OverallDifficulty:4
ApproachRate:4
SliderMultiplier:1.2
SliderTickRate:1

[Events]
//Background and Video events
0,0,"BG.jpg",0,0
//Break Periods
2,45026,54668
//Storyboard Layer 0 (Background)
//Storyboard Layer 1 (Fail)
//Storyboard Layer 2 (Pass)
//Storyboard Layer 3 (Foreground)
//Storyboard Sound Samples

[TimingPoints]
175,348.837209302326,4,2,16,80,1,0
11337,-133.333333333333,4,2,15,60,0,0
22500,-100,4,2,16,80,0,0
33663,-100,4,2,16,80,0,1
44826,-200,4,2,15,80,0,0
55988,-133.333333333333,4,2,16,80,0,0
67151,-100,4,2,16,80,0,0
100640,-100,4,2,16,80,0,1
111628,-100,4,2,16,80,0,0

[Colours]
Combo1 : 255,142,199
Combo2 : 138,175,193
Combo3 : 255,62,158
Combo4 : 45,208,139

[HitObjects]
184,312,11337,6,0,P|227:318|264:293,1,90.0000034332276,0|0,0:0|0:0,0:0:0:0:
280,264,11861,1,0,0:0:0:0:
280,264,12035,2,0,L|384:276,1,90.0000034332276,0|0,0:0|0:0,0:0:0:0:
440,220,12733,6,0,L|496:212,2,45.0000017166138,0|0|0,0:0|0:0|0:0,0:0:0:0:
412,196,13256,1,0,0:0:0:0:
412,196,13430,2,0,P|394:156|396:112,1,90.0000034332276
420,84,13954,1,0,0:0:0:0:
420,84,14128,5,2,3:2:0:0:
340,44,14477,1,2,3:2:0:0:
260,88,14826,1,2,3:2:0:0:
180,48,15175,1,2,3:2:0:0:
100,88,15523,6,0,P|106:131|81:168,1,90.0000034332276,2|0,3:2|0:0,0:0:0:0:
52,184,16047,1,0,0:0:0:0:
52,184,16221,2,0,L|64:288,1,90.0000034332276,0|0,0:0|0:0,0:0:0:0:
140,320,16919,5,4,0:1:0:0:
140,320,18314,1,0,0:0:0:0:
139,319,19709,6,0,P|224:331|280:264,2,180.000006866455,0|0|0,1:0|1:0|1:0,0:0:0:0:
192,248,21454,1,0,1:0:0:0:
279,264,21802,2,0,L|332:272,2,45.0000017166138,0|0|0,1:0|1:0|1:0,0:0:0:0:
372,344,22500,6,0,P|406:298|400:232,1,120,6|10,2:1|0:1,0:0:0:0:
384,208,23023,1,2,0:0:0:0:
384,208,23198,2,0,L|400:76,1,120,2|10,0:1|0:1,0:0:0:0:
344,32,23721,1,2,0:0:0:0:
316,108,23895,6,0,P|270:142|204:136,1,120,2|10,2:1|0:1,0:0:0:0:
180,120,24419,1,2,0:0:0:0:
180,120,24593,2,0,L|48:136,1,120,2|10,0:1|0:1,0:0:0:0:
0,80,25116,1,2,0:0:0:0:
36,8,25291,5,2,0:1:0:0:
168,208,25988,1,2,0:1:0:0:
0,380,26686,5,10,1:1:0:0:
72,284,27035,1,8,1:1:0:0:
184,328,27384,2,0,L|252:320,1,60,8|8,1:1|1:1,0:0:0:0:
292,256,27733,2,0,L|336:260,2,30,8|8|8,1:1|1:1|1:1,0:0:0:0:
224,212,28081,6,0,P|270:178|336:184,1,120,6|10,2:1|0:1,0:0:0:0:
364,192,28605,1,2,0:0:0:0:
364,192,28779,2,0,L|348:60,1,120,2|10,0:1|0:1,0:0:0:0:
404,12,29302,1,2,0:0:0:0:
476,48,29477,6,0,P|510:94|504:160,1,120,4|10,2:3|0:1,0:0:0:0:
488,184,30000,1,2,0:0:0:0:
488,184,30175,2,0,L|504:316,1,120,2|10,0:1|0:1,0:0:0:0:
444,360,30698,1,2,0:0:0:0:
366,341,30872,5,10,0:1:0:0:
432,120,31570,1,10,0:1:0:0:
444,356,32268,5,10,0:1:0:0:
368,264,32616,1,10,0:1:0:0:
272,372,32965,2,0,L|204:364,1,60,10|8,1:1|1:0,0:0:0:0:
168,296,33314,2,0,L|124:300,2,30,8|8|8,1:1|1:0|1:0,0:0:0:0:
220,232,33663,6,0,P|236:175|219:118,1,120,6|10,0:1|1:0,0:0:0:0:
192,96,34186,1,0,0:0:0:0:
192,96,34361,2,0,P|163:88|133:92,2,60,2|10|10,0:1|0:0|1:0,0:0:0:0:
260,48,34884,1,10,0:0:0:0:
300,120,35058,6,0,P|356:136|413:119,1,120,4|10,0:3|1:0,0:0:0:0:
436,92,35581,1,0,0:0:0:0:
436,92,35756,2,0,P|443:63|439:33,2,60,2|10|10,0:1|0:0|1:1,0:0:0:0:
360,184,36454,6,0,P|344:241|361:298,1,120,2|10,0:1|1:0,0:0:0:0:
388,320,36977,1,0,0:0:0:0:
388,320,37151,2,0,P|417:328|447:324,2,60,2|10|10,0:1|0:0|1:1,0:0:0:0:
320,368,37675,1,10,0:0:0:0:
280,296,37849,6,0,P|224:280|167:297,1,120,2|10,0:1|1:0,0:0:0:0:
144,324,38372,1,0,1:0:0:0:
144,324,38547,2,0,P|137:353|141:383,2,60,10|8|10,1:0|1:0|1:0,0:0:0:0:
176,208,39244,6,0,B|188:140|156:160|169:89,1,120,6|10,1:0|1:0,0:0:0:0:
188,60,39768,1,0,0:0:0:0:
188,60,39942,2,0,L|264:56,2,60,2|10|10,0:1|0:0|1:0,0:0:0:0:
116,28,40465,1,10,0:0:0:0:
43,56,40640,6,0,P|19:108|43:161,1,120,4|10,0:3|1:1,0:0:0:0:
76,176,41163,1,0,0:0:0:0:
76,176,41337,2,0,L|68:244,2,60,2|10|10,0:1|0:0|1:0,0:0:0:0:
140,276,42035,6,0,P|197:285|242:248,1,120,2|8,1:0|1:0,0:0:0:0:
260,216,42558,1,8,0:0:0:0:
260,216,42733,2,0,P|286:230|315:232,1,60,2|8,1:1|1:0,0:0:0:0:
396,216,43081,1,10,1:0:0:0:
305,148,43430,6,0,P|330:150|371:136,2,60,10|0|10,1:1|1:0|1:0,0:0:0:0:
324,71,43954,2,0,P|313:47|280:18,2,60,8|8|8,1:0|1:0|1:0,0:0:0:0:
246,93,44477,2,0,P|231:114|222:156,1,60,0|0,1:0|1:0,0:0:0:0:
260,216,44826,5,2,0:3:0:0:
96,288,55988,6,0,L|168:280,1,67.5000025749207,12|8,0:0|0:0,0:0:0:0:
232,324,56512,1,0,0:0:0:0:
232,324,56686,2,0,L|292:328,1,45.0000017166138,0|0,0:0|0:0,0:0:0:0:
304,308,57035,2,0,L|364:304,1,45.0000017166138,0|0,0:0|0:0,0:0:0:0:
368,332,57384,6,0,L|360:260,1,67.5000025749207,4|8,0:0|0:0,0:0:0:0:
404,196,57908,1,0,0:0:0:0:
404,196,58082,2,0,L|408:136,1,45.0000017166138,0|0,0:0|0:0,0:0:0:0:
388,124,58431,2,0,L|384:64,1,45.0000017166138,0|0,0:0|0:0,0:0:0:0:
412,60,58779,6,0,L|340:68,1,67.5000025749207,10|8,0:3|0:0,0:0:0:0:
276,24,59303,1,0,0:0:0:0:
276,24,59477,2,0,L|216:20,1,45.0000017166138,8|0,0:0|0:0,0:0:0:0:
204,40,59826,2,0,L|144:44,1,45.0000017166138,0|0,0:0|0:0,0:0:0:0:
140,16,60175,6,0,L|148:88,1,67.5000025749207,4|8,0:0|0:0,0:0:0:0:
104,152,60699,1,0,0:0:0:0:
104,152,60873,2,0,L|100:212,1,45.0000017166138,0|2,0:0|0:1,0:0:0:0:
120,224,61222,2,0,L|124:284,1,45.0000017166138,0|2,0:0|0:1,0:0:0:0:
107,298,61570,6,0,P|187:260|276:268,1,180.000006866455,2|8,0:1|1:1,0:0:0:0:
408,136,62791,1,0,0:0:0:0:
400,92,62965,6,0,P|319:130|231:122,1,180.000006866455,4|8,0:3|1:1,0:0:0:0:
156,48,64012,6,0,L|112:44,2,45.0000017166138,8|0|4,0:0|0:0|0:3,0:0:0:0:
128,152,64709,1,8,1:0:0:0:
231,122,65058,1,2,0:1:0:0:
204,228,65407,1,8,1:0:0:0:
309,203,65756,6,0,B|404:188|376:268|474:250,1,180.000006866455,2|2,1:0|1:2,0:0:0:0:
460,144,66802,2,0,L|474:101,1,45.0000017166138,2|2,1:2|1:2,0:0:0:0:
467,60,67151,6,0,P|424:66|388:41,1,90,6|2,1:0|0:0,0:0:0:0:
308,96,67675,2,0,L|184:104,1,120,2|8,0:0|0:0,0:0:0:0:
128,52,68198,2,0,P|112:80|112:124,1,60,8|2,1:0|0:0,0:0:0:0:
63,171,68547,6,0,P|105:187|149:176,1,90,4|2,0:3|0:0,0:0:0:0:
235,231,69071,2,0,L|359:239,1,120,2|8,0:0|0:0,0:0:0:0:
416,184,69594,2,0,P|432:212|432:256,1,60,8|2,1:0|0:0,0:0:0:0:
392,312,69942,6,0,P|452:320|508:280,2,120,2|8|2,0:1|1:0|0:1,0:0:0:0:
276,344,70988,2,0,L|212:360,1,60,8|2,1:0|0:0,0:0:0:0:
156,304,71337,6,0,P|96:292|44:328,1,120,2|8,0:1|1:0,0:0:0:0:
112,372,71861,1,14,0:0:0:0:
232,272,72209,2,0,L|228:212,2,60,8|8|6,1:0|1:0|1:2,0:0:0:0:
155,304,72733,6,0,L|147:183,1,120,6|8,1:0|1:0,0:0:0:0:
212,136,73256,2,0,P|257:172|316:168,1,120,2|0,0:0|0:0,0:0:0:0:
388,132,73779,2,0,P|389:98|380:68,2,60,8|0|4,1:0|0:0|0:3,0:0:0:0:
384,212,74302,6,0,L|399:332,1,120,0|10,0:0|0:0,0:0:0:0:
465,377,74826,2,0,P|477:349|473:309,2,60,2|10|8,0:1|0:0|1:0,0:0:0:0:
316,320,75523,5,10,1:1:0:0:
444,168,76047,1,10,1:0:0:0:
244,176,76570,1,8,1:0:0:0:
244,176,76744,2,0,B|256:128|256:128|240:116|240:116|253:67,2,120,2|2|2,1:2|1:2|1:2,0:0:0:0:
112,160,77791,2,0,B|100:208|100:208|116:220|116:220|102:268,1,120,2|2,1:2|1:2,0:0:0:0:
45,324,78314,6,0,P|88:318|124:343,1,90,6|2,1:0|0:0,0:0:0:0:
204,288,78838,2,0,L|328:280,1,120,2|8,0:0|0:0,0:0:0:0:
384,332,79361,2,0,P|400:304|400:260,1,60,8|2,1:0|0:0,0:0:0:0:
448,212,79710,6,0,P|407:197|363:207,1,90,4|2,0:3|0:0,0:0:0:0:
277,153,80234,2,0,L|153:145,1,120,2|0,0:0|0:0,0:0:0:0:
96,196,80757,2,0,P|80:168|80:124,1,60,8|10,1:0|0:0,0:0:0:0:
119,71,81105,6,0,P|62:59|13:90,2,120,2|8|2,0:1|1:0|0:1,0:0:0:0:
236,40,82151,2,0,L|300:24,1,60,8|2,1:0|0:0,0:0:0:0:
356,80,82500,6,0,P|416:92|468:52,1,120,4|8,2:1|0:0,0:0:0:0:
440,216,83198,1,0,0:0:0:0:
280,168,83547,2,0,L|276:108,1,60,4|8,0:2|0:1,0:0:0:0:
356,80,83896,6,0,L|364:200,1,120,6|8,1:0|1:0,0:0:0:0:
299,247,84419,2,0,P|254:211|196:216,1,120,2|2,0:0|0:0,0:0:0:0:
124,256,84942,2,0,L|132:320,2,60,8|2|4,1:0|0:0|0:3,0:0:0:0:
124,172,85465,6,0,L|109:52,1,120,8|2,0:0|0:0,0:0:0:0:
40,8,85988,2,0,P|28:36|32:76,2,60,2|8|8,0:1|0:0|1:0,0:0:0:0:
196,64,86685,5,4,1:3:0:0:
316,320,87384,1,2,1:0:0:0:
56,200,88081,5,2,1:0:0:0:
188,256,88430,1,0,1:0:0:0:
180,112,88779,1,0,1:0:0:0:
180,112,88954,2,0,L|239:105,2,60,0|0|0,1:0|1:0|1:0,0:0:0:0:
142,42,89477,6,0,P|104:87|109:146,1,120,6|10,2:1|1:0,0:0:0:0:
128,176,90000,1,2,0:0:0:0:
128,176,90175,2,0,L|112:308,1,120,2|10,0:1|1:0,0:0:0:0:
168,352,90698,1,2,0:0:0:0:
196,276,90872,6,0,P|242:242|308:248,1,120,4|10,2:3|1:0,0:0:0:0:
332,264,91395,1,2,0:0:0:0:
332,264,91570,2,0,L|464:248,1,120,2|10,0:1|1:1,0:0:0:0:
508,304,92093,1,2,0:0:0:0:
460,368,92268,5,2,0:1:0:0:
451,249,92616,2,0,L|448:188,2,60,10|2|2,1:0|0:0|0:1,0:0:0:0:
380,148,93314,2,0,P|400:124|440:108,1,60,10|2,1:0|0:0,0:0:0:0:
504,128,93663,5,10,1:0:0:0:
444,20,94012,1,10,1:0:0:0:
328,56,94361,2,0,L|260:64,1,60,8|8,1:0|1:0,0:0:0:0:
220,128,94709,2,0,L|176:124,2,30,8|8|8,1:0|1:0|1:0,0:0:0:0:
288,172,95058,6,0,P|242:206|176:200,1,120,6|10,2:1|1:0,0:0:0:0:
148,192,95581,1,2,0:0:0:0:
148,192,95756,2,0,L|164:324,1,120,2|10,0:1|1:1,0:0:0:0:
108,368,96279,1,2,0:0:0:0:
36,336,96454,6,0,P|2:290|8:224,1,120,4|10,2:3|1:1,0:0:0:0:
24,200,96977,1,2,0:0:0:0:
24,200,97151,2,0,L|8:68,1,120,2|10,0:1|1:1,0:0:0:0:
68,28,97675,1,2,0:0:0:0:
148,44,97849,5,10,1:1:0:0:
96,156,98198,2,0,L|104:216,2,60,0|2|10,0:0|0:0|1:1,0:0:0:0:
51,275,98895,2,0,P|77:291|107:295,1,60,0|2,2:0|0:0,0:0:0:0:
176,256,99244,5,10,1:1:0:0:
208,140,99593,1,10,1:1:0:0:
240,24,99942,2,0,L|308:20,1,60,10|8,1:1|1:0,0:0:0:0:
344,88,100291,2,0,L|388:84,2,30,10|8|8,1:1|1:0|1:0,0:0:0:0:
292,152,100640,6,0,P|276:209|293:266,1,120,6|10,0:1|1:1,0:0:0:0:
320,288,101163,1,0,0:0:0:0:
320,288,101337,2,0,P|349:296|379:292,2,60,2|10|10,0:1|0:0|1:1,0:0:0:0:
252,332,101861,1,10,0:0:0:0:
212,264,102035,6,0,P|156:248|99:265,1,120,4|10,0:3|1:1,0:0:0:0:
76,292,102558,1,0,0:0:0:0:
76,292,102733,2,0,P|69:321|73:351,2,60,2|10|10,0:1|0:0|1:1,0:0:0:0:
152,200,103430,6,0,P|168:143|151:86,1,120,2|10,0:1|1:1,0:0:0:0:
124,64,103954,1,0,0:0:0:0:
124,64,104128,2,0,P|95:56|65:60,2,60,2|10|10,0:1|0:0|1:1,0:0:0:0:
192,20,104651,1,10,0:0:0:0:
232,88,104826,6,0,P|288:104|345:87,1,120,10|10,1:0|1:0,0:0:0:0:
368,60,105349,1,0,1:0:0:0:
368,60,105523,2,0,P|375:31|371:1,2,60,10|8|10,1:0|1:0|1:0,0:0:0:0:
336,176,106221,6,0,B|324:244|356:224|343:295,1,120,6|10,1:0|1:0,0:0:0:0:
324,324,106744,1,0,0:0:0:0:
324,324,106919,2,0,L|248:328,2,60,2|10|10,0:1|0:0|1:1,0:0:0:0:
396,356,107442,1,10,0:0:0:0:
469,328,107616,6,0,P|493:276|469:223,1,120,4|10,0:3|1:1,0:0:0:0:
436,208,108140,1,0,0:0:0:0:
436,208,108314,2,0,L|444:140,2,60,2|10|10,0:1|0:0|1:1,0:0:0:0:
371,107,109012,6,0,P|314:98|269:135,1,120,10|8,1:1|1:0,0:0:0:0:
252,168,109535,1,0,0:0:0:0:
252,168,109709,2,0,P|226:154|197:152,1,60,10|8,1:1|1:0,0:0:0:0:
116,168,110058,1,10,1:0:0:0:
207,236,110407,6,0,P|181:233|140:247,2,60,8|0|10,1:2|1:0|1:0,0:0:0:0:
188,313,110930,2,0,P|198:336|231:365,2,60,8|8|8,1:0|1:0|1:0,0:0:0:0:
266,291,111454,2,0,P|280:269|289:227,1,60,8|4,1:0|1:2,0:0:0:0:
188,16,112326,5,8,2:0:0:0:
