osu file format v14

[General]
AudioFilename: audio.ogg
AudioLeadIn: 0
PreviewTime: 64504
Countdown: 0
SampleSet: Soft
StackLeniency: 0.7
Mode: 0
LetterboxInBreaks: 0
EpilepsyWarning: 1
WidescreenStoryboard: 1

[Editor]
DistanceSpacing: 0.7
BeatDivisor: 4
GridSize: 32
TimelineZoom: 2.1

[Metadata]
Title:Nanatsu Issenzakura
TitleUnicode:七つ一旋桜
Artist:A.SAKA
ArtistUnicode:A.SAKA
Creator:ThunderBird2678
Version:Insane
Source:
Tags:osu! featured artist fa japanese folk instrumental oriental electronic sakura cherry blossoms spring haru rotating revolving rotate revolve 春 はる 木製みゅーと mokuse mute 神楽ノ花 kagura no hana おにねこ Onineko osu!Uwaterloo University of Waterloo Mapping Contest F2023 Fall 2023
BeatmapID:4394099
BeatmapSetID:2095258

[Difficulty]
HPDrainRate:5
CircleSize:3.5
OverallDifficulty:8
ApproachRate:9
SliderMultiplier:2.2
SliderTickRate:1

[Events]
//Background and Video events
0,0,"111749410_p0.jpg",0,0
//Break Periods
//Storyboard Layer 0 (Background)
Sprite,Background,Centre,"111749410_p0.jpg",0,0 F,0,0,,0 S,0,0,,0.3972222 F,13,0,500,0,0.6 M,17,0,2784,320,240,318,238 M,17,2784,5568,318,238,320,240 M,17,5568,8352,320,240,320,239 M,17,8352,11136,320,239,322,241 M,17,11136,13920,322,241,320,240 M,17,13920,16704,320,240,322,242 M,17,16704,19488,322,242,319,240 M,17,19488,22272,319,240,321,242 M,17,22272,25056,321,242,319,239 M,17,25056,27840,319,239,321,241 M,17,27840,30624,321,241,319,240 M,17,30624,33408,319,240,321,242 M,17,33408,36192,321,242,319,240 M,17,36192,38976,319,240,321,242 M,17,38976,41760,321,242,319,240 M,17,41760,44544,319,240,321,242 M,17,44544,47328,321,242,320,240 M,17,47328,50112,320,240,322,242 M,17,50112,52896,322,242,319,240 M,17,52896,55680,319,240,321,242 M,17,55680,58464,321,242,320,240 M,17,58464,61248,320,240,322,242 M,17,61248,64032,322,242,319,240 M,17,64032,66816,319,240,321,242 M,17,66816,69600,321,242,320,240 M,17,69600,72384,320,240,322,242 M,17,72384,75168,322,242,320,240 M,17,75168,77952,320,240,322,242 M,17,77952,80736,322,242,319,239 M,17,80736,83520,319,239,321,241 M,17,83520,86304,321,241,319,239 M,17,86304,89088,319,239,321,241 M,17,89088,91872,321,241,320,240 M,17,91872,94656,320,240,322,242 M,17,94656,97440,322,242,320,239 M,17,97440,100224,320,239,322,241 M,17,100224,103008,322,241,319,239 M,17,103008,105792,319,239,321,241 M,17,105792,108576,321,241,320,240 M,17,108576,111360,320,240,322,242 M,17,111360,114144,322,242,320,239 F,0,112556,113056,0.6,0 M,17,114144,116928,320,239,322,241
Sprite,Background,Centre,"sb\black.png",320,0 S,0,0,,0.432 F,6,0,500,0,1 MY,13,43434,43435,2000,1000 MY,13,43435,43609,1000,950 MY,13,43784,43958,950,900 MY,13,44133,44307,900,850 MY,13,44481,44656,850,800 MY,13,44830,45013,800,750 F,6,45013,45014,1,0
Sprite,Background,Centre,"sb\black.png",320,0 S,0,0,,0.432 F,6,0,500,0,1 MY,13,43435,43609,-550,-500 MY,13,43784,43958,-500,-450 MY,13,44133,44307,-450,-400 MY,13,44481,44656,-400,-350 MY,13,44830,45013,-350,-300 F,6,45013,45014,1,0
Sprite,Background,Centre,"sb\black.png",320,240 F,0,0,,0 F,6,45013,46408,0,1 F,6,46408,47803,0,1 F,6,47803,49198,0,1 F,6,49199,50594,0,1 F,6,50594,51989,0,1 F,6,51989,53384,0,1 F,6,53385,54780,0,1 F,6,54780,56175,0,1 F,6,56175,57570,0
Sprite,Background,Centre,"sb\glow.png",97,72 C,0,362,,216,205,231 F,6,362,1612,0.5,0 S,2,362,1612,0.4,0.08 P,0,362,1612,A
Sprite,Background,Centre,"sb\glow.png",320,203 C,0,1757,,174,175,208 F,6,1757,3007,0.5,0 S,2,1757,3007,0.4,0.08 P,0,1757,3007,A
Sprite,Background,Centre,"sb\glow.png",320,203 C,0,3152,,208,174,197 F,6,3152,4402,0.5,0 S,2,3152,4402,0.4,0.08 P,0,3152,4402,A
Sprite,Background,Centre,"sb\glow.png",267,339 C,0,4548,,224,215,211 F,6,4548,5798,0.5,0 S,2,4548,5798,0.4,0.08 P,0,4548,5798,A
Sprite,Background,Centre,"sb\glow.png",302,115 C,0,5943,,216,205,231 F,6,5943,7193,0.5,0 S,2,5943,7193,0.4,0.08 P,0,5943,7193,A
Sprite,Background,Centre,"sb\glow.png",456,213 C,0,7338,,174,175,208 F,6,7338,8588,0.5,0 S,2,7338,8588,0.4,0.08 P,0,7338,8588,A
Sprite,Background,Centre,"sb\glow.png",170,384 C,0,8734,,208,174,197 F,6,8734,9984,0.5,0 S,2,8734,9984,0.4,0.08 P,0,8734,9984,A
Sprite,Background,Centre,"sb\glow.png",248,257 C,0,10129,,208,174,197 F,6,10129,11379,0.5,0 S,2,10129,11379,0.4,0.08 P,0,10129,11379,A
Sprite,Background,Centre,"sb\glow.png",164,101 C,0,10478,,224,215,211 F,6,10478,11728,0.5,0 S,2,10478,11728,0.4,0.08 P,0,10478,11728,A
Sprite,Background,Centre,"sb\glow.png",297,420 C,0,12920,,174,175,208 F,6,12920,14170,0.5,0 S,2,12920,14170,0.4,0.08 P,0,12920,14170,A
Sprite,Background,Centre,"sb\glow.png",280,81 C,0,14315,,224,215,211 F,6,14315,15565,0.5,0 S,2,14315,15565,0.4,0.08 P,0,14315,15565,A
Sprite,Background,Centre,"sb\glow.png",532,151 C,0,14664,,224,215,211 F,6,14664,15914,0.5,0 S,2,14664,15914,0.4,0.08 P,0,14664,15914,A
Sprite,Background,Centre,"sb\glow.png",447,127 C,0,15013,,216,205,231 F,6,15013,16263,0.5,0 S,2,15013,16263,0.4,0.08 P,0,15013,16263,A
Sprite,Background,Centre,"sb\glow.png",306,292 C,0,15362,,216,205,231 F,6,15362,16612,0.5,0 S,2,15362,16612,0.4,0.08 P,0,15362,16612,A
Sprite,Background,Centre,"sb\glow.png",206,271 C,0,21641,,208,174,197 F,6,21641,22891,0.5,0 S,2,21641,22891,0.4,0.08 P,0,21641,22891,A
Sprite,Background,Centre,"sb\glow.png",203,424 C,0,22164,,208,174,197 F,6,22164,23414,0.5,0 S,2,22164,23414,0.4,0.08 P,0,22164,23414,A
Sprite,Background,Centre,"sb\glow.png",203,424 C,0,22251,,208,174,197 F,6,22251,23501,0.5,0 S,2,22251,23501,0.4,0.08 P,0,22251,23501,A
Sprite,Background,Centre,"sb\glow.png",203,424 C,0,22338,,208,174,197 F,6,22338,23588,0.5,0 S,2,22338,23588,0.4,0.08 P,0,22338,23588,A
Sprite,Background,Centre,"sb\glow.png",306,337 C,0,23385,,216,205,231 F,6,23385,24635,0.5,0 S,2,23385,24635,0.4,0.08 P,0,23385,24635,A
Sprite,Background,Centre,"sb\glow.png",432,253 C,0,24780,,208,174,197 F,6,24780,26030,0.5,0 S,2,24780,26030,0.4,0.08 P,0,24780,26030,A
Sprite,Background,Centre,"sb\glow.png",244,294 C,0,26175,,216,205,231 F,6,26175,27425,0.5,0 S,2,26175,27425,0.4,0.08 P,0,26175,27425,A
Sprite,Background,Centre,"sb\glow.png",390,135 C,0,28966,,216,205,231 F,6,28966,30216,0.5,0 S,2,28966,30216,0.4,0.08 P,0,28966,30216,A
Sprite,Background,Centre,"sb\glow.png",237,144 C,0,30362,,208,174,197 F,6,30362,31612,0.5,0 S,2,30362,31612,0.4,0.08 P,0,30362,31612,A
Sprite,Background,Centre,"sb\glow.png",440.2587,291.0678 C,0,31321,,224,215,211 F,6,31321,32571,0.5,0 S,2,31321,32571,0.4,0.08 P,0,31321,32571,A
Sprite,Background,Centre,"sb\glow.png",478.5234,375.17 C,0,32018,,216,205,231 F,6,32018,33268,0.5,0 S,2,32018,33268,0.4,0.08 P,0,32018,33268,A
Sprite,Background,Centre,"sb\glow.png",479,376 C,0,32106,,216,205,231 F,6,32106,33356,0.5,0 S,2,32106,33356,0.4,0.08 P,0,32106,33356,A
Sprite,Background,Centre,"sb\glow.png",560,425 C,0,32280,,216,205,231 F,6,32280,33530,0.5,0 S,2,32280,33530,0.4,0.08 P,0,32280,33530,A
Sprite,Background,Centre,"sb\glow.png",572,237 C,0,32803,,174,175,208 F,6,32803,34053,0.5,0 S,2,32803,34053,0.4,0.08 P,0,32803,34053,A
Sprite,Background,Centre,"sb\glow.png",537,358 C,0,56175,,224,215,211 F,6,56175,57425,0.5,0 S,2,56175,57425,0.4,0.08 P,0,56175,57425,A
Sprite,Background,Centre,"sb\glow.png",135,407 C,0,57571,,174,175,208 F,6,57571,58821,0.5,0 S,2,57571,58821,0.4,0.08 P,0,57571,58821,A
Sprite,Background,Centre,"sb\glow.png",115,229 C,0,58966,,224,215,211 F,6,58966,60216,0.5,0 S,2,58966,60216,0.4,0.08 P,0,58966,60216,A
Sprite,Background,Centre,"sb\glow.png",383,156 C,0,60362,,174,175,208 F,6,60362,61612,0.5,0 S,2,60362,61612,0.4,0.08 P,0,60362,61612,A
Sprite,Background,Centre,"sb\glow.png",385,240 C,0,62455,,216,205,231 F,6,62455,63705,0.5,0 S,2,62455,63705,0.4,0.08 P,0,62455,63705,A
Sprite,Background,Centre,"sb\glow.png",306,191 C,0,63850,,208,174,197 F,6,63850,65100,0.5,0 S,2,63850,65100,0.4,0.08 P,0,63850,65100,A
Sprite,Background,Centre,"sb\glow.png",229,152 C,0,64896,,224,215,211 F,6,64896,66146,0.5,0 S,2,64896,66146,0.4,0.08 P,0,64896,66146,A
Sprite,Background,Centre,"sb\glow.png",309,282 C,0,65594,,224,215,211 F,6,65594,66844,0.5,0 S,2,65594,66844,0.4,0.08 P,0,65594,66844,A
Sprite,Background,Centre,"sb\glow.png",359,138 C,0,90362,,216,205,231 F,6,90362,91612,0.5,0 S,2,90362,91612,0.4,0.08 P,0,90362,91612,A
Sprite,Background,Centre,"sb\glow.png",224,302 C,0,91757,,208,174,197 F,6,91757,93007,0.5,0 S,2,91757,93007,0.4,0.08 P,0,91757,93007,A
Sprite,Background,Centre,"sb\glow.png",433,260 C,0,93152,,216,205,231 F,6,93152,94402,0.5,0 S,2,93152,94402,0.4,0.08 P,0,93152,94402,A
Sprite,Background,Centre,"sb\glow.png",297,160 C,0,95943,,216,205,231 F,6,95943,97193,0.5,0 S,2,95943,97193,0.4,0.08 P,0,95943,97193,A
Sprite,Background,Centre,"sb\glow.png",78,326 C,0,97338,,208,174,197 F,6,97338,98588,0.5,0 S,2,97338,98588,0.4,0.08 P,0,97338,98588,A
Sprite,Background,Centre,"sb\glow.png",164,101 C,0,10478,,224,215,211 F,2,10478,11678,1,0 S,2,10478,11678,0.4,0.08 P,0,10478,11678,A
Sprite,Background,Centre,"sb\glow.png",325,171 C,0,10827,,224,215,211 F,2,10827,12027,1,0 S,2,10827,12027,0.4,0.08 P,0,10827,12027,A
Sprite,Background,Centre,"sb\glow.png",0,0 C,0,11001,,224,215,211 M,0,11001,11044,400,127,413.5317,124.5598 F,2,11001,12549,1,0 S,2,11001,12549,0.4,0.08 P,0,11001,12549,A M,0,11044,11088,413.5317,124.5598,427.0635,122.1197 M,0,11088,11131,427.0635,122.1197,440.5952,119.6796 M,0,11131,11175,440.5952,119.6796,454.127,117.2394 M,0,11175,11219,454.127,117.2394,440.5952,119.6796 M,0,11219,11262,440.5952,119.6796,427.0635,122.1197 M,0,11262,11306,427.0635,122.1197,413.5317,124.5598 M,0,11306,11349,413.5317,124.5598,400,127
Sprite,Background,Centre,"sb\glow.png",0,0 C,0,65943,,216,205,231 M,0,65943,65986,385,240,405.4374,242.7755 F,2,65943,66917,1,0 S,2,65943,66917,0.4,0.08 P,0,65943,66917,A M,0,65986,66030,405.4374,242.7755,425.8748,245.5509 M,0,66030,66073,425.8748,245.5509,446.3122,248.3264 M,0,66073,66117,446.3122,248.3264,466,251
Sprite,Background,Centre,"sb\glow.png",0,0 C,0,66292,,216,205,231 M,0,66292,66335,232,240,211.5581,242.7422 F,2,66292,67266,1,0 S,2,66292,67266,0.4,0.08 P,0,66292,67266,A M,0,66335,66379,211.5581,242.7422,191.1162,245.4844 M,0,66379,66422,191.1162,245.4844,170.6743,248.2266 M,0,66422,66466,170.6743,248.2266,150.2324,250.9688
Sprite,Background,Centre,"sb\glow.png",381,343 C,0,66641,,174,175,208 F,2,66641,67441,1,0 S,2,66641,67441,0.4,0.08 P,0,66641,67441,A
Sprite,Background,Centre,"sb\glow.png",310,412 C,0,66815,,174,175,208 F,2,66815,67615,1,0 S,2,66815,67615,0.4,0.08 P,0,66815,67615,A
Sprite,Background,Centre,"sb\glow.png",238,344 C,0,66989,,174,175,208 F,2,66989,67789,1,0 S,2,66989,67789,0.4,0.08 P,0,66989,67789,A
Sprite,Background,Centre,"sb\glow.png",309,282 C,0,67164,,174,175,208 F,2,67164,67964,1,0 S,2,67164,67964,0.4,0.08 P,0,67164,67964,A
Sprite,Background,Centre,"sb\glow.png",0,0 C,0,67338,,208,174,197 M,0,67338,67381,381,343,408.2616,346.613 F,2,67338,68661,1,0 S,2,67338,68661,0.4,0.08 P,0,67338,68661,A M,0,67381,67425,408.2616,346.613,435.5233,350.226 M,0,67425,67468,435.5233,350.226,462.7849,353.839 M,0,67468,67512,462.7849,353.839,490.0465,357.4519 M,0,67512,67556,490.0465,357.4519,517.3081,361.0649 M,0,67556,67599,517.3081,361.0649,544.5698,364.6779 M,0,67599,67643,544.5698,364.6779,517.3081,361.0649 M,0,67643,67686,517.3081,361.0649,490.0465,357.4519 M,0,67686,67730,490.0465,357.4519,462.7849,353.839 M,0,67730,67774,462.7849,353.839,435.5233,350.226 M,0,67774,67817,435.5233,350.226,408.2616,346.613 M,0,67817,67861,408.2616,346.613,381,343
Sprite,Background,Centre,"sb\glow.png",550,279 C,0,68036,,208,174,197 F,2,68036,68836,1,0 S,2,68036,68836,0.4,0.08 P,0,68036,68836,A
Sprite,Background,Centre,"sb\glow.png",453.256,386.256 C,0,68210,,208,174,197 F,2,68210,69010,1,0 S,2,68210,69010,0.4,0.08 P,0,68210,69010,A
Sprite,Background,Centre,"sb\glow.png",457.128,390.128 C,0,68298,,208,174,197 F,2,68298,69098,1,0 S,2,68298,69098,0.4,0.08 P,0,68298,69098,A
Sprite,Background,Centre,"sb\glow.png",461,394 C,0,68385,,208,174,197 F,2,68385,69185,1,0 S,2,68385,69185,0.4,0.08 P,0,68385,69185,A
Sprite,Background,Centre,"sb\glow.png",381,343 C,0,68559,,208,174,197 F,2,68559,69359,1,0 S,2,68559,69359,0.4,0.08 P,0,68559,69359,A
Sprite,Background,Centre,"sb\glow.png",0,0 C,0,68734,,224,215,211 M,0,68734,68777,238,344,210.7356,347.5917 F,2,68734,70057,1,0 S,2,68734,70057,0.4,0.08 P,0,68734,70057,A M,0,68777,68821,210.7356,347.5917,183.4711,351.1834 M,0,68821,68864,183.4711,351.1834,156.2067,354.7752 M,0,68864,68908,156.2067,354.7752,128.9423,358.3669 M,0,68908,68952,128.9423,358.3669,101.6778,361.9586 M,0,68952,68995,101.6778,361.9586,74.41338,365.5503 M,0,68995,69039,74.41338,365.5503,101.6778,361.9586 M,0,69039,69082,101.6778,361.9586,128.9423,358.3669 M,0,69082,69126,128.9423,358.3669,156.2067,354.7752 M,0,69126,69170,156.2067,354.7752,183.4711,351.1834 M,0,69170,69213,183.4711,351.1834,210.7356,347.5917 M,0,69213,69257,210.7356,347.5917,238,344
Sprite,Background,Centre,"sb\glow.png",309,282 C,0,69431,,224,215,211 F,2,69431,70231,1,0 S,2,69431,70231,0.4,0.08 P,0,69431,70231,A
Sprite,Background,Centre,"sb\glow.png",157.256,383.256 C,0,69606,,224,215,211 F,2,69606,70406,1,0 S,2,69606,70406,0.4,0.08 P,0,69606,70406,A
Sprite,Background,Centre,"sb\glow.png",161.128,387.128 C,0,69693,,224,215,211 F,2,69693,70493,1,0 S,2,69693,70493,0.4,0.08 P,0,69693,70493,A
Sprite,Background,Centre,"sb\glow.png",165,391 C,0,69780,,224,215,211 F,2,69780,70580,1,0 S,2,69780,70580,0.4,0.08 P,0,69780,70580,A
Sprite,Background,Centre,"sb\glow.png",64,260 C,0,69955,,224,215,211 F,2,69955,70755,1,0 S,2,69955,70755,0.4,0.08 P,0,69955,70755,A
Sprite,Background,Centre,"sb\glow.png",138.128,187.128 C,0,70129,,216,205,231 F,2,70129,70929,1,0 S,2,70129,70929,0.4,0.08 P,0,70129,70929,A
Sprite,Background,Centre,"sb\glow.png",0,0 C,0,70303,,216,205,231 M,0,70303,70346,142,191,137.9405,163.8013 F,2,70303,71277,1,0 S,2,70303,71277,0.4,0.08 P,0,70303,71277,A M,0,70346,70390,137.9405,163.8013,133.881,136.6026 M,0,70390,70433,133.881,136.6026,137.9405,163.8013 M,0,70433,70477,137.9405,163.8013,142,191
Sprite,Background,Centre,"sb\glow.png",151,277 C,0,70652,,216,205,231 F,2,70652,71452,1,0 S,2,70652,71452,0.4,0.08 P,0,70652,71452,A
Sprite,Background,Centre,"sb\glow.png",230.128,225.128 C,0,70827,,174,175,208 F,2,70827,71627,1,0 S,2,70827,71627,0.4,0.08 P,0,70827,71627,A
Sprite,Background,Centre,"sb\glow.png",0,0 C,0,71001,,174,175,208 M,0,71001,71044,234,229,255.4885,212.0307 F,2,71001,71975,1,0 S,2,71001,71975,0.4,0.08 P,0,71001,71975,A M,0,71044,71088,255.4885,212.0307,280.7834,201.6345 M,0,71088,71131,280.7834,201.6345,255.4885,212.0307 M,0,71131,71175,255.4885,212.0307,234,229
Sprite,Background,Centre,"sb\glow.png",267,115 C,0,71350,,174,175,208 F,2,71350,72150,1,0 S,2,71350,72150,0.4,0.08 P,0,71350,72150,A
Sprite,Background,Centre,"sb\glow.png",305,115 C,0,71437,,174,175,208 F,2,71437,72237,1,0 S,2,71437,72237,0.4,0.08 P,0,71437,72237,A
Sprite,Background,Centre,"sb\glow.png",337,135 C,0,71524,,174,175,208 F,2,71524,72324,1,0 S,2,71524,72324,0.4,0.08 P,0,71524,72324,A
Sprite,Background,Centre,"sb\glow.png",398,61 C,0,71699,,208,174,197 F,2,71699,72499,1,0 S,2,71699,72499,0.4,0.08 P,0,71699,72499,A
Sprite,Background,Centre,"sb\glow.png",430,98 C,0,71786,,208,174,197 F,2,71786,72586,1,0 S,2,71786,72586,0.4,0.08 P,0,71786,72586,A
Sprite,Background,Centre,"sb\glow.png",428,147 C,0,71873,,208,174,197 F,2,71873,72673,1,0 S,2,71873,72673,0.4,0.08 P,0,71873,72673,A
Sprite,Background,Centre,"sb\glow.png",0,0 C,0,72048,,208,174,197 M,0,72048,72091,521,155,512.3668,181.001 F,2,72048,73022,1,0 S,2,72048,73022,0.4,0.08 P,0,72048,73022,A M,0,72091,72135,512.3668,181.001,497.5916,204.0385 M,0,72135,72178,497.5916,204.0385,477.6857,222.827 M,0,72178,72222,477.6857,222.827,453.6231,235.9476
Sprite,Background,Centre,"sb\glow.png",365,225 C,0,72396,,224,215,211 F,2,72396,73196,1,0 S,2,72396,73196,0.4,0.08 P,0,72396,73196,A
Sprite,Background,Centre,"sb\glow.png",476,326 C,0,72571,,224,215,211 F,2,72571,73371,1,0 S,2,72571,73371,0.4,0.08 P,0,72571,73371,A
Sprite,Background,Centre,"sb\glow.png",474,342 C,0,72658,,224,215,211 F,2,72658,73458,1,0 S,2,72658,73458,0.4,0.08 P,0,72658,73458,A
Sprite,Background,Centre,"sb\glow.png",473,358 C,0,72745,,224,215,211 F,2,72745,73545,1,0 S,2,72745,73545,0.4,0.08 P,0,72745,73545,A
Sprite,Background,Centre,"sb\glow.png",449.128,231.128 C,0,72920,,216,205,231 F,2,72920,73720,1,0 S,2,72920,73720,0.4,0.08 P,0,72920,73720,A
Sprite,Background,Centre,"sb\glow.png",0,0 C,0,73094,,216,205,231 M,0,73094,73137,453,235,480.3376,233.0949 F,2,73094,74068,1,0 S,2,73094,74068,0.4,0.08 P,0,73094,74068,A M,0,73137,73181,480.3376,233.0949,507,239 M,0,73181,73224,507,239,480.3376,233.0949 M,0,73224,73268,480.3376,233.0949,453,235
Sprite,Background,Centre,"sb\glow.png",0,0 C,0,73443,,216,205,231 M,0,73443,73486,386,309,359.2521,315.377 F,2,73443,74504,1,0 S,2,73443,74504,0.4,0.08 P,0,73443,74504,A M,0,73486,73530,359.2521,315.377,332.7711,322.7822 M,0,73530,73573,332.7711,322.7822,306.5808,331.1598 M,0,73573,73617,306.5808,331.1598,280.761,340.6179 M,0,73617,73661,280.761,340.6179,255.3264,351.0659 M,0,73661,73704,255.3264,351.0659,230.2942,362.4458
Sprite,Background,Centre,"sb\glow.png",233.872,365.872 C,0,73792,,216,205,231 F,2,73792,74592,1,0 S,2,73792,74592,0.4,0.08 P,0,73792,74592,A
Sprite,Background,Centre,"sb\glow.png",0,0 C,0,73966,,216,205,231 M,0,73966,74009,169,438,149.2824,419.0791 F,2,73966,74940,1,0 S,2,73966,74940,0.4,0.08 P,0,73966,74940,A M,0,74009,74053,149.2824,419.0791,136.9283,394.7571 M,0,74053,74096,136.9283,394.7571,133.2915,367.7526 M,0,74096,74140,133.2915,367.7526,138.3641,340.9214
Sprite,Background,Centre,"sb\glow.png",324,382 C,0,74315,,174,175,208 F,2,74315,75115,1,0 S,2,74315,75115,0.4,0.08 P,0,74315,75115,A
Sprite,Background,Centre,"sb\glow.png",205.256,270.256 C,0,74489,,174,175,208 F,2,74489,75289,1,0 S,2,74489,75289,0.4,0.08 P,0,74489,75289,A
Sprite,Background,Centre,"sb\glow.png",209.128,274.128 C,0,74577,,174,175,208 F,2,74577,75377,1,0 S,2,74577,75377,0.4,0.08 P,0,74577,75377,A
Sprite,Background,Centre,"sb\glow.png",213,278 C,0,74664,,174,175,208 F,2,74664,75464,1,0 S,2,74664,75464,0.4,0.08 P,0,74664,75464,A
Sprite,Background,Centre,"sb\glow.png",294,245 C,0,74838,,174,175,208 F,2,74838,75638,1,0 S,2,74838,75638,0.4,0.08 P,0,74838,75638,A
Sprite,Background,Centre,"sb\glow.png",352,178 C,0,75013,,208,174,197 F,2,75013,75813,1,0 S,2,75013,75813,0.4,0.08 P,0,75013,75813,A
Sprite,Background,Centre,"sb\glow.png",426,131 C,0,75187,,208,174,197 F,2,75187,75987,1,0 S,2,75187,75987,0.4,0.08 P,0,75187,75987,A
Sprite,Background,Centre,"sb\glow.png",514,134 C,0,75362,,208,174,197 F,2,75362,76162,1,0 S,2,75362,76162,0.4,0.08 P,0,75362,76162,A
Sprite,Background,Centre,"sb\glow.png",571,200 C,0,75536,,208,174,197 F,2,75536,76336,1,0 S,2,75536,76336,0.4,0.08 P,0,75536,76336,A
Sprite,Background,Centre,"sb\glow.png",0,0 C,0,75710,,224,215,211 M,0,75710,75753,535,352,532.3547,324.6275 F,2,75710,76858,1,0 S,2,75710,76858,0.4,0.08 P,0,75710,76858,A M,0,75753,75797,532.3547,324.6275,529.7095,297.255 M,0,75797,75840,529.7095,297.255,527.0643,269.8826 M,0,75840,75884,527.0643,269.8826,524.4191,242.5101 M,0,75884,75928,524.4191,242.5101,521.7738,215.1376 M,0,75928,75971,521.7738,215.1376,519.1285,187.7651 M,0,75971,76015,519.1285,187.7651,516.4833,160.3926 M,0,76015,76058,516.4833,160.3926,513.8381,133.0202
Sprite,Background,Centre,"sb\glow.png",0,0 C,0,76234,,224,215,211 M,0,76234,76277,434,222,436.5124,249.385 F,2,76234,77208,1,0 S,2,76234,77208,0.4,0.08 P,0,76234,77208,A M,0,76277,76321,436.5124,249.385,439.0248,276.77 M,0,76321,76364,439.0248,276.77,441.5371,304.155 M,0,76364,76408,441.5371,304.155,444,331
Sprite,Background,Centre,"sb\glow.png",344.256,170.256 C,0,76582,,224,215,211 F,2,76582,77382,1,0 S,2,76582,77382,0.4,0.08 P,0,76582,77382,A
Sprite,Background,Centre,"sb\glow.png",348.128,174.128 C,0,76670,,224,215,211 F,2,76670,77470,1,0 S,2,76670,77470,0.4,0.08 P,0,76670,77470,A
Sprite,Background,Centre,"sb\glow.png",352,178 C,0,76757,,224,215,211 F,2,76757,77557,1,0 S,2,76757,77557,0.4,0.08 P,0,76757,77557,A
Sprite,Background,Centre,"sb\glow.png",0,0 C,0,76931,,216,205,231 M,0,76931,76974,187.128,270.128,161.5928,260.515 F,2,76931,77992,1,0 S,2,76931,77992,0.4,0.08 P,0,76931,77992,A M,0,76974,77018,161.5928,260.515,141.2891,242.3795 M,0,77018,77061,141.2891,242.3795,128.9113,218.1698 M,0,77061,77105,128.9113,218.1698,125.8662,191.1302 M,0,77105,77149,125.8662,191.1302,133.2843,164.9257 M,0,77149,77192,133.2843,164.9257,149.3634,142.8907
Sprite,Background,Centre,"sb\glow.png",0,0 C,0,77280,,216,205,231 M,0,77280,77323,154,145,181.2195,141.082 F,2,77280,78254,1,0 S,2,77280,78254,0.4,0.08 P,0,77280,78254,A M,0,77323,77367,181.2195,141.082,208.4389,137.1641 M,0,77367,77410,208.4389,137.1641,235.6584,133.2461 M,0,77410,77454,235.6584,133.2461,262.8779,129.3282
Sprite,Background,Centre,"sb\glow.png",89.256,217.256 C,0,77629,,174,175,208 F,2,77629,78429,1,0 S,2,77629,78429,0.4,0.08 P,0,77629,78429,A
Sprite,Background,Centre,"sb\glow.png",93.128,221.128 C,0,77716,,174,175,208 F,2,77716,78516,1,0 S,2,77716,78516,0.4,0.08 P,0,77716,78516,A
Sprite,Background,Centre,"sb\glow.png",97,225 C,0,77803,,174,175,208 F,2,77803,78603,1,0 S,2,77803,78603,0.4,0.08 P,0,77803,78603,A
Sprite,Background,Centre,"sb\glow.png",0,0 C,0,77978,,174,175,208 M,0,77978,78021,278,279,305.1259,274.479 F,2,77978,78952,1,0 S,2,77978,78952,0.4,0.08 P,0,77978,78952,A M,0,78021,78065,305.1259,274.479,332,270 M,0,78065,78108,332,270,305.1259,274.479 M,0,78108,78152,305.1259,274.479,278,279
Sprite,Background,Centre,"sb\glow.png",226,356 C,0,78327,,174,175,208 F,2,78327,79127,1,0 S,2,78327,79127,0.4,0.08 P,0,78327,79127,A
Sprite,Background,Centre,"sb\glow.png",0,0 C,0,78501,,208,174,197 M,0,78501,78544,416,326,422.2593,292.1997 F,2,78501,79824,1,0 S,2,78501,79824,0.4,0.08 P,0,78501,79824,A M,0,78544,78588,422.2593,292.1997,422.8722,258.5264 M,0,78588,78631,422.8722,258.5264,415.099,225.0418 M,0,78631,78675,415.099,225.0418,416.4738,191.1489 M,0,78675,78719,416.4738,191.1489,421.2327,157.1049 M,0,78719,78762,421.2327,157.1049,425.9915,123.0609 M,0,78762,78806,425.9915,123.0609,421.2327,157.1049 M,0,78806,78849,421.2327,157.1049,416.4738,191.1489 M,0,78849,78893,416.4738,191.1489,415.099,225.0418 M,0,78893,78937,415.099,225.0418,422.8722,258.5264 M,0,78937,78980,422.8722,258.5264,422.2593,292.1997 M,0,78980,79024,422.2593,292.1997,416,326
Sprite,Background,Centre,"sb\glow.png",329,178 C,0,79199,,208,174,197 F,2,79199,79999,1,0 S,2,79199,79999,0.4,0.08 P,0,79199,79999,A
Sprite,Background,Centre,"sb\glow.png",444,239 C,0,79373,,208,174,197 F,2,79373,80173,1,0 S,2,79373,80173,0.4,0.08 P,0,79373,80173,A
Sprite,Background,Centre,"sb\glow.png",457,236 C,0,79460,,208,174,197 F,2,79460,80260,1,0 S,2,79460,80260,0.4,0.08 P,0,79460,80260,A
Sprite,Background,Centre,"sb\glow.png",470,234 C,0,79548,,208,174,197 F,2,79548,80348,1,0 S,2,79548,80348,0.4,0.08 P,0,79548,80348,A
Sprite,Background,Centre,"sb\glow.png",426,123 C,0,79722,,208,174,197 F,2,79722,80522,1,0 S,2,79722,80522,0.4,0.08 P,0,79722,80522,A
Sprite,Background,Centre,"sb\glow.png",0,0 C,0,79896,,224,215,211 M,0,79896,79939,278,279,244.5267,286.053 F,2,79896,81219,1,0 S,2,79896,81219,0.4,0.08 P,0,79896,81219,A M,0,79939,79983,244.5267,286.053,210.6583,281.3239 M,0,79983,80026,210.6583,281.3239,179.7237,266.4796 M,0,80026,80070,179.7237,266.4796,147.5995,254.7647 M,0,80070,80114,147.5995,254.7647,113.359,254.7842 M,0,80114,80157,113.359,254.7842,80.19109,263.5439 M,0,80157,80201,80.19109,263.5439,113.359,254.7842 M,0,80201,80244,113.359,254.7842,147.5995,254.7647 M,0,80244,80288,147.5995,254.7647,179.7237,266.4796 M,0,80288,80332,179.7237,266.4796,210.6583,281.3239 M,0,80332,80375,210.6583,281.3239,244.5267,286.053 M,0,80375,80419,244.5267,286.053,278,279
Sprite,Background,Centre,"sb\glow.png",127.128,338.128 C,0,80594,,224,215,211 F,2,80594,81394,1,0 S,2,80594,81394,0.4,0.08 P,0,80594,81394,A
Sprite,Background,Centre,"sb\glow.png",238,195 C,0,80768,,216,205,231 F,2,80768,81568,1,0 S,2,80768,81568,0.4,0.08 P,0,80768,81568,A
Sprite,Background,Centre,"sb\glow.png",131,342 C,0,80943,,216,205,231 F,2,80943,81743,1,0 S,2,80943,81743,0.4,0.08 P,0,80943,81743,A
Sprite,Background,Centre,"sb\glow.png",155,225 C,0,81117,,216,205,231 F,2,81117,81917,1,0 S,2,81117,81917,0.4,0.08 P,0,81117,81917,A
Sprite,Background,Centre,"sb\glow.png",212,365 C,0,81292,,174,175,208 F,2,81292,82092,1,0 S,2,81292,82092,0.4,0.08 P,0,81292,82092,A
Sprite,Background,Centre,"sb\glow.png",294.256,361.256 C,0,81466,,174,175,208 F,2,81466,82266,1,0 S,2,81466,82266,0.4,0.08 P,0,81466,82266,A
Sprite,Background,Centre,"sb\glow.png",298.128,365.128 C,0,81553,,174,175,208 F,2,81553,82353,1,0 S,2,81553,82353,0.4,0.08 P,0,81553,82353,A
Sprite,Background,Centre,"sb\glow.png",302,369 C,0,81641,,174,175,208 F,2,81641,82441,1,0 S,2,81641,82441,0.4,0.08 P,0,81641,82441,A
Sprite,Background,Centre,"sb\glow.png",357,308 C,0,81815,,174,175,208 F,2,81815,82615,1,0 S,2,81815,82615,0.4,0.08 P,0,81815,82615,A
Sprite,Background,Centre,"sb\glow.png",0,0 C,0,81989,,208,174,197 M,0,81989,82032,347,226,341.2774,192.1047 F,2,81989,82963,1,0 S,2,81989,82963,0.4,0.08 P,0,81989,82963,A M,0,82032,82076,341.2774,192.1047,335.5548,158.2094 M,0,82076,82119,335.5548,158.2094,341.2774,192.1047 M,0,82119,82163,341.2774,192.1047,347,226
Sprite,Background,Centre,"sb\glow.png",357,308 C,0,82338,,208,174,197 F,2,82338,83138,1,0 S,2,82338,83138,0.4,0.08 P,0,82338,83138,A
Sprite,Background,Centre,"sb\glow.png",421.256,256.256 C,0,82513,,208,174,197 F,2,82513,83313,1,0 S,2,82513,83313,0.4,0.08 P,0,82513,83313,A
Sprite,Background,Centre,"sb\glow.png",425.128,260.128 C,0,82600,,208,174,197 F,2,82600,83400,1,0 S,2,82600,83400,0.4,0.08 P,0,82600,83400,A
Sprite,Background,Centre,"sb\glow.png",429,264 C,0,82687,,224,215,211 F,2,82687,83487,1,0 S,2,82687,83487,0.4,0.08 P,0,82687,83487,A
Sprite,Background,Centre,"sb\glow.png",511,268 C,0,82862,,224,215,211 F,2,82862,83662,1,0 S,2,82862,83662,0.4,0.08 P,0,82862,83662,A
Sprite,Background,Centre,"sb\glow.png",543,343 C,0,83036,,224,215,211 F,2,83036,83836,1,0 S,2,83036,83836,0.4,0.08 P,0,83036,83836,A
Sprite,Background,Centre,"sb\glow.png",509,418 C,0,83210,,224,215,211 F,2,83210,84010,1,0 S,2,83210,84010,0.4,0.08 P,0,83210,84010,A
Sprite,Background,Centre,"sb\glow.png",429,439 C,0,83385,,224,215,211 F,2,83385,84185,1,0 S,2,83385,84185,0.4,0.08 P,0,83385,84185,A
Sprite,Background,Centre,"sb\glow.png",351.256,387.256 C,0,83559,,224,215,211 F,2,83559,84359,1,0 S,2,83559,84359,0.4,0.08 P,0,83559,84359,A
Sprite,Background,Centre,"sb\glow.png",355.128,391.128 C,0,83646,,224,215,211 F,2,83646,84446,1,0 S,2,83646,84446,0.4,0.08 P,0,83646,84446,A
Sprite,Background,Centre,"sb\glow.png",359,395 C,0,83734,,224,215,211 F,2,83734,84534,1,0 S,2,83734,84534,0.4,0.08 P,0,83734,84534,A
Sprite,Background,Centre,"sb\glow.png",357,308 C,0,83908,,224,215,211 F,2,83908,84708,1,0 S,2,83908,84708,0.4,0.08 P,0,83908,84708,A
Sprite,Background,Centre,"sb\glow.png",425.128,260.128 C,0,84082,,216,205,231 F,2,84082,84882,1,0 S,2,84082,84882,0.4,0.08 P,0,84082,84882,A
Sprite,Background,Centre,"sb\glow.png",0,0 C,0,84257,,216,205,231 M,0,84257,84300,429,264,423.7038,230.0442 F,2,84257,85231,1,0 S,2,84257,85231,0.4,0.08 P,0,84257,85231,A M,0,84300,84344,423.7038,230.0442,420.8308,195.7999 M,0,84344,84387,420.8308,195.7999,420.3951,161.439 M,0,84387,84431,420.3951,161.439,422.3463,127.1295
Sprite,Background,Centre,"sb\glow.png",567,56 C,0,84606,,216,205,231 F,2,84606,85406,1,0 S,2,84606,85406,0.4,0.08 P,0,84606,85406,A
Sprite,Background,Centre,"sb\glow.png",0,0 C,0,84780,,174,175,208 M,0,84780,84823,508,124,505.7816,158.2941 F,2,84780,85754,1,0 S,2,84780,85754,0.4,0.08 P,0,84780,85754,A M,0,84823,84867,505.7816,158.2941,506.0847,192.6567 M,0,84867,84910,506.0847,192.6567,508.9075,226.9034 M,0,84910,84954,508.9075,226.9034,514,260
Sprite,Background,Centre,"sb\glow.png",517.872,263.872 C,0,85042,,174,175,208 F,2,85042,85842,1,0 S,2,85042,85842,0.4,0.08 P,0,85042,85842,A
Sprite,Background,Centre,"sb\glow.png",521.744,267.744 C,0,85129,,174,175,208 F,2,85129,85929,1,0 S,2,85129,85929,0.4,0.08 P,0,85129,85929,A
Sprite,Background,Centre,"sb\glow.png",345,224 C,0,85303,,174,175,208 F,2,85303,86103,1,0 S,2,85303,86103,0.4,0.08 P,0,85303,86103,A
Sprite,Background,Centre,"sb\glow.png",275.128,269.128 C,0,85478,,208,174,197 F,2,85478,86278,1,0 S,2,85478,86278,0.4,0.08 P,0,85478,86278,A
Sprite,Background,Centre,"sb\glow.png",0,0 C,0,85652,,208,174,197 M,0,85652,85695,279,273,245.2361,279.3989 F,2,85652,86626,1,0 S,2,85652,86626,0.4,0.08 P,0,85652,86626,A M,0,85695,85739,245.2361,279.3989,211.0711,283.0876 M,0,85739,85782,211.0711,283.0876,176.7219,284.043 M,0,85782,85826,176.7219,284.043,142.4068,282.259
Sprite,Background,Centre,"sb\glow.png",71,410 C,0,86001,,208,174,197 F,2,86001,86801,1,0 S,2,86001,86801,0.4,0.08 P,0,86001,86801,A
Sprite,Background,Centre,"sb\glow.png",0,0 C,0,86175,,224,215,211 M,0,86175,86218,145,367,179.3448,368.2025 F,2,86175,87149,1,0 S,2,86175,87149,0.4,0.08 P,0,86175,87149,A M,0,86218,86262,179.3448,368.2025,213.684,366.8951 M,0,86262,86305,213.684,366.8951,247.8351,363.0847 M,0,86305,86349,247.8351,363.0847,281,357
Sprite,Background,Centre,"sb\glow.png",284.872,360.872 C,0,86437,,224,215,211 F,2,86437,87237,1,0 S,2,86437,87237,0.4,0.08 P,0,86437,87237,A
Sprite,Background,Centre,"sb\glow.png",288.744,364.744 C,0,86524,,224,215,211 F,2,86524,87324,1,0 S,2,86524,87324,0.4,0.08 P,0,86524,87324,A
Sprite,Background,Centre,"sb\glow.png",67,328 C,0,86699,,224,215,211 F,2,86699,87499,1,0 S,2,86699,87499,0.4,0.08 P,0,86699,87499,A
Sprite,Background,Centre,"sb\glow.png",142,282 C,0,86873,,216,205,231 F,2,86873,87673,1,0 S,2,86873,87673,0.4,0.08 P,0,86873,87673,A
Sprite,Background,Centre,"sb\glow.png",0,0 C,0,87048,,216,205,231 M,0,87048,87091,98,205,93.71103,177.8365 F,2,87048,88022,1,0 S,2,87048,88022,0.4,0.08 P,0,87048,88022,A M,0,87091,87135,93.71103,177.8365,89.42206,150.673 M,0,87135,87178,89.42206,150.673,93.71103,177.8365 M,0,87178,87222,93.71103,177.8365,98,205
Sprite,Background,Centre,"sb\glow.png",156,93 C,0,87396,,216,205,231 F,2,87396,88196,1,0 S,2,87396,88196,0.4,0.08 P,0,87396,88196,A
Sprite,Background,Centre,"sb\glow.png",101.872,208.872 C,0,87571,,174,175,208 F,2,87571,88371,1,0 S,2,87571,88371,0.4,0.08 P,0,87571,88371,A
Sprite,Background,Centre,"sb\glow.png",0,0 C,0,87745,,174,175,208 M,0,87745,87788,191,176,215.0393,162.6448 F,2,87745,88719,1,0 S,2,87745,88719,0.4,0.08 P,0,87745,88719,A M,0,87788,87832,215.0393,162.6448,239.0786,149.2896 M,0,87832,87875,239.0786,149.2896,215.0393,162.6448 M,0,87875,87919,215.0393,162.6448,191,176
Sprite,Background,Centre,"sb\glow.png",325,167 C,0,88094,,174,175,208 F,2,88094,88894,1,0 S,2,88094,88894,0.4,0.08 P,0,88094,88894,A
Sprite,Background,Centre,"sb\glow.png",401.872,430.872 C,0,27571,,208,174,197 F,2,27571,28371,1,0 S,2,27571,28371,0.4,0.08 P,0,27571,28371,A
Sprite,Background,Centre,"sb\glow.png",484,410 C,0,27745,,208,174,197 F,2,27745,28545,1,0 S,2,27745,28545,0.4,0.08 P,0,27745,28545,A
Sprite,Background,Centre,"sb\glow.png",313.256,263.256 C,0,27920,,208,174,197 F,2,27920,28720,1,0 S,2,27920,28720,0.4,0.08 P,0,27920,28720,A
Sprite,Background,Centre,"sb\glow.png",317.128,267.128 C,0,28007,,208,174,197 F,2,28007,28807,1,0 S,2,28007,28807,0.4,0.08 P,0,28007,28807,A
Sprite,Background,Centre,"sb\glow.png",0,0 C,0,33327,,208,174,197 M,0,33327,33370,299,308,271.8429,303.6706 F,2,33327,34214,1,0 S,2,33327,34214,0.4,0.08 P,0,33327,34214,A M,0,33370,33414,271.8429,303.6706,244.6859,299.3412
Sprite,Background,Centre,"sb\glow.png",0,0 C,0,33501,,208,174,197 M,0,33501,33544,149,283,121.8429,278.6706 F,2,33501,34562,1,0 S,2,33501,34562,0.4,0.08 P,0,33501,34562,A M,0,33544,33588,121.8429,278.6706,94.68586,274.3412 M,0,33588,33631,94.68586,274.3412,121.8429,278.6706 M,0,33631,33675,121.8429,278.6706,149,283 M,0,33675,33719,149,283,121.8429,278.6706 M,0,33719,33762,121.8429,278.6706,94.68586,274.3412
Sprite,Background,Centre,"sb\glow.png",397.256,380.256 C,0,38734,,216,205,231 F,2,38734,39534,1,0 S,2,38734,39534,0.4,0.08 P,0,38734,39534,A
Sprite,Background,Centre,"sb\glow.png",401.128,384.128 C,0,38908,,216,205,231 F,2,38908,39708,1,0 S,2,38908,39708,0.4,0.08 P,0,38908,39708,A
Sprite,Background,Centre,"sb\glow.png",405,388 C,0,39082,,216,205,231 F,2,39082,39882,1,0 S,2,39082,39882,0.4,0.08 P,0,39082,39882,A
Sprite,Background,Centre,"sb\glow.png",254,97 C,0,40129,,208,174,197 F,2,40129,40929,1,0 S,2,40129,40929,0.4,0.08 P,0,40129,40929,A
Sprite,Background,Centre,"sb\glow.png",178,143 C,0,40303,,208,174,197 F,2,40303,41103,1,0 S,2,40303,41103,0.4,0.08 P,0,40303,41103,A
Sprite,Background,Centre,"sb\glow.png",181,156 C,0,40391,,208,174,197 F,2,40391,41191,1,0 S,2,40391,41191,0.4,0.08 P,0,40391,41191,A
Sprite,Background,Centre,"sb\glow.png",184,169 C,0,40478,,208,174,197 F,2,40478,41278,1,0 S,2,40478,41278,0.4,0.08 P,0,40478,41278,A
Sprite,Background,Centre,"sb\glow.png",336,127 C,0,40652,,208,174,197 F,2,40652,41452,1,0 S,2,40652,41452,0.4,0.08 P,0,40652,41452,A
Sprite,Background,Centre,"sb\glow.png",0,0 C,0,40827,,224,215,211 M,0,40827,40870,260,194,225.7634,194.7312 F,2,40827,41801,1,0 S,2,40827,41801,0.4,0.08 P,0,40827,41801,A M,0,40870,40914,225.7634,194.7312,193.1404,205.0837 M,0,40914,40957,193.1404,205.0837,164.7747,224.209 M,0,40957,41001,164.7747,224.209,142.9634,250.5493
Sprite,Background,Centre,"sb\glow.png",145.872,253.872 C,0,41088,,224,215,211 F,2,41088,41888,1,0 S,2,41088,41888,0.4,0.08 P,0,41088,41888,A
Sprite,Background,Centre,"sb\glow.png",149.744,257.744 C,0,41175,,224,215,211 F,2,41175,41975,1,0 S,2,41175,41975,0.4,0.08 P,0,41175,41975,A
Sprite,Background,Centre,"sb\glow.png",162,344 C,0,41350,,224,215,211 F,2,41350,42150,1,0 S,2,41350,42150,0.4,0.08 P,0,41350,42150,A
Sprite,Background,Centre,"sb\glow.png",246,389 C,0,41524,,216,205,231 F,2,41524,42324,1,0 S,2,41524,42324,0.4,0.08 P,0,41524,42324,A
Sprite,Background,Centre,"sb\glow.png",265,298 C,0,41699,,216,205,231 F,2,41699,42499,1,0 S,2,41699,42499,0.4,0.08 P,0,41699,42499,A
Sprite,Background,Centre,"sb\glow.png",255,287 C,0,41786,,216,205,231 F,2,41786,42586,1,0 S,2,41786,42586,0.4,0.08 P,0,41786,42586,A
Sprite,Background,Centre,"sb\glow.png",242,282 C,0,41873,,216,205,231 F,2,41873,42673,1,0 S,2,41873,42673,0.4,0.08 P,0,41873,42673,A
Sprite,Background,Centre,"sb\glow.png",164,433 C,0,42048,,216,205,231 F,2,42048,42848,1,0 S,2,42048,42848,0.4,0.08 P,0,42048,42848,A
Sprite,Background,Centre,"sb\glow.png",0,0 C,0,43792,,208,174,197 M,0,43792,43835,555,92,559.3944,112.0382 F,2,43792,44766,1,0 S,2,43792,44766,0.4,0.08 P,0,43792,44766,A M,0,43835,43879,559.3944,112.0382,558.6403,132.5016 M,0,43879,43922,558.6403,132.5016,552.8287,152.1157 M,0,43922,43966,552.8287,152.1157,542.2224,169.7015
Sprite,Background,Centre,"sb\glow.png",0,0 C,0,44141,,208,174,197 M,0,44141,44184,407,65,426.6416,70.86344 F,2,44141,45115,1,0 S,2,44141,45115,0.4,0.08 P,0,44141,45115,A M,0,44184,44228,426.6416,70.86344,444.2617,81.38466 M,0,44228,44271,444.2617,81.38466,457.7444,96.82329 M,0,44271,44315,457.7444,96.82329,467,115
Sprite,Background,Centre,"sb\glow.png",0,0 C,0,44489,,208,174,197 M,0,44489,44532,307,175,321.8798,160.9145 F,2,44489,45463,1,0 S,2,44489,45463,0.4,0.08 P,0,44489,45463,A M,0,44532,44576,321.8798,160.9145,339.8745,151.0744 M,0,44576,44619,339.8745,151.0744,360.0424,147.4814 M,0,44619,44663,360.0424,147.4814,380,149
Sprite,Background,Centre,"sb\glow.png",0,0 C,0,44838,,208,174,197 M,0,44838,44881,369,316,364.5342,295.9846 F,2,44838,45812,1,0 S,2,44838,45812,0.4,0.08 P,0,44838,45812,A M,0,44881,44925,364.5342,295.9846,364.9458,275.4638 M,0,44925,44968,364.9458,275.4638,371.4258,256.0105 M,0,44968,45012,371.4258,256.0105,382,239
Sprite,Background,Centre,"sb\boom.png",302,115 C,0,5943,,216,205,231 F,0,5943,6743,0.75,0 S,0,5943,6743,0.25,1.125 P,0,5943,6743,A
Sprite,Background,Centre,"sb\boom.png",497,199 C,0,11524,,216,205,231 F,0,11524,12324,0.75,0 S,0,11524,12324,0.25,1.125 P,0,11524,12324,A
Sprite,Background,Centre,"sb\boom.png",211,258 C,0,13268,,174,175,208 F,0,13268,14068,0.75,0 S,0,13268,14068,0.25,1.125 P,0,13268,14068,A
Sprite,Background,Centre,"sb\boom.png",335,212 C,0,15710,,174,175,208 F,0,15710,16510,0.75,0 S,0,15710,16510,0.25,1.125 P,0,15710,16510,A
Sprite,Background,Centre,"sb\boom.png",224,109 C,0,17106,,208,174,197 F,0,17106,17906,0.75,0 S,0,17106,17906,0.25,1.125 P,0,17106,17906,A
Sprite,Background,Centre,"sb\boom.png",64,215 C,0,18501,,224,215,211 F,0,18501,19301,0.75,0 S,0,18501,19301,0.25,1.125 P,0,18501,19301,A
Sprite,Background,Centre,"sb\boom.png",245,192 C,0,19896,,216,205,231 F,0,19896,20696,0.75,0 S,0,19896,20696,0.25,1.125 P,0,19896,20696,A
Sprite,Background,Centre,"sb\boom.png",476,235 C,0,20594,,174,175,208 F,0,20594,21394,0.75,0 S,0,20594,21394,0.25,1.125 P,0,20594,21394,A
Sprite,Background,Centre,"sb\boom.png",245,192 C,0,21292,,208,174,197 F,0,21292,22092,0.75,0 S,0,21292,22092,0.25,1.125 P,0,21292,22092,A
Sprite,Background,Centre,"sb\boom.png",252,345 C,0,21989,,208,174,197 F,0,21989,22789,0.75,0 S,0,21989,22789,0.25,1.125 P,0,21989,22789,A
Sprite,Background,Centre,"sb\boom.png",355,412 C,0,22687,,224,215,211 F,0,22687,23487,0.75,0 S,0,22687,23487,0.25,1.125 P,0,22687,23487,A
Sprite,Background,Centre,"sb\boom.png",387,178 C,0,24082,,174,175,208 F,0,24082,24882,0.75,0 S,0,24082,24882,0.25,1.125 P,0,24082,24882,A
Sprite,Background,Centre,"sb\boom.png",206,197 C,0,25478,,224,215,211 F,0,25478,26278,0.75,0 S,0,25478,26278,0.25,1.125 P,0,25478,26278,A
Sprite,Background,Centre,"sb\boom.png",323,354 C,0,26873,,174,175,208 F,0,26873,27673,0.75,0 S,0,26873,27673,0.25,1.125 P,0,26873,27673,A
Sprite,Background,Centre,"sb\boom.png",239,392 C,0,27222,,174,175,208 F,0,27222,28022,0.75,0 S,0,27222,28022,0.25,1.125 P,0,27222,28022,A
Sprite,Background,Centre,"sb\boom.png",402,225 C,0,28268,,224,215,211 F,0,28268,29068,0.75,0 S,0,28268,29068,0.25,1.125 P,0,28268,29068,A
Sprite,Background,Centre,"sb\boom.png",145,234 C,0,29664,,174,175,208 F,0,29664,30464,0.75,0 S,0,29664,30464,0.25,1.125 P,0,29664,30464,A
Sprite,Background,Centre,"sb\boom.png",276,309 C,0,31059,,224,215,211 F,0,31059,31859,0.75,0 S,0,31059,31859,0.25,1.125 P,0,31059,31859,A
Sprite,Background,Centre,"sb\boom.png",403,419 C,0,31582,,224,215,211 F,0,31582,32382,0.75,0 S,0,31582,32382,0.25,1.125 P,0,31582,32382,A
Sprite,Background,Centre,"sb\boom.png",315,394 C,0,31757,,216,205,231 F,0,31757,32557,0.75,0 S,0,31757,32557,0.25,1.125 P,0,31757,32557,A
Sprite,Background,Centre,"sb\boom.png",494,285 C,0,32455,,174,175,208 F,0,32455,33255,0.75,0 S,0,32455,33255,0.25,1.125 P,0,32455,33255,A
Sprite,Background,Centre,"sb\boom.png",396,274 C,0,33152,,208,174,197 F,0,33152,33952,0.75,0 S,0,33152,33952,0.25,1.125 P,0,33152,33952,A
Sprite,Background,Centre,"sb\boom.png",70,299 C,0,33850,,224,215,211 F,0,33850,34650,0.75,0 S,0,33850,34650,0.25,1.125 P,0,33850,34650,A
Sprite,Background,Centre,"sb\boom.png",503,382 C,0,35245,,208,174,197 F,0,35245,36045,0.75,0 S,0,35245,36045,0.25,1.125 P,0,35245,36045,A
Sprite,Background,Centre,"sb\boom.png",376,56 C,0,36641,,174,175,208 F,0,36641,37441,0.75,0 S,0,36641,37441,0.25,1.125 P,0,36641,37441,A
Sprite,Background,Centre,"sb\boom.png",157,265 C,0,38036,,224,215,211 F,0,38036,38836,0.75,0 S,0,38036,38836,0.25,1.125 P,0,38036,38836,A
Sprite,Background,Centre,"sb\boom.png",405,388 C,0,38734,,216,205,231 F,0,38734,39534,0.75,0 S,0,38734,39534,0.25,1.125 P,0,38734,39534,A
Sprite,Background,Centre,"sb\boom.png",405,388 C,0,39082,,216,205,231 F,0,39082,39882,0.75,0 S,0,39082,39882,0.25,1.125 P,0,39082,39882,A
Sprite,Background,Centre,"sb\boom.png",503,226 C,0,39431,,174,175,208 F,0,39431,40231,0.75,0 S,0,39431,40231,0.25,1.125 P,0,39431,40231,A
Sprite,Background,Centre,"sb\boom.png",260,194 C,0,40827,,224,215,211 F,0,40827,41627,0.75,0 S,0,40827,41627,0.25,1.125 P,0,40827,41627,A
Sprite,Background,Centre,"sb\boom.png",332,357 C,0,42222,,174,175,208 F,0,42222,43022,0.75,0 S,0,42222,43022,0.25,1.125 P,0,42222,43022,A
Sprite,Background,Centre,"sb\boom.png",537,337 C,0,42571,,174,175,208 F,0,42571,43371,0.75,0 S,0,42571,43371,0.25,1.125 P,0,42571,43371,A
Sprite,Background,Centre,"sb\boom.png",515,255 C,0,42920,,208,174,197 F,0,42920,43720,0.75,0 S,0,42920,43720,0.25,1.125 P,0,42920,43720,A
Sprite,Background,Centre,"sb\boom.png",466,189 C,0,61582,,224,215,211 F,0,61582,62382,0.75,0 S,0,61582,62382,0.25,1.125 P,0,61582,62382,A
Sprite,Background,Centre,"sb\boom.png",312,110 C,0,61757,,224,215,211 F,0,61757,62557,0.75,0 S,0,61757,62557,0.25,1.125 P,0,61757,62557,A
Sprite,Background,Centre,"sb\boom.png",312,110 C,0,63152,,174,175,208 F,0,63152,63952,0.75,0 S,0,63152,63952,0.25,1.125 P,0,63152,63952,A
Sprite,Background,Centre,"sb\boom.png",310,107 C,0,64548,,224,215,211 F,0,64548,65348,0.75,0 S,0,64548,65348,0.25,1.125 P,0,64548,65348,A
Sprite,Background,Centre,"sb\boom.png",232,240 C,0,65245,,224,215,211 F,0,65245,66045,0.75,0 S,0,65245,66045,0.25,1.125 P,0,65245,66045,A
Sprite,Background,Centre,"sb\boom.png",381,343 C,0,67338,,208,174,197 F,0,67338,68138,0.75,0 S,0,67338,68138,0.25,1.125 P,0,67338,68138,A
Sprite,Background,Centre,"sb\boom.png",238,344 C,0,68734,,224,215,211 F,0,68734,69534,0.75,0 S,0,68734,69534,0.25,1.125 P,0,68734,69534,A
Sprite,Background,Centre,"sb\boom.png",142,191 C,0,70478,,216,205,231 F,0,70478,71278,0.75,0 S,0,70478,71278,0.25,1.125 P,0,70478,71278,A
Sprite,Background,Centre,"sb\boom.png",234.1968,228.8245 C,0,71175,,174,175,208 F,0,71175,71975,0.75,0 S,0,71175,71975,0.25,1.125 P,0,71175,71975,A
Sprite,Background,Centre,"sb\boom.png",337,135 C,0,71524,,174,175,208 F,0,71524,72324,0.75,0 S,0,71524,72324,0.25,1.125 P,0,71524,72324,A
Sprite,Background,Centre,"sb\boom.png",428,147 C,0,71873,,208,174,197 F,0,71873,72673,0.75,0 S,0,71873,72673,0.25,1.125 P,0,71873,72673,A
Sprite,Background,Centre,"sb\boom.png",453.8681,235.8494 C,0,72222,,208,174,197 F,0,72222,73022,0.75,0 S,0,72222,73022,0.25,1.125 P,0,72222,73022,A
Sprite,Background,Centre,"sb\boom.png",365,225 C,0,72396,,224,215,211 F,0,72396,73196,0.75,0 S,0,72396,73196,0.25,1.125 P,0,72396,73196,A
Sprite,Background,Centre,"sb\boom.png",476,326 C,0,72571,,224,215,211 F,0,72571,73371,0.75,0 S,0,72571,73371,0.25,1.125 P,0,72571,73371,A
Sprite,Background,Centre,"sb\boom.png",473,358 C,0,72745,,224,215,211 F,0,72745,73545,0.75,0 S,0,72745,73545,0.25,1.125 P,0,72745,73545,A
Sprite,Background,Centre,"sb\boom.png",352,178 C,0,75013,,208,174,197 F,0,75013,75813,0.75,0 S,0,75013,75813,0.25,1.125 P,0,75013,75813,A
Sprite,Background,Centre,"sb\boom.png",426,131 C,0,75187,,208,174,197 F,0,75187,75987,0.75,0 S,0,75187,75987,0.25,1.125 P,0,75187,75987,A
Sprite,Background,Centre,"sb\boom.png",514,134 C,0,75362,,208,174,197 F,0,75362,76162,0.75,0 S,0,75362,76162,0.25,1.125 P,0,75362,76162,A
Sprite,Background,Centre,"sb\boom.png",571,200 C,0,75536,,208,174,197 F,0,75536,76336,0.75,0 S,0,75536,76336,0.25,1.125 P,0,75536,76336,A
Sprite,Background,Centre,"sb\boom.png",535,352 C,0,75710,,224,215,211 F,0,75710,76510,0.75,0 S,0,75710,76510,0.25,1.125 P,0,75710,76510,A
Sprite,Background,Centre,"sb\boom.png",191,274 C,0,76931,,216,205,231 F,0,76931,77731,0.75,0 S,0,76931,77731,0.25,1.125 P,0,76931,77731,A
Sprite,Background,Centre,"sb\boom.png",154,145 C,0,77280,,216,205,231 F,0,77280,78080,0.75,0 S,0,77280,78080,0.25,1.125 P,0,77280,78080,A
Sprite,Background,Centre,"sb\boom.png",97,225 C,0,77629,,174,175,208 F,0,77629,78429,0.75,0 S,0,77629,78429,0.25,1.125 P,0,77629,78429,A
Sprite,Background,Centre,"sb\boom.png",278,279 C,0,77978,,174,175,208 F,0,77978,78778,0.75,0 S,0,77978,78778,0.25,1.125 P,0,77978,78778,A
Sprite,Background,Centre,"sb\boom.png",226,356 C,0,78327,,174,175,208 F,0,78327,79127,0.75,0 S,0,78327,79127,0.25,1.125 P,0,78327,79127,A
Sprite,Background,Centre,"sb\boom.png",416,326 C,0,78501,,208,174,197 F,0,78501,79301,0.75,0 S,0,78501,79301,0.25,1.125 P,0,78501,79301,A
Sprite,Background,Centre,"sb\boom.png",278,279 C,0,79896,,224,215,211 F,0,79896,80696,0.75,0 S,0,79896,80696,0.25,1.125 P,0,79896,80696,A
Sprite,Background,Centre,"sb\boom.png",238,195 C,0,80768,,216,205,231 F,0,80768,81568,0.75,0 S,0,80768,81568,0.25,1.125 P,0,80768,81568,A
Sprite,Background,Centre,"sb\boom.png",131,342 C,0,80943,,216,205,231 F,0,80943,81743,0.75,0 S,0,80943,81743,0.25,1.125 P,0,80943,81743,A
Sprite,Background,Centre,"sb\boom.png",155,225 C,0,81117,,216,205,231 F,0,81117,81917,0.75,0 S,0,81117,81917,0.25,1.125 P,0,81117,81917,A
Sprite,Background,Centre,"sb\boom.png",429,264 C,0,82687,,224,215,211 F,0,82687,83487,0.75,0 S,0,82687,83487,0.25,1.125 P,0,82687,83487,A
Sprite,Background,Centre,"sb\boom.png",511,268 C,0,82862,,224,215,211 F,0,82862,83662,0.75,0 S,0,82862,83662,0.25,1.125 P,0,82862,83662,A
Sprite,Background,Centre,"sb\boom.png",543,343 C,0,83036,,224,215,211 F,0,83036,83836,0.75,0 S,0,83036,83836,0.25,1.125 P,0,83036,83836,A
Sprite,Background,Centre,"sb\boom.png",509,418 C,0,83210,,224,215,211 F,0,83210,84010,0.75,0 S,0,83210,84010,0.25,1.125 P,0,83210,84010,A
Sprite,Background,Centre,"sb\boom.png",429,439 C,0,83385,,224,215,211 F,0,83385,84185,0.75,0 S,0,83385,84185,0.25,1.125 P,0,83385,84185,A
Sprite,Background,Centre,"sb\boom.png",429,264 C,0,84082,,216,205,231 F,0,84082,84882,0.75,0 S,0,84082,84882,0.25,1.125 P,0,84082,84882,A
Sprite,Background,Centre,"sb\boom.png",279,273 C,0,85478,,208,174,197 F,0,85478,86278,0.75,0 S,0,85478,86278,0.25,1.125 P,0,85478,86278,A
Sprite,Background,Centre,"sb\boom.png",142,282 C,0,86873,,216,205,231 F,0,86873,87673,0.75,0 S,0,86873,87673,0.25,1.125 P,0,86873,87673,A
Sprite,Background,Centre,"sb\boom.png",156,93 C,0,87396,,216,205,231 F,0,87396,88196,0.75,0 S,0,87396,88196,0.25,1.125 P,0,87396,88196,A
Sprite,Background,Centre,"sb\boom.png",98,205 C,0,87571,,174,175,208 F,0,87571,88371,0.75,0 S,0,87571,88371,0.25,1.125 P,0,87571,88371,A
Sprite,Background,Centre,"sb\boom.png",325,167 C,0,88094,,174,175,208 F,0,88094,88894,0.75,0 S,0,88094,88894,0.25,1.125 P,0,88094,88894,A
Sprite,Background,Centre,"sb\boom.png",191,176 C,0,88268,,208,174,197 F,0,88268,89068,0.75,0 S,0,88268,89068,0.25,1.125 P,0,88268,89068,A
Sprite,Background,Centre,"sb\boom.png",452,231 C,0,89664,,224,215,211 F,0,89664,90464,0.75,0 S,0,89664,90464,0.25,1.125 P,0,89664,90464,A
Sprite,Background,Centre,"sb\boom.png",248,207 C,0,91059,,174,175,208 F,0,91059,91859,0.75,0 S,0,91059,91859,0.25,1.125 P,0,91059,91859,A
Sprite,Background,Centre,"sb\boom.png",220,356 C,0,92455,,224,215,211 F,0,92455,93255,0.75,0 S,0,92455,93255,0.25,1.125 P,0,92455,93255,A
Sprite,Background,Centre,"sb\boom.png",491,333 C,0,93850,,174,175,208 F,0,93850,94650,0.75,0 S,0,93850,94650,0.25,1.125 P,0,93850,94650,A
Sprite,Background,Centre,"sb\boom.png",323,247 C,0,95245,,224,215,211 F,0,95245,96045,0.75,0 S,0,95245,96045,0.25,1.125 P,0,95245,96045,A
Sprite,Background,Centre,"sb\boom.png",151,276 C,0,96641,,174,175,208 F,0,96641,97441,0.75,0 S,0,96641,97441,0.25,1.125 P,0,96641,97441,A
Sprite,Background,Centre,"sb\boom.png",229,332 C,0,98036,,224,215,211 F,0,98036,98836,0.75,0 S,0,98036,98836,0.25,1.125 P,0,98036,98836,A
Sprite,Background,Centre,"sb\boom.png",311,181 C,0,98559,,224,215,211 F,0,98559,99359,0.75,0 S,0,98559,99359,0.25,1.125 P,0,98559,99359,A
Sprite,Background,Centre,"sb\boom.png",236,230 C,0,98734,,216,205,231 F,0,98734,99534,0.75,0 S,0,98734,99534,0.25,1.125 P,0,98734,99534,A
Sprite,Background,Centre,"sb\boom.png",370,90 C,0,99431,,174,175,208 F,0,99431,100231,0.75,0 S,0,99431,100231,0.25,1.125 P,0,99431,100231,A
Sprite,Background,Centre,"sb\boom.png",123,426 C,0,100827,,224,215,211 F,0,100827,101627,0.75,0 S,0,100827,101627,0.25,1.125 P,0,100827,101627,A
Sprite,Background,Centre,"sb\boom.png",421,360 C,0,102222,,208,174,197 F,0,102222,103022,0.75,0 S,0,102222,103022,0.25,1.125 P,0,102222,103022,A
Sprite,Background,Centre,"sb\boom.png",532,384 C,0,103617,,174,175,208 F,0,103617,104417,0.75,0 S,0,103617,104417,0.25,1.125 P,0,103617,104417,A
Sprite,Background,Centre,"sb\boom.png",335,265 C,0,105013,,224,215,211 F,0,105013,105813,0.75,0 S,0,105013,105813,0.25,1.125 P,0,105013,105813,A
Sprite,Background,Centre,"sb\boom.png",67,230 C,0,106408,,174,175,208 F,0,106408,107208,0.75,0 S,0,106408,107208,0.25,1.125 P,0,106408,107208,A
Sprite,Background,Centre,"sb\boom.png",215,334 C,0,107803,,224,215,211 F,0,107803,108603,0.75,0 S,0,107803,108603,0.25,1.125 P,0,107803,108603,A
Sprite,Background,Centre,"sb\boom.png",367,213 C,0,109199,,174,175,208 F,0,109199,109999,0.75,0 S,0,109199,109999,0.25,1.125 P,0,109199,109999,A
Sprite,Background,Centre,"sb\boom.png",552,154 C,0,109896,,208,174,197 F,0,109896,110696,0.75,0 S,0,109896,110696,0.25,1.125 P,0,109896,110696,A
Sprite,Background,Centre,"sb\boom.png",177,193 C,0,112513,,216,205,231 F,0,112513,113313,0.75,0 S,0,112513,113313,0.25,1.125 P,0,112513,113313,A
Sprite,Background,Centre,"sb\glow.png",563,120 C,0,94548,,208,174,197 F,2,94548,95348,1,0 S,2,94548,95348,0.4,0.08 P,0,94548,95348,A
Sprite,Background,Centre,"sb\glow.png",433,260 C,0,94722,,208,174,197 F,2,94722,95522,1,0 S,2,94722,95522,0.4,0.08 P,0,94722,95522,A
Sprite,Background,Centre,"sb\glow.png",381.256,173.256 C,0,94896,,208,174,197 F,2,94896,95696,1,0 S,2,94896,95696,0.4,0.08 P,0,94896,95696,A
Sprite,Background,Centre,"sb\glow.png",385.128,177.128 C,0,94984,,208,174,197 F,2,94984,95784,1,0 S,2,94984,95784,0.4,0.08 P,0,94984,95784,A
Sprite,Background,Centre,"sb\glow.png",389,181 C,0,95071,,208,174,197 F,2,95071,95871,1,0 S,2,95071,95871,0.4,0.08 P,0,95071,95871,A
Sprite,Background,Centre,"sb\glow.png",0,0 C,0,100303,,208,174,197 M,0,100303,100346,137,138,141.2168,165.1748 F,2,100303,101190,1,0 S,2,100303,101190,0.4,0.08 P,0,100303,101190,A M,0,100346,100390,141.2168,165.1748,145.4336,192.3496
Sprite,Background,Centre,"sb\glow.png",0,0 C,0,100478,,208,174,197 M,0,100478,100521,143,280,147.1469,307.1855 F,2,100478,101539,1,0 S,2,100478,101539,0.4,0.08 P,0,100478,101539,A M,0,100521,100565,147.1469,307.1855,151.2939,334.3711 M,0,100565,100608,151.2939,334.3711,147.1469,307.1855 M,0,100608,100652,147.1469,307.1855,143,280 M,0,100652,100696,143,280,147.1469,307.1855 M,0,100696,100739,147.1469,307.1855,151.2939,334.3711
Sprite,Background,Centre,"sb\glow.png",0,0 C,0,100827,,224,215,211 M,0,100827,100870,123,426,130.8316,392.7018 F,2,100827,101888,1,0 S,2,100827,101888,0.4,0.08 P,0,100827,101888,A M,0,100870,100914,130.8316,392.7018,148.665,363.5461 M,0,100914,100957,148.665,363.5461,174.7034,341.4416 M,0,100957,101001,174.7034,341.4416,206.3349,328.5916 M,0,101001,101045,206.3349,328.5916,240.4151,326.0028 M,0,101045,101088,240.4151,326.0028,273.5544,334.5172
Sprite,Background,Centre,"sb\glow.png",276.872,337.872 C,0,101175,,216,205,231 F,2,101175,101975,1,0 S,2,101175,101975,0.4,0.08 P,0,101175,101975,A
Sprite,Background,Centre,"sb\glow.png",233.128,228.128 C,0,101350,,216,205,231 F,2,101350,102150,1,0 S,2,101350,102150,0.4,0.08 P,0,101350,102150,A
Sprite,Background,Centre,"sb\glow.png",280.744,341.744 C,0,101524,,174,175,208 F,2,101524,102324,1,0 S,2,101524,102324,0.4,0.08 P,0,101524,102324,A
Sprite,Background,Centre,"sb\glow.png",237,232 C,0,101699,,174,175,208 F,2,101699,102499,1,0 S,2,101699,102499,0.4,0.08 P,0,101699,102499,A
Sprite,Background,Centre,"sb\glow.png",0,0 C,0,101873,,174,175,208 M,0,101873,101916,324,251,356.5338,261.8232 F,2,101873,102847,1,0 S,2,101873,102847,0.4,0.08 P,0,101873,102847,A M,0,101916,101960,356.5338,261.8232,390.675,264.8296 M,0,101960,102003,390.675,264.8296,424.5754,259.8618 M,0,102003,102047,424.5754,259.8618,456.4007,247.193
Sprite,Background,Centre,"sb\glow.png",0,0 C,0,102222,,208,174,197 M,0,102222,102265,421,360,386.6455,359.6533 F,2,102222,103283,1,0 S,2,102222,103283,0.4,0.08 P,0,102222,103283,A M,0,102265,102309,386.6455,359.6533,352.4492,362.9277 M,0,102309,102352,352.4492,362.9277,318.7905,369.7862 M,0,102352,102396,318.7905,369.7862,286.043,380.1524 M,0,102396,102440,286.043,380.1524,254.5417,393.8527 M,0,102440,102483,254.5417,393.8527,224.7132,410.8944
Sprite,Background,Centre,"sb\glow.png",227.872,413.872 C,0,102571,,224,215,211 F,2,102571,103371,1,0 S,2,102571,103371,0.4,0.08 P,0,102571,103371,A
Sprite,Background,Centre,"sb\glow.png",151,334 C,0,102745,,224,215,211 F,2,102745,103545,1,0 S,2,102745,103545,0.4,0.08 P,0,102745,103545,A
Sprite,Background,Centre,"sb\glow.png",231.744,417.744 C,0,102920,,216,205,231 F,2,102920,103720,1,0 S,2,102920,103720,0.4,0.08 P,0,102920,103720,A
Sprite,Background,Centre,"sb\glow.png",322.256,388.256 C,0,103094,,216,205,231 F,2,103094,103894,1,0 S,2,103094,103894,0.4,0.08 P,0,103094,103894,A
Sprite,Background,Centre,"sb\glow.png",326.128,392.128 C,0,103181,,216,205,231 F,2,103181,103981,1,0 S,2,103181,103981,0.4,0.08 P,0,103181,103981,A
Sprite,Background,Centre,"sb\glow.png",330,396 C,0,103268,,216,205,231 F,2,103268,104068,1,0 S,2,103268,104068,0.4,0.08 P,0,103268,104068,A
Sprite,Background,Centre,"sb\glow.png",421,360 C,0,103443,,216,205,231 F,2,103443,104243,1,0 S,2,103443,104243,0.4,0.08 P,0,103443,104243,A
Sprite,Background,Centre,"sb\glow.png",0,0 C,0,103617,,174,175,208 M,0,103617,103660,520.384,372.384,518.4691,338.0624 F,2,103617,104678,1,0 S,2,103617,104678,0.4,0.08 P,0,103617,104678,A M,0,103660,103704,518.4691,338.0624,516.5541,303.7408 M,0,103704,103747,516.5541,303.7408,514.6392,269.4191 M,0,103747,103791,514.6392,269.4191,512.7242,235.0975 M,0,103791,103835,512.7242,235.0975,510.8093,200.7759 M,0,103835,103878,510.8093,200.7759,508.8944,166.4543
Sprite,Background,Centre,"sb\glow.png",512.256,170.256 C,0,103966,,174,175,208 F,2,103966,104766,1,0 S,2,103966,104766,0.4,0.08 P,0,103966,104766,A
Sprite,Background,Centre,"sb\glow.png",446.128,108.128 C,0,104141,,174,175,208 F,2,104141,104941,1,0 S,2,104141,104941,0.4,0.08 P,0,104141,104941,A
Sprite,Background,Centre,"sb\glow.png",516.128,174.128 C,0,104315,,208,174,197 F,2,104315,105115,1,0 S,2,104315,105115,0.4,0.08 P,0,104315,105115,A
Sprite,Background,Centre,"sb\glow.png",450,112 C,0,104489,,208,174,197 F,2,104489,105289,1,0 S,2,104489,105289,0.4,0.08 P,0,104489,105289,A
Sprite,Background,Centre,"sb\glow.png",0,0 C,0,104664,,208,174,197 M,0,104664,104707,520,178,492.0271,197.6313 F,2,104664,105638,1,0 S,2,104664,105638,0.4,0.08 P,0,104664,105638,A M,0,104707,104751,492.0271,197.6313,458.9279,206.062 M,0,104751,104794,458.9279,206.062,425.0068,202.2082 M,0,104794,104838,425.0068,202.2082,394.5963,186.6673
Sprite,Background,Centre,"sb\glow.png",0,0 C,0,105013,,224,215,211 M,0,105013,105056,335,265,300.6326,265.5715 F,2,105013,106074,1,0 S,2,105013,106074,0.4,0.08 P,0,105013,106074,A M,0,105056,105100,300.6326,265.5715,266.3194,267.5775 M,0,105100,105143,266.3194,267.5775,232.1202,271.0147 M,0,105143,105187,232.1202,271.0147,198.0948,275.8771 M,0,105187,105231,198.0948,275.8771,164.3022,282.1561 M,0,105231,105274,164.3022,282.1561,130.7922,289.8042
Sprite,Background,Centre,"sb\glow.png",133.872,293.872 C,0,105362,,224,215,211 F,2,105362,106162,1,0 S,2,105362,106162,0.4,0.08 P,0,105362,106162,A
Sprite,Background,Centre,"sb\glow.png",214,241 C,0,105536,,224,215,211 F,2,105536,106336,1,0 S,2,105536,106336,0.4,0.08 P,0,105536,106336,A
Sprite,Background,Centre,"sb\glow.png",397.256,335.256 C,0,105710,,216,205,231 F,2,105710,106510,1,0 S,2,105710,106510,0.4,0.08 P,0,105710,106510,A
Sprite,Background,Centre,"sb\glow.png",401.128,339.128 C,0,105885,,216,205,231 F,2,105885,106685,1,0 S,2,105885,106685,0.4,0.08 P,0,105885,106685,A
Sprite,Background,Centre,"sb\glow.png",405,343 C,0,106059,,216,205,231 F,2,106059,106859,1,0 S,2,106059,106859,0.4,0.08 P,0,106059,106859,A
Sprite,Background,Centre,"sb\glow.png",0,0 C,0,106408,,174,175,208 M,0,106408,106451,67,230,56.05774,197.5935 F,2,106408,107382,1,0 S,2,106408,107382,0.4,0.08 P,0,106408,107382,A M,0,106451,106495,56.05774,197.5935,56.22525,163.4102 M,0,106495,106538,56.22525,163.4102,67.47236,131.1486 M,0,106538,106582,67.47236,131.1486,88.47892,104.1842
Sprite,Background,Centre,"sb\glow.png",91.872,107.872 C,0,106670,,174,175,208 F,2,106670,107470,1,0 S,2,106670,107470,0.4,0.08 P,0,106670,107470,A
Sprite,Background,Centre,"sb\glow.png",95.744,111.744 C,0,106757,,174,175,208 F,2,106757,107557,1,0 S,2,106757,107557,0.4,0.08 P,0,106757,107557,A
Sprite,Background,Centre,"sb\glow.png",142,184 C,0,106931,,174,175,208 F,2,106931,107731,1,0 S,2,106931,107731,0.4,0.08 P,0,106931,107731,A
Sprite,Background,Centre,"sb\glow.png",71,373 C,0,107106,,208,174,197 F,2,107106,107906,1,0 S,2,107106,107906,0.4,0.08 P,0,107106,107906,A
Sprite,Background,Centre,"sb\glow.png",130,290 C,0,107280,,208,174,197 F,2,107280,108080,1,0 S,2,107280,108080,0.4,0.08 P,0,107280,108080,A
Sprite,Background,Centre,"sb\glow.png",133,303 C,0,107367,,208,174,197 F,2,107367,108167,1,0 S,2,107367,108167,0.4,0.08 P,0,107367,108167,A
Sprite,Background,Centre,"sb\glow.png",136,316 C,0,107455,,208,174,197 F,2,107455,108255,1,0 S,2,107455,108255,0.4,0.08 P,0,107455,108255,A
Sprite,Background,Centre,"sb\glow.png",67,230 C,0,107629,,208,174,197 F,2,107629,108429,1,0 S,2,107629,108429,0.4,0.08 P,0,107629,108429,A
Sprite,Background,Centre,"sb\glow.png",0,0 C,0,107803,,224,215,211 M,0,107803,107846,215,334,248.325,342.1767 F,2,107803,108777,1,0 S,2,107803,108777,0.4,0.08 P,0,107803,108777,A M,0,107846,107890,248.325,342.1767,279.5108,356.4607 M,0,107890,107933,279.5108,356.4607,307.4537,376.3427 M,0,107933,107977,307.4537,376.3427,331.26,401.0385
Sprite,Background,Centre,"sb\glow.png",334.872,404.872 C,0,108065,,224,215,211 F,2,108065,108865,1,0 S,2,108065,108865,0.4,0.08 P,0,108065,108865,A
Sprite,Background,Centre,"sb\glow.png",338.744,408.744 C,0,108152,,224,215,211 F,2,108152,108952,1,0 S,2,108152,108952,0.4,0.08 P,0,108152,108952,A
Sprite,Background,Centre,"sb\glow.png",236,424 C,0,108327,,224,215,211 F,2,108327,109127,1,0 S,2,108327,109127,0.4,0.08 P,0,108327,109127,A
Sprite,Background,Centre,"sb\glow.png",212,247 C,0,108501,,216,205,231 F,2,108501,109301,1,0 S,2,108501,109301,0.4,0.08 P,0,108501,109301,A
Sprite,Background,Centre,"sb\glow.png",295,277 C,0,108675,,216,205,231 F,2,108675,109475,1,0 S,2,108675,109475,0.4,0.08 P,0,108675,109475,A
Sprite,Background,Centre,"sb\glow.png",303,295 C,0,108763,,216,205,231 F,2,108763,109563,1,0 S,2,108763,109563,0.4,0.08 P,0,108763,109563,A
Sprite,Background,Centre,"sb\glow.png",301,315 C,0,108850,,216,205,231 F,2,108850,109650,1,0 S,2,108850,109650,0.4,0.08 P,0,108850,109650,A
Sprite,Background,Centre,"sb\glow.png",215,334 C,0,109024,,216,205,231 F,2,109024,109824,1,0 S,2,109024,109824,0.4,0.08 P,0,109024,109824,A
Sprite,Background,Centre,"sb\glow.png",0,0 C,0,109199,,174,175,208 M,0,109199,109242,367,213,401.0797,210.0222 F,2,109199,110260,1,0 S,2,109199,110260,0.4,0.08 P,0,109199,110260,A M,0,109242,109286,401.0797,210.0222,434.3725,217.7619 M,0,109286,109329,434.3725,217.7619,463.6007,235.4418 M,0,109329,109373,463.6007,235.4418,485.8887,261.3103 M,0,109373,109417,485.8887,261.3103,499.3167,292.7457 M,0,109417,109460,499.3167,292.7457,501.924,326.8493
Sprite,Background,Centre,"sb\glow.png",504.872,329.872 C,0,109548,,174,175,208 F,2,109548,110348,1,0 S,2,109548,110348,0.4,0.08 P,0,109548,110348,A
Sprite,Background,Centre,"sb\glow.png",400,311 C,0,109722,,174,175,208 F,2,109722,110522,1,0 S,2,109722,110522,0.4,0.08 P,0,109722,110522,A
Sprite,Background,Centre,"sb\glow.png",0,0 C,0,109896,,208,174,197 M,0,109896,109939,552,154,517.7919,157.3832 F,2,109896,111393,1,0 S,2,109896,111393,0.4,0.08 P,0,109896,111393,A M,0,109939,109983,517.7919,157.3832,483.5838,160.7664 M,0,109983,110026,483.5838,160.7664,449.3757,164.1497 M,0,110026,110070,449.3757,164.1497,415.1676,167.5329 M,0,110070,110114,415.1676,167.5329,380.9595,170.9161 M,0,110114,110157,380.9595,170.9161,346.7513,174.2993 M,0,110157,110201,346.7513,174.2993,312.5433,177.6825 M,0,110201,110244,312.5433,177.6825,279,181 M,0,110244,110288,279,181,312.5433,177.6825 M,0,110288,110332,312.5433,177.6825,346.7513,174.2993 M,0,110332,110375,346.7513,174.2993,380.9595,170.9161 M,0,110375,110419,380.9595,170.9161,415.1676,167.5329 M,0,110419,110462,415.1676,167.5329,449.3757,164.1497 M,0,110462,110506,449.3757,164.1497,483.5838,160.7664 M,0,110506,110550,483.5838,160.7664,517.7919,157.3832 M,0,110550,110593,517.7919,157.3832,552,154
Sprite,Background,Centre,"sb\glow.png",0,0 C,0,110768,,224,215,211 M,0,110768,110811,478,78,457.4702,79.97878 F,2,110768,111742,1,0 S,2,110768,111742,0.4,0.08 P,0,110768,111742,A M,0,110811,110855,457.4702,79.97878,436.9403,81.95757 M,0,110855,110898,436.9403,81.95757,416.4104,83.93634 M,0,110898,110942,416.4104,83.93634,395.8806,85.91513
Sprite,Background,Centre,"sb\glow.png",0,0 C,0,111117,,224,215,211 M,0,111117,111160,313,95,292.4702,96.97878 F,2,111117,112091,1,0 S,2,111117,112091,0.4,0.08 P,0,111117,112091,A M,0,111160,111204,292.4702,96.97878,271.9403,98.95757 M,0,111204,111247,271.9403,98.95757,251.4104,100.9363 M,0,111247,111291,251.4104,100.9363,230.8806,102.9151
Sprite,Background,Centre,"sb\glow.png",0,0 C,0,111466,,224,215,211 M,0,111466,111509,148,112,127.4701,113.9788 F,2,111466,112440,1,0 S,2,111466,112440,0.4,0.08 P,0,111466,112440,A M,0,111509,111553,127.4701,113.9788,106.9403,115.9576 M,0,111553,111596,106.9403,115.9576,86.41043,117.9363 M,0,111596,111640,86.41043,117.9363,65.88057,119.9151
Sprite,Background,Centre,"sb\glow.png",313,95 C,0,111815,,224,215,211 F,2,111815,112615,1,0 S,2,111815,112615,0.4,0.08 P,0,111815,112615,A
Sprite,Background,Centre,"sb\glow.png",364.872,303.872 C,0,88879,,208,174,197 F,2,88879,89679,1,0 S,2,88879,89679,0.4,0.08 P,0,88879,89679,A
Sprite,Background,Centre,"sb\glow.png",368.744,307.744 C,0,88966,,208,174,197 F,2,88966,89766,1,0 S,2,88966,89766,0.4,0.08 P,0,88966,89766,A
Sprite,Background,Centre,"sb\glow.png",0,0 C,0,89141,,208,174,197 M,0,89141,89184,463,323,472.3598,348.7632 F,2,89141,90289,1,0 S,2,89141,90289,0.4,0.08 P,0,89141,90289,A M,0,89184,89228,472.3598,348.7632,474.6578,376.0758 M,0,89228,89271,474.6578,376.0758,472.3598,348.7632 M,0,89271,89315,472.3598,348.7632,463,323 M,0,89315,89359,463,323,472.3598,348.7632 M,0,89359,89402,472.3598,348.7632,474.6578,376.0758 M,0,89402,89446,474.6578,376.0758,472.3598,348.7632 M,0,89446,89489,472.3598,348.7632,463,323
Sprite,Background,Centre,"sb\splat.png",382,239 S,0,45013,46408,1,1.25 F,0,46408,46409,1,0
Sprite,Background,Centre,"sb\splat.png",369,316 S,0,46408,47803,1,1.25 F,0,47803,47804,1,0
Sprite,Background,Centre,"sb\splat.png",369,316 S,0,47803,49198,1,1.25 F,0,49198,49199,1,0
Sprite,Background,Centre,"sb\splat.png",217,304 S,0,49199,50594,1,1.25 F,0,50594,50595,1,0
Sprite,Background,Centre,"sb\splat.png",257.3661,73.79561 S,0,50594,51989,1,1.25 F,0,51989,51990,1,0
Sprite,Background,Centre,"sb\splat.png",257,73 S,0,51989,53384,1,1.25 F,0,53384,53385,1,0
Sprite,Background,Centre,"sb\splat.png",257,73 S,0,53385,54780,1,1.25 F,0,54780,54781,1,0
Sprite,Background,Centre,"sb\splat.png",400,172 S,0,54780,56175,1,1.25 F,0,56175,56176,1,0
Sprite,Background,Centre,"sb\splat.png",537,358 F,0,56175,57570,1,0 S,0,56175,57570,1,1.25
//Storyboard Layer 1 (Fail)
//Storyboard Layer 2 (Pass)
//Storyboard Layer 3 (Foreground)
//Storyboard Layer 4 (Overlay)
//Storyboard Sound Samples

[TimingPoints]
362,348.837209302326,4,2,26,45,1,0
710,-200,4,2,26,45,0,0
5943,-200,4,2,26,55,0,0
11001,-200,4,2,26,45,0,0
11524,-133.333333333333,4,2,26,65,0,0
13617,-200,4,2,26,65,0,0
14315,-133.333333333333,4,2,26,65,0,0
17455,-200,4,2,26,65,0,0
22687,-100,4,2,27,75,0,0
33850,-80,4,2,27,85,0,0
43792,-133.333333333333,4,2,27,85,0,0
44315,-133.333333333333,4,2,26,45,0,0
45012,-133.333333333333,4,2,27,100,0,0
46408,-133.333333333333,4,2,27,45,0,0
47803,-333.333333333333,4,2,27,45,0,0
50245,-500,4,2,27,45,0,0
53385,-200,4,2,27,45,0,0
55827,-500,4,2,27,45,0,0
56175,-500,4,2,26,60,0,0
56873,-200,4,2,26,60,0,0
61234,-200,4,2,27,50,0,0
61582,-200,4,2,27,60,0,0
61757,-200,4,2,27,85,0,0
62455,-200,4,2,27,60,0,0
62498,-200,4,2,27,5,0,0
63152,-200,4,2,27,85,0,0
63850,-200,4,2,27,60,0,0
63893,-200,4,2,27,5,0,0
64548,-200,4,2,27,60,0,0
65245,-200,4,2,27,70,0,0
65943,-133.333333333333,4,2,27,60,0,0
66292,-133.333333333333,4,2,27,70,0,0
66641,-133.333333333333,4,2,27,80,0,0
66989,-133.333333333333,4,2,26,100,0,0
67338,-100,4,2,27,80,0,1
78501,-80,4,2,27,80,0,1
82687,-80,4,2,27,50,0,1
82862,-80,4,2,27,60,0,1
83036,-80,4,2,27,70,0,1
83210,-80,4,2,27,80,0,1
83385,-80,4,2,27,90,0,1
84082,-80,4,2,27,75,0,1
85478,-80,4,2,27,65,0,1
86873,-80,4,2,27,80,0,1
87048,-100,4,2,27,80,0,1
88268,-100,4,2,27,100,0,0
88617,-100,4,2,27,65,0,0
89489,-100,4,2,27,75,0,0
100827,-80,4,2,27,75,0,0
110768,-133.333333333333,4,2,27,75,0,0
112513,-133.333333333333,4,2,27,100,0,0
112556,-133.333333333333,4,2,27,5,0,0

[Colours]
Combo1 : 224,215,211
Combo2 : 216,205,231
Combo3 : 174,175,208
Combo4 : 208,174,197

[HitObjects]
33,16,362,5,4,2:3:0:0:
33,16,710,2,0,P|61:9|99:6,1,55,0|0,2:0|2:0,2:0:0:0:
162,52,1059,2,0,P|189:59|224:76,1,55,0|0,2:0|2:0,2:0:0:0:
256,147,1408,1,0,2:0:0:0:
256,147,1757,5,8,2:0:0:0:
421,218,2106,2,0,L|428:152,1,55,0|0,2:0|2:0,2:0:0:0:
320,213,2455,2,0,L|325:267,1,55,0|0,2:0|2:0,2:0:0:0:
345,125,2803,1,0,2:0:0:0:
256,147,3152,5,0,2:0:0:0:
256,147,3501,2,0,P|240:171|214:199,1,55,0|0,2:0|2:0,2:0:0:0:
135,210,3850,2,0,P|109:223|72:234,1,55,0|0,2:0|2:0,2:0:0:0:
6,193,4199,1,0,2:0:0:0:
203,283,4548,5,8,2:0:0:0:
203,283,4896,1,0,2:0:0:0:
281,322,5071,1,0,2:0:0:0:
359,282,5245,2,0,L|350:221,2,55,0|0|0,2:0|2:0|2:0,2:0:0:0:
238,59,5943,5,4,2:0:0:0:
238,59,6292,1,0,2:0:0:0:
173,118,6466,1,0,2:0:0:0:
256,147,6641,2,0,L|322:139,1,55,0|0,2:0|2:0,2:0:0:0:
428,83,6989,1,0,2:0:0:0:
392,157,7338,5,8,2:0:0:0:
184,201,7687,1,0,2:0:0:0:
100,171,7862,1,0,2:0:0:0:
34,230,8036,2,0,P|27:253|31:285,1,55,0|0,2:0|2:0,2:0:0:0:
106,328,8385,1,0,2:0:0:0:
106,328,8734,5,0,2:0:0:0:
184,201,9082,1,0,2:0:0:0:
189,289,9257,1,0,2:0:0:0:
184,201,9431,2,0,L|172:75,2,110,2|2|8,2:0|2:0|2:0,2:0:0:0:
100,45,10478,5,2,2:0:0:0:
261,115,10827,1,2,2:0:0:0:
336,71,11001,2,0,L|397:60,2,55,0|0|0,2:0|2:0|2:0,2:0:0:0:
433,143,11524,6,0,P|444:210|409:282,1,123.75,4|0,2:3|2:0,2:0:0:0:
425,261,11873,1,0,2:0:0:0:
346,236,12048,1,0,2:0:0:0:
277,282,12222,2,0,L|184:270,1,82.5000000000002,0|0,2:0|2:0,2:0:0:0:
320,358,12571,2,0,L|401:347,1,82.5000000000002,0|0,2:0|2:0,2:0:0:0:
233,364,12920,5,8,2:0:0:0:
147,202,13094,1,0,2:0:0:0:
147,202,13181,1,0,2:0:0:0:
147,202,13268,1,8,2:3:0:0:
109,277,13443,1,0,2:0:0:0:
46,202,13617,6,0,L|38:138,1,55,2|2,2:0|2:0,2:0:0:0:
119,103,13966,2,0,L|125:48,1,55,2|2,2:0|2:0,2:0:0:0:
216,25,14315,6,0,P|255:36|281:67,1,82.5000000000002,2|0,2:0|2:0,2:0:0:0:
468,95,14664,2,0,B|469:76|488:60|488:60|471:47|465:27,1,82.5000000000002,2|0,2:0|2:0,2:0:0:0:
383,71,15013,6,0,P|359:104|355:144,1,82.5000000000002,2|0,2:0|2:0,2:0:0:0:
242,236,15362,2,0,B|225:227|202:234|202:234|199:213|185:197,1,82.5000000000002,2|0,2:0|2:0,2:0:0:0:
271,156,15710,5,8,2:0:0:0:
271,156,16059,1,0,2:0:0:0:
332,223,16234,1,0,2:0:0:0:
304,309,16408,1,0,2:0:0:0:
214,325,16582,1,0,2:0:0:0:
131,285,16757,2,0,P|88:270|34:264,1,82.5000000000002,2|2,2:0|2:0,2:0:0:0:
160,53,17106,5,4,2:0:0:0:
86,171,17455,2,0,P|79:133|56:99,1,55,2|2,2:0|2:0,2:0:0:0:
168,189,17803,2,0,P|180:152|178:111,1,55,2|2,2:0|2:0,2:0:0:0:
242,236,18152,1,2,2:0:0:0:
0,159,18501,5,8,2:0:0:0:
246,74,18850,2,0,P|263:95|274:121,1,55,2|2,2:0|2:0,2:0:0:0:
356,61,19199,2,0,P|360:88|357:116,1,55,2|2,2:0|2:0,2:0:0:0:
319,193,19548,1,2,2:0:0:0:
181,136,19896,5,8,3:0:0:0:
412,179,20594,5,0,2:0:0:0:
181,136,21292,5,8,3:0:0:0:
142,215,21641,1,2,3:0:0:0:
188,289,21989,1,8,3:0:0:0:
139,368,22164,1,2,3:0:0:0:
139,368,22251,1,2,3:0:0:0:
139,368,22338,1,10,3:0:0:0:
99,288,22513,1,2,3:0:0:0:
291,356,22687,6,0,P|355:358|400:324,1,110,4|0,3:2|2:0,2:0:0:0:
391,333,22949,1,0,2:0:0:0:
391,333,23036,1,8,2:0:0:0:
276,200,23210,1,0,2:0:0:0:
242,281,23385,5,0,3:0:0:0:
242,281,23559,2,0,L|170:291,2,55,0|0|8,2:0|2:0|2:0,2:0:0:0:
326,274,23908,1,0,2:0:0:0:
323,122,24082,6,0,P|308:68|309:4,1,110,0|0,3:0|2:0,2:0:0:0:
307,14,24344,1,0,2:0:0:0:
307,14,24431,1,8,2:0:0:0:
233,121,24606,1,0,2:0:0:0:
368,197,24780,5,0,3:0:0:0:
368,197,24955,2,0,L|440:187,2,55,8|0|8,2:0|2:0|2:0,2:0:0:0:
276,200,25303,1,0,3:0:0:0:
142,141,25478,6,0,P|137:83|195:26,1,110,0|0,3:0|2:0,2:0:0:0:
164,41,25739,1,0,2:0:0:0:
164,41,25827,1,8,2:0:0:0:
180,238,26001,1,0,2:0:0:0:
180,238,26175,6,0,L|57:224,1,110,0|0,3:0|2:0,2:0:0:0:
70,225,26437,1,0,2:0:0:0:
70,225,26524,1,8,2:0:0:0:
142,141,26699,1,0,2:0:0:0:
259,298,26873,5,0,3:0:0:0:
175,336,27048,1,0,2:0:0:0:
175,336,27135,1,0,2:0:0:0:
175,336,27222,2,0,P|256:345|342:375,1,165,8|0,2:0|2:0,2:0:0:0:
334,371,27571,5,2,3:2:0:0:
420,354,27745,1,10,2:0:0:0:
257,215,27920,1,2,3:2:0:0:
257,215,28007,1,0,3:0:0:0:
257,215,28094,1,0,3:0:0:0:
338,169,28268,6,0,L|352:291,1,110,4|0,3:2|2:0,2:0:0:0:
350,278,28530,1,0,2:0:0:0:
350,278,28617,1,8,2:0:0:0:
247,128,28792,1,0,2:0:0:0:
326,79,28966,5,0,3:0:0:0:
326,79,29141,2,0,P|353:81|380:90,2,55,0|0|8,2:0|2:0|2:0,2:0:0:0:
244,37,29489,1,0,2:0:0:0:
81,178,29664,6,0,P|43:157|25:94,1,110,0|0,3:0|2:0,2:0:0:0:
24,96,29925,1,0,2:0:0:0:
24,96,30013,1,8,2:0:0:0:
172,174,30187,1,0,2:0:0:0:
173,88,30362,5,0,3:0:0:0:
173,88,30536,2,0,P|145:89|119:98,2,55,8|0|8,2:0|2:0|2:0,2:0:0:0:
247,128,30885,1,0,3:0:0:0:
212,253,31059,6,0,L|441:228,1,220,0|8,3:0|2:0,2:0:0:0:
339,363,31582,1,0,3:0:0:0:
251,338,31757,6,0,L|416:319,1,165,0|0,3:0|2:0,2:0:0:0:
415,320,32106,1,10,2:0:0:0:
496,369,32280,1,10,2:0:0:0:
430,229,32455,6,0,P|421:170|444:111,1,110,2|8,3:2|2:0,2:0:0:0:
508,181,32803,1,0,3:0:0:0:
332,218,33065,5,8,2:0:0:0:
332,218,33152,1,0,3:0:0:0:
235,252,33327,2,0,L|166:241,1,55,0|0,3:0|3:0,2:0:0:0:
85,227,33501,2,0,L|16:216,3,55,0|0|0|0,3:0|3:0|3:0|3:0,2:0:0:0:
6,243,33850,6,0,P|63:249|124:375,1,206.25,4|0,3:2|2:0,2:0:0:0:
125,369,34199,5,8,2:0:0:0:
34,336,34373,1,0,2:0:0:0:
125,369,34548,5,0,3:0:0:0:
34,336,34722,1,0,2:0:0:0:
125,369,34896,2,0,B|165:385|202:358|193:353|227:332|261:343,1,137.5,8|0,2:0|2:0,2:0:0:0:
439,326,35245,6,0,P|398:252|269:265,1,206.25,0|0,3:0|2:0,2:0:0:0:
285,251,35594,5,8,2:0:0:0:
341,332,35768,1,0,2:0:0:0:
285,251,35943,5,0,3:0:0:0:
195,247,36117,1,8,2:0:0:0:
195,247,36205,1,8,2:0:0:0:
195,247,36292,2,0,B|220:106,1,137.5,0|0,3:0|3:0,2:0:0:0:
312,0,36641,6,0,P|233:88|150:86,1,206.25,0|0,3:0|2:0,2:0:0:0:
152,87,36989,1,8,2:0:0:0:
296,185,37164,1,0,2:0:0:0:
152,87,37338,5,0,3:0:0:0:
296,185,37513,1,0,2:0:0:0:
151,86,37687,2,0,P|65:119|107:215,1,206.25,8|0,2:0|2:0,2:0:0:0:
93,209,38036,6,0,P|189:191|314:184,1,206.25,0|0,3:0|2:0,2:0:0:0:
297,183,38385,1,8,2:0:0:0:
378,233,38559,1,0,2:0:0:0:
341,332,38734,5,2,3:2:0:0:
341,332,38908,1,2,2:0:0:0:
341,332,39082,1,10,2:0:0:0:
439,170,39431,6,0,L|428:16,1,137.5,4|0,3:2|2:0,2:0:0:0:
429,32,39693,1,0,2:0:0:0:
429,32,39780,1,8,2:0:0:0:
350,105,39955,1,0,2:0:0:0:
190,41,40129,5,0,3:0:0:0:
114,87,40303,1,0,2:0:0:0:
117,100,40391,1,0,2:0:0:0:
120,113,40478,1,8,2:0:0:0:
272,71,40652,1,0,2:0:0:0:
196,138,40827,6,0,P|129:149|73:205,1,137.5,0|0,3:0|2:0,2:0:0:0:
78,194,41088,1,0,2:0:0:0:
78,194,41175,1,8,2:0:0:0:
98,288,41350,1,0,2:0:0:0:
182,333,41524,5,0,3:0:0:0:
201,242,41699,1,8,2:0:0:0:
191,231,41786,1,8,2:0:0:0:
178,226,41873,1,8,2:0:0:0:
100,377,42048,1,0,3:0:0:0:
268,301,42222,6,0,L|489:280,1,206.25,0|0,3:0|2:0,2:0:0:0:
473,281,42571,1,8,2:0:0:0:
373,323,42745,1,0,2:0:0:0:
451,199,42920,6,0,L|178:226,2,275,0|10|4,3:0|2:3|3:0,2:0:0:0:
491,36,43792,2,0,P|495:77|478:114,1,82.5000000000002,0|4,3:0|3:0,2:0:0:0:
343,9,44141,2,0,P|381:26|403:59,1,82.5000000000002,0|6,3:0|2:0,2:0:0:0:
243,119,44489,2,0,P|276:95|316:93,1,82.5000000000002,2|2,2:0|2:0,2:0:0:0:
305,260,44838,2,0,P|301:219|318:183,1,82.5000000000002,2|4,2:0|2:0,2:0:0:0:
305,260,46408,5,2,3:2:0:0:
305,260,47803,6,0,B|259:242|211:274|217:278|160:303|112:255|112:255|137:260|164:243,1,247.5,4|0,2:0|2:0,2:0:0:0:
153,248,49199,5,8,2:3:0:0:
127,176,49373,1,0,2:0:0:0:
102,103,49548,1,0,2:0:0:0:
102,103,49896,5,4,2:3:0:0:
151,26,50245,2,0,P|173:18|200:19,1,44,0|4,2:0|2:0,2:0:0:0:
193,17,51989,5,2,2:0:0:0:
193,17,53385,6,0,B|245:26|259:75|259:75|275:41|331:-9|408:13|425:53|425:98|403:122|365:142|331:112,1,385,4|0,2:0|2:0,2:0:0:0:
336,116,54780,5,8,2:3:0:0:
349,197,54955,1,0,2:0:0:0:
362,277,55129,1,0,2:0:0:0:
362,277,55478,5,4,2:3:0:0:
444,315,55827,2,0,P|459:306|483:302,1,33,0|0,2:0|2:0,2:0:0:0:
473,302,56175,5,4,2:3:0:0:
373,365,56350,1,2,2:0:0:0:
373,365,56437,1,2,2:0:0:0:
283,321,56699,5,0,2:0:0:0:
209,357,56873,2,0,P|179:348|142:346,1,55,0|0,2:0|2:0,2:0:0:0:
107,274,57222,2,0,P|137:265|174:263,1,55,0|0,2:0|2:0,2:0:0:0:
71,351,57571,5,8,2:0:0:0:
23,280,57745,1,2,2:0:0:0:
23,280,57832,1,2,2:0:0:0:
57,200,58094,5,0,2:0:0:0:
57,200,58268,2,0,L|50:165,7,27.5,2|2|2|2|2|2|2|2,2:0|2:0|2:0|2:0|2:0|2:0|2:0|2:0,2:0:0:0:
51,173,58966,5,8,2:0:0:0:
111,109,59141,1,2,2:0:0:0:
111,109,59228,1,2,2:0:0:0:
60,38,59489,5,0,2:0:0:0:
188,139,59664,2,0,P|213:140|255:131,1,55,0|0,2:0|2:0,2:0:0:0:
321,184,60013,2,0,P|299:201|275:214,1,55,0|0,2:0|2:0,2:0:0:0:
319,100,60362,5,8,2:0:0:0:
248,54,60536,1,2,2:0:0:0:
248,54,60623,1,2,2:0:0:0:
322,17,60885,5,0,2:0:0:0:
399,58,61059,1,2,2:0:0:0:
399,58,61146,1,2,2:0:0:0:
399,58,61234,2,0,B|417:94|417:94|395:153,1,82.5,0|0,3:0|2:0,2:0:0:0:
402,133,61582,5,8,3:0:0:0:
248,54,61757,1,2,3:2:0:0:
321,184,62455,6,0,L|317:170,1,13.75,4|0,2:0|2:0,2:0:0:0:
248,54,63152,5,2,2:0:0:0:
242,135,63850,6,0,L|248:159,1,13.75,4|0,2:0|2:0,2:0:0:0:
246,51,64548,5,4,3:0:0:0:
165,96,64896,1,8,2:0:0:0:
168,184,65245,1,4,3:2:0:0:
245,226,65594,1,8,2:0:0:0:
321,184,65943,6,0,L|402:195,1,82.5000000000002,8|8,2:0|2:0,2:0:0:0:
168,184,66292,2,0,L|86:195,1,82.5000000000002,10|10,2:0|2:0,2:0:0:0:
317,287,66641,5,12,2:0:0:0:
246,356,66815,1,12,2:0:0:0:
174,288,66989,1,6,1:0:0:0:
245,226,67164,1,0,2:0:0:0:
317,287,67338,6,0,L|483:309,2,165,14|8|8,3:0|2:3|2:3,2:0:0:0:
486,223,68036,1,8,3:1:0:0:
397,338,68210,1,2,2:0:0:0:
397,338,68298,1,2,2:0:0:0:
397,338,68385,1,10,2:0:0:0:
317,287,68559,1,8,2:1:0:0:
174,288,68734,6,0,L|7:310,2,165,12|8|8,3:0|2:3|2:3,2:0:0:0:
245,226,69431,1,8,3:1:0:0:
101,335,69606,1,2,2:0:0:0:
101,335,69693,1,2,2:0:0:0:
101,335,69780,1,10,2:0:0:0:
0,204,69955,1,8,2:1:0:0:
78,135,70129,5,4,3:0:0:0:
78,135,70303,2,0,L|68:68,2,55,8|8|8,2:3|2:3|2:0,2:0:0:0:
87,221,70652,1,8,2:1:0:0:
170,173,70827,5,8,3:0:0:0:
170,173,71001,2,0,P|188:158|229:143,2,55,8|8|8,2:3|2:3|2:0,2:0:0:0:
203,59,71350,1,8,2:3:0:0:
241,59,71437,1,8,2:3:0:0:
273,79,71524,1,4,3:0:0:0:
334,5,71699,5,8,2:3:0:0:
366,42,71786,1,8,2:3:0:0:
364,91,71873,1,8,2:0:0:0:
457,99,72048,2,0,P|434:148|387:181,1,110,8|8,2:1|3:0,2:0:0:0:
301,169,72396,5,8,3:0:0:0:
412,270,72571,1,8,2:3:0:0:
410,286,72658,1,8,2:3:0:0:
409,302,72745,1,8,2:0:0:0:
389,179,72920,5,4,3:0:0:0:
389,179,73094,2,0,P|415:177|443:183,2,55,8|0|8,2:3|2:0|2:0,2:0:0:0:
322,253,73443,2,0,P|252:272|159:310,1,165,2|0,2:0|2:0,2:0:0:0:
166,306,73792,1,0,3:0:0:0:
105,382,73966,2,0,P|71:333|82:270,1,110,10|0,2:0|2:0,2:0:0:0:
260,326,74315,5,0,3:0:0:0:
149,222,74489,1,8,2:3:0:0:
149,222,74577,1,8,2:3:0:0:
149,222,74664,1,8,2:0:0:0:
230,189,74838,1,8,2:1:0:0:
288,122,75013,5,2,3:2:0:0:
362,75,75187,1,2,3:2:0:0:
450,78,75362,1,10,2:0:0:0:
507,144,75536,1,10,2:0:0:0:
471,296,75710,6,0,L|448:58,1,220,4|0,3:2|2:0,2:0:0:0:
370,166,76234,2,0,L|380:275,1,110,2|0,3:0|2:0,2:0:0:0:
288,122,76582,1,8,2:3:0:0:
288,122,76670,1,8,2:3:0:0:
288,122,76757,1,0,3:0:0:0:
127,218,76931,6,0,P|68:165|90:90,1,165,2|8,3:2|2:0,2:0:0:0:
90,89,77280,2,0,L|222:70,1,110,2|8,3:2|2:0,2:0:0:0:
33,169,77629,5,2,3:2:0:0:
33,169,77716,1,0,2:0:0:0:
33,169,77803,1,8,2:0:0:0:
214,223,77978,2,0,L|268:214,2,55,10|8|12,3:2|2:0|2:3,2:0:0:0:
162,300,78327,1,8,3:1:0:0:
352,270,78501,6,0,B|362:216|362:216|349:160|349:160|362:67,2,206.25,14|8|8,3:0|2:3|2:1,2:0:0:0:
265,122,79199,1,0,3:0:0:0:
380,183,79373,1,2,2:0:0:0:
393,180,79460,1,2,2:0:0:0:
406,178,79548,1,10,2:0:0:0:
362,67,79722,1,8,2:1:0:0:
214,223,79896,6,0,B|156:246|113:212|123:211|87:180|15:208,2,206.25,4|8|8,3:0|2:3|2:1,2:0:0:0:
67,286,80594,1,0,3:0:0:0:
174,139,80768,5,2,2:0:0:0:
67,286,80943,1,10,2:0:0:0:
91,169,81117,1,2,2:0:0:0:
148,309,81292,5,4,3:0:0:0:
238,313,81466,1,8,2:3:0:0:
238,313,81553,1,8,2:3:0:0:
238,313,81641,1,8,2:0:0:0:
293,252,81815,1,0,2:0:0:0:
283,170,81989,6,0,L|270:93,2,68.75,8|0|0,3:0|2:0|2:0,2:0:0:0:
293,252,82338,1,8,2:0:0:0:
365,208,82513,1,0,2:0:0:0:
365,208,82600,1,0,2:0:0:0:
365,208,82687,5,2,3:2:0:0:
447,212,82862,1,2,2:0:0:0:
479,287,83036,1,2,3:2:0:0:
445,362,83210,1,2,2:0:0:0:
365,383,83385,1,6,3:2:0:0:
295,339,83559,1,8,2:3:0:0:
295,339,83646,1,8,2:3:0:0:
295,339,83734,1,4,3:2:0:0:
293,252,83908,1,8,2:0:0:0:
365,208,84082,5,4,3:2:0:0:
365,208,84257,2,0,P|357:144|360:56,1,137.5,8|8,2:3|2:0,2:0:0:0:
503,0,84606,1,0,2:0:0:0:
444,68,84780,6,0,P|442:136|450:204,1,137.5,4|8,3:0|2:3,2:0:0:0:
450,204,85042,1,8,2:3:0:0:
450,204,85129,1,8,2:0:0:0:
281,168,85303,1,0,2:0:0:0:
215,217,85478,5,4,3:2:0:0:
215,217,85652,2,0,P|128:228|66:225,1,137.5,8|8,2:3|2:0,2:0:0:0:
7,354,86001,1,8,2:1:0:0:
81,311,86175,6,0,P|149:311|217:301,1,137.5,4|8,3:0|2:3,2:0:0:0:
217,301,86437,1,8,2:3:0:0:
217,301,86524,1,8,2:0:0:0:
3,272,86699,1,8,2:1:0:0:
78,226,86873,5,14,3:0:0:0:
34,149,87048,2,0,L|22:73,2,55,0|8|8,2:0|2:3|2:3,2:0:0:0:
92,37,87396,1,8,3:1:0:0:
34,149,87571,5,2,3:0:0:0:
127,120,87745,2,0,L|181:90,2,55,0|8|8,2:0|2:3|2:3,2:0:0:0:
261,111,88094,1,8,3:1:0:0:
127,120,88268,6,0,P|171:159|189:259,1,165,6|0,3:2|2:0,2:0:0:0:
188,259,88617,2,0,L|320:242,1,110,8|0,2:0|2:0,2:0:0:0:
297,244,88879,1,8,2:3:0:0:
297,244,88966,1,4,3:0:0:0:
399,267,89141,2,0,P|408:291|410:328,4,55,8|8|8|8|0,2:3|2:3|2:3|2:3|2:0,2:0:0:0:
388,175,89664,6,0,P|383:120|399:57,1,110,4|0,3:2|2:0,2:0:0:0:
394,66,89925,1,0,2:0:0:0:
394,66,90013,1,8,2:0:0:0:
473,140,90187,1,0,2:0:0:0:
295,82,90362,5,0,3:0:0:0:
295,82,90536,2,0,L|223:92,2,55,0|0|8,2:0|2:0|2:0,2:0:0:0:
335,3,90885,1,0,2:0:0:0:
184,151,91059,6,0,P|137:152|81:181,1,110,0|0,3:0|2:0,2:0:0:0:
81,180,91321,1,0,2:0:0:0:
81,180,91408,1,8,2:0:0:0:
75,268,91582,1,0,2:0:0:0:
160,246,91757,5,0,3:0:0:0:
160,246,91931,2,0,L|156:302,2,55,8|0|8,2:0|2:0|2:0,2:0:0:0:
2,207,92280,1,0,3:0:0:0:
156,300,92455,6,0,L|267:284,1,110,0|0,3:0|2:0,2:0:0:0:
264,284,92716,1,0,2:0:0:0:
264,284,92803,1,8,2:0:0:0:
369,204,92978,1,0,2:0:0:0:
369,204,93152,6,0,L|246:190,1,110,0|0,3:0|2:0,2:0:0:0:
259,191,93414,1,0,2:0:0:0:
259,191,93501,1,8,2:0:0:0:
357,336,93675,1,0,2:0:0:0:
427,277,93850,5,0,3:0:0:0:
423,131,94024,1,0,2:0:0:0:
423,131,94112,1,0,2:0:0:0:
423,131,94199,2,0,P|407:57|425:-9,1,110,8|0,2:0|2:0,2:0:0:0:
499,64,94548,5,2,3:2:0:0:
369,204,94722,1,10,2:0:0:0:
325,125,94896,1,2,3:2:0:0:
325,125,94984,1,0,3:0:0:0:
325,125,95071,1,0,3:0:0:0:
259,191,95245,6,0,L|266:311,1,110,4|0,3:2|2:0,2:0:0:0:
265,300,95507,1,0,2:0:0:0:
265,300,95594,1,8,2:0:0:0:
172,168,95768,1,0,2:0:0:0:
233,104,95943,5,0,3:0:0:0:
233,104,96117,2,0,P|238:76|266:45,2,55,0|0|8,2:0|2:0|2:0,2:0:0:0:
259,191,96466,1,0,2:0:0:0:
87,220,96641,6,0,L|71:90,1,110,0|0,3:0|2:0,2:0:0:0:
73,110,96902,1,0,2:0:0:0:
73,110,96989,1,8,2:0:0:0:
172,174,97164,1,0,2:0:0:0:
14,270,97338,5,0,3:0:0:0:
14,270,97513,2,0,P|3:245|0:218,2,55,8|0|8,2:0|2:0|2:0,2:0:0:0:
87,220,97862,1,0,3:0:0:0:
165,276,98036,6,0,P|275:256|405:252,1,220,0|8,3:0|2:0,2:0:0:0:
247,125,98559,1,0,3:0:0:0:
172,174,98734,6,0,P|254:170|335:156,1,165,0|0,3:0|2:0,2:0:0:0:
335,156,99082,1,10,2:0:0:0:
380,78,99257,1,10,2:0:0:0:
306,34,99431,6,0,L|185:29,1,110,2|8,3:2|2:0,2:0:0:0:
247,125,99780,1,0,3:0:0:0:
113,0,100042,5,8,2:0:0:0:
113,0,100129,1,0,3:0:0:0:
73,82,100303,2,0,L|82:140,1,55,0|0,3:0|3:0,2:0:0:0:
79,224,100478,2,0,L|88:283,3,55,0|0|0|0,3:0|3:0|3:0|3:0,2:0:0:0:
59,370,100827,6,0,P|102:291|215:281,1,206.25,4|0,3:2|2:0,2:0:0:0:
209,278,101175,5,8,2:0:0:0:
173,176,101350,1,0,2:0:0:0:
209,278,101524,5,0,3:0:0:0:
173,176,101699,1,0,2:0:0:0:
260,195,101873,2,0,P|321:209|409:181,1,137.5,8|0,2:0|2:0,2:0:0:0:
357,304,102222,6,0,P|266:311|150:362,1,206.25,0|0,3:0|2:0,2:0:0:0:
160,354,102571,5,8,2:0:0:0:
87,278,102745,1,0,2:0:0:0:
160,354,102920,5,0,3:0:0:0:
266,340,103094,1,8,2:0:0:0:
266,340,103181,1,8,2:0:0:0:
266,340,103268,1,0,3:0:0:0:
357,304,103443,1,0,3:0:0:0:
468,328,103617,6,0,L|455:95,1,206.25,0|0,3:0|2:0,2:0:0:0:
456,122,103966,1,10,2:0:0:0:
386,56,104141,1,2,2:0:0:0:
456,122,104315,5,2,3:2:0:0:
386,56,104489,1,0,2:0:0:0:
456,122,104664,2,0,P|397:150|326:127,1,137.5,8|0,2:0|2:0,2:0:0:0:
271,209,105013,6,0,P|168:215|66:234,1,206.25,0|0,3:0|2:0,2:0:0:0:
66,234,105362,1,8,2:0:0:0:
150,185,105536,1,0,2:0:0:0:
341,287,105710,5,2,3:2:0:0:
341,287,105885,1,2,2:0:0:0:
341,287,106059,1,10,2:0:0:0:
3,174,106408,6,0,P|-9:116|28:45,1,137.5,4|0,3:2|2:0,2:0:0:0:
24,48,106670,1,0,2:0:0:0:
24,48,106757,1,8,2:0:0:0:
78,128,106931,1,0,2:0:0:0:
7,317,107106,5,0,3:0:0:0:
66,234,107280,1,0,2:0:0:0:
69,247,107367,1,0,2:0:0:0:
72,260,107455,1,8,2:0:0:0:
3,174,107629,1,0,2:0:0:0:
151,278,107803,6,0,P|215:300|276:357,1,137.5,0|0,3:0|2:0,2:0:0:0:
267,345,108065,1,0,2:0:0:0:
267,345,108152,1,8,2:0:0:0:
172,368,108327,1,0,2:0:0:0:
148,191,108501,5,0,3:0:0:0:
231,221,108675,1,8,2:0:0:0:
239,239,108763,1,8,2:0:0:0:
237,259,108850,1,8,2:0:0:0:
151,278,109024,1,0,3:0:0:0:
303,157,109199,6,0,P|376:164|436:285,1,206.25,0|0,3:0|2:0,2:0:0:0:
437,270,109548,1,8,2:0:0:0:
336,255,109722,1,0,2:0:0:0:
488,98,109896,6,0,L|215:125,2,275,0|10|4,3:0|2:3|3:0,2:0:0:0:
414,22,110768,6,0,L|331:30,1,82.5000000000002,0|4,3:0|3:0,2:0:0:0:
249,39,111117,2,0,L|166:47,1,82.5000000000002,0|6,3:0|2:0,2:0:0:0:
84,56,111466,2,0,L|1:64,1,82.5000000000002,0|2,2:0|2:0,2:0:0:0:
249,39,111815,1,0,2:0:0:0:
113,137,112513,6,0,L|133:134,1,20.6250000000001,4|0,2:0|2:0,2:0:0:0:
