osu file format v14

[General]
AudioFilename: audio.mp3
AudioLeadIn: 0
PreviewTime: 89813
Countdown: 0
SampleSet: Soft
StackLeniency: 0.7
Mode: 0
LetterboxInBreaks: 0
WidescreenStoryboard: 1

[Editor]
DistanceSpacing: 1
BeatDivisor: 4
GridSize: 4
TimelineZoom: 1

[Metadata]
Title:Nanatsu Hiiragisuikou (scenic mix)
TitleUnicode:七つ柊水光 (scenic mix)
Artist:A.SAKA
ArtistUnicode:A.SAKA
Creator:Hanori
Version:200 Euro Raiden Incident
Source:osu!
Tags:asaka featured artist fa instrumental electronic oriental
BeatmapID:4589112
BeatmapSetID:2173774

[Difficulty]
HPDrainRate:6
CircleSize:4
OverallDifficulty:9
ApproachRate:9.4
SliderMultiplier:1.6
SliderTickRate:1

[Events]
//Background and Video events
0,0,"background.jpg",0,0
//Break Periods
//Storyboard Layer 0 (Background)
//Storyboard Layer 1 (Fail)
//Storyboard Layer 2 (Pass)
//Storyboard Layer 3 (Foreground)
//Storyboard Layer 4 (Overlay)
//Storyboard Sound Samples

[TimingPoints]
1538,344.827586206897,4,2,1,100,1,0
1538,-100,4,2,1,100,0,0
7055,-100,4,2,1,100,0,0
20848,-100,4,2,1,100,0,0
22227,-100,4,2,1,100,0,0
23262,-80,4,2,1,100,0,0
45675,-66.6666666666667,4,2,1,100,0,1
56710,-80,4,2,1,100,0,0
67744,-66.6666666666667,4,2,1,100,0,1
78779,-66.6666666666667,4,2,1,100,0,1
89813,-100,4,2,1,100,0,0
91193,-80,4,2,1,100,0,1
113262,-80,4,2,1,100,0,1
116020,-100,4,2,1,100,0,0
127055,-100,4,2,1,100,0,0

[Colours]
Combo1 : 113,202,255
Combo2 : 255,128,192
Combo3 : 141,28,255
Combo4 : 255,219,111

[HitObjects]
256,192,7055,12,0,11882,2:2:0:0:
150,198,12055,5,0,2:2:0:0:
82,85,12227,1,0,2:2:0:0:
290,171,12400,2,0,L|225:183,1,40,0|0,2:2|2:2,2:2:0:0:
440,132,12572,5,0,2:2:0:0:
377,50,12744,1,0,2:2:0:0:
277,28,12917,1,0,2:2:0:0:
186,78,13089,1,0,2:2:0:0:
63,365,13434,5,0,2:2:0:0:
31,193,13606,2,0,L|46:279,1,80,0|0,2:2|2:2,2:2:0:0:
186,78,13951,5,0,2:2:0:0:
282,113,14123,1,0,2:2:0:0:
333,203,14296,1,0,2:2:0:0:
312,304,14468,1,0,2:2:0:0:
446,11,14813,5,0,2:2:0:0:
344,31,14985,1,0,2:2:0:0:
414,106,15158,2,0,L|352:123,1,40,0|0,2:2|2:2,2:2:0:0:
125,51,15331,5,0,2:2:0:0:
148,150,15503,1,0,2:2:0:0:
231,212,15676,1,0,2:2:0:0:
333,203,15848,1,0,2:2:0:0:
43,354,16193,5,0,2:2:0:0:
145,334,16365,1,0,2:2:0:0:
247,314,16538,2,0,L|320:301,1,40,0|0,2:2|2:2,2:2:0:0:
425,89,16710,5,0,2:2:0:0:
326,117,16882,1,0,2:2:0:0:
270,204,17055,1,0,2:2:0:0:
286,306,17227,1,0,2:2:0:0:
411,241,17572,5,0,2:2:0:0:
270,204,17744,1,0,2:2:0:0:
456,113,17917,1,0,2:2:0:0:
456,113,18003,1,0,2:2:0:0:
456,113,18089,5,0,2:2:0:0:
356,140,18262,1,0,2:2:0:0:
262,96,18435,1,0,2:2:0:0:
221,0,18607,1,0,2:2:0:0:
7,340,18951,5,0,2:2:0:0:
23,237,19124,1,0,2:2:0:0:
121,304,19296,2,0,L|132:238,1,40,0|0,2:2|2:2,2:2:0:0:
159,101,19469,5,0,2:2:0:0:
262,96,19642,1,0,2:2:0:0:
344,160,19815,1,0,2:2:0:0:
361,262,19987,1,0,2:2:0:0:
505,25,20331,5,0,0:0:0:0:
403,48,20503,1,0,0:0:0:0:
473,123,20675,2,0,L|418:137,1,40
256,180,20848,5,0,0:0:0:0:
256,180,21020,1,0,0:0:0:0:
409,338,21193,5,0,0:0:0:0:
409,338,21366,1,0,0:0:0:0:
228,352,21538,5,0,0:0:0:0:
368,226,21710,1,0,0:0:0:0:
160,185,21882,5,0,0:0:0:0:
351,119,22055,1,0,0:0:0:0:
97,55,22227,6,0,L|161:77,1,40,0|0,2:2|2:2,2:2:0:0:
66,182,22400,1,0,2:2:0:0:
97,309,22572,6,0,L|161:287,1,40,0|0,2:2|2:2,2:2:0:0:
66,182,22744,1,0,2:2:0:0:
254,185,22917,5,0,2:2:0:0:
254,185,23089,1,0,2:2:0:0:
367,341,23262,2,0,L|379:277,1,50,0|0,2:2|2:2,2:2:0:0:
466,265,23434,2,0,L|454:201,1,50,0|0,2:2|2:2,2:2:0:0:
332,74,23606,6,0,P|420:111|513:76,1,200,0|0,2:2|2:2,2:2:0:0:
423,0,24124,1,0,2:2:0:0:
232,233,24296,6,0,L|223:119,1,100,0|0,2:2|2:2,2:2:0:0:
215,35,24641,1,0,2:2:0:0:
0,259,24813,5,0,2:2:0:0:
0,259,24900,1,0,2:2:0:0:
0,259,24986,2,0,P|47:240|115:233,1,100,0|0,2:2|2:2,2:2:0:0:
71,333,25331,1,0,2:2:0:0:
52,110,25503,6,0,P|99:129|167:136,1,100,0|0,2:2|2:2,2:2:0:0:
254,57,25848,1,0,2:2:0:0:
223,268,26020,1,0,2:2:0:0:
116,28,26193,1,0,2:2:0:0:
399,61,26365,6,0,P|376:120|485:183,1,200,0|0,2:2|2:2,2:2:0:0:
272,176,26882,1,0,2:2:0:0:
272,176,26969,1,0,2:2:0:0:
272,176,27055,1,0,2:2:0:0:
456,114,27227,1,0,2:2:0:0:
492,316,27400,2,0,P|448:297|387:291,1,100,0|0,2:2|2:2,2:2:0:0:
118,356,27744,5,0,2:2:0:0:
294,300,27917,1,0,2:2:0:0:
144,198,28089,1,0,2:2:0:0:
259,92,28262,2,0,P|154:108|84:32,1,200,0|0,2:2|2:2,2:2:0:0:
188,17,28779,1,0,2:2:0:0:
50,298,28951,5,0,2:2:0:0:
72,278,29038,1,0,2:2:0:0:
104,272,29124,2,0,P|160:285|207:332,1,100,0|0,2:2|2:2,2:2:0:0:
376,384,29469,6,0,L|389:284,1,100,0|0,2:2|2:2,2:2:0:0:
259,92,29813,2,0,L|272:192,1,100,0|0,2:2|2:2,2:2:0:0:
484,51,30158,1,0,2:2:0:0:
464,125,30331,1,0,2:2:0:0:
294,21,30503,6,0,L|178:45,1,100,0|0,2:2|2:2,2:2:0:0:
115,63,30848,1,0,2:2:0:0:
41,92,31020,1,0,2:2:0:0:
41,92,31106,1,0,2:2:0:0:
41,92,31193,1,0,2:2:0:0:
99,152,31365,1,0,2:2:0:0:
22,337,31538,2,0,P|91:323|156:329,1,100,0|0,2:2|2:2,2:2:0:0:
312,384,31882,6,0,P|284:284|315:192,2,200,0|0|0,2:2|2:2|2:2,2:2:0:0:
312,195,32744,1,0,2:2:0:0:
97,197,32917,2,0,P|166:211|231:205,1,100,0|0,2:2|2:2,2:2:0:0:
217,71,33262,5,0,2:2:0:0:
139,51,33434,1,0,2:2:0:0:
92,114,33606,1,0,2:2:0:0:
165,324,33779,6,0,L|287:288,1,100,0|0,2:2|2:2,2:2:0:0:
425,329,34124,1,0,2:2:0:0:
356,266,34296,1,0,2:2:0:0:
334,357,34469,1,0,2:2:0:0:
509,97,34641,6,0,P|436:105|377:98,1,100,0|0,2:2|2:2,2:2:0:0:
232,9,34986,2,0,L|245:132,1,100,0|0,2:2|2:2,2:2:0:0:
142,95,35331,2,0,L|155:218,1,100,0|0,2:2|2:2,2:2:0:0:
47,181,35675,1,0,2:2:0:0:
47,181,35848,1,0,2:2:0:0:
188,334,36020,6,0,P|142:314|83:316,1,100,0|0,2:2|2:2,2:2:0:0:
22,361,36365,1,0,2:2:0:0:
278,373,36538,6,0,L|293:204,1,150,0|0,2:2|2:2,2:2:0:0:
294,199,36882,1,0,2:2:0:0:
174,20,37055,5,0,2:2:0:0:
263,73,37227,1,0,2:2:0:0:
462,11,37400,6,0,P|426:99|443:209,2,200,0|0|0,2:2|2:2|2:2,2:2:0:0:
439,200,38262,1,0,2:2:0:0:
311,131,38434,2,0,P|234:123|201:133,1,100,0|0,2:2|2:2,2:2:0:0:
136,354,38779,5,0,2:2:0:0:
47,236,38952,1,0,2:2:0:0:
94,136,39123,1,0,2:2:0:0:
38,42,39296,6,0,P|133:60|246:43,1,200,0|0,2:2|2:2,2:2:0:0:
324,3,39813,1,0,2:2:0:0:
485,222,39986,5,0,2:2:0:0:
461,211,40072,1,0,2:2:0:0:
433,207,40158,2,0,P|386:211|322:236,1,100,0|0,2:2|2:2,2:2:0:0:
240,384,40503,2,0,P|260:341|270:273,1,100,0|0,2:2|2:2,2:2:0:0:
183,128,40848,2,0,P|209:166|263:209,1,100,0|0,2:2|2:2,2:2:0:0:
415,16,41193,5,0,2:2:0:0:
399,91,41365,1,0,2:2:0:0:
164,8,41538,2,0,L|182:127,1,100,0|0,2:2|2:2,2:2:0:0:
183,128,41882,1,0,2:2:0:0:
36,349,42055,6,0,P|98:316|203:335,1,150,0|0,2:2|2:2,2:2:0:0:
193,335,42400,5,0,2:2:0:0:
117,241,42572,1,0,2:2:0:0:
41,147,42744,1,0,2:2:0:0:
313,42,42917,6,0,P|270:60|214:56,1,100,0|0,2:2|2:2,2:2:0:0:
133,7,43262,1,0,2:2:0:0:
253,208,43434,1,0,2:2:0:0:
452,16,43606,6,0,L|446:122,1,100,0|0,2:2|2:2,2:2:0:0:
260,337,43951,2,0,L|254:231,1,100,0|0,2:2|2:2,2:2:0:0:
243,8,44296,5,0,2:2:0:0:
247,80,44641,5,0,2:2:0:0:
44,44,44813,5,0,2:2:0:0:
46,83,44899,1,0,2:2:0:0:
48,123,44985,1,0,2:2:0:0:
151,323,45158,5,0,2:2:0:0:
149,284,45244,1,0,2:2:0:0:
147,244,45330,1,0,2:2:0:0:
247,80,45503,5,0,2:2:0:0:
249,119,45589,1,0,2:2:0:0:
251,159,45675,5,0,2:2:0:0:
365,120,45848,1,0,2:2:0:0:
478,82,46020,1,0,2:2:0:0:
391,11,46193,5,0,2:2:0:0:
391,11,46279,1,0,2:2:0:0:
391,11,46365,1,0,2:2:0:0:
335,236,46538,1,0,2:2:0:0:
126,17,46710,5,0,2:2:0:0:
126,17,46796,1,0,2:2:0:0:
126,17,46882,1,0,2:2:0:0:
246,139,47055,5,0,2:2:0:0:
71,321,47227,1,0,2:2:0:0:
67,281,47313,1,0,2:2:0:0:
63,240,47400,1,0,2:2:0:0:
246,139,47572,1,0,2:2:0:0:
250,179,47658,1,0,2:2:0:0:
254,220,47745,5,0,2:2:0:0:
152,173,47917,1,0,2:2:0:0:
50,127,48089,1,0,2:2:0:0:
63,240,48262,1,0,2:2:0:0:
393,13,48434,5,0,2:2:0:0:
246,139,48606,1,0,2:2:0:0:
289,149,48693,1,0,2:2:0:0:
330,160,48779,1,0,2:2:0:0:
487,198,48951,5,0,2:2:0:0:
409,179,49124,1,0,2:2:0:0:
240,348,49296,1,0,2:2:0:0:
104,107,49469,5,0,2:2:0:0:
113,149,49556,1,0,2:2:0:0:
122,189,49642,1,0,2:2:0:0:
23,21,49813,5,0,2:2:0:0:
268,41,49986,1,0,2:2:0:0:
246,287,50158,1,0,2:2:0:0:
0,267,50330,5,0,2:2:0:0:
3,226,50417,1,0,2:2:0:0:
7,184,50503,1,0,2:2:0:0:
117,379,50675,5,0,2:2:0:0:
136,106,50848,1,0,2:2:0:0:
190,197,51020,1,0,2:2:0:0:
337,13,51193,5,0,2:2:0:0:
510,222,51365,1,0,2:2:0:0:
475,209,51451,1,0,2:2:0:0:
441,197,51538,1,0,2:2:0:0:
261,259,51710,5,0,2:2:0:0:
351,228,51882,1,0,2:2:0:0:
173,291,52055,1,0,2:2:0:0:
211,113,52227,1,0,2:2:0:0:
211,113,52313,1,0,2:2:0:0:
211,113,52400,1,0,2:2:0:0:
434,344,52572,5,0,2:2:0:0:
489,129,52744,1,0,2:2:0:0:
453,136,52830,1,0,2:2:0:0:
418,141,52917,1,0,2:2:0:0:
271,371,53089,1,0,2:2:0:0:
307,364,53175,1,0,2:2:0:0:
342,359,53262,5,0,2:2:0:0:
285,267,53434,1,0,2:2:0:0:
228,175,53606,1,0,2:2:0:0:
181,272,53779,1,0,2:2:0:0:
10,7,53951,5,0,2:2:0:0:
189,69,54124,1,0,2:2:0:0:
150,76,54210,1,0,2:2:0:0:
112,84,54296,1,0,2:2:0:0:
407,113,54469,5,0,2:2:0:0:
228,175,54642,1,0,2:2:0:0:
267,182,54728,1,0,2:2:0:0:
305,190,54814,1,0,2:2:0:0:
157,324,54986,5,0,2:2:0:0:
195,316,55072,1,0,2:2:0:0:
235,309,55158,1,0,2:2:0:0:
486,365,55331,5,0,2:2:0:0:
325,106,55503,1,0,2:2:0:0:
325,106,55675,1,0,2:2:0:0:
164,331,55848,5,0,2:2:0:0:
164,331,55934,1,0,2:2:0:0:
164,331,56020,1,0,2:2:0:0:
149,217,56193,1,0,0:0:0:0:
262,204,56365,1,0,0:0:0:0:
276,316,56538,1,0,0:0:0:0:
38,65,56710,6,0,P|73:75|143:63,1,100
216,24,57055,1,0,0:0:0:0:
51,211,57227,6,0,P|116:194|216:111,1,200
38,65,57744,1,0,0:0:0:0:
38,65,57917,1,0,0:0:0:0:
0,309,58089,6,0,P|35:319|105:307,1,100
177,272,58434,1,0,0:0:0:0:
320,372,58606,5,0,0:0:0:0:
320,372,58693,2,0,L|338:199,1,150
485,262,59124,2,0,L|474:361,1,100
499,45,59469,6,0,P|454:66|395:59,1,100
325,21,59813,1,0,0:0:0:0:
190,203,59986,5,0,0:0:0:0:
190,203,60072,2,0,L|179:48,1,150
335,125,60503,5,0,0:0:0:0:
78,35,60675,2,0,L|92:234,1,200
101,339,61193,1,0,0:0:0:0:
185,124,61365,5,0,2:2:0:0:
188,162,61451,1,0,2:2:0:0:
190,203,61537,1,0,2:2:0:0:
309,28,61710,5,0,0:0:0:0:
198,2,61882,1,0,0:0:0:0:
475,7,62055,5,0,0:0:0:0:
456,36,62141,1,0,0:0:0:0:
441,61,62227,2,0,L|451:171,1,100
460,252,62572,5,0,0:0:0:0:
282,365,62744,2,0,L|263:166,1,200
94,228,63262,2,0,L|104:338,1,100
15,71,63606,5,0,0:0:0:0:
57,150,63779,1,0,0:0:0:0:
219,18,63951,1,0,0:0:0:0:
288,124,64124,5,0,0:0:0:0:
288,124,64210,2,0,P|219:138|134:113,1,150
427,11,64641,2,0,L|417:112,1,100
505,327,64986,6,0,P|457:309|395:317,1,100
324,360,65331,1,0,0:0:0:0:
502,185,65503,2,0,P|413:199|325:266,1,200
192,359,66020,6,0,P|200:308|180:249,1,100
54,110,66365,5,0,0:0:0:0:
54,110,66538,1,0,0:0:0:0:
257,5,66710,1,0,0:0:0:0:
257,5,66882,1,0,0:0:0:0:
452,118,67055,5,0,0:0:0:0:
249,223,67227,1,0,0:0:0:0:
54,110,67400,1,0,0:0:0:0:
24,343,67572,5,0,0:0:0:0:
34,326,67658,1,0,0:0:0:0:
46,308,67744,2,0,P|100:295|173:325,1,120.000004577637
202,383,68089,1,0,0:0:0:0:
362,229,68262,2,0,P|308:242|235:212,1,120.000004577637
352,21,68606,5,0,0:0:0:0:
237,88,68779,1,0,0:0:0:0:
113,41,68951,1,0,0:0:0:0:
446,107,69124,6,0,P|434:178|466:237,1,120.000004577637
512,278,69469,1,0,0:0:0:0:
326,316,69641,5,0,0:0:0:0:
297,328,69727,1,0,0:0:0:0:
265,341,69813,5,0,0:0:0:0:
291,211,69986,1,0,0:0:0:0:
318,82,70158,1,0,0:0:0:0:
172,114,70331,1,0,0:0:0:0:
38,363,70503,6,0,P|63:304|47:249,1,120.000004577637
42,240,70762,1,0,0:0:0:0:
32,232,70848,1,0,0:0:0:0:
226,55,71020,6,0,P|146:71|74:51,1,120.000004577637
359,22,71365,1,0,0:0:0:0:
402,271,71537,1,0,0:0:0:0:
152,315,71710,1,0,0:0:0:0:
475,131,71882,5,0,0:0:0:0:
382,153,72055,1,0,0:0:0:0:
309,293,72227,5,0,0:0:0:0:
402,271,72400,1,0,0:0:0:0:
73,219,72572,6,0,P|127:240|193:231,1,120.000004577637
249,174,72917,1,0,0:0:0:0:
485,319,73089,5,0,2:0:0:0:
481,333,73175,1,0,2:0:0:0:
474,349,73262,2,0,P|393:370|345:361,1,120.000004577637,0|0,2:0|2:0,2:0:0:0:
309,293,73606,1,0,0:0:0:0:
113,384,73779,6,0,L|128:238,1,120.000004577637
37,45,74124,1,0,0:0:0:0:
185,90,74296,1,0,0:0:0:0:
330,32,74469,1,0,0:0:0:0:
0,187,74641,6,0,P|75:165|139:168,1,120.000004577637
215,205,74986,1,0,0:0:0:0:
268,360,75158,5,0,0:0:0:0:
268,360,75244,1,0,0:0:0:0:
268,360,75331,1,0,0:0:0:0:
215,205,75503,1,0,0:0:0:0:
512,278,75675,2,0,P|448:292|391:278,1,120.000004577637
285,34,76020,6,0,P|349:20|406:34,1,120.000004577637
478,82,76365,1,0,0:0:0:0:
348,185,76538,1,0,0:0:0:0:
93,33,76710,5,0,0:0:0:0:
93,33,76882,1,0,0:0:0:0:
219,107,77055,1,0,0:0:0:0:
348,185,77227,1,0,0:0:0:0:
10,363,77400,6,0,P|74:333|152:341,1,120.000004577637
206,360,77744,1,0,0:0:0:0:
106,192,77917,6,0,P|163:232|196:303,1,120.000004577637
206,360,78261,1,0,0:0:0:0:
275,305,78434,1,0,0:0:0:0:
346,355,78606,1,0,0:0:0:0:
490,58,78779,6,0,P|424:90|371:77,1,120.000004577637
315,27,79124,1,0,0:0:0:0:
155,182,79296,2,0,P|205:152|264:158,1,120.000004577637
240,351,79641,5,0,0:0:0:0:
147,295,79813,1,0,0:0:0:0:
55,237,79986,1,0,0:0:0:0:
285,10,80158,6,0,L|268:138,1,120.000004577637
251,248,80503,1,0,0:0:0:0:
432,147,80675,1,0,0:0:0:0:
432,147,80762,1,0,0:0:0:0:
432,147,80848,1,0,0:0:0:0:
416,241,81020,1,0,0:0:0:0:
399,335,81193,1,0,0:0:0:0:
489,303,81365,1,0,0:0:0:0:
251,248,81538,6,0,P|184:251|125:289,1,120.000004577637
131,287,81796,1,0,0:0:0:0:
129,297,81882,1,0,0:0:0:0:
51,55,82055,5,0,0:0:0:0:
109,114,82227,1,0,0:0:0:0:
384,20,82400,5,0,0:0:0:0:
347,183,82572,1,0,0:0:0:0:
311,346,82744,1,0,0:0:0:0:
119,306,82917,5,0,0:0:0:0:
137,210,83089,1,0,0:0:0:0:
235,232,83262,1,0,0:0:0:0:
214,327,83434,1,0,0:0:0:0:
35,114,83606,6,0,P|88:124|182:98,1,120.000004577637
224,62,83951,1,0,0:0:0:0:
484,188,84124,1,0,0:0:0:0:
484,188,84210,1,0,0:0:0:0:
484,188,84296,6,0,P|431:178|337:204,1,120.000004577637
309,265,84641,1,0,0:0:0:0:
360,5,84813,5,0,0:0:0:0:
391,94,84986,1,0,0:0:0:0:
453,21,85158,1,0,0:0:0:0:
499,313,85331,6,0,P|446:323|352:297,1,120.000004577637
249,188,85675,6,0,P|302:178|396:204,1,120.000004577637
439,236,86020,1,0,0:0:0:0:
496,35,86193,5,0,0:0:0:0:
496,35,86279,1,0,0:0:0:0:
496,35,86365,1,0,0:0:0:0:
332,74,86538,1,0,0:0:0:0:
170,30,86710,1,0,0:0:0:0:
218,190,86882,1,0,0:0:0:0:
17,350,87055,6,0,P|68:328|138:331,1,120.000004577637
218,190,87400,2,0,P|262:223|294:285,1,120.000004577637
293,370,87744,1,0,0:0:0:0:
494,133,87917,5,0,0:0:0:0:
494,133,88003,1,0,0:0:0:0:
494,133,88089,1,0,0:0:0:0:
401,251,88262,1,0,0:0:0:0:
356,0,88434,6,0,L|379:136,1,120.000004577637
401,251,88779,1,0,0:0:0:0:
170,47,88951,6,0,L|216:176,1,120.000004577637
259,287,89296,1,0,0:0:0:0:
264,21,89469,5,0,0:0:0:0:
293,132,89641,1,0,0:0:0:0:
86,316,89813,5,0,0:0:0:0:
115,205,89985,1,0,0:0:0:0:
193,384,90158,5,0,0:0:0:0:
222,273,90330,1,0,0:0:0:0:
414,356,90503,1,0,0:0:0:0:
414,356,90675,1,0,0:0:0:0:
498,106,90848,5,0,0:0:0:0:
463,125,90934,1,0,0:0:0:0:
428,145,91020,1,0,0:0:0:0:
394,166,91106,1,0,0:0:0:0:
360,186,91193,6,0,L|241:163,1,100
106,133,91538,1,0,0:0:0:0:
215,35,91710,1,0,2:2:0:0:
246,269,91882,2,0,L|127:246,1,100
215,35,92227,1,0,2:2:0:0:
440,274,92399,5,0,2:2:0:0:
440,274,92486,1,0,2:2:0:0:
440,274,92572,2,0,P|424:225|422:157,1,100,0|0,2:2|2:2,2:2:0:0:
442,92,92917,1,0,2:2:0:0:
215,35,93089,6,0,P|230:83|232:151,1,100,0|0,2:2|2:2,2:2:0:0:
170,215,93434,1,0,2:2:0:0:
61,207,93606,1,0,2:2:0:0:
18,116,93779,1,0,2:2:0:0:
291,0,93951,6,0,P|316:82|320:199,1,200,0|0,2:2|2:2,2:2:0:0:
484,4,94468,1,0,2:2:0:0:
484,4,94555,1,0,2:2:0:0:
484,4,94641,1,0,2:2:0:0:
387,47,94813,1,0,2:2:0:0:
508,283,94986,2,0,P|450:274|404:278,1,100
143,362,95331,5,0,0:0:0:0:
308,236,95503,1,0,0:0:0:0:
190,176,95676,1,0,0:0:0:0:
276,51,95848,2,0,P|220:67|60:63,1,200
7,4,96365,1,0,2:2:0:0:
45,295,96537,5,0,2:2:0:0:
67,315,96624,1,0,2:2:0:0:
99,321,96710,2,0,P|155:308|202:261,1,100,0|0,2:2|2:2,2:2:0:0:
351,83,97055,6,0,L|338:183,1,100,0|0,2:2|2:2,2:2:0:0:
178,28,97399,2,0,L|191:128,1,100,0|0,2:2|2:2,2:2:0:0:
224,354,97744,5,0,2:2:0:0:
208,248,97917,1,0,2:2:0:0:
508,338,98089,6,0,P|456:348|395:331,1,100,0|0,2:2|2:2,2:2:0:0:
333,293,98434,1,0,2:2:0:0:
485,62,98606,5,0,2:2:0:0:
485,62,98692,1,0,2:2:0:0:
485,62,98779,1,0,2:2:0:0:
411,177,98951,1,0,2:2:0:0:
141,10,99124,2,0,L|156:126,1,100,0|0,2:2|2:2,2:2:0:0:
60,331,99468,6,0,P|154:360|248:332,2,200,0|0|0,2:2|2:2|2:2,2:2:0:0:
248,332,100330,1,0,2:2:0:0:
106,162,100503,2,0,P|153:148|200:163,1,100,0|0,2:2|2:2,2:2:0:0:
248,332,100848,5,0,2:0:0:0:
290,111,101020,1,0,2:0:0:0:
509,154,101193,1,0,2:0:0:0:
466,373,101365,6,0,L|452:262,1,100,0|0,2:2|2:2,2:2:0:0:
418,56,101710,1,0,2:2:0:0:
377,157,101882,1,0,2:2:0:0:
335,259,102055,1,0,2:2:0:0:
42,73,102227,6,0,P|93:84|157:74,1,100,0|0,2:2|2:2,2:2:0:0:
292,10,102572,6,0,L|280:128,1,100,0|0,2:2|2:2,2:2:0:0:
122,265,102917,2,0,L|134:147,1,100,0|0,2:2|2:2,2:2:0:0:
148,0,103261,5,0,2:2:0:0:
273,193,103434,1,0,2:2:0:0:
512,48,103606,6,0,P|466:68|407:66,1,100,0|0,2:2|2:2,2:2:0:0:
354,17,103951,1,0,2:2:0:0:
512,269,104124,6,0,L|328:250,1,150,0|0,2:2|2:2,2:2:0:0:
335,250,104468,1,0,2:2:0:0:
81,294,104641,5,0,2:2:0:0:
137,205,104813,1,0,2:2:0:0:
29,29,104986,6,0,P|117:65|227:48,2,200,0|0|0,2:2|2:2|2:2,2:2:0:0:
137,205,105848,1,0,2:2:0:0:
344,151,106020,2,0,P|267:143|234:153,1,100,0|0,2:2|2:2,2:2:0:0:
303,342,106365,5,0,2:2:0:0:
467,264,106538,1,0,2:2:0:0:
510,139,106709,1,0,2:2:0:0:
500,43,106882,6,0,P|405:61|292:44,1,200,0|0,2:2|2:2,2:2:0:0:
236,0,107399,1,0,2:2:0:0:
43,200,107572,5,0,2:2:0:0:
67,189,107658,1,0,2:2:0:0:
95,185,107744,2,0,P|142:189|206:214,1,100,0|0,2:2|2:2,2:2:0:0:
284,384,108089,2,0,P|263:341|253:273,1,100,0|0,2:2|2:2,2:2:0:0:
361,120,108434,2,0,P|334:158|280:201,1,100,0|0,2:2|2:2,2:2:0:0:
35,43,108779,5,0,2:2:0:0:
121,88,108951,1,0,2:2:0:0:
20,327,109124,2,0,L|131:306,1,100,0|0,2:2|2:2,2:2:0:0:
135,304,109468,1,0,2:2:0:0:
362,363,109641,2,0,P|355:281|403:204,1,150,0|0,2:2|2:2,2:2:0:0:
402,204,109986,5,0,2:2:0:0:
276,105,110158,1,0,2:2:0:0:
133,177,110330,1,0,2:2:0:0:
263,372,110503,6,0,P|313:373|362:363,1,100
449,322,110848,1,0,0:0:0:0:
449,322,111020,1,0,0:0:0:0:
479,105,111193,6,0,L|376:124,1,100
162,270,111538,2,0,L|265:251,1,100
76,52,111882,5,0,0:0:0:0:
76,52,112055,1,0,0:0:0:0:
82,231,112227,5,0,0:0:0:0:
163,100,112400,1,0,0:0:0:0:
248,361,112572,5,0,0:0:0:0:
325,112,112744,1,0,0:0:0:0:
452,375,112917,5,0,0:0:0:0:
447,330,113003,1,0,0:0:0:0:
443,295,113089,1,0,0:0:0:0:
439,265,113175,1,0,0:0:0:0:
436,242,113262,6,0,P|355:232|296:239,1,100
256,256,113606,1,0,0:0:0:0:
415,70,113779,6,0,P|339:101|292:137,1,100
256,256,114124,1,0,0:0:0:0:
147,18,114296,5,0,0:0:0:0:
63,70,114469,1,0,0:0:0:0:
1,316,114641,6,0,L|110:290,1,100
177,274,114986,1,0,0:0:0:0:
353,232,115158,6,0,L|244:258,1,100
55,155,115503,5,0,0:0:0:0:
222,30,115675,1,0,0:0:0:0:
378,32,115848,1,0,0:0:0:0:
476,91,116020,6,0,L|462:192,1,80
363,311,116365,1,0,0:0:0:0:
363,311,116538,2,0,L|349:210,1,80
332,98,116882,5,0,0:0:0:0:
256,124,117055,1,0,0:0:0:0:
176,126,117227,1,0,0:0:0:0:
65,34,117400,6,0,L|72:130,1,80
128,295,117744,2,0,L|122:215,1,80
65,34,118089,2,0,L|72:130,1,80
11,273,118434,1,0,0:0:0:0:
40,194,118606,1,0,0:0:0:0:
51,380,118779,6,0,L|143:367,1,80
214,357,119124,1,0,0:0:0:0:
377,380,119296,6,0,L|285:367,1,80
269,273,119641,5,0,0:0:0:0:
348,284,119813,1,0,0:0:0:0:
427,295,119986,1,0,0:0:0:0:
503,147,120158,6,0,L|411:160,1,80
244,102,120503,2,0,L|336:89,1,80
409,78,120848,1,0,0:0:0:0:
292,220,121193,6,0,L|212:231,1,80
52,106,121538,6,0,L|132:117,1,80
205,37,121882,1,0,0:0:0:0:
205,37,122055,2,0,L|285:26,1,80
403,5,122400,5,0,0:0:0:0:
383,82,122572,1,0,0:0:0:0:
405,158,122744,1,0,0:0:0:0:
494,251,122918,6,0,L|401:267,1,80
298,384,123262,2,0,L|391:368,1,80
494,251,123606,2,0,L|401:267,1,80
332,282,123952,1,0,0:0:0:0:
332,282,124124,1,0,0:0:0:0:
181,183,124296,6,0,L|274:167,1,80
343,152,124642,1,0,0:0:0:0:
361,46,124813,6,0,L|268:62,1,80
343,152,125159,1,0,0:0:0:0:
427,135,125330,1,0,0:0:0:0:
511,118,125503,1,0,0:0:0:0:
453,271,125675,6,0,L|360:287,1,80
277,241,126020,2,0,L|184:257,1,80
108,274,126365,5,0,0:0:0:0:
87,70,126710,6,0,P|120:92|175:81,1,80
217,29,127055,1,0,0:0:0:0:
