osu file format v14

[General]
AudioFilename: audio.mp3
AudioLeadIn: 0
PreviewTime: 23233
Countdown: 0
SampleSet: Soft
StackLeniency: 0.7
Mode: 0
LetterboxInBreaks: 0
WidescreenStoryboard: 1

[Editor]
DistanceSpacing: 1
BeatDivisor: 4
GridSize: 16
TimelineZoom: 3.499999

[Metadata]
Title:Nanatsu Hiiragisuikou
TitleUnicode:七つ柊水光
Artist:A.SAKA
ArtistUnicode:A.SAKA
Creator:Hollow Wings
Version:Standard
Source:
Tags:Houshou Hari Houshou_Hari Pata-Mon SuperBox 木製みゅーと mokuse mute 神楽ノ花 kagura no hana FA Featured Artist electronic instrumental
BeatmapID:3397818
BeatmapSetID:1650533

[Difficulty]
HPDrainRate:4
CircleSize:3
OverallDifficulty:5.5
ApproachRate:5
SliderMultiplier:0.999999999999999
SliderTickRate:1

[Events]
//Background and Video events
0,0,"BG.jpg",0,0
//Break Periods
//Storyboard Layer 0 (Background)
//Storyboard Layer 1 (Fail)
//Storyboard Layer 2 (Pass)
//Storyboard Layer 3 (Foreground)
//Storyboard Layer 4 (Overlay)
//Storyboard Sound Samples

[TimingPoints]
-678,352.941176470588,4,2,1,50,1,0
733,352.941176470588,4,2,1,60,1,0
12026,-100,4,2,1,70,0,0
17674,-100,4,3,1,70,0,0
21909,-100,4,3,1,80,0,0
23321,-100,4,3,1,100,0,1
33732,-100,4,3,1,90,0,0
34615,-100,4,3,1,100,0,1
45909,-100,4,3,1,60,0,0
57203,-100,4,3,1,70,0,0
68497,-100,4,3,1,80,0,1
68674,-100,4,3,1,80,0,0
79791,-100,4,3,1,80,0,1
79968,-100,4,3,1,80,0,0
88262,-100,4,3,1,70,0,0
93909,-100,4,2,1,80,0,0
105203,-100,4,2,1,90,0,0
116497,-100,4,3,1,80,0,0
117909,-100,4,3,1,70,0,0
119321,-100,4,3,1,90,0,1
129732,-100,4,3,1,80,0,0
130615,-100,4,3,1,90,0,1
141732,-100,4,3,1,90,0,0
141909,-100,4,3,1,100,0,1
152321,-100,4,3,1,90,0,0
153203,-100,4,3,1,100,0,1
164497,-100,4,3,1,60,0,0
172262,504.201680672269,4,3,1,60,1,0
173270,-100,4,3,1,50,0,0

[Colours]
Combo1 : 102,204,0
Combo2 : 117,186,255
Combo3 : 0,145,206
Combo4 : 255,255,106
Combo5 : 252,201,24
Combo6 : 173,255,91

[HitObjects]
451,357,380,6,0,L|459:307,1,50,0|0,0:0|0:0,0:0:0:0:
436,261,733,6,0,P|440:188|484:129,2,150,2|2|0,0:1|3:2|0:0,0:0:0:0:
360,327,2144,6,0,L|210:340,1,150,2|2,3:2|3:2,0:0:0:0:
61,355,3203,2,0,L|81:309,1,50,0|2,0:0|3:2,0:0:0:0:
67,260,3556,6,0,P|134:227|206:239,1,150,2|0,0:1|0:0,0:0:0:0:
356,235,4615,1,0,0:0:0:0:
421,159,4968,6,0,L|403:60,1,99.9999999999999,2|0,3:2|0:0,0:0:0:0:
357,39,5497,1,2,3:2:0:0:
207,48,6027,2,0,L|245:80,1,50,0|0,0:0|0:0,0:0:0:0:
249,129,6380,6,0,P|174:130|107:99,1,150,2|2,0:1|3:2,0:0:0:0:
27,226,7438,2,0,L|10:273,1,50,0|2,0:0|3:2,0:0:0:0:
31,318,7791,6,0,P|95:281|138:220,1,150,2|0,3:2|0:0,0:0:0:0:
188,223,8497,1,0,0:0:0:0:
199,322,8850,1,0,0:0:0:0:
296,298,9203,6,0,P|368:317|427:362,1,150,2|2,0:1|3:2,0:0:0:0:
478,220,10262,1,0,0:0:0:0:
383,187,10615,6,0,L|285:210,1,99.9999999999999,2|0,3:2|0:0,0:0:0:0:
237,198,11144,1,2,3:2:0:0:
202,52,11674,2,0,L|251:48,1,50,2|2,0:0|3:2,0:0:0:0:
296,25,12027,6,0,P|345:81|416:105,1,150,2|2,0:1|3:2,0:0:0:0:
469,246,13085,1,2,3:2:0:0:
388,305,13438,6,0,L|238:317,1,150,2|2,3:2|3:2,0:0:0:0:
205,280,14144,1,2,3:2:0:0:
131,347,14497,2,0,L|83:361,1,50,2|2,3:2|3:2,0:0:0:0:
39,335,14850,6,0,P|66:265|63:191,1,150,2|2,3:2|3:2,0:0:0:0:
36,43,15909,1,2,3:2:0:0:
134,26,16262,6,0,L|117:124,1,99.9999999999999,2|2,3:2|3:2,0:0:0:0:
145,165,16791,1,2,3:2:0:0:
256,64,17321,2,0,L|299:89,1,50,2|2,3:2|3:2,0:0:0:0:
322,133,17674,6,0,L|299:230,1,99.9999999999999,2|2,0:2|0:0,0:0:0:0:
210,277,18380,2,0,L|232:374,1,99.9999999999999,2|2,0:0|0:2,0:0:0:0:
275,347,18909,1,0,0:0:0:0:
324,352,19085,6,0,P|397:343|457:299,1,150,2|2,0:0|0:2,0:0:0:0:
485,203,19968,1,0,0:0:0:0:
388,227,20321,1,2,0:2:0:0:
341,208,20497,6,0,L|413:138,1,99.9999999999999,2|2,0:0|0:0,0:0:0:0:
364,51,21203,2,0,L|265:66,1,99.9999999999999,2|2,0:0|0:0,0:0:0:0:
193,136,21909,6,0,P|181:184|156:227,1,99.9999999999999,10|10,0:0|0:0,0:0:0:0:
74,169,22615,2,0,P|51:124|42:75,1,99.9999999999999,10|10,0:0|0:0,0:0:0:0:
126,35,23321,6,0,L|194:41,1,50,6|2,0:2|0:0,0:0:0:0:
206,78,23674,2,0,P|279:59|341:18,1,150,8|2,0:0|0:0,0:0:0:0:
389,30,24380,1,10,0:0:0:0:
473,83,24732,2,0,L|487:181,1,99.9999999999999,2|10,0:0|0:0,0:0:0:0:
460,224,25262,1,2,0:0:0:0:
360,213,25615,1,2,0:0:0:0:
338,168,25791,2,0,L|289:155,1,50,10|2,0:0|0:0,0:0:0:0:
267,201,26144,6,0,L|274:250,1,50,6|2,0:0|0:0,0:0:0:0:
246,291,26497,2,0,P|184:333|111:345,1,150,10|2,0:0|0:0,0:0:0:0:
79,306,27203,1,10,0:0:0:0:
127,218,27556,2,0,L|173:199,1,50,2|2,0:0|0:0,0:0:0:0:
171,149,27909,2,0,L|122:139,1,50,10|2,0:0|0:0,0:0:0:0:
49,70,28438,1,2,0:0:0:0:
90,42,28615,2,0,L|139:37,1,50,10|2,0:0|0:0,0:0:0:0:
189,28,28968,6,0,P|221:65|266:87,1,99.9999999999999,2|10,0:0|0:0,0:0:0:0:
285,133,29497,1,0,0:0:0:0:
284,233,29850,1,2,0:0:0:0:
298,280,30027,2,0,L|346:293,1,50,10|2,0:0|0:1,0:0:0:0:
382,326,30380,6,0,P|421:296|451:256,1,99.9999999999999,2|10,0:0|0:0,0:0:0:0:
490,164,31085,2,0,P|476:116|452:72,1,99.9999999999999,2|10,0:0|0:0,0:0:0:0:
352,68,31791,6,0,P|324:163|314:263,1,200,2|2,0:0|0:0,0:0:0:0:
250,340,32850,1,10,0:0:0:0:
224,242,33203,6,0,P|215:194|193:149,1,99.9999999999999,2|10,0:0|0:0,0:0:0:0:
207,101,33732,1,10,0:0:0:0:
243,8,34085,1,10,0:0:0:0:
192,5,34262,2,0,L|147:27,1,50,2|10,0:0|0:0,0:0:0:0:
97,33,34615,6,0,L|47:28,1,50,6|2,0:2|0:0,0:0:0:0:
49,78,34968,2,0,P|56:152|41:225,1,150,10|2,0:0|0:0,0:0:0:0:
65,269,35674,1,10,0:0:0:0:
73,368,36027,2,0,P|122:364|167:343,1,99.9999999999999,2|10,0:0|0:0,0:0:0:0:
174,293,36556,1,0,0:0:0:0:
270,265,36909,1,2,0:0:0:0:
300,304,37085,2,0,L|305:353,1,50,10|2,0:0|0:0,0:0:0:0:
355,348,37438,6,0,L|404:335,1,50,6|2,0:0|0:0,0:0:0:0:
451,348,37791,2,0,P|479:278|485:204,1,150,10|2,0:0|0:0,0:0:0:0:
437,189,38497,5,10,0:0:0:0:
467,94,38850,2,0,L|423:70,1,50,2|2,0:0|0:0,0:0:0:0:
385,103,39203,2,0,L|347:135,1,50,10|2,0:0|0:0,0:0:0:0:
320,38,39732,1,2,0:0:0:0:
277,64,39909,2,0,L|227:64,1,50,10|2,0:0|0:0,0:0:0:0:
185,35,40262,6,0,P|165:80|157:129,1,99.9999999999999,2|10,0:0|0:0,0:0:0:0:
186,170,40791,1,0,0:0:0:0:
86,181,41144,1,2,0:0:0:0:
56,221,41321,2,0,L|66:269,1,50,10|2,0:0|0:1,0:0:0:0:
116,275,41674,6,0,P|153:307|183:347,1,99.9999999999999,2|10,0:0|0:0,0:0:0:0:
232,333,42203,2,0,P|252:288|259:239,1,99.9999999999999,0|2,0:0|0:0,0:0:0:0:
248,190,42732,2,0,L|289:161,1,50,10|2,0:0|0:0,0:0:0:0:
337,173,43085,6,0,P|382:192|424:220,1,99.9999999999999,2|10,0:0|0:0,0:0:0:0:
473,207,43615,1,0,0:0:0:0:
435,114,43968,1,2,0:0:0:0:
399,79,44144,2,0,L|349:82,1,50,10|2,0:0|0:0,0:0:0:0:
329,129,44497,6,0,P|282:145|233:143,1,99.9999999999999,2|10,0:0|0:0,0:0:0:0:
200,181,45027,1,2,0:0:0:0:
100,194,45380,1,2,0:0:0:0:
100,94,45732,1,2,0:0:0:0:
128,51,45909,6,0,L|226:35,1,99.9999999999999,6|8,0:2|0:0,0:0:0:0:
325,54,46615,2,0,L|346:151,1,99.9999999999999,2|8,0:0|0:0,0:0:0:0:
304,236,47321,6,0,L|206:257,1,99.9999999999999,2|8,0:0|0:0,0:0:0:0:
160,235,47850,1,2,0:0:0:0:
161,334,48203,1,2,0:0:0:0:
206,354,48380,2,0,L|254:341,1,50,8|2,0:0|0:0,0:0:0:0:
299,317,48732,6,0,L|396:338,1,99.9999999999999,2|8,0:0|0:0,0:0:0:0:
479,281,49438,2,0,L|500:183,1,99.9999999999999,2|8,0:0|0:0,0:0:0:0:
446,99,50144,6,0,L|348:77,1,99.9999999999999,2|8,0:0|0:0,0:0:0:0:
329,31,50674,1,2,0:0:0:0:
229,26,51027,2,0,L|241:74,1,50,2|8,0:0|0:0,0:0:0:0:
145,101,51556,6,0,L|123:198,1,99.9999999999999,6|8,0:2|0:0,0:0:0:0:
153,294,52262,2,0,L|248:263,1,99.9999999999999,2|8,0:0|0:0,0:0:0:0:
317,191,52968,6,0,L|242:123,1,99.9999999999999,2|8,0:0|0:0,0:0:0:0:
241,74,53497,1,2,0:0:0:0:
326,22,53850,1,2,0:0:0:0:
374,35,54027,2,0,L|361:83,1,50,8|2,0:0|0:0,0:0:0:0:
391,123,54380,6,0,L|316:190,1,99.9999999999999,2|8,0:0|0:0,0:0:0:0:
235,248,55085,2,0,L|213:150,1,99.9999999999999,2|8,0:0|0:0,0:0:0:0:
226,50,55791,6,0,L|274:62,2,50,2|2|8,0:0|0:0|0:0,0:0:0:0:
177,61,56321,1,2,0:0:0:0:
77,65,56674,1,2,0:0:0:0:
46,104,56850,2,0,L|94:116,1,50,8|2,0:0|0:0,0:0:0:0:
108,164,57203,6,0,P|81:205|45:240,1,99.9999999999999,6|8,0:2|0:0,0:0:0:0:
44,290,57732,2,0,P|68:333|105:366,1,99.9999999999999,2|2,0:0|0:0,0:0:0:0:
153,350,58262,2,0,L|153:300,1,50,8|2,0:0|0:0,0:0:0:0:
166,250,58615,6,0,P|212:233|262:229,1,99.9999999999999,2|8,0:0|0:0,0:0:0:0:
276,328,59321,2,0,P|322:345|372:349,1,99.9999999999999,2|8,0:0|0:0,0:0:0:0:
472,357,60027,6,0,L|458:257,1,99.9999999999999,2|8,0:0|0:0,0:0:0:0:
358,249,60732,2,0,L|382:151,1,99.9999999999999,2|8,0:0|0:0,0:0:0:0:
432,144,61262,1,2,0:0:0:0:
460,102,61438,6,0,P|431:62|392:32,1,99.9999999999999,2|8,0:0|0:0,0:0:0:0:
314,96,62144,1,2,0:0:0:0:
239,29,62497,2,0,L|223:76,1,50,8|2,0:0|0:0,0:0:0:0:
227,126,62850,6,0,L|287:205,1,99.9999999999999,6|8,0:2|0:0,0:0:0:0:
221,281,63556,2,0,L|141:341,1,99.9999999999999,2|8,0:0|0:0,0:0:0:0:
69,271,64262,6,0,L|8:191,1,99.9999999999999,2|8,0:0|0:0,0:0:0:0:
75,116,64968,2,0,L|154:55,1,99.9999999999999,2|8,0:0|0:0,0:0:0:0:
183,96,65497,1,2,0:0:0:0:
178,144,65674,6,0,P|162:192|156:241,1,99.9999999999999,2|8,0:0|0:0,0:0:0:0:
131,339,66380,2,0,P|179:328|223:304,1,99.9999999999999,2|8,0:0|0:0,0:0:0:0:
239,256,66909,1,2,0:0:0:0:
287,245,67085,6,0,L|336:241,1,50,2|2,0:0|0:0,0:0:0:0:
380,265,67438,1,2,0:0:0:0:
462,320,67791,1,2,0:0:0:0:
463,219,68144,2,0,L|466:169,1,50,10|10,0:0|0:0,0:0:0:0:
484,122,68497,6,0,P|435:117|387:102,1,99.9999999999999,6|10,0:2|0:0,0:0:0:0:
311,35,69203,2,0,P|263:22|213:21,1,99.9999999999999,2|10,0:0|0:0,0:0:0:0:
168,42,69732,1,2,0:0:0:0:
117,33,69909,6,0,P|84:69|41:95,1,99.9999999999999,2|10,0:0|0:0,0:0:0:0:
25,142,70438,2,0,P|74:149|123:142,1,99.9999999999999,2|2,0:0|0:0,0:0:0:0:
172,154,70968,2,0,L|192:199,1,50,10|2,0:0|0:0,0:0:0:0:
173,244,71321,6,0,P|123:243|73:234,1,99.9999999999999,2|10,0:0|0:0,0:0:0:0:
68,334,72027,2,0,P|118:336|168:330,1,99.9999999999999,2|10,0:0|0:0,0:0:0:0:
250,273,72732,6,0,P|279:315|298:361,1,99.9999999999999,2|10,0:0|0:0,0:0:0:0:
342,338,73262,2,0,P|391:339|440:351,1,99.9999999999999,2|2,0:0|0:0,0:0:0:0:
481,323,73791,2,0,L|468:274,1,50,10|2,0:0|0:0,0:0:0:0:
419,261,74144,6,0,P|443:217|475:178,1,99.9999999999999,6|10,0:2|0:0,0:0:0:0:
442,140,74674,2,0,P|396:158|356:187,1,99.9999999999999,0|2,0:0|0:0,0:0:0:0:
312,211,75203,2,0,L|296:163,1,50,10|2,0:0|0:0,0:0:0:0:
307,113,75556,6,0,P|284:68|252:29,1,99.9999999999999,2|10,0:0|0:0,0:0:0:0:
155,55,76262,2,0,P|106:42|56:40,1,99.9999999999999,2|10,0:0|0:0,0:0:0:0:
30,137,76968,6,0,P|79:140|129:135,1,99.9999999999999,2|10,0:0|0:0,0:0:0:0:
179,143,77497,1,0,0:0:0:0:
215,177,77674,2,0,L|224:226,1,50,2|2,0:0|0:0,0:0:0:0:
259,261,78027,2,0,L|306:276,1,50,10|2,0:0|0:0,0:0:0:0:
341,239,78380,6,0,P|323:192|298:148,1,99.9999999999999,2|10,0:0|0:0,0:0:0:0:
269,106,78909,2,0,P|291:60|323:22,1,99.9999999999999,2|2,0:0|0:0,0:0:0:0:
373,28,79438,2,0,L|420:43,1,50,10|2,0:0|0:0,0:0:0:0:
468,57,79791,6,0,P|426:84|379:101,1,99.9999999999999,6|10,0:2|0:0,0:0:0:0:
427,189,80497,2,0,P|464:221|494:262,1,99.9999999999999,2|10,0:0|0:0,0:0:0:0:
474,308,81027,1,2,0:0:0:0:
446,350,81203,6,0,P|411:314|384:272,1,99.9999999999999,2|10,0:0|0:0,0:0:0:0:
339,297,81732,2,0,P|291:286|241:282,1,99.9999999999999,0|2,0:0|0:0,0:0:0:0:
192,293,82262,2,0,L|181:341,1,50,10|2,0:0|0:0,0:0:0:0:
131,349,82615,6,0,P|83:362|34:363,1,99.9999999999999,2|10,0:0|0:0,0:0:0:0:
8,319,83144,2,0,P|48:287|92:265,1,99.9999999999999,0|2,0:0|0:0,0:0:0:0:
109,217,83674,2,0,L|149:187,1,50,10|2,0:0|0:0,0:0:0:0:
117,146,84027,6,0,P|70:133|20:132,1,99.9999999999999,2|10,0:0|0:0,0:0:0:0:
17,31,84732,2,0,P|66:38|111:58,1,99.9999999999999,2|10,0:0|0:0,0:0:0:0:
197,108,85438,6,0,P|239:79|273:43,1,99.9999999999999,6|10,0:2|0:0,0:0:0:0:
319,25,85968,2,0,P|369:33|417:46,1,99.9999999999999,0|2,0:0|0:0,0:0:0:0:
452,82,86497,2,0,L|421:120,1,50,10|2,0:0|0:0,0:0:0:0:
403,167,86850,6,0,P|359:144|310:132,1,99.9999999999999,2|10,0:0|0:0,0:0:0:0:
340,227,87556,2,0,P|352:276|359:325,1,99.9999999999999,2|10,0:0|0:0,0:0:0:0:
269,369,88262,6,0,P|262:320|265:270,1,99.9999999999999,2|10,0:0|0:0,0:0:0:0:
250,223,88791,1,0,0:0:0:0:
156,187,89144,1,2,0:0:0:0:
144,235,89321,2,0,L|173:275,1,50,10|2,0:0|0:0,0:0:0:0:
140,314,89674,6,0,P|93:328|48:350,1,99.9999999999999,2|10,0:0|0:0,0:0:0:0:
26,305,90203,1,2,0:0:0:0:
30,255,90380,2,0,L|54:211,1,50,2|0,0:0|0:0,0:0:0:0:
61,161,90732,2,0,L|52:102,1,50,10|2,0:0|0:0,0:0:0:0:
94,81,91085,6,0,P|143:84|192:96,1,99.9999999999999,2|10,0:0|0:0,0:0:0:0:
226,132,91615,1,0,0:0:0:0:
325,141,91968,1,2,0:0:0:0:
353,100,92144,2,0,L|402:90,1,50,10|2,0:0|0:0,0:0:0:0:
445,114,92497,6,0,P|468:70|482:23,2,99.9999999999999,2|2|2,0:0|0:0|0:0,0:0:0:0:
397,203,93556,2,0,L|390:252,1,50,6|2,0:2|0:2,0:0:0:0:
417,294,93909,5,6,3:2:0:0:
352,370,94262,1,8,0:1:0:0:
293,288,94615,1,0,0:0:0:0:
203,332,94968,2,0,L|153:339,1,50,2|8,3:2|0:1,0:0:0:0:
112,368,95321,5,2,3:2:0:0:
12,373,95674,1,8,0:1:0:0:
16,273,96027,2,0,L|3:173,1,99.9999999999999,8|8,0:1|0:1,0:0:0:0:
9,73,96732,5,2,3:2:0:0:
103,105,97085,1,8,0:1:0:0:
184,47,97438,2,0,L|199:145,1,99.9999999999999,8|2,0:1|3:2,0:0:0:0:
156,236,98144,5,8,0:1:0:0:
172,334,98497,1,8,0:1:0:0:
271,352,98850,1,8,0:1:0:0:
308,318,99027,2,0,L|290:271,2,50,8|6|2,0:1|3:2|0:3,0:0:0:0:
357,326,99556,5,6,3:2:0:0:
454,349,99909,1,8,0:1:0:0:
426,252,100262,1,8,0:1:0:0:
455,156,100615,2,0,L|429:112,1,50,2|8,3:2|0:1,0:0:0:0:
444,65,100968,5,2,3:2:0:0:
356,16,101321,1,8,0:1:0:0:
268,64,101674,2,0,L|262:163,1,99.9999999999999,8|2,0:1|3:2,0:0:0:0:
359,185,102380,5,2,3:2:0:0:
285,252,102732,2,0,L|240:273,1,50,8|2,0:1|3:2,0:0:0:0:
205,237,103085,1,8,0:1:0:0:
171,331,103438,2,0,L|121:336,1,50,2|8,3:2|0:1,0:0:0:0:
84,302,103791,6,0,L|9:368,2,99.9999999999999,8|8|2,0:1|0:1|3:2,0:0:0:0:
37,282,104674,2,0,L|22:234,1,50,8|6,0:1|3:2,0:0:0:0:
68,214,105027,1,2,0:3:0:0:
79,164,105203,6,0,L|28:79,1,99.9999999999999,6|8,3:2|0:1,0:0:0:0:
106,16,105909,2,0,L|195:62,1,99.9999999999999,8|2,0:1|3:2,0:0:0:0:
171,106,106438,1,8,0:1:0:0:
178,155,106615,6,0,L|153:251,1,99.9999999999999,2|8,3:2|0:1,0:0:0:0:
174,349,107321,2,0,L|273:352,1,99.9999999999999,8|2,0:1|3:2,0:0:0:0:
373,343,108027,6,0,L|358:231,1,99.9999999999999,2|8,3:2|0:1,0:0:0:0:
457,225,108732,2,0,L|476:126,1,99.9999999999999,8|2,0:1|3:2,0:0:0:0:
500,82,109262,1,8,0:1:0:0:
475,38,109438,6,0,L|425:46,1,50,2|8,3:2|0:1,0:0:0:0:
394,84,109791,1,8,0:1:0:0:
309,31,110144,2,0,L|295:130,1,99.9999999999999,8|6,0:1|3:2,0:0:0:0:
332,164,110674,1,8,0:1:0:0:
342,213,110850,6,0,L|256:264,1,99.9999999999999,6|8,3:2|0:1,0:0:0:0:
225,360,111556,2,0,L|142:303,1,99.9999999999999,8|2,0:1|0:2,0:0:0:0:
113,343,112085,1,2,3:2:0:0:
63,350,112262,6,0,L|26:256,1,99.9999999999999,2|8,3:2|0:1,0:0:0:0:
87,176,112968,2,0,L|181:207,1,99.9999999999999,8|2,0:1|3:2,0:0:0:0:
175,157,113497,1,8,0:1:0:0:
194,110,113674,6,0,L|144:109,1,50,2|8,3:2|0:1,0:0:0:0:
106,75,114027,1,2,3:2:0:0:
178,5,114380,2,0,L|227:5,1,50,2|8,3:2|0:1,0:0:0:0:
270,32,114732,1,2,3:2:0:0:
296,128,115085,6,0,L|277:226,2,99.9999999999999,2|2|2,3:2|3:2|3:2,0:0:0:0:
362,52,116144,2,0,L|395:15,1,50,2|8,3:2|0:1,0:0:0:0:
445,19,116497,5,2,2:0:0:0:
476,114,116850,1,8,0:0:0:0:
388,162,117203,1,10,0:0:0:0:
404,260,117556,2,0,L|361:286,1,50,0|10,0:0|0:0,0:0:0:0:
299,364,118085,6,0,L|257:272,1,99.9999999999999,0|0,0:0|0:0,0:0:0:0:
276,226,118615,1,10,0:0:0:0:
271,176,118791,2,0,L|317:158,2,50,2|8|8,0:2|0:0|0:0,0:0:0:0:
225,197,119321,6,0,L|176:186,1,50,6|2,0:2|0:0,0:0:0:0:
125,187,119674,2,0,P|98:257|92:332,1,150,10|2,0:0|0:0,0:0:0:0:
140,346,120380,1,10,0:0:0:0:
215,280,120732,2,0,P|261:297|302:325,1,99.9999999999999,2|10,0:0|0:0,0:0:0:0:
351,337,121262,1,2,0:0:0:0:
442,296,121615,1,2,0:0:0:0:
470,255,121791,2,0,L|473:205,1,50,10|2,0:0|0:0,0:0:0:0:
424,196,122144,6,0,L|389:231,1,50,6|2,0:0|0:0,0:0:0:0:
339,236,122497,2,0,P|315:164|307:90,1,150,10|2,0:0|0:0,0:0:0:0:
353,108,123203,1,10,0:0:0:0:
452,104,123556,2,0,L|477:60,1,50,2|10,0:0|0:0,0:0:0:0:
436,31,123909,2,0,L|386:23,1,50,10|10,0:0|0:0,0:0:0:0:
288,45,124438,1,2,0:0:0:0:
241,25,124615,2,0,L|202:57,1,50,10|2,0:0|0:0,0:0:0:0:
155,75,124968,6,0,P|109:58|67:31,1,99.9999999999999,6|10,0:2|0:0,0:0:0:0:
21,52,125497,1,2,0:0:0:0:
73,136,125850,1,2,0:0:0:0:
94,180,126027,2,0,L|50:204,1,50,10|2,0:0|0:1,0:0:0:0:
54,253,126380,6,0,P|35:299|30:348,1,99.9999999999999,2|10,0:0|0:0,0:0:0:0:
127,372,127085,2,0,P|145:325|150:276,1,99.9999999999999,2|10,0:0|0:0,0:0:0:0:
199,194,127791,6,0,P|264:269|297:362,1,200,2|2,0:0|0:0,0:0:0:0:
397,360,128850,1,10,0:0:0:0:
488,318,129203,6,0,P|468:273|458:224,1,99.9999999999999,2|10,0:0|0:0,0:0:0:0:
478,177,129732,1,10,0:0:0:0:
402,111,130085,1,10,0:0:0:0:
360,139,130262,2,0,L|365:188,1,50,2|10,0:0|0:0,0:0:0:0:
369,238,130615,6,0,L|319:292,1,50,6|2,0:2|0:0,0:0:0:0:
316,321,130968,2,0,P|258:273|190:242,1,150,10|2,0:0|0:0,0:0:0:0:
181,291,131674,1,10,0:0:0:0:
116,366,132027,2,0,P|72:341|34:308,1,99.9999999999999,2|10,0:0|0:0,0:0:0:0:
78,283,132556,1,2,0:0:0:0:
116,190,132909,1,2,0:0:0:0:
117,139,133085,2,0,L|69:124,1,50,10|2,0:0|0:0,0:0:0:0:
28,95,133438,6,0,L|18:28,1,50,6|2,0:0|0:0,0:0:0:0:
69,32,133791,2,0,P|143:28|213:52,1,150,10|2,0:0|0:0,0:0:0:0:
211,103,134497,1,10,0:0:0:0:
308,79,134850,6,0,L|353:58,1,50,2|10,0:0|0:0,0:0:0:0:
389,23,135203,2,0,L|432:47,1,50,10|10,0:0|0:0,0:0:0:0:
398,141,135732,1,10,0:0:0:0:
447,151,135909,2,0,L|467:196,1,50,10|2,0:0|0:0,0:0:0:0:
470,245,136262,6,0,P|452:292|445:342,1,99.9999999999999,6|10,0:2|0:0,0:0:0:0:
401,366,136791,1,2,0:0:0:0:
361,274,137144,1,2,0:0:0:0:
320,302,137321,2,0,L|315:351,1,50,10|2,0:0|0:1,0:0:0:0:
268,369,137674,6,0,P|238:329|220:282,1,99.9999999999999,2|10,0:0|0:0,0:0:0:0:
291,211,138380,2,0,P|247:186|200:171,1,99.9999999999999,2|10,0:0|0:0,0:0:0:0:
105,204,139085,6,0,P|80:300|19:378,1,200,2|2,0:0|0:0,0:0:0:0:
2,279,140144,1,10,0:0:0:0:
24,180,140497,6,0,P|21:131|9:82,1,99.9999999999999,6|6,0:2|0:2,0:0:0:0:
82,14,141203,2,0,P|116:49|139:93,1,99.9999999999999,6|6,0:2|0:2,0:0:0:0:
232,131,141909,6,0,L|218:179,1,50,6|2,0:2|0:0,0:0:0:0:
193,222,142262,2,0,P|221:292|266:352,1,150,10|2,0:0|0:0,0:0:0:0:
312,334,142968,1,10,0:0:0:0:
403,372,143321,6,0,P|451:362|496:340,1,99.9999999999999,2|10,0:0|0:0,0:0:0:0:
494,290,143850,1,2,0:0:0:0:
394,282,144203,1,10,0:2:0:0:
354,250,144380,2,0,L|340:201,1,50,10|2,0:0|0:0,0:0:0:0:
373,164,144732,6,0,L|422:175,1,50,6|2,0:0|0:0,0:0:0:0:
471,168,145085,2,0,P|454:95|414:32,1,150,10|2,0:0|0:0,0:0:0:0:
378,67,145791,1,10,0:0:0:0:
286,26,146144,6,0,L|236:28,1,50,2|2,0:0|0:0,0:0:0:0:
198,62,146497,2,0,L|148:56,1,50,10|10,0:0|0:0,0:0:0:0:
51,32,147027,1,10,0:2:0:0:
26,76,147203,2,0,L|61:111,1,50,2|10,0:0|0:2,0:0:0:0:
100,140,147556,6,0,P|73:181|38:217,1,99.9999999999999,6|10,0:2|0:0,0:0:0:0:
62,261,148085,1,0,0:0:0:0:
44,359,148438,1,2,0:0:0:0:
93,349,148615,2,0,L|139:367,1,50,10|2,0:0|0:1,0:0:0:0:
186,348,148968,6,0,P|177:298|157:253,1,99.9999999999999,2|10,0:0|0:0,0:0:0:0:
256,264,149674,2,0,P|278:308|312:344,1,99.9999999999999,10|10,0:2|0:0,0:0:0:0:
412,351,150380,6,0,P|452:259|473:162,1,200,2|2,0:0|0:0,0:0:0:0:
454,63,151438,1,10,0:0:0:0:
362,22,151791,6,0,P|313:27|264:39,1,99.9999999999999,2|10,0:0|0:0,0:0:0:0:
231,77,152321,1,10,0:0:0:0:
324,113,152674,1,10,0:2:0:0:
371,128,152850,2,0,L|336:162,1,50,2|10,0:0|0:2,0:0:0:0:
361,205,153203,6,0,L|350:253,1,50,6|2,0:2|0:0,0:0:0:0:
372,298,153556,2,0,P|299:315|233:351,1,150,10|2,0:0|0:0,0:0:0:0:
183,346,154262,1,10,0:0:0:0:
86,375,154615,6,0,P|65:331|52:282,1,99.9999999999999,2|10,0:0|0:0,0:0:0:0:
57,233,155144,1,0,0:0:0:0:
142,180,155497,1,10,0:2:0:0:
105,145,155674,2,0,L|59:125,1,50,10|2,0:0|0:0,0:0:0:0:
40,78,156027,6,0,L|50:29,1,50,6|2,0:0|0:0,0:0:0:0:
99,30,156380,2,0,P|161:73|212:128,1,150,10|2,0:0|0:0,0:0:0:0:
260,144,157085,1,10,0:0:0:0:
266,44,157438,2,0,L|313:28,1,50,2|2,0:0|0:0,0:0:0:0:
357,51,157791,2,0,L|406:49,1,50,10|10,0:0|0:0,0:0:0:0:
506,52,158321,1,10,0:2:0:0:
492,100,158497,2,0,L|454:133,1,50,10|10,0:0|0:2,0:0:0:0:
406,148,158850,6,0,P|414:197|431:243,1,99.9999999999999,6|10,0:2|0:0,0:0:0:0:
472,274,159380,1,2,0:0:0:0:
381,316,159732,1,2,0:0:0:0:
333,301,159909,2,0,L|303:262,1,50,10|2,0:2|0:1,0:0:0:0:
253,249,160262,6,0,P|245:199|244:149,1,99.9999999999999,2|10,0:0|0:0,0:0:0:0:
201,122,160791,2,0,P|162:154|132:193,1,99.9999999999999,2|2,0:0|0:0,0:0:0:0:
96,157,161321,2,0,L|76:110,1,50,10|10,0:0|0:2,0:0:0:0:
104,69,161674,6,0,P|66:36|22:13,1,99.9999999999999,2|10,0:0|0:0,0:0:0:0:
5,61,162203,1,2,0:0:0:0:
9,160,162556,1,2,0:0:0:0:
49,188,162732,2,0,L|38:236,1,50,10|2,0:0|0:0,0:0:0:0:
15,281,163085,6,0,P|29:328|58:368,1,99.9999999999999,2|2,0:0|0:0,0:0:0:0:
88,328,163615,1,2,0:0:0:0:
123,234,163968,1,2,0:0:0:0:
205,289,164321,1,2,0:0:0:0:
194,338,164497,6,0,P|267:325|341:335,1,150,6|0,0:2|0:0,0:0:0:0:
388,354,165203,2,0,P|432:330|471:300,1,99.9999999999999,0|0,0:0|0:0,0:0:0:0:
411,219,165909,6,0,P|336:220|262:232,2,150,2|0|0,0:1|0:0|0:0,0:0:0:0:
477,143,167321,6,0,P|408:117|333:111,1,150,0|0,0:0|0:0,0:0:0:0:
317,63,168027,2,0,P|268:69|221:85,1,99.9999999999999,0|0,0:0|0:0,0:0:0:0:
156,163,168732,6,0,P|84:141|19:103,1,150,2|0,0:1|0:0,0:0:0:0:
154,38,169791,2,0,L|203:35,1,50,0|0,0:0|0:0,0:0:0:0:
222,81,170144,6,0,P|297:78|367:52,1,150,0|0,0:0|0:0,0:0:0:0:
506,108,171203,6,0,P|490:155|465:198,1,99.9999999999999,0|2,0:0|0:1,0:0:0:0:
336,252,172262,6,0,P|249:202|157:162,1,200,0|0,0:0|0:0,0:0:0:0:
