osu file format v14

[General]
AudioFilename: audio.mp3
AudioLeadIn: 0
PreviewTime: 105503
Countdown: 0
SampleSet: Soft
StackLeniency: 0.7
Mode: 0
LetterboxInBreaks: 0
WidescreenStoryboard: 1

[Editor]
Bookmarks: 28651,72808,138368
DistanceSpacing: 1.27
BeatDivisor: 4
GridSize: 32
TimelineZoom: 1.8

[Metadata]
Title:KAGUTSUCHI
TitleUnicode:KAGUTSUCHI
Artist:A.SAKA
ArtistUnicode:A.SAKA
Creator:Nymphe
Version:Expert
Source:osu! World Cup 2023
Tags:owc2023fnm1 finals nomod fa featured artist asaka electronic folk instrumental original Petal -_Matha_- Matha Serdar Kiyoshi Guarden
BeatmapID:4428473
BeatmapSetID:2091775

[Difficulty]
HPDrainRate:5
CircleSize:4.2
OverallDifficulty:9
ApproachRate:9.2
SliderMultiplier:1.75
SliderTickRate:1

[Events]
//Background and Video events
0,0,"owc2023bestbackground.jpg",0,0
//Break Periods
2,79749,89596
//Storyboard Layer 0 (Background)
//Storyboard Layer 1 (Fail)
//Storyboard Layer 2 (Pass)
//Storyboard Layer 3 (Foreground)
//Storyboard Layer 4 (Overlay)
//Storyboard Sound Samples

[TimingPoints]
2022,1090.90909090909,4,2,1,45,1,0
2022,-76.0167236792094,4,2,1,45,0,0
3658,800,4,2,1,55,1,0
4058,774.193548387097,4,2,1,55,1,0
4445,685.714285714286,4,2,1,55,1,0
4787,923.076923076923,4,2,1,65,1,0
5248,1500,4,2,1,65,1,0
5998,709.010339734121,4,2,1,75,1,0
7059,-100,4,2,1,20,0,0
7295,-100,4,2,1,50,0,0
7416,1218.27411167513,4,2,1,55,1,0
7416,-46.5116279069767,4,2,1,55,0,0
8025,1014.79915433404,4,2,1,55,1,0
8025,-51.2820512820513,4,2,1,55,0,0
8532,827.586206896552,4,2,1,55,1,0
8532,-50,4,2,1,55,0,0
8945,695.652173913044,4,2,1,55,1,0
9292,487.80487804878,4,2,1,55,1,0
9292,-83.3333333333333,4,2,1,55,0,0
9535,421.052631578947,4,2,1,55,1,0
9745,342.857142857143,4,2,1,60,1,0
9916,470.588235294118,4,2,1,60,1,0
10033,375,4,2,1,60,1,0
10033,-125,4,2,1,60,0,0
10220,650.406504065041,4,2,1,60,1,0
10220,-61.7283950617284,4,2,1,60,0,0
10545,674.157303370787,4,2,1,60,1,0
10882,797.34219269103,4,2,1,60,1,0
10882,-62.5,4,2,1,60,0,0
11280,888.888888888889,4,2,1,60,1,0
11280,-29.8507462686567,4,2,1,60,0,0
11724,1025.64102564103,4,2,1,60,1,0
11724,-35.0877192982456,4,2,1,60,0,0
12236,1145.03816793893,4,2,1,60,1,0
12236,-57.1428571428571,4,2,1,60,0,0
12808,337.078651685393,4,2,1,65,1,0
12808,-117.647058823529,4,2,1,65,0,0
18199,-117.647058823529,4,2,1,70,0,0
19547,-117.647058823529,4,2,1,75,0,0
23594,-200,4,2,1,75,0,0
23678,-200,4,2,1,35,0,0
24940,-200,4,2,1,25,0,0
26289,-200,4,2,1,30,0,0
27637,-200,4,2,1,40,0,0
28648,-200,4,2,1,50,0,0
28987,337.078651685393,5,2,1,55,1,0
28987,-117.647058823529,5,2,1,55,0,0
32018,-117.647058823529,5,2,1,60,0,0
32355,-117.647058823529,5,2,1,55,0,0
35726,-111.111111111111,5,2,1,65,0,0
42468,-142.857142857143,5,2,1,65,0,0
42636,-142.857142857143,5,2,1,50,0,0
44153,-142.857142857143,5,2,1,55,0,0
44827,-142.857142857143,5,2,1,60,0,0
45501,-99.9999999999999,5,2,1,70,0,0
45838,-105.263157894737,5,2,1,75,0,0
55951,-200,5,2,1,75,0,0
56962,-133.333333333333,5,2,1,75,0,0
57299,-95.2380952380952,5,2,1,75,0,0
57636,-200,5,2,1,75,0,0
58647,-133.333333333333,5,2,1,75,0,0
58984,-95.2380952380952,5,2,1,75,0,0
59996,-100,5,2,1,75,0,0
71456,-100,5,2,1,60,0,0
71793,-100,5,2,1,50,0,0
72131,-100,5,2,1,60,0,0
72468,-100,5,2,1,75,0,0
72805,-100,5,2,1,80,0,0
74322,-100,5,2,1,55,0,0
74490,-100,5,2,1,70,0,0
76007,-100,5,2,1,55,0,0
76176,-153.846153846153,5,2,1,75,0,0
76345,-153.846153846153,5,2,1,55,0,0
76681,-153.846153846153,5,2,1,75,0,0
77018,-153.846153846153,5,2,1,55,0,0
77861,-153.846153846153,5,2,1,60,0,0
78198,-153.846153846153,5,2,1,65,0,0
78535,-153.846153846153,5,2,1,70,0,0
78872,-153.846153846153,5,2,1,75,0,0
79209,-153.846153846153,5,2,1,80,0,0
79549,337.078651685393,4,2,1,80,1,0
90336,337.078651685393,5,2,1,55,1,0
90336,-200,5,2,1,55,0,0
97075,-125,5,2,1,65,0,0
102805,-125,5,2,1,55,0,0
102974,-125,5,2,1,60,0,0
103142,-125,5,2,1,65,0,0
103311,-125,5,2,1,70,0,0
103480,-125,5,2,1,75,0,0
103648,-153.846153846154,5,2,1,80,0,0
103819,337.078651685393,6,2,1,20,1,0
104154,-100,6,2,1,20,0,0
105502,-100,6,2,1,50,0,0
105841,337.078651685393,3,2,1,70,1,0
105841,-95.2380952380952,3,2,1,70,0,0
122018,-90.9090909090909,3,2,1,80,0,0
122692,-90.9090909090909,3,2,2,80,0,0
122861,-90.9090909090909,3,2,1,80,0,0
124715,-90.9090909090909,3,2,2,80,0,0
125052,-90.9090909090909,3,2,1,80,0,0
125557,-90.9090909090909,3,2,2,80,0,0
125726,-90.9090909090909,3,2,1,80,0,0
130782,-90.9090909090909,3,2,2,80,0,0
130950,-90.9090909090909,3,2,1,80,0,0
131625,-90.9090909090909,3,2,2,80,0,0
131794,-90.9090909090909,3,2,1,80,0,0
133142,-166.666666666667,3,2,1,80,0,0
133647,-166.666666666667,3,2,1,65,0,0
133985,-100,3,2,1,70,0,0
134153,-100,3,2,1,75,0,0
134827,-100,3,2,2,75,0,0
134995,-100,3,2,1,75,0,0
137692,-100,3,2,2,75,0,0
137777,-100,3,2,1,75,0,0
138198,-200,3,2,1,75,0,0
138366,-200,3,2,1,40,0,0
139209,-200,3,2,1,45,0,0
140221,-200,3,2,1,55,0,0
141232,-200,3,2,1,60,0,0
141906,-200,3,2,1,40,0,0
142243,-200,3,2,1,70,0,0
142582,-200,3,2,1,65,0,0
142919,-200,3,2,1,60,0,0
143256,-200,3,2,1,55,0,0
143593,-200,3,2,1,50,0,0
143930,-200,3,2,1,45,0,0
144265,-200,3,2,1,5,0,0

[Colours]
Combo1 : 132,91,102
Combo2 : 224,180,143
Combo3 : 164,105,96
Combo4 : 182,160,150
Combo5 : 169,147,157

[HitObjects]
110,188,2022,6,0,B|88:149|118:114|118:114|122:69|60:32|60:32|64:109|-36:142|88:205|88:205|9:204|-35:269|-39:346|46:379|46:379|47:291|115:225|115:225|147:252|200:264|227:229|243:184|243:184|216:211|183:206,1,1063.5470603055,2|0,2:0|2:0,2:0:0:0:
211,96,7297,5,0,2:0:0:0:
211,96,7356,1,0,2:0:0:0:
211,96,7416,2,0,B|249:116|278:78|260:57|296:30|339:50,1,141.09375,6|0,1:2|2:0,2:0:0:0:
505,48,8025,6,0,P|481:112|478:192,1,127.96875,0|0,1:0|2:0,2:0:0:0:
487,357,8532,6,0,P|457:279|375:273,1,175,0|0,1:0|1:0,2:0:0:0:
466,260,9292,6,0,P|463:207|518:180,1,105,0|0,1:0|1:0,2:0:0:0:
501,179,9745,1,0,1:0:0:0:
415,360,9916,5,0,1:0:0:0:
415,360,10033,2,0,P|395:352|370:346,1,35,0|0,1:0|2:0,2:0:0:0:
377,269,10220,6,0,L|242:313,1,141.750003460693,0|0,1:0|1:0,2:0:0:0:
108,20,10882,6,0,B|101:43|77:55|77:55|108:115,1,105,0|0,2:0|2:0,2:0:0:0:
44,166,11280,6,0,B|34:144|12:133|12:133|51:95|114:109|139:162|116:214,1,219.84375,0|0,1:0|2:0,2:0:0:0:
33,254,11724,6,0,B|109:230|109:230|122:234|122:234|219:206,1,187.03125,0|0,1:0|2:0,2:0:0:0:
200,106,12236,6,0,B|216:128|216:128|248:121|282:139|289:172,1,114.84375,0|8,1:0|1:0,2:0:0:0:
312,249,12736,5,8,1:0:0:0:
312,249,12808,2,0,P|325:172|340:79,1,148.750000000001,6|2,1:2|3:0,2:0:0:0:
394,360,13313,1,2,2:3:0:0:
211,275,13482,1,10,1:0:0:0:
409,168,13650,1,2,2:3:0:0:
409,168,13734,1,0,2:0:0:0:
409,168,13819,2,0,P|412:204|417:258,1,74.3750000000003,2|2,3:0|3:0,2:0:0:0:
308,81,14156,5,2,3:0:0:0:
512,185,14324,1,2,2:3:0:0:
309,243,14493,1,2,3:0:0:0:
418,46,14661,1,2,2:3:0:0:
182,128,14830,2,0,B|221:101|255:137|246:151|274:182|325:161,1,148.750000000001,10|2,1:0|3:0,2:0:0:0:
279,5,15336,1,2,2:3:0:0:
84,52,15504,6,0,B|76:74|48:93|48:93|90:198,1,148.750000000001,6|2,1:2|3:0,2:0:0:0:
43,291,16010,1,2,2:3:0:0:
0,189,16178,2,0,B|18:213|18:213|60:196|116:229|131:270,1,148.750000000001,10|2,1:0|3:0,2:0:0:0:
265,383,16684,5,2,2:3:0:0:
265,383,16768,1,0,2:0:0:0:
265,383,16852,2,0,P|289:345|282:311,1,74.3750000000003,2|2,3:0|2:3,2:0:0:0:
241,159,17190,2,0,P|228:212|219:254,1,74.3750000000003,2|2,3:0|2:3,2:0:0:0:
161,329,17527,1,10,1:0:0:0:
328,238,17695,1,2,2:3:0:0:
82,307,17864,1,10,1:0:0:0:
383,319,18032,5,2,1:0:0:0:
383,319,18116,1,0,2:0:0:0:
383,319,18201,2,0,P|428:310|470:300,1,74.3750000000003,6|2,3:2|2:3,2:0:0:0:
311,88,18538,2,0,P|274:79|238:72,1,74.3750000000003,2|2,3:0|2:3,2:0:0:0:
277,304,18875,1,2,3:0:0:0:
398,142,19043,1,2,2:3:0:0:
331,382,19212,1,10,1:0:0:0:
174,218,19381,1,2,2:3:0:0:
370,306,19549,6,0,P|380:255|386:229,1,74.3750000000003,4|2,3:2|2:3,2:0:0:0:
167,309,19886,2,0,P|177:360|183:386,1,74.3750000000003,10|2,1:0|2:3,2:0:0:0:
240,156,20223,1,10,1:0:0:0:
75,266,20392,1,2,2:3:0:0:
246,70,20560,5,2,3:0:0:0:
270,62,20645,1,2,2:3:0:0:
295,67,20729,1,2,2:3:0:0:
317,80,20813,1,2,2:3:0:0:
333,99,20897,6,0,P|342:143|329:174,1,74.3750000000003,4|2,1:2|2:3,2:0:0:0:
90,146,21234,2,0,P|81:102|94:71,1,74.3750000000003,10|2,1:0|2:3,2:0:0:0:
254,245,21572,1,2,3:0:0:0:
92,364,21740,1,2,2:3:0:0:
179,170,21909,1,10,1:0:0:0:
284,337,22077,1,2,2:3:0:0:
86,250,22246,5,4,1:2:0:0:
251,89,22414,1,2,2:3:0:0:
185,311,22583,1,10,1:0:0:0:
31,135,22751,1,2,2:3:0:0:
287,216,22920,5,4,1:2:0:0:
76,378,23088,1,2,2:3:0:0:
155,146,23257,1,4,1:3:0:0:
155,146,23341,1,2,2:3:0:0:
155,146,23425,2,0,L|168:205,1,37.1875000000001,2|2,2:3|2:3,2:0:0:0:
257,339,23594,6,0,L|270:285,3,43.75,6|0|0|2,3:2|2:0|2:0|2:3,2:0:0:0:
338,249,24268,2,0,L|297:210,3,43.75,2|2|2|2,2:3|2:3|2:3|2:3,2:0:0:0:
252,384,24942,6,0,L|239:330,3,43.75,2|2|2|2,2:3|2:3|2:3|2:3,2:0:0:0:
171,294,25616,2,0,L|211:255,3,43.75,2|2|2|2,2:3|2:3|2:3|2:3,2:0:0:0:
340,353,26291,6,0,P|371:346|390:343,1,43.75,2|2,2:3|2:3,2:0:0:0:
425,281,26628,2,0,P|456:288|475:291,1,43.75,2|2,2:3|2:3,2:0:0:0:
351,128,26965,6,0,P|320:135|301:138,1,43.75,2|2,2:3|2:3,2:0:0:0:
266,200,27302,2,0,P|235:193|216:190,1,43.75,2|2,2:3|2:3,2:0:0:0:
341,370,27639,6,0,P|349:345|356:315,1,43.75,2|2,2:3|2:3,2:0:0:0:
434,240,27976,2,0,P|440:260|446:281,1,43.75,2|2,2:3|2:3,2:0:0:0:
369,313,28313,2,0,P|361:288|354:258,1,43.75,2|2,2:3|2:3,2:0:0:0:
323,151,28650,5,2,2:3:0:0:
328,136,28734,1,2,2:3:0:0:
334,121,28819,1,2,2:3:0:0:
340,106,28903,1,2,2:3:0:0:
345,92,28987,6,0,B|312:115|272:82|292:61|257:30|205:48,1,148.750000000001,2|0,3:2|2:0,2:0:0:0:
127,7,29492,2,0,P|137:46|142:82,1,74.3750000000003,0|0,3:0|2:0,2:0:0:0:
45,201,29829,1,0,1:0:0:0:
141,161,29998,2,0,P|131:200|126:236,1,74.3750000000003,0|0,3:0|2:0,2:0:0:0:
63,374,30335,6,0,P|93:331|161:340,1,111.5625,0|0,3:0|2:0,2:0:0:0:
151,345,30672,6,0,P|222:348|237:274,1,148.750000000001,0|0,3:0|2:0,2:0:0:0:
326,233,31178,2,0,P|304:200|254:194,1,74.3750000000003,0|0,3:0|2:0,2:0:0:0:
361,46,31515,1,0,1:0:0:0:
425,85,31683,2,0,P|403:118|353:124,1,74.3750000000003,0|2,2:0|2:3,2:0:0:0:
241,92,32020,5,0,3:0:0:0:
216,84,32104,1,0,2:0:0:0:
190,76,32189,1,0,2:0:0:0:
165,68,32273,1,0,2:0:0:0:
139,61,32357,6,0,P|156:133|169:218,1,148.750000000001,0|0,3:0|2:0,2:0:0:0:
72,307,32863,2,0,B|107:290|134:310|127:320|149:338|193:323,1,111.5625,0|0,3:0|2:0,2:0:0:0:
189,317,33200,1,0,1:0:0:0:
321,373,33369,2,0,P|308:329|299:286,1,74.3750000000003,0|0,3:0|2:0,2:0:0:0:
283,279,33621,1,0,2:0:0:0:
283,279,33706,2,0,P|295:235|304:192,1,74.3750000000003,0|0,3:0|2:0,2:0:0:0:
460,80,34043,6,0,B|468:51|491:41|491:41|453:4|383:16|366:74|385:132,1,223.125000000001,0|0,3:0|3:0,2:0:0:0:
400,243,34717,1,0,2:0:0:0:
279,108,34885,1,0,1:0:0:0:
496,204,35054,1,0,2:0:0:0:
496,204,35138,1,0,2:0:0:0:
496,204,35222,1,0,2:0:0:0:
353,327,35391,1,0,2:0:0:0:
322,339,35475,1,0,2:0:0:0:
288,333,35560,1,0,2:0:0:0:
262,311,35644,1,0,2:0:0:0:
246,279,35728,6,0,P|312:264|405:241,1,157.5,6|0,3:2|3:0,2:0:0:0:
491,336,36234,1,2,2:3:0:0:
292,177,36402,1,0,3:0:0:0:
292,177,36486,1,0,2:0:0:0:
292,177,36571,2,0,P|303:125|309:87,1,78.7500000000001,0|2,1:0|3:0,2:0:0:0:
166,10,36908,1,0,1:0:0:0:
166,10,36992,1,0,2:0:0:0:
166,10,37076,2,0,P|177:62|183:100,1,78.7500000000001,2|0,3:0|2:0,2:0:0:0:
78,279,37413,5,2,3:0:0:0:
0,212,37582,2,0,B|41:233|74:199|61:183|97:150|152:182,1,157.5,2|0,2:3|1:0,2:0:0:0:
201,223,38003,1,0,2:0:0:0:
201,223,38088,2,0,P|214:262|191:300,1,78.7500000000001,0|0,3:0|2:0,2:0:0:0:
151,371,38425,1,2,3:0:0:0:
241,136,38593,1,0,1:0:0:0:
67,295,38762,1,2,3:0:0:0:
67,295,38846,1,0,2:0:0:0:
67,295,38930,1,0,2:0:0:0:
320,368,39099,6,0,B|353:368|368:336|368:336|393:322|442:337|446:383,1,157.5,4|2,3:2|3:0,2:0:0:0:
313,181,39604,2,0,P|302:228|293:274,1,78.7500000000001,2|0,2:3|3:0,2:0:0:0:
293,285,39857,1,0,2:0:0:0:
293,285,39942,1,0,1:0:0:0:
449,188,40110,1,2,3:0:0:0:
309,81,40279,1,0,1:0:0:0:
309,81,40363,1,0,2:0:0:0:
309,81,40447,2,0,P|266:81|236:108,1,78.7500000000001,2|0,3:0|2:0,2:0:0:0:
101,265,40784,6,0,P|28:254|19:179,1,157.5,2|0,3:0|3:0,2:0:0:0:
172,340,41290,2,0,B|214:309|254:339|240:355|268:391|341:363,1,157.5,2|0,1:0|2:0,2:0:0:0:
427,272,41795,1,0,3:0:0:0:
427,272,41880,1,0,2:0:0:0:
427,272,41964,1,0,2:0:0:0:
355,147,42133,5,2,3:0:0:0:
318,133,42217,1,2,2:3:0:0:
279,138,42301,1,2,2:3:0:0:
250,164,42385,1,2,2:3:0:0:
240,202,42470,6,0,P|255:231|258:262,2,61.2499999999999,6|2|2,3:0|2:3|2:3,2:0:0:0:
333,295,42975,1,2,2:3:0:0:
333,295,43144,2,0,P|315:322|290:340,1,61.2499999999999,2|2,2:3|2:3,2:0:0:0:
113,303,43481,5,2,2:3:0:0:
179,364,43649,1,2,2:3:0:0:
179,364,43818,2,0,P|181:333|206:288,1,61.2499999999999,2|2,2:3|2:3,2:0:0:0:
323,171,44155,5,2,2:3:0:0:
234,106,44324,1,2,2:3:0:0:
282,247,44492,1,2,2:3:0:0:
389,122,44661,1,2,2:3:0:0:
183,169,44829,5,2,2:3:0:0:
347,315,44998,1,2,2:3:0:0:
312,75,45166,1,2,2:3:0:0:
186,270,45335,1,2,2:3:0:0:
405,216,45503,6,0,P|436:205|462:199,1,43.75,2|2,3:0|2:3,2:0:0:0:
290,373,45672,2,0,P|268:366|248:359,1,43.75,0|0,3:0|2:3,2:0:0:0:
289,164,45840,6,0,P|296:218|302:262,1,83.1249999999999,4|0,3:2|2:0,2:0:0:0:
104,87,46178,2,0,P|111:33|117:-11,1,83.1249999999999,0|0,3:0|2:0,2:0:0:0:
7,293,46515,2,0,P|39:245|116:261,1,124.6875,0|0,3:0|2:0,2:0:0:0:
154,300,46852,2,0,P|191:303|224:265,1,83.1249999999999,10|0,3:0|2:0,2:0:0:0:
356,102,47189,2,0,P|328:72|287:74,1,83.1249999999999,0|0,3:0|2:0,2:0:0:0:
115,157,47526,6,0,P|163:169|213:182,1,83.1249999999999,10|0,3:0|2:0,2:0:0:0:
377,357,47863,2,0,P|336:367|296:377,1,83.1249999999999,0|0,3:0|2:0,2:0:0:0:
440,136,48200,2,0,B|429:166|397:180|397:180|434:289,2,166.25,0|10|0,3:0|3:0|3:0,2:0:0:0:
512,75,49043,1,0,2:0:0:0:
512,75,49127,1,0,2:0:0:0:
512,75,49211,6,0,P|481:49|433:47,1,83.1249999999999,14|0,3:0|2:0,2:0:0:0:
253,260,49548,2,0,P|293:256|325:230,1,83.1249999999999,0|0,3:0|2:0,2:0:0:0:
213,55,49885,2,0,B|182:66|154:45|167:30|137:3|88:15,1,124.6875,0|0,3:0|2:0,2:0:0:0:
46,61,50222,2,0,P|61:108|66:149,1,83.1249999999999,10|0,3:0|2:0,2:0:0:0:
147,320,50560,2,0,P|153:278|166:239,1,83.1249999999999,0|0,3:0|2:0,2:0:0:0:
237,377,50897,6,0,B|206:379|182:351|182:351|72:372,2,166.25,10|0|0,3:0|3:0|3:0,2:0:0:0:
388,307,51739,1,0,2:0:0:0:
290,201,51908,2,0,P|280:259|271:300,1,83.1249999999999,10|0,3:0|2:0,2:0:0:0:
470,107,52245,2,0,P|460:49|451:8,1,83.1249999999999,0|0,3:0|2:0,2:0:0:0:
440,233,52582,6,0,P|480:260|522:249,1,83.1249999999999,4|0,3:2|2:0,2:0:0:0:
337,103,52919,2,0,P|273:112|190:124,1,124.6875,0|0,3:0|2:0,2:0:0:0:
149,86,53256,2,0,P|174:50|214:49,1,83.1249999999999,0|0,3:0|2:0,2:0:0:0:
115,243,53593,2,0,P|64:228|12:219,1,83.1249999999999,10|0,3:0|2:0,2:0:0:0:
195,384,53930,1,0,3:0:0:0:
317,213,54099,1,0,2:0:0:0:
105,340,54267,6,0,B|151:350|185:311|166:295|198:258|254:277,1,166.25,10|0,3:0|3:0,2:0:0:0:
394,174,54773,1,0,2:0:0:0:
378,362,54942,2,0,P|350:333|353:288,1,83.1249999999999,0|0,3:0|2:0,2:0:0:0:
488,142,55279,2,0,P|480:192|473:239,1,83.1249999999999,10|0,3:0|2:0,2:0:0:0:
326,87,55616,1,0,3:0:0:0:
509,10,55784,1,0,3:0:0:0:
369,183,55953,6,0,P|323:176|271:165,1,87.5,4|0,3:2|2:0,2:0:0:0:
86,260,56458,6,0,P|128:251|172:244,1,87.5,6|0,3:0|2:0,2:0:0:0:
368,307,56964,6,0,L|276:287,1,65.6250000000002,4|0,3:2|2:0,2:0:0:0:
155,328,57301,6,0,L|205:319,1,45.9375,6|0,3:0|2:0,2:0:0:0:
308,376,57470,2,0,L|263:364,1,45.9375,2|0,2:3|2:0,2:0:0:0:
67,353,57638,6,0,P|59:309|83:269,1,87.5,4|0,3:2|2:0,2:0:0:0:
258,187,58144,6,0,P|223:215|177:215,1,87.5,4|0,3:0|2:0,2:0:0:0:
0,82,58649,6,0,P|36:91|56:132,1,65.6250000000002,4|0,3:0|2:0,2:0:0:0:
104,203,58986,6,0,L|116:149,1,45.9375,4|0,3:0|2:0,2:0:0:0:
165,59,59155,2,0,L|177:113,1,45.9375,4|0,3:0|2:0,2:0:0:0:
240,293,59324,5,4,3:2:0:0:
269,311,59408,1,0,2:0:0:0:
303,313,59492,1,0,2:0:0:0:
334,296,59576,1,0,2:0:0:0:
353,266,59661,1,0,3:0:0:0:
377,240,59745,1,0,2:0:0:0:
409,227,59829,1,0,2:0:0:0:
443,228,59913,1,0,2:0:0:0:
474,244,59998,6,0,P|489:282|465:332,1,87.5,0|0,3:0|2:0,2:0:0:0:
281,203,60335,2,0,P|265:163|280:122,1,87.5,10|0,3:0|2:0,2:0:0:0:
408,61,60672,1,0,3:0:0:0:
408,61,60756,1,0,2:0:0:0:
408,61,60840,2,0,L|394:111,1,43.75,10|2,3:1|2:3,2:0:0:0:
240,293,61009,5,2,3:0:0:0:
209,317,61093,1,0,2:0:0:0:
169,322,61178,1,0,2:0:0:0:
133,306,61262,1,0,2:0:0:0:
106,277,61346,1,0,3:0:0:0:
99,238,61430,1,0,2:0:0:0:
111,200,61515,1,0,2:0:0:0:
143,177,61599,1,0,2:0:0:0:
180,166,61683,2,0,P|225:177|276:184,1,87.5,0|0,3:0|2:0,2:0:0:0:
459,142,62020,5,10,3:0:0:0:
479,119,62104,1,0,2:0:0:0:
484,88,62189,1,0,2:0:0:0:
475,58,62273,1,0,2:0:0:0:
451,38,62357,2,0,P|406:44|357:50,1,87.5,0|8,3:0|3:1,2:0:0:0:
288,203,62694,5,10,3:0:0:0:
257,220,62779,1,0,2:0:0:0:
222,223,62863,1,0,2:0:0:0:
188,211,62947,1,0,2:0:0:0:
162,187,63031,1,0,3:0:0:0:
146,155,63116,1,0,2:0:0:0:
113,142,63200,1,0,2:0:0:0:
78,142,63284,1,0,2:0:0:0:
47,159,63369,2,0,P|62:215|66:254,1,87.5,0|0,3:0|2:0,2:0:0:0:
181,342,63706,5,10,3:0:0:0:
209,362,63790,1,0,2:0:0:0:
243,363,63874,1,0,2:0:0:0:
276,353,63958,1,0,2:0:0:0:
301,329,64043,2,0,P|289:279|279:232,1,87.5,0|8,3:0|3:1,2:0:0:0:
352,83,64380,6,0,L|340:138,1,43.75,10|0,3:0|2:0,2:0:0:0:
413,224,64548,2,0,L|401:169,1,43.75,0|0,2:0|2:0,2:0:0:0:
276,28,64717,5,0,3:0:0:0:
239,14,64801,1,0,2:0:0:0:
199,14,64885,1,0,2:0:0:0:
164,33,64970,1,0,2:0:0:0:
146,68,65054,1,0,3:0:0:0:
145,107,65138,1,0,2:0:0:0:
163,141,65222,1,0,2:0:0:0:
191,168,65307,1,0,2:0:0:0:
229,174,65391,2,0,P|280:163|329:154,1,87.5,10|0,3:0|2:0,2:0:0:0:
454,169,65728,5,0,3:0:0:0:
376,17,65897,1,8,3:1:0:0:
512,253,66065,5,4,3:2:0:0:
484,280,66149,1,0,2:0:0:0:
444,282,66234,1,0,2:0:0:0:
407,267,66318,1,0,2:0:0:0:
380,237,66402,1,0,3:0:0:0:
341,232,66486,1,0,2:0:0:0:
302,241,66571,1,0,2:0:0:0:
273,267,66655,1,0,2:0:0:0:
256,302,66739,6,0,P|275:349|286:390,1,87.5,0|0,3:0|2:0,2:0:0:0:
428,156,67076,2,0,P|440:113|456:73,1,87.5,10|0,3:0|2:0,2:0:0:0:
262,0,67413,1,0,3:0:0:0:
181,203,67582,5,8,3:1:0:0:
181,203,67666,1,2,2:3:0:0:
181,203,67751,1,2,3:0:0:0:
160,241,67835,1,0,2:0:0:0:
120,260,67919,1,0,2:0:0:0:
76,263,68003,1,0,2:0:0:0:
35,246,68088,1,0,3:0:0:0:
14,207,68172,1,0,2:0:0:0:
13,163,68256,1,0,2:0:0:0:
31,123,68340,1,0,2:0:0:0:
69,101,68425,2,0,L|93:194,1,87.5,0|0,3:0|2:0,2:0:0:0:
199,328,68762,5,10,3:0:0:0:
232,355,68846,1,0,2:0:0:0:
275,357,68930,1,0,2:0:0:0:
316,341,69015,1,0,2:0:0:0:
334,301,69099,2,0,L|310:208,1,87.5,0|10,3:0|3:1,2:0:0:0:
335,23,69436,5,6,3:0:0:0:
372,10,69520,1,0,2:0:0:0:
411,14,69604,1,0,2:0:0:0:
443,36,69689,1,0,2:0:0:0:
461,70,69773,1,0,3:0:0:0:
467,108,69857,1,0,2:0:0:0:
459,146,69942,1,0,2:0:0:0:
432,174,70026,1,0,2:0:0:0:
394,185,70110,2,0,P|346:195|314:166,1,87.5,0|0,3:0|2:0,2:0:0:0:
146,56,70447,5,2,3:0:0:0:
231,227,70616,1,2,3:0:0:0:
267,12,70784,1,2,3:0:0:0:
87,152,70953,1,2,3:0:0:0:
305,313,71121,5,2,3:0:0:0:
316,305,71206,1,0,2:0:0:0:
328,309,71290,1,0,2:0:0:0:
340,305,71374,1,0,2:0:0:0:
352,309,71458,1,0,3:0:0:0:
363,302,71543,1,0,2:0:0:0:
375,305,71627,1,0,3:0:0:0:
386,298,71711,1,0,2:0:0:0:
398,301,71795,1,0,3:0:0:0:
408,292,71880,1,0,2:0:0:0:
420,295,71964,1,0,3:0:0:0:
431,300,72048,1,0,2:0:0:0:
443,295,72133,5,0,3:0:0:0:
485,265,72217,1,0,3:0:0:0:
502,215,72301,1,0,3:0:0:0:
494,163,72385,1,0,3:0:0:0:
461,121,72470,1,0,3:0:0:0:
410,106,72554,1,0,3:0:0:0:
359,118,72638,1,0,3:0:0:0:
319,152,72722,1,0,3:0:0:0:
304,202,72807,5,14,3:0:0:0:
176,289,74324,6,0,P|185:316|186:343,1,43.75,8|0,2:1|2:0,2:0:0:0:
234,384,74492,1,10,3:0:0:0:
41,121,76009,5,8,2:1:0:0:
41,121,76093,1,8,2:1:0:0:
41,121,76178,2,0,P|97:131|174:145,1,113.750000000001,14|2,3:0|2:3,2:0:0:0:
255,222,76683,2,0,P|199:233|144:243,1,113.750000000001,14|0,3:0|2:0,2:0:0:0:
226,53,77189,6,0,P|236:103|240:128,1,56.8750000000003,2|2,2:3|2:3,2:0:0:0:
341,205,77526,2,0,P|351:155|355:130,1,56.8750000000003,2|2,2:3|2:3,2:0:0:0:
268,343,77863,5,2,3:0:0:0:
136,260,78031,1,0,3:0:0:0:
249,177,78200,1,0,3:0:0:0:
156,345,78369,1,0,3:0:0:0:
109,142,78537,5,0,3:0:0:0:
297,259,78706,1,8,3:1:0:0:
60,303,78874,1,0,3:0:0:0:
212,100,79043,1,0,3:0:0:0:
268,343,79211,5,0,3:0:0:0:
305,356,79295,1,0,3:0:0:0:
344,348,79380,1,0,3:0:0:0:
375,324,79464,1,0,3:0:0:0:
390,286,79549,1,6,3:2:0:0:
59,101,90166,5,0,3:0:0:0:
59,101,90251,1,0,3:0:0:0:
59,101,90336,2,0,P|59:78|50:55,3,43.75,14|0|0|2,2:3|2:0|2:0|2:3,2:0:0:0:
95,169,91010,2,0,P|114:157|130:138,1,43.75,2|2,2:3|2:3,2:0:0:0:
45,323,91347,6,0,P|25:335|11:355,3,43.75,10|2|2|2,2:3|2:3|2:3|2:3,2:0:0:0:
82,255,92021,2,0,P|61:244|36:242,3,43.75,10|2|2|2,2:3|2:3|2:3|2:3,2:0:0:0:
159,253,92695,2,0,P|157:230|147:207,1,43.75,2|2,2:3|2:3,2:0:0:0:
201,384,93032,6,0,P|223:367|256:366,1,43.75,10|2,2:3|2:3,2:0:0:0:
336,318,93369,2,0,P|314:317|294:308,1,43.75,10|2,2:3|2:3,2:0:0:0:
321,197,93706,6,0,L|267:212,3,43.75,10|2|2|2,2:3|2:3|2:3|2:3,2:0:0:0:
298,125,94380,2,0,L|255:136,1,43.75,2|2,2:3|2:3,2:0:0:0:
445,33,94718,6,0,L|391:18,3,43.75,10|2|2|2,2:3|2:3|2:3|2:3,2:0:0:0:
422,105,95392,2,0,L|379:93,3,43.75,2|2|2|2,2:3|2:3|2:3|2:3,2:0:0:0:
456,181,96066,6,0,L|505:195,1,43.75,2|2,2:3|2:3,2:0:0:0:
417,113,96403,2,0,L|368:99,1,43.75,10|2,2:3|2:3,2:0:0:0:
288,23,96740,5,2,3:0:0:0:
270,20,96824,1,2,2:3:0:0:
252,17,96909,1,2,3:0:0:0:
234,15,96993,1,2,3:0:0:0:
216,13,97077,6,0,P|155:30|78:54,1,140,14|2,3:0|3:0,2:0:0:0:
31,232,97583,1,2,2:3:0:0:
3,121,97751,2,0,P|51:132|79:140,1,70,2|0,3:0|1:0,2:0:0:0:
268,183,98088,1,2,3:0:0:0:
129,306,98257,1,2,2:3:0:0:
188,111,98425,1,2,3:0:0:0:
239,271,98594,5,2,2:3:0:0:
239,271,98678,1,2,2:3:0:0:
239,271,98762,2,0,B|282:258|305:285|300:298|325:322|381:310,1,140,10|2,3:0|3:0,2:0:0:0:
353,145,99268,1,0,1:0:0:0:
493,335,99437,2,0,P|500:298|476:259,1,70,2|2,2:3|3:0,2:0:0:0:
493,86,99774,1,2,3:0:0:0:
392,237,99942,1,2,3:0:0:0:
448,19,100111,1,2,3:0:0:0:
503,172,100279,5,2,3:0:0:0:
503,172,100364,1,2,3:0:0:0:
503,172,100448,2,0,P|440:173|404:99,1,140,6|2,3:0|3:0,2:0:0:0:
185,32,100953,2,0,B|214:58|256:37|244:20|267:-4|315:14,1,140,6|2,3:0|1:0,2:0:0:0:
268,210,101459,2,0,P|255:159|243:128,1,70,2|2,3:0|2:3,2:0:0:0:
92,294,101796,1,2,3:0:0:0:
324,305,101965,5,2,2:3:0:0:
324,305,102049,1,2,2:3:0:0:
324,305,102133,1,2,3:0:0:0:
158,188,102302,1,2,2:3:0:0:
154,382,102470,1,2,3:0:0:0:
296,212,102639,1,2,2:3:0:0:
93,216,102807,5,2,3:0:0:0:
278,384,102976,1,2,3:0:0:0:
286,118,103144,1,2,3:0:0:0:
161,306,103313,1,2,3:0:0:0:
422,261,103482,1,2,3:0:0:0:
422,261,103566,1,0,2:0:0:0:
422,261,103650,6,0,B|394:281|359:270|342:239|352:229|339:198|304:188|263:205,1,170.962450522741,6|0,3:2|2:0,2:0:0:0:
401,63,105504,5,2,2:3:0:0:
397,52,105588,1,2,2:3:0:0:
393,41,105672,1,2,2:3:0:0:
389,30,105757,1,2,2:3:0:0:
385,22,105841,6,0,P|331:13|293:83,1,137.8125,6|0,3:1|2:0,2:0:0:0:
266,145,106178,2,0,P|319:155|366:169,1,91.875,0|2,3:0|2:3,2:0:0:0:
512,262,106515,1,0,3:0:0:0:
472,118,106683,1,0,2:0:0:0:
335,348,106852,5,2,3:0:0:0:
306,370,106936,1,0,2:0:0:0:
269,373,107020,1,0,2:0:0:0:
235,357,107105,1,0,2:0:0:0:
215,325,107189,2,0,P|228:271|238:229,1,91.875,0|2,3:0|2:3,2:0:0:0:
219,27,107526,1,0,3:0:0:0:
383,208,107694,1,2,2:3:0:0:
164,148,107863,6,0,B|128:133|91:150|84:179|100:192|85:220|57:236|19:228,1,183.75,2|0,3:0|3:0,2:0:0:0:
104,39,108369,1,2,2:3:0:0:
236,235,108537,1,2,3:0:0:0:
236,235,108621,1,0,2:0:0:0:
236,235,108706,1,2,2:3:0:0:
311,66,108874,5,2,3:0:0:0:
343,49,108958,1,0,2:0:0:0:
380,51,109043,1,0,2:0:0:0:
413,66,109127,1,0,2:0:0:0:
435,94,109211,2,0,P|424:144|418:197,1,91.875,2|2,3:0|2:3,2:0:0:0:
453,362,109548,1,2,3:0:0:0:
314,195,109717,1,2,2:3:0:0:
511,269,109885,6,0,P|442:286|374:300,1,137.8125,2|0,3:0|2:0,2:0:0:0:
362,323,110223,1,2,3:0:0:0:
171,197,110391,1,2,2:3:0:0:
316,88,110560,2,0,L|296:196,1,91.875,2|2,3:0|2:3,2:0:0:0:
193,363,110897,5,2,3:0:0:0:
157,352,110981,1,0,2:0:0:0:
122,338,111065,1,0,2:0:0:0:
88,322,111149,1,0,2:0:0:0:
54,306,111234,2,0,L|158:279,1,91.875,2|2,3:0|2:3,2:0:0:0:
327,232,111571,1,2,3:0:0:0:
176,132,111739,1,2,2:3:0:0:
270,327,111908,5,2,3:0:0:0:
371,129,112076,1,2,3:0:0:0:
168,225,112245,1,2,3:0:0:0:
361,377,112414,1,2,3:0:0:0:
261,167,112582,1,2,3:0:0:0:
182,379,112751,1,2,3:0:0:0:
365,222,112919,5,2,3:0:0:0:
155,64,113088,1,2,3:0:0:0:
274,292,113256,1,2,3:0:0:0:
329,35,113425,1,2,3:0:0:0:
152,207,113593,1,2,3:0:0:0:
116,216,113678,1,0,2:0:0:0:
81,204,113762,1,2,3:0:0:0:
57,176,113846,1,2,3:0:0:0:
47,140,113930,6,0,P|114:123|206:101,1,137.8125,14|0,3:0|2:0,2:0:0:0:
225,41,114267,2,0,P|262:77|263:139,1,91.875,0|2,3:0|2:3,2:0:0:0:
256,357,114605,1,0,3:0:0:0:
381,179,114773,1,0,2:0:0:0:
474,353,114942,5,0,3:0:0:0:
446,336,115026,1,0,2:0:0:0:
417,321,115110,1,0,2:0:0:0:
388,305,115194,1,0,2:0:0:0:
357,293,115279,2,0,P|366:345|373:390,1,91.875,0|2,3:0|2:3,2:0:0:0:
290,140,115616,1,0,3:0:0:0:
474,234,115784,1,2,2:3:0:0:
337,63,115953,5,2,3:0:0:0:
313,41,116037,1,0,2:0:0:0:
282,32,116121,1,0,2:0:0:0:
249,34,116206,1,0,2:0:0:0:
221,51,116290,2,0,P|207:118|198:166,1,91.875,0|2,3:0|2:3,2:0:0:0:
207,330,116627,1,2,3:0:0:0:
73,172,116796,1,2,2:3:0:0:
320,220,116964,6,0,B|352:238|388:223|399:183|384:175|398:140|444:132|487:163,1,183.75,2|2,3:0|3:0,2:0:0:0:
349,353,117470,1,2,2:3:0:0:
199,174,117638,2,0,P|208:203|212:242,1,45.9375,2|0,3:0|2:0,2:0:0:0:
254,327,117807,2,0,P|258:304|265:282,1,45.9375,2|0,2:3|2:0,2:0:0:0:
120,348,117975,5,2,3:0:0:0:
88,353,118060,1,0,2:0:0:0:
57,343,118144,1,2,2:3:0:0:
34,319,118228,1,0,2:0:0:0:
27,287,118312,2,0,P|79:265|123:261,1,91.875,2|2,3:0|2:3,2:0:0:0:
288,184,118649,1,2,3:0:0:0:
80,84,118818,1,2,2:3:0:0:
208,10,118987,6,0,B|196:34|174:45|174:45|202:144,1,137.8125,2|0,3:0|2:0,2:0:0:0:
191,151,119324,1,2,3:0:0:0:
375,30,119492,1,2,2:3:0:0:
336,251,119661,2,0,P|327:195|315:139,1,91.875,2|2,3:0|2:3,2:0:0:0:
293,334,119998,5,2,3:0:0:0:
424,217,120166,1,2,3:0:0:0:
375,380,120335,1,2,3:0:0:0:
252,239,120503,1,2,3:0:0:0:
418,119,120672,1,2,3:0:0:0:
448,323,120840,1,2,3:0:0:0:
292,157,121009,5,2,3:0:0:0:
506,88,121178,1,2,3:0:0:0:
368,278,121346,1,2,3:0:0:0:
291,36,121515,1,2,3:0:0:0:
185,280,121683,5,2,3:0:0:0:
165,304,121767,1,2,3:0:0:0:
133,313,121852,1,2,3:0:0:0:
101,310,121936,1,2,3:0:0:0:
74,291,122020,6,0,P|86:224|106:129,1,144.375,6|0,3:2|2:0,2:0:0:0:
28,121,122357,2,0,B|51:141|103:120|88:101|116:77|164:101,1,144.375,0|0,3:0|2:0,2:0:0:0:
171,116,122694,1,10,2:0:0:0:
322,0,122863,1,2,2:3:0:0:
362,232,123032,5,6,3:0:0:0:
394,252,123116,1,0,2:0:0:0:
432,249,123200,1,0,2:0:0:0:
467,235,123284,1,0,2:0:0:0:
490,204,123369,2,0,P|480:152|473:103,1,96.25,0|2,3:0|2:3,2:0:0:0:
266,210,123706,1,2,3:0:0:0:
403,359,123874,1,2,2:3:0:0:
346,147,124043,6,0,P|311:113|260:111,1,96.25,4|0,3:2|2:0,2:0:0:0:
54,265,124380,2,0,P|101:260|134:227,1,96.25,2|0,3:0|2:0,2:0:0:0:
192,6,124717,1,10,2:0:0:0:
38,146,124885,1,0,2:0:0:0:
211,320,125054,5,6,3:0:0:0:
247,308,125138,1,0,2:0:0:0:
284,296,125223,1,0,2:0:0:0:
320,283,125307,1,0,2:0:0:0:
354,266,125391,2,0,L|243:236,1,96.25,0|10,3:0|2:0,2:0:0:0:
38,164,125728,1,2,3:0:0:0:
142,384,125897,1,2,3:0:0:0:
290,160,126065,6,0,B|323:182|360:167|371:135|360:125|383:90|424:84|470:112,1,192.5,4|0,3:2|3:0,2:0:0:0:
131,19,126571,1,0,2:0:0:0:
195,209,126739,2,0,P|205:163|211:112,1,96.25,8|0,2:0|2:0,2:0:0:0:
339,348,127076,5,6,3:0:0:0:
373,366,127161,1,0,2:0:0:0:
411,362,127245,1,0,2:0:0:0:
441,339,127329,1,0,2:0:0:0:
452,302,127414,1,0,2:0:0:0:
370,164,127582,1,2,2:3:0:0:
242,377,127751,2,0,P|249:321|257:273,1,96.25,0|0,3:0|3:0,2:0:0:0:
250,68,128088,5,4,3:2:0:0:
361,248,128256,1,2,3:0:0:0:
357,17,128425,1,2,3:0:0:0:
194,183,128593,1,2,3:0:0:0:
386,325,128762,1,2,3:0:0:0:
328,98,128930,1,2,3:0:0:0:
287,374,129099,5,4,3:2:0:0:
464,179,129267,1,2,3:0:0:0:
230,250,129436,1,2,3:0:0:0:
431,384,129605,1,2,3:0:0:0:
334,198,129773,5,0,3:0:0:0:
334,198,129857,1,0,2:0:0:0:
334,198,129942,2,0,L|320:262,1,48.125,0|0,3:0|2:0,2:0:0:0:
197,338,130110,5,4,3:2:0:0:
164,357,130194,1,0,2:0:0:0:
125,353,130279,1,0,2:0:0:0:
92,333,130363,1,0,2:0:0:0:
74,299,130447,1,0,3:0:0:0:
72,260,130532,1,0,2:0:0:0:
88,225,130616,2,0,P|111:202|136:197,1,48.125,0|0,2:0|2:0,2:0:0:0:
229,89,130784,2,0,P|194:56|137:64,1,96.25,10|2,2:0|2:3,2:0:0:0:
218,195,131121,5,6,3:0:0:0:
248,219,131206,1,0,2:0:0:0:
286,221,131290,1,0,2:0:0:0:
320,204,131374,1,0,2:0:0:0:
345,175,131458,1,0,3:0:0:0:
381,162,131543,1,0,2:0:0:0:
419,158,131627,1,10,2:0:0:0:
452,175,131711,1,0,2:0:0:0:
478,203,131796,2,0,P|470:262|462:323,1,96.25,2|10,3:0|3:0,2:0:0:0:
198,352,132133,6,0,P|144:352|114:311,1,96.25,4|0,3:2|2:0,2:0:0:0:
113,300,132385,1,0,2:0:0:0:
113,300,132470,2,0,P|121:245|128:198,1,96.25,2|0,3:0|3:0,2:0:0:0:
255,40,132807,5,2,3:0:0:0:
301,29,132891,1,0,3:0:0:0:
344,48,132975,1,0,3:0:0:0:
362,92,133060,1,0,3:0:0:0:
350,147,133144,6,0,B|299:131|271:169|286:180|260:223|195:211,1,157.5,4|0,3:0|1:0,2:0:0:0:
136,153,133818,5,2,2:3:0:0:
81,359,133987,2,0,L|71:308,1,43.75,2|0,3:0|2:0,2:0:0:0:
7,248,134155,5,4,3:2:0:0:
43,223,134239,1,0,2:0:0:0:
87,224,134324,1,0,2:0:0:0:
123,247,134408,1,0,2:0:0:0:
145,284,134492,1,2,3:0:0:0:
184,303,134576,1,0,2:0:0:0:
227,295,134661,1,2,2:3:0:0:
258,264,134745,1,0,2:0:0:0:
267,221,134829,2,0,P|256:169|249:130,1,87.5,10|2,2:0|2:3,2:0:0:0:
367,15,135166,5,6,3:0:0:0:
410,5,135251,1,0,2:0:0:0:
452,15,135335,1,2,2:3:0:0:
484,43,135419,1,0,2:0:0:0:
497,84,135503,1,2,3:0:0:0:
495,128,135588,1,0,2:0:0:0:
471,164,135672,2,0,P|448:179|427:179,1,43.75,2|0,2:3|2:0,2:0:0:0:
268,110,135840,2,0,P|275:63|282:3,1,87.5,0|0,3:0|2:0,2:0:0:0:
223,221,136178,5,4,3:2:0:0:
351,150,136346,1,2,3:0:0:0:
281,316,136515,1,2,3:0:0:0:
139,172,136683,1,2,3:0:0:0:
371,241,136852,1,2,3:0:0:0:
193,375,137020,1,2,3:0:0:0:
43,143,137189,5,4,3:2:0:0:
69,94,137273,1,0,3:0:0:0:
121,74,137357,1,2,3:0:0:0:
175,82,137442,1,0,3:0:0:0:
220,114,137526,1,2,3:0:0:0:
244,163,137610,1,0,3:0:0:0:
283,201,137694,1,10,2:0:0:0:
338,205,137779,1,0,3:0:0:0:
389,184,137863,1,2,3:0:0:0:
422,139,137947,1,0,3:0:0:0:
424,83,138032,1,0,3:0:0:0:
391,38,138116,1,0,3:0:0:0:
339,22,138200,6,0,P|318:25|290:46,1,43.75,14|2,2:1|2:3,2:0:0:0:
226,50,138537,2,0,P|218:69|222:104,1,43.75,2|2,2:3|2:3,2:0:0:0:
182,162,138874,2,0,P|194:178|226:192,1,43.75,2|2,2:3|2:3,2:0:0:0:
387,215,139211,6,0,P|384:236|363:264,1,43.75,2|2,2:3|2:3,2:0:0:0:
361,330,139548,2,0,P|342:338|307:334,1,43.75,2|2,2:3|2:3,2:0:0:0:
249,365,139885,2,0,P|232:352|218:320,1,43.75,2|2,2:3|2:3,2:0:0:0:
105,282,140223,6,0,P|134:275|154:269,1,43.75,2|2,2:3|2:3,2:0:0:0:
202,208,140560,2,0,P|231:215|251:221,1,43.75,2|2,2:3|2:3,2:0:0:0:
307,273,140897,2,0,P|336:266|356:260,1,43.75,2|2,2:3|2:3,2:0:0:0:
485,245,141234,6,0,P|476:272|470:297,1,43.75,2|2,2:3|2:3,2:0:0:0:
400,194,141571,2,0,P|391:167|385:142,1,43.75,2|2,2:3|2:3,2:0:0:0:
321,46,141908,5,2,2:3:0:0:
290,29,141992,1,2,2:3:0:0:
254,30,142076,1,2,2:3:0:0:
221,42,142161,1,2,2:3:0:0:
200,70,142245,1,14,1:0:0:0:
256,192,142329,12,0,144267,2:0:0:0:
