osu file format v14

[General]
AudioFilename: butterfly.mp3
AudioLeadIn: 0
PreviewTime: 228363
Countdown: 0
SampleSet: Soft
StackLeniency: 0.9
Mode: 0
LetterboxInBreaks: 0
WidescreenStoryboard: 0

[Editor]
DistanceSpacing: 0.8
BeatDivisor: 4
GridSize: 32
TimelineZoom: 2.959999

[Metadata]
Title:Butterfly Collector
TitleUnicode:Butterfly Collector
Artist:A.R. Kane
ArtistUnicode:A.R. Kane
Creator:app
Version:Rykoblydie
Source:
Tags:ar ethereal experimental english dream synth pop synthpop noise indie industrial rock shoegaze giyokon lollita
BeatmapID:3939912
BeatmapSetID:1910103

[Difficulty]
HPDrainRate:7
CircleSize:3
OverallDifficulty:9
ApproachRate:9.3
SliderMultiplier:1.8
SliderTickRate:1

[Events]
//Background and Video events
0,0,"png.png",0,0
//Break Periods
2,234244,237997
//Storyboard Layer 0 (Background)
//Storyboard Layer 1 (Fail)
//Storyboard Layer 2 (Pass)
//Storyboard Layer 3 (Foreground)
//Storyboard Layer 4 (Overlay)
//Storyboard Sound Samples

[TimingPoints]
3818,576.923076923077,99,2,1,5,1,8
15212,576.923076923077,99,2,1,5,1,0
19520,845.070422535211,99,2,1,5,1,8
25012,844.772967265047,99,2,1,5,1,8
37261,-300.3003003003,99,2,1,10,0,0
37683,-100,99,2,1,5,0,0
46131,499.168053244592,4,2,1,40,1,0
54117,504.201680672269,4,2,1,50,1,0
56133,495.867768595042,4,2,1,50,1,0
57620,508.474576271187,4,2,1,50,1,8
58128,495.867768595042,4,2,1,50,1,0
59119,504.20168067227,4,2,1,50,1,8
60127,495.867768595043,4,2,1,50,1,0
61118,505.263157894738,4,2,1,50,1,8
62128,498.960498960499,4,2,1,50,1,0
70111,497.92531120332,4,2,1,50,1,0
74094,489.795918367347,4,2,1,50,1,0
74583,533.333333333333,4,2,1,50,1,0
75116,463.320463320463,4,2,1,50,1,0
75579,532.150776053215,4,2,1,50,1,8
76111,497.92531120332,4,2,1,50,1,0
78102,499.168053244592,4,2,1,50,1,0
82095,502.302218501465,4,2,1,50,1,0
84104,499.168053244592,4,2,1,50,1,0
86100,501.25313283208,4,2,1,50,1,0
88105,498.13200498132,4,2,1,50,1,0
90097,499.375780274657,4,2,1,50,1,0
98087,502.51256281407,4,2,1,50,1,0
100097,495.253817581511,4,2,1,50,1,0
102078,500,4,2,1,55,1,0
102078,-80,4,2,1,55,0,0
104078,500.208420175073,4,2,1,60,1,0
104078,-80,4,2,1,60,0,0
118083,498.753117206983,4,2,1,60,1,0
118083,-80,4,2,1,60,0,0
120078,499.500499500499,4,2,1,60,1,0
120078,-80,4,2,1,60,0,0
124074,498.960498960499,4,2,1,60,1,0
126069,498.753117206983,4,2,1,60,1,0
126069,-80,4,2,1,60,0,0
127565,509.337860780985,4,2,1,60,1,8
127565,-80,4,2,1,60,0,0
128074,499.168053244592,4,2,1,60,1,0
129321,-80,4,2,1,60,0,0
133814,-80,4,2,1,60,0,1
134064,499.708503373032,4,2,1,50,1,1
135063,-100,4,2,1,50,0,0
143058,447.527411053927,4,2,1,50,1,8
143505,605.632381144645,4,2,1,50,1,8
143807,499.770938319937,4,2,1,50,1,8
144056,499.833388870377,4,2,1,50,1,0
150054,499.625281039221,4,2,1,50,1,0
154051,475.850582916964,4,2,1,50,1,0
154526,512.42633871381,4,2,1,50,1,8
155038,483.520025787735,4,2,1,50,1,8
155521,516.840382461883,4,2,1,50,1,8
156037,516.840382461883,4,2,1,50,1,0
156554,498.919008814236,4,2,1,50,1,8
158050,499.043499958413,4,2,1,50,1,0
160046,500,4,2,1,50,1,0
161046,491.501126356748,4,2,1,50,1,8
162029,501.043841336117,4,2,1,50,1,0
166037,498.960498960499,4,2,1,50,1,0
170028,447.761194029851,4,2,1,50,1,0
170251,566.037735849057,4,2,1,50,1,8
170534,495.867768595041,4,2,1,50,1,8
171029,497.92531120332,4,2,1,50,1,8
172024,497.92531120332,4,2,1,50,1,0
173020,483.870967741936,4,2,1,50,1,8
173745,550.45871559633,4,2,1,50,1,8
174020,502.092050209205,4,2,1,50,1,0
176028,500.208420175073,4,2,1,50,1,0
182030,496.894409937888,4,2,1,60,1,0
182030,-66.6666666666667,4,2,1,60,0,0
184017,502.092050209205,4,2,1,60,1,0
184017,-66.6666666666667,4,2,1,60,0,0
186025,498.9604989605,4,2,1,60,1,0
186025,-66.6666666666667,4,2,1,60,0,0
192012,503.144654088051,4,2,1,60,1,0
194024,498.9604989605,4,2,1,60,1,0
194024,-66.6666666666667,4,2,1,60,0,0
196019,495.867768595043,4,2,1,60,1,0
196019,-66.6666666666667,4,2,1,60,0,0
198002,501.043841336119,4,2,1,60,1,0
200507,-66.6666666666667,4,2,1,60,0,0
202010,499.583680266445,4,2,1,60,1,0
202010,-66.6666666666667,4,2,1,60,0,0
206006,500,4,2,1,65,1,0
206006,-50,4,2,1,65,0,0
220006,498.960498960499,4,2,1,65,1,0
220006,-50,4,2,1,65,0,0
229735,-48.3091787439614,4,2,1,75,0,1
229985,504.201680672268,4,2,1,75,1,1
230237,-43.4782608695652,4,2,1,70,0,1
230993,-43.4782608695652,4,2,1,35,0,0
232001,497.925311203319,4,2,1,35,1,0
233743,-100,4,2,1,35,0,1
233992,504.201680672269,4,2,1,50,1,1
235000,-100,4,2,1,50,0,0
237521,476.190476190476,4,2,1,35,1,8
237997,461.538461538462,4,2,1,35,1,0
238458,508.044030482642,4,2,1,35,1,8
239982,499.654405702722,4,2,1,75,1,0
239982,-40,4,2,1,75,0,1
243979,-38.4615384615385,4,2,1,75,0,1
247476,-37.037037037037,4,2,1,75,0,1
251973,-35.7142857142857,4,2,1,75,0,1
255970,-34.4827586206897,4,2,1,75,0,1
257969,-35.0877192982456,4,2,1,75,0,1
258968,-34.4827586206897,4,2,1,75,0,1
259968,-33.3333333333333,4,2,1,75,0,1
263965,-32.258064516129,4,2,1,75,0,1
267837,-32.258064516129,4,2,1,75,0,0
267962,-31.25,4,2,1,75,0,1
271959,-30.3030303030303,4,2,1,75,0,1
275957,-29.4117647058824,4,2,1,75,0,1
279954,-28.5714285714286,4,2,1,75,0,1
284950,-27.7777777777778,4,2,1,75,0,1
287948,-27.027027027027,4,2,1,75,0,1
291946,-26.3157894736842,4,2,1,75,0,1
295943,-25.6410256410256,4,2,1,75,0,1
297816,-25.6410256410256,4,2,1,75,0,0
297941,-25.6410256410256,4,2,1,75,0,1
298941,-22.7272727272727,4,2,1,75,0,1
299940,-20.4081632653061,4,2,1,75,0,1
300939,-18.5185185185185,4,2,1,75,0,1
301939,-16.9491525423729,4,2,1,75,0,1
302938,-15.625,4,2,1,75,0,1
303937,-14.4927536231884,4,2,1,75,0,1
304937,-13.5135135135135,4,2,1,75,0,1
305936,-12.6582278481013,4,2,1,75,0,1
306935,-11.9047619047619,4,2,1,75,0,1
307934,-11.2359550561798,4,2,1,75,0,1
309433,-22.4719101123596,4,2,1,75,0,1
309933,-10.6382978723404,4,2,1,75,0,1
310932,-10.1010101010101,4,2,1,75,0,1
311807,-100,4,2,1,75,0,0
311932,-25,4,2,1,75,0,1
319801,-25,4,2,1,75,0,0
319926,-25,4,2,1,75,0,1
331668,-25,4,2,1,75,0,0
331918,499.654405702722,99,2,1,75,1,0
333916,-55.5939814669491,99,2,1,20,0,0
333932,-55.5939814669491,99,2,1,19,0,0
333947,-55.5939814669491,99,2,1,18,0,0
333963,-55.5939814669491,99,2,1,17,0,0
333979,-55.5939814669491,99,2,1,16,0,0
333994,-55.5939814669491,99,2,1,15,0,0
334010,-55.5939814669491,99,2,1,14,0,0
334041,-55.5939814669491,99,2,1,13,0,0
334072,-55.5939814669491,99,2,1,12,0,0
334103,-55.5939814669491,99,2,1,11,0,0
334166,-55.5939814669491,99,2,1,10,0,0
334228,-55.5939814669491,99,2,1,9,0,0
334322,-55.5939814669491,99,2,1,8,0,0
334416,-55.5939814669491,99,2,1,7,0,0
334541,-55.5939814669491,99,2,1,6,0,0
334697,-55.5939814669491,99,2,1,5,0,0
334915,-55.5939814669491,99,2,1,4,0,0
335165,-55.5939814669491,99,2,1,3,0,0
335478,-55.5939814669491,99,2,1,2,0,0
335884,-55.5939814669491,99,2,1,1,0,0
336414,-55.5939814669491,99,2,1,0,0,0

[Colours]
Combo1 : 168,168,217
Combo2 : 130,147,217
Combo3 : 95,87,242
Combo4 : 191,0,0
Combo5 : 52,57,116
Combo6 : 32,11,149
Combo7 : 255,102,102
Combo8 : 19,20,79

[HitObjects]
256,192,26912,12,0,36838,0:0:0:0:
472,367,37261,6,0,L|496:372,1,22.4775005487671
256,192,37683,12,0,46131,1:0:0:0:
256,352,47129,5,8,2:0:0:0:
480,64,47878,85,0,1:0:0:0:
320,160,48127,1,0,1:0:0:0:
448,0,48626,1,0,1:0:0:0:
416,288,49126,1,8,2:0:0:0:
8,24,50124,5,0,1:0:0:0:
288,68,51122,1,8,2:0:0:0:
352,320,51871,5,0,1:0:0:0:
256,352,52121,1,0,1:0:0:0:
416,384,52620,1,0,1:0:0:0:
96,320,53119,1,8,2:0:0:0:
474,74,54117,86,0,P|394:67|337:149,1,180,2|2,1:2|2:0,2:0:0:0:
389,154,54873,1,0,2:0:0:0:
266,89,55125,2,0,P|270:50|287:-3,1,90,10|0,2:0|2:0,2:0:0:0:
25,152,55629,6,0,P|41:181|96:207,1,90,2|2,2:0|1:2,2:0:0:0:
379,161,56133,2,0,B|297:190|319:249|231:274,2,180,2|2|8,1:2|1:2|2:0,2:0:0:0:
496,174,57620,1,2,2:0:0:0:
496,174,57874,1,2,2:0:0:0:
422,319,58128,6,0,B|475:324|508:331|508:331|513:326|513:326|476:323|402:298,1,180,2|2,1:2|2:0,2:0:0:0:
275,356,59119,2,0,B|228:367|228:367|268:335,1,90,8|0,2:0|2:0,2:0:0:0:
341,242,59623,86,0,B|352:239|352:239|374:198,1,45,2|0,2:0|2:0,2:0:0:0:
329,190,59875,2,0,B|331:169|331:169|289:146,1,45,2|0,1:2|2:0,2:0:0:0:
261,219,60127,2,0,B|174:236|174:236|102:167,2,180,2|2|8,1:2|1:2|2:0,2:0:0:0:
335,195,61370,1,0,2:0:0:0:
340,103,61623,1,2,2:1:0:0:
249,51,61875,1,2,2:1:0:0:
153,118,62128,5,0,1:0:0:0:
80,84,62626,2,0,B|70:64|-39:19|-50:84|56:99|74:95,1,180,2|8,2:0|2:0,2:0:0:0:
280,59,63624,2,0,B|242:84|195:36|195:36,1,90,2|0,2:0|1:0,2:0:0:0:
351,111,64123,6,0,P|428:117|484:215,1,180,0|0,1:0|1:0,2:0:0:0:
469,189,65121,2,0,B|447:121|529:98|487:9,1,180,8|0,2:0|2:0,2:0:0:0:
355,9,65870,2,0,L|366:63,1,45,0|0,2:0|2:0,2:0:0:0:
402,78,66119,1,0,1:0:0:0:
378,316,66618,86,0,P|364:227|350:139,1,180,0|8,2:0|2:0,2:0:0:0:
487,337,67616,2,0,P|481:292|470:244,2,90,0|0|0,2:0|1:0|1:0,2:0:0:0:
381,368,68365,6,0,L|328:351,1,45,2|0,2:0|2:0,2:0:0:0:
326,364,68614,2,0,L|129:383,2,180,2|10|2,1:2|2:0|2:0,2:0:0:0:
357,377,69861,1,0,2:0:0:0:
276,268,70111,6,0,B|264:220|280:154|268:86,1,180,2|0,1:2|2:0,2:0:0:0:
22,52,71106,2,0,P|79:72|111:198,1,180,8|2,2:0|2:0,2:0:0:0:
37,217,71853,1,0,1:0:0:0:
149,258,72102,2,0,B|188:296|156:350|156:350|115:303|143:267,1,180,0|0,1:0|1:0,2:0:0:0:
0,336,73098,86,0,B|100:361|61:337|191:370,1,180,10|0,2:0|2:0,2:0:0:0:
320,336,73845,1,0,2:0:0:0:
436,379,74094,6,0,B|401:323|521:244|510:285|469:209,1,180,0|0,1:0|2:0,2:0:0:0:
280,183,75116,2,0,P|306:224|398:222,1,135,8|0,0:0|0:0,0:0:0:0:
465,207,75579,6,0,B|480:159|480:159|456:117,1,90,0|0,2:0|1:0,2:0:0:0:
280,183,76111,2,0,B|301:204|301:204|369:186,2,90,0|0|0,1:0|2:0|1:0,2:0:0:0:
431,45,77106,86,0,B|388:17|388:17|226:58,1,180,8|0,2:0|2:0,2:0:0:0:
194,8,77853,1,0,2:0:0:0:
36,56,78102,6,0,P|11:107|-8:268,1,180,0|2,1:0|2:0,2:0:0:0:
24,197,79100,2,0,P|81:211|181:135,1,180,8|2,2:0|2:0,2:0:0:0:
128,93,79849,1,0,1:0:0:0:
145,227,80098,2,0,P|131:282|119:333,1,90,0|0,1:0|2:0,2:0:0:0:
256,283,80597,1,0,1:0:0:0:
355,316,80847,1,0,2:0:0:0:
301,366,81097,6,0,P|298:282|268:175,1,180,8|0,2:0|2:0,2:0:0:0:
323,102,81845,1,0,2:0:0:0:
280,47,82095,1,0,1:0:0:0:
280,47,82597,1,0,2:0:0:0:
280,47,83099,1,8,2:0:0:0:
280,47,83601,2,0,L|380:34,1,90,0|0,2:0|1:0,2:0:0:0:
202,96,84104,86,0,B|153:183,1,89.4384359400998,0|2,1:0|2:0,2:0:0:0:
389,302,84603,2,0,L|304:144,1,180,2|10,1:2|2:0,2:0:0:0:
214,222,85351,1,0,2:0:0:0:
281,268,85601,1,2,2:0:0:0:
368,206,85851,1,0,2:0:0:0:
464,272,86100,5,2,1:2:0:0:
464,272,86601,1,0,2:0:0:0:
464,272,87102,1,8,2:0:0:0:
197,322,87603,2,0,B|242:331|231:346|284:346,2,90.17955,2|0|0,2:0|1:0|1:0,2:0:0:0:
48,266,88603,5,0,1:0:0:0:
28,273,89101,2,0,B|205:182|268:375|375:365,1,360,10|2,2:0|1:2,2:0:0:0:
410,331,90596,1,0,2:0:0:0:
410,331,91095,2,0,L|430:214,1,90,8|0,2:0|2:0,2:0:0:0:
494,193,91595,1,0,2:0:0:0:
505,80,91844,85,0,1:0:0:0:
417,134,92094,1,0,1:0:0:0:
371,18,92344,1,0,2:0:0:0:
414,122,92593,1,0,1:0:0:0:
46,88,93093,5,8,2:0:0:0:
136,111,93342,1,0,2:0:0:0:
224,168,93592,1,0,2:0:0:0:
281,258,93842,1,0,2:0:0:0:
321,369,94092,6,0,P|399:362|504:316,1,180,0|0,1:0|2:0,2:0:0:0:
206,355,95090,2,0,P|156:293|36:311,1,180,8|0,2:0|2:0,2:0:0:0:
90,323,95839,1,0,1:0:0:0:
178,257,96089,2,0,L|185:161,1,90,0|0,1:0|2:0,2:0:0:0:
0,58,96588,2,0,L|17:246,1,180,0|8,1:0|2:0,2:0:0:0:
16,237,97337,1,0,2:0:0:0:
16,237,97587,1,0,2:0:0:0:
16,237,97837,1,0,2:0:0:0:
104,200,98087,86,0,L|303:179,1,180,0|0,1:0|2:0,2:0:0:0:
435,217,98840,1,2,2:0:0:0:
441,231,98966,1,2,2:0:0:0:
420,243,99092,2,0,L|515:256,1,90,10|0,2:0|2:0,2:0:0:0:
343,304,99594,2,0,L|253:349,1,90,0|0,2:0|1:0,2:0:0:0:
86,251,100097,2,0,L|121:129,1,90,0|2,1:0|2:0,2:0:0:0:
149,111,100468,5,2,2:0:0:0:
112,89,100592,1,0,1:2:0:0:
112,89,100716,1,2,2:0:0:0:
112,89,100839,1,2,2:0:0:0:
112,89,100963,1,2,2:0:0:0:
151,58,101087,2,0,L|205:149,1,90,10|0,2:0|2:0,2:0:0:0:
388,175,101582,2,0,L|406:279,1,90,0|0,2:0|2:0,2:0:0:0:
488,57,102078,6,0,L|433:30,1,56.25,0|0,1:0|2:0,2:0:0:0:
488,57,102328,2,0,L|422:64,1,56.25,0|0,1:0|2:0,2:0:0:0:
338,74,102578,86,0,L|273:38,1,56.25,0|0,1:0|2:0,2:0:0:0:
346,16,102828,2,0,L|278:34,1,56.25,0|0,1:0|2:0,2:0:0:0:
160,32,103078,5,8,2:0:0:0:
12,32,103328,1,0,1:0:0:0:
0,60,103578,5,8,2:0:0:0:
216,60,103828,1,8,2:0:0:0:
512,192,104078,85,0,1:0:0:0:
480,192,104328,1,0,1:0:0:0:
448,192,104578,1,2,1:2:0:0:
416,192,104828,1,0,1:0:0:0:
384,192,105078,1,10,2:0:0:0:
384,224,105328,1,0,1:0:0:0:
512,320,106078,5,0,1:2:0:0:
480,320,106328,1,2,1:2:0:0:
448,320,106579,1,0,1:2:0:0:
416,320,106829,1,0,1:2:0:0:
384,320,107079,1,8,2:0:0:0:
384,288,107329,1,0,1:0:0:0:
416,288,107579,1,8,2:0:0:0:
448,288,107829,1,8,2:0:0:0:
0,192,108079,5,0,1:2:0:0:
32,192,108329,1,0,1:2:0:0:
64,192,108579,1,2,1:2:0:0:
96,192,108829,1,0,1:2:0:0:
128,192,109080,1,10,2:0:0:0:
128,160,109330,1,0,1:2:0:0:
0,64,110080,85,0,1:2:0:0:
32,64,110330,1,2,1:2:0:0:
64,64,110580,1,0,1:2:0:0:
96,64,110830,1,0,1:2:0:0:
128,64,111080,1,8,2:0:0:0:
128,96,111331,1,0,1:0:0:0:
96,96,111581,1,8,2:0:0:0:
64,96,111831,1,8,2:0:0:0:
224,384,112081,5,0,1:2:0:0:
224,352,112331,1,0,1:2:0:0:
224,320,112581,1,2,1:2:0:0:
224,288,112831,1,0,1:2:0:0:
224,256,113081,1,10,2:0:0:0:
256,256,113331,1,0,1:0:0:0:
272,128,113832,5,2,1:2:0:0:
288,0,114082,85,0,1:2:0:0:
288,32,114332,1,2,1:2:0:0:
288,64,114582,1,0,1:2:0:0:
288,96,114832,1,0,1:2:0:0:
288,128,115082,1,8,2:0:0:0:
256,128,115332,1,0,1:0:0:0:
256,96,115582,1,8,2:0:0:0:
256,64,115832,1,8,2:0:0:0:
512,192,116083,5,0,1:2:0:0:
448,192,116333,1,0,1:2:0:0:
384,192,116583,1,2,1:2:0:0:
320,192,116833,1,0,1:2:0:0:
256,192,117083,1,10,2:0:0:0:
256,256,117333,1,0,1:0:0:0:
128,224,117833,5,2,1:2:0:0:
0,192,118083,85,4,1:2:0:0:
64,192,118332,1,2,1:2:0:0:
128,192,118581,1,0,1:2:0:0:
192,192,118831,1,0,1:2:0:0:
256,192,119080,1,8,2:0:0:0:
256,128,119329,1,0,1:0:0:0:
256,64,119579,2,0,L|221:64,2,28.125,10|2|2,2:0|2:0|2:0,2:0:0:0:
192,64,119828,2,0,L|192:97,2,28.125,10|2|2,2:0|2:0|2:0,2:0:0:0:
375,249,120078,6,0,B|383:283|383:283|386:283|386:283|389:289,3,28.125,2|2|2|2,1:0|2:0|2:0|2:0,2:0:0:0:
434,284,120327,2,0,B|436:300|436:300|439:301|439:301|440:318,3,28.125,2|2|2|2,1:2|2:0|2:0|2:0,2:0:0:0:
503,331,120577,2,0,P|506:257|457:180,1,168.75,2|0,1:2|2:0,2:0:0:0:
446,167,121077,2,0,L|461:52,1,112.5,10|0,2:0|1:0,2:0:0:0:
120,69,121576,6,0,B|128:64|128:64|142:89,6,28.125,2|2|2|0|2|2|2,2:0|2:0|2:0|2:0|1:2|2:0|2:0,2:0:0:0:
45,103,122076,86,0,B|23:137|23:137|46:244,1,112.5,0|2,1:0|1:2,2:0:0:0:
196,241,122575,2,0,B|218:207|218:207|195:100,1,112.5,0|0,1:0|1:0,2:0:0:0:
29,329,123075,6,0,L|91:357,1,56.25,8|0,2:0|2:0,2:0:0:0:
47,350,123324,2,0,L|98:326,1,56.25,0|0,1:0|2:0,2:0:0:0:
224,348,123574,6,0,L|310:380,1,56.25,8|0,2:0|2:0,2:0:0:0:
415,353,123824,86,0,L|476:371,1,56.25,8|0,2:0|2:0,2:0:0:0:
510,236,124074,5,0,1:2:0:0:
466,220,124323,1,0,1:2:0:0:
397,243,124572,1,2,1:2:0:0:
321,220,124822,1,0,1:2:0:0:
316,192,125071,1,10,2:0:0:0:
288,211,125321,1,0,1:2:0:0:
301,224,125820,5,2,1:2:0:0:
401,179,126069,86,0,P|408:130|351:69,1,112.5,0|2,1:2|1:2,2:0:0:0:
166,120,126567,2,0,P|159:169|216:230,1,112.5,0|0,1:0|1:0,2:0:0:0:
266,22,127066,6,0,L|184:5,1,56.25,8|0,2:0|2:0,2:0:0:0:
288,41,127315,2,0,L|365:25,1,56.25,0|0,1:0|2:0,2:0:0:0:
264,157,127565,6,0,L|257:195,3,28.125,10|2|2|0,2:0|2:0|2:0|2:0,2:0:0:0:
323,139,127819,2,0,L|316:177,3,28.125,10|2|2|0,2:0|2:0|2:0|2:0,2:0:0:0:
391,177,128074,85,0,1:0:0:0:
411,251,128323,1,0,1:2:0:0:
331,282,128573,1,2,1:2:0:0:
350,362,128822,1,0,1:2:0:0:
318,352,129072,1,10,2:0:0:0:
249,372,129321,2,0,P|149:348|18:326,1,225,0|0,1:0|1:0,2:0:0:0:
19,337,130070,6,0,L|12:301,7,28.125,2|2|2|2|2|2|2|2,1:0|2:0|2:0|2:0|1:2|2:0|2:0|2:0,2:0:0:0:
88,307,130569,2,0,L|87:269,7,28.125,2|2|2|2|2|2|2|0,1:0|2:0|2:0|2:0|1:2|2:0|2:0|2:0,2:0:0:0:
25,234,131069,6,0,L|146:262,1,112.5,8|0,2:0|1:0,2:0:0:0:
289,191,131568,2,0,L|379:175,1,56.25,8|0,2:0|2:0,2:0:0:0:
432,200,131817,2,0,L|501:187,1,56.25,8|0,2:0|2:0,2:0:0:0:
370,254,132067,85,0,1:2:0:0:
386,283,132316,1,0,1:2:0:0:
334,338,132566,1,2,1:2:0:0:
263,277,132816,1,0,1:2:0:0:
378,184,133065,1,10,2:0:0:0:
423,83,133315,1,0,1:0:0:0:
295,1,133564,2,0,L|266:8,3,28.125,2|2|2|0,2:0|2:0|2:0|2:0,2:0:0:0:
236,44,133814,85,2,1:2:0:0:
236,44,134230,1,2,2:0:0:0:
20,161,135063,54,0,L|8:236,1,45,8|0,2:0|2:0,2:0:0:0:
84,243,135313,86,0,L|96:318,1,45,0|0,2:0|2:0,2:0:0:0:
181,125,135563,6,0,L|169:200,1,45,0|0,2:0|2:0,2:0:0:0:
250,272,135812,6,0,L|262:347,1,45,0|0,1:0|2:0,2:0:0:0:
324,216,136062,85,0,1:0:0:0:
406,167,136312,5,0,2:0:0:0:
479,90,136562,6,0,B|524:39|475:-18|374:28|390:60,1,180,2|10,1:2|2:0,2:0:0:0:
391,48,137561,2,0,P|411:62|409:98,1,45,2|0,2:0|2:0,2:0:0:0:
216,134,137811,54,0,B|219:-40|268:137,1,180,2|2,2:0|2:0,2:0:0:0:
268,383,138561,2,0,B|263:315|269:365|247:188,1,180,0|8,2:0|2:0,2:0:0:0:
226,264,139560,38,0,P|205:304|250:327,1,90,0|0,2:0|1:0,2:0:0:0:
475,355,140060,2,0,L|387:332,1,90,0|0,1:0|2:0,2:0:0:0:
511,217,140560,2,0,L|315:260,1,180,2|10,1:2|2:0,2:0:0:0:
420,278,141559,1,2,2:0:0:0:
467,156,141809,70,0,P|481:99|498:53,1,90,2|0,2:0|1:0,2:0:0:0:
261,23,142309,2,0,P|341:71|329:178,1,180,2|0,2:0|2:0,2:0:0:0:
377,135,143058,1,8,2:0:0:0:
51,107,143505,22,0,L|153:129,1,90,0|0,2:0|1:0,2:0:0:0:
32,95,144056,2,0,L|133:70,2,90,0|0|2,1:0|2:0|1:2,2:0:0:0:
360,269,145055,6,0,B|419:340|419:340|371:264,1,180,10|2,2:0|2:0,2:0:0:0:
102,313,145805,70,0,B|185:364|257:356|64:358|121:278,1,180,2|2,2:0|2:0,2:0:0:0:
136,277,146555,1,0,2:0:0:0:
5,294,147055,22,0,L|17:383,1,90,8|0,2:0|2:0,2:0:0:0:
78,253,147554,1,0,0:0:0:0:
32,192,147804,1,0,1:0:0:0:
6,228,148054,1,0,1:0:0:0:
51,227,148304,1,0,0:0:0:0:
5,172,148554,2,0,L|108:147,1,90,0|0,1:0|0:0,0:0:0:0:
100,266,149054,2,0,L|211:282,3,90,8|0|0|0,0:0|0:0|0:0|0:0,0:0:0:0:
185,21,150054,5,0,1:0:0:0:
270,227,150303,2,0,P|274:137|293:49,1,180,2|2,2:0|2:0,2:0:0:0:
312,190,151053,6,0,P|235:155|241:71,1,180,8|2,2:0|2:0,2:0:0:0:
479,155,151802,1,0,1:0:0:0:
469,136,152052,2,0,L|356:121,1,90,0|0,1:0|2:0,2:0:0:0:
498,271,152552,2,0,L|408:283,1,90,0|0,1:0|2:0,2:0:0:0:
17,190,153051,86,0,B|58:222|58:222|127:167|127:167|174:202,1,180,8|0,2:0|2:0,2:0:0:0:
77,77,153801,1,0,2:0:0:0:
148,24,154051,1,0,1:0:0:0:
380,300,154525,1,0,2:0:0:0:
380,300,155038,1,8,2:0:0:0:
455,258,155521,2,0,P|472:205|481:157,3,90,0|0|0|0,2:0|1:0|1:0|2:0,2:0:0:0:
421,113,156554,1,0,1:0:0:0:
143,115,157052,6,0,B|182:128|182:128|312:210,1,180,8|0,2:0|2:0,2:0:0:0:
328,165,157800,1,0,2:0:0:0:
133,207,158051,1,0,1:0:0:0:
78,173,158300,1,2,2:0:0:0:
41,262,158549,2,0,L|16:365,1,90,0|2,2:0|2:0,2:0:0:0:
261,319,159048,6,0,B|317:246|317:246|277:150,1,180,8|0,2:0|2:0,2:0:0:0:
294,152,159796,2,0,L|333:102,1,45,0|0,1:0|2:0,2:0:0:0:
283,100,160046,2,0,L|288:44,1,45,0|0,1:0|2:0,2:0:0:0:
21,45,160462,85,2,2:0:0:0:
21,45,160546,2,0,P|108:76|136:91,1,90,2|2,1:2|2:0,2:0:0:0:
484,126,161046,6,0,P|391:166|271:317,1,270,8|2,2:0|2:0,2:0:0:0:
18,354,162029,6,0,B|78:289|153:377|216:365,1,180,0|0,1:0|2:0,2:0:0:0:
298,311,162780,86,0,L|294:285,3,22.5,2|2|2|2,2:0|2:0|2:0|2:0,2:0:0:0:
244,293,163031,2,0,L|240:267,3,22.5,10|2|2|2,2:0|2:0|2:0|2:0,2:0:0:0:
308,258,163281,2,0,L|304:232,3,22.5,2|2|2|2,2:0|2:0|2:0|2:0,2:0:0:0:
249,215,163532,1,0,2:0:0:0:
371,227,163782,1,0,1:0:0:0:
493,241,164033,5,0,1:0:0:0:
329,193,164283,1,0,2:0:0:0:
160,242,164534,1,0,1:0:0:0:
148,237,165035,2,0,L|133:144,1,90,8|0,2:0|2:0,2:0:0:0:
262,279,165536,2,0,L|276:227,1,45,0|0,2:0|2:0,2:0:0:0:
250,217,165786,2,0,L|235:280,1,45,0|0,2:0|2:0,2:0:0:0:
327,283,166037,5,0,1:0:0:0:
479,232,166286,2,0,P|497:174|497:51,1,180,2|2,2:0|2:0,2:0:0:0:
315,88,167034,2,0,P|301:147|296:195,1,90,8|2,2:0|2:0,2:0:0:0:
486,256,167533,2,0,P|446:295|401:330,1,90,2|0,2:0|1:0,2:0:0:0:
157,324,168032,86,0,L|194:364,1,45,0|0,1:0|2:0,2:0:0:0:
139,307,168282,2,0,L|173:273,1,45,0|0,2:0|2:0,2:0:0:0:
111,316,168531,2,0,L|-13:353,1,90,0|0,1:0|2:0,2:0:0:0:
64,128,169030,6,0,L|271:165,1,180,8|0,2:0|2:0,2:0:0:0:
312,107,169779,1,0,2:0:0:0:
144,114,170028,1,0,1:0:0:0:
219,64,170251,1,0,2:0:0:0:
151,22,170534,1,0,2:0:0:0:
457,195,171029,6,0,B|408:224|408:224|458:276|458:276|439:355,1,180,8|0,2:0|2:0,2:0:0:0:
503,266,171775,1,0,1:0:0:0:
365,255,172024,1,0,1:0:0:0:
302,305,172273,1,0,2:0:0:0:
313,325,172522,1,0,1:0:0:0:
23,243,173020,86,0,B|51:270|51:270|28:220,3,90,8|0|0|0,2:0|2:0|2:0|2:0,2:0:0:0:
107,326,174020,2,0,P|68:227|53:143,1,180,0|2,1:0|2:0,2:0:0:0:
441,34,175024,2,0,P|395:19|328:7,1,90,8|2,2:0|2:0,2:0:0:0:
456,55,175526,1,0,2:0:0:0:
155,71,175777,6,0,L|201:91,1,45,0|0,1:0|2:0,2:0:0:0:
254,75,176028,2,0,L|262:142,1,45,0|0,1:0|2:0,2:0:0:0:
79,37,176444,5,2,2:0:0:0:
79,37,176528,2,0,L|111:333,1,270,2|2,1:2|2:0,2:0:0:0:
376,354,177778,1,2,2:0:0:0:
510,184,178028,85,2,1:2:0:0:
488,144,178153,1,2,2:0:0:0:
446,170,178278,1,2,2:0:0:0:
434,120,178403,1,2,2:0:0:0:
385,153,178529,1,2,2:0:0:0:
510,184,178779,6,0,P|424:227|403:242,1,90,2|10,2:0|2:0,2:0:0:0:
225,132,179279,2,0,P|164:70|97:43,1,135,2|0,2:0|2:0,2:0:0:0:
106,70,179779,6,0,L|208:47,1,90,2|0,1:2|1:0,2:0:0:0:
20,218,180279,2,0,L|107:237,1,90,0|0,2:0|1:0,2:0:0:0:
310,169,180779,1,0,2:0:0:0:
439,197,181030,85,8,2:0:0:0:
365,244,181280,1,0,2:0:0:0:
417,297,181530,1,0,2:0:0:0:
456,285,181780,1,0,2:0:0:0:
424,266,182030,6,0,P|442:182|456:85,1,134.932584269663,8|0,2:0|0:0,2:0:0:0:
218,358,182526,6,0,P|229:291|243:225,1,135,10|0,2:0|2:0,2:0:0:0:
51,193,183023,86,0,P|69:109|83:12,1,135,10|0,2:0|2:0,2:0:0:0:
391,151,183520,6,0,P|402:84|416:18,1,135,10|0,2:0|1:0,2:0:0:0:
41,104,184017,6,0,P|131:118|216:123,1,135,10|0,1:2|2:0,2:0:0:0:
319,335,184519,86,0,P|386:341|452:352,1,135,10|0,2:0|2:0,2:0:0:0:
486,75,185021,6,0,P|419:63|352:57,1,135,8|0,2:0|2:0,2:0:0:0:
17,270,185523,6,0,B|124:253|99:272|266:244,1,202.5,10|0,2:0|2:0,2:0:0:0:
242,230,186025,86,0,P|254:164|206:117,1,135,8|0,2:0|2:0,2:0:0:0:
17,270,186523,6,0,P|5:336|53:383,1,135,8|0,2:0|2:0,2:0:0:0:
397,145,187023,6,0,L|472:193,1,67.5,8|0,2:0|2:0,2:0:0:0:
430,139,187272,2,0,L|500:157,1,67.5,0|0,2:0|2:0,2:0:0:0:
398,193,187521,86,0,L|217:256,1,135,8|0,2:0|1:0,2:0:0:0:
20,39,188020,6,0,L|165:89,1,135,8|0,1:2|2:0,2:0:0:0:
398,78,188519,6,0,L|483:210,1,135,8|0,2:0|2:0,2:0:0:0:
109,341,189018,86,0,L|148:268,1,67.5,8|0,2:0|2:0,2:0:0:0:
70,256,189268,2,0,L|104:336,1,67.5,0|0,2:0|2:0,2:0:0:0:
197,311,189517,6,0,P|244:265|204:172,1,135,8|0,2:0|1:0,2:0:0:0:
471,33,190016,5,8,1:2:0:0:
471,33,190266,1,0,2:0:0:0:
374,87,190515,85,10,2:0:0:0:
401,157,190765,1,0,2:0:0:0:
180,76,191014,5,10,2:0:0:0:
259,130,191264,1,0,2:0:0:0:
35,188,191513,5,10,2:0:0:0:
149,208,191763,1,0,1:0:0:0:
245,16,192012,85,10,1:2:0:0:
259,130,192263,1,0,2:0:0:0:
507,89,192515,5,8,2:0:0:0:
374,189,192766,1,0,2:0:0:0:
453,358,193018,5,8,2:0:0:0:
453,358,193269,1,0,2:0:0:0:
131,308,193521,85,10,2:0:0:0:
131,308,193773,1,0,1:0:0:0:
143,324,194024,6,0,B|234:296|381:158|257:85|274:-2|274:-2|257:85|155:136|282:306|388:344,1,810,8|8,1:2|2:0,2:0:0:0:
446,312,195770,1,0,1:0:0:0:
494,185,196019,6,0,P|506:59|508:28,1,135,8|0,1:2|1:0,2:0:0:0:
156,223,196514,86,0,P|144:349|142:380,1,135,8|0,2:0|2:0,2:0:0:0:
396,106,197010,6,0,P|379:52|356:30,1,67.5,8|0,2:0|2:0,2:0:0:0:
340,36,197258,2,0,P|316:13|284:0,1,67.5,0|0,2:0|2:0,2:0:0:0:
33,149,197506,6,0,P|1:214|-3:294,1,135,8|0,2:0|1:0,2:0:0:0:
336,358,198002,85,0,1:0:0:0:
336,358,198252,1,0,1:0:0:0:
336,358,198503,1,0,1:0:0:0:
336,358,198753,1,0,1:0:0:0:
391,324,199004,1,8,2:0:0:0:
314,289,199254,1,0,1:0:0:0:
439,252,199505,1,8,2:0:0:0:
439,252,199755,1,8,2:0:0:0:
355,203,200006,5,0,1:0:0:0:
355,203,200256,1,0,1:0:0:0:
382,188,200507,2,0,P|411:117|513:-3,1,202.5,2|0,1:2|2:0,2:0:0:0:
451,16,201008,2,0,B|417:40|377:97|377:97|344:83|298:140|195:126,1,270,10|2,2:0|1:2,2:0:0:0:
12,54,201759,1,2,2:0:0:0:
82,115,202010,5,0,1:0:0:0:
82,115,202259,1,2,1:2:0:0:
82,115,202509,1,0,1:0:0:0:
82,115,202759,1,0,1:0:0:0:
23,165,203009,1,8,2:0:0:0:
121,227,203258,1,0,1:0:0:0:
43,348,203508,1,8,2:0:0:0:
43,348,203758,1,8,2:0:0:0:
21,254,204008,85,0,1:0:0:0:
21,254,204258,1,0,1:0:0:0:
74,277,204507,2,0,P|162:313|271:386,1,202.5,2|0,1:2|2:0,2:0:0:0:
234,374,205007,2,0,P|212:308|382:219,1,270,10|2,2:0|1:2,2:0:0:0:
450,256,205756,1,2,1:2:0:0:
461,251,206006,6,0,P|472:169|486:47,1,180,8|2,2:0|1:2,2:0:0:0:
200,203,206506,2,0,P|189:285|175:407,1,180,8|0,2:0|1:0,2:0:0:0:
398,93,207006,2,0,P|331:26|247:27,1,180,8|0,2:0|1:0,2:0:0:0:
250,25,207380,1,0,2:0:0:0:
250,25,207506,2,0,L|296:126,1,90,8|0,2:0|2:0,2:0:0:0:
106,137,207756,2,0,L|214:189,1,90,8|0,2:0|2:0,2:0:0:0:
425,196,208006,2,0,L|521:374,1,180,8|0,2:0|1:0,2:0:0:0:
38,276,208506,6,0,L|258:251,1,180,10|0,2:0|1:0,2:0:0:0:
499,53,209006,2,0,L|279:28,1,180,10|0,2:0|1:0,2:0:0:0:
445,370,209506,2,0,P|461:339|490:289,1,90,8|0,2:0|2:0,2:0:0:0:
501,341,209756,2,0,P|454:257|483:147,1,180,2|8,1:2|2:0,2:0:0:0:
48,103,210256,2,0,P|65:70|89:100,1,90,2|0,1:2|2:0,2:0:0:0:
137,60,210506,2,0,P|105:158|88:271,1,180,8|0,2:0|1:0,2:0:0:0:
481,56,211006,2,0,P|387:88|284:102,1,180,8|0,2:0|1:0,2:0:0:0:
307,100,211381,1,0,2:0:0:0:
307,100,211506,2,0,L|416:154,1,90,8|0,2:0|2:0,2:0:0:0:
227,300,211756,2,0,L|190:196,1,90,8|0,2:0|2:0,2:0:0:0:
512,280,212006,2,0,L|335:382,1,180,8|0,2:0|1:0,2:0:0:0:
4,63,212506,86,0,B|76:85|-14:90|215:150,1,180,10|0,2:0|1:0,2:0:0:0:
510,213,213006,2,0,B|405:244|503:333|376:343,1,180,10|0,2:0|1:0,2:0:0:0:
10,301,213506,2,0,P|1:263|50:268,1,90,10|0,2:0|2:0,2:0:0:0:
101,333,213756,2,0,P|143:262|135:138,1,180,2|10,1:2|2:0,2:0:0:0:
256,192,214068,12,8,215506,2:0:0:0:
166,105,215756,6,0,L|149:236,1,90,8|0,2:0|2:0,2:0:0:0:
353,316,216006,2,0,L|335:125,1,180,8|0,2:0|1:0,2:0:0:0:
15,277,216506,6,0,L|115:341,1,90,10|0,2:0|2:0,2:0:0:0:
82,345,216756,1,0,1:0:0:0:
82,345,216881,1,0,2:0:0:0:
167,314,217006,86,0,L|278:286,1,90,10|0,2:0|2:0,2:0:0:0:
309,340,217256,1,0,1:0:0:0:
309,340,217381,1,0,2:0:0:0:
412,377,217506,6,2,B|473:292|473:292|420:231|420:231|475:96|475:96|474:41,1,360,10|8,2:0|2:0,2:1:0:0:
432,19,218256,1,2,1:2:0:0:
432,19,218381,1,0,2:0:0:0:
350,75,218506,6,0,P|318:62|231:24,1,90,8|0,2:0|2:0,2:0:0:0:
194,59,218756,1,0,1:0:0:0:
194,59,218881,1,0,2:0:0:0:
115,11,219006,86,0,P|31:75|79:199,1,180,8|0,2:0|1:0,2:0:0:0:
194,303,219506,1,8,2:0:0:0:
228,256,219631,1,0,2:0:0:0:
280,326,219756,1,8,2:0:0:0:
331,261,219881,1,0,2:0:0:0:
382,349,220006,6,0,B|483:237|249:159|418:92,1,270,8|0,2:0|2:0,2:0:0:0:
410,94,220504,2,0,L|489:13,1,90,10|0,2:0|2:0,2:0:0:0:
237,40,220754,2,0,L|294:137,1,90,0|0,1:0|2:0,2:0:0:0:
99,103,221003,1,10,2:0:0:0:
75,93,221128,1,0,2:0:0:0:
13,122,221253,1,0,1:0:0:0:
55,178,221378,1,0,2:0:0:0:
149,158,221502,6,2,B|190:147|190:147|283:313|283:313|427:359,1,360,10|8,2:0|2:0,2:1:0:0:
440,323,222251,1,2,1:2:0:0:
440,323,222376,1,0,2:0:0:0:
393,272,222500,2,0,L|370:167,1,90,8|0,2:0|2:0,2:0:0:0:
464,112,222750,2,0,L|487:217,1,90,0|0,1:0|2:0,2:0:0:0:
313,62,222999,86,0,B|201:23|201:23|117:65,1,180,8|0,2:0|1:0,2:0:0:0:
146,50,223373,1,0,2:0:0:0:
146,50,223498,2,0,L|55:-5,1,90,8|0,2:0|2:0,2:0:0:0:
9,171,223748,2,0,L|140:143,1,90,8|0,2:0|2:0,2:0:0:0:
450,91,223997,2,0,L|301:221,1,180,8|0,2:0|1:0,2:0:0:0:
14,366,224496,6,0,B|274:33,2,360,10|10|10,2:0|2:0|2:0,2:0:0:0:
1,349,225619,1,0,2:0:0:0:
19,324,225744,2,0,B|79:317|79:317|87:323|87:323|189:346,1,90,2|0,1:2|2:0,2:0:0:0:
441,341,225993,6,0,B|356:247|536:268|384:357,1,180,8|2,2:0|1:2,2:0:0:0:
192,177,226492,2,0,B|167:55|146:68|227:157,1,180,8|0,2:0|1:0,2:0:0:0:
476,90,226991,2,0,P|475:21|457:90,1,180,8|0,2:0|1:0,2:0:0:0:
432,158,227365,1,0,2:0:0:0:
417,176,227490,2,0,L|550:226,1,90,8|0,2:0|2:0,2:0:0:0:
154,307,227739,2,0,L|41:353,1,90,8|0,2:0|2:0,2:0:0:0:
260,0,227989,2,0,L|456:301,1,360,8|10,2:0|2:0,2:0:0:0:
495,305,228613,21,0,2:0:0:0:
400,321,228737,69,0,1:0:0:0:
361,288,228862,5,0,2:0:0:0:
426,237,228987,22,0,L|473:151,1,90,10|0,2:0|2:0,2:0:0:0:
281,68,229236,69,0,1:0:0:0:
214,24,229361,5,0,2:0:0:0:
320,22,229486,22,0,L|422:86,1,90,10|0,2:0|2:0,2:0:0:0:
512,263,229735,102,2,P|517:160|346:154,1,279.450007781925,2|0,1:0|2:0,2:1:0:0:
0,281,230237,2,2,B|-73:173|249:152|385:198|511:393,1,621.000011844635,2|0,1:0|0:0,2:1:0:0:
256,192,238748,12,0,239791,2:0:0:0:
451,361,239982,6,0,L|453:232,1,112.5,12|0,2:0|2:0,2:0:0:0:
348,214,240231,1,0,2:0:0:0:
396,181,240356,1,0,2:0:0:0:
241,249,240481,2,0,L|243:120,1,112.5,8|0,2:0|2:0,2:0:0:0:
138,102,240731,1,0,2:0:0:0:
186,69,240856,1,0,2:0:0:0:
109,347,240981,2,0,L|111:218,1,112.5,8|0,2:0|2:0,2:0:0:0:
6,200,241231,1,0,2:0:0:0:
54,167,241356,1,0,2:0:0:0:
198,218,241480,2,0,B|260:254|260:254|339:247,1,112.5,8|0,2:0|2:0,2:0:0:0:
112,22,241730,2,0,B|54:48|54:48|-9:25,1,112.5,8|0,2:0|2:0,2:0:0:0:
361,158,241980,2,0,L|513:350,1,225,8|0,2:0|2:0,2:0:0:0:
469,328,242355,1,0,2:0:0:0:
406,280,242480,1,8,2:0:0:0:
364,318,242605,1,0,2:0:0:0:
323,354,242730,1,0,2:0:0:0:
249,330,242855,1,0,2:0:0:0:
220,247,242979,1,8,2:0:0:0:
109,264,243104,1,0,2:0:0:0:
114,319,243229,1,0,2:0:0:0:
128,338,243354,1,0,2:0:0:0:
175,320,243479,2,2,L|253:-18,1,337.5,8|0,2:0|2:0,2:1:0:0:
165,39,243979,54,0,L|271:274,1,234,12|0,2:0|2:0,2:0:0:0:
351,263,244353,1,0,2:0:0:0:
351,263,244478,2,0,L|385:376,3,117,8|0|0|0,2:0|2:0|2:0|2:0,2:0:0:0:
461,253,244978,2,0,L|532:16,1,234,8|0,2:0|2:0,2:0:0:0:
479,78,245353,1,0,2:0:0:0:
401,34,245478,2,0,L|246:154,1,117,8|0,2:0|2:0,2:0:0:0:
143,145,245728,2,0,L|67:255,1,117,8|0,2:0|2:0,2:0:0:0:
423,326,245977,2,0,L|313:94,1,234,8|0,2:0|2:0,2:0:0:0:
221,25,246352,1,0,2:0:0:0:
181,96,246477,1,8,2:0:0:0:
245,136,246602,1,0,2:0:0:0:
203,186,246727,1,0,2:0:0:0:
261,251,246852,1,0,2:0:0:0:
245,361,246977,2,0,B|156:192|321:159|211:11,1,351,8|0,2:0|2:0,2:0:0:0:
289,73,247476,54,0,P|256:106|230:150,1,60.7500000000001,14|0,2:0|2:0,2:0:0:0:
196,109,247601,2,0,P|163:142|137:186,1,60.7500000000001,2|0,2:0|2:0,2:0:0:0:
142,209,247726,2,0,P|175:242|201:286,1,60.7500000000001,2|0,2:0|2:0,2:0:0:0:
235,245,247851,2,0,P|268:278|294:322,1,60.7500000000001,2|0,2:0|2:0,2:0:0:0:
325,213,247976,2,0,P|389:86|506:32,1,243,8|0,2:0|2:0,2:0:0:0:
419,19,248351,1,0,2:0:0:0:
350,45,248476,2,0,P|426:162|454:323,1,243,8|2,2:0|2:1,2:0:0:0:
510,336,248850,1,0,2:0:0:0:
510,336,248975,2,0,L|535:201,3,121.5,8|0|0|0,2:0|2:0|2:0|2:0,2:0:0:0:
405,368,249475,2,0,L|207:345,1,121.5,8|2,2:0|2:1,2:0:0:0:
98,316,249725,2,0,L|82:190,1,121.5,8|0,2:0|2:0,2:0:0:0:
210,66,249975,2,0,L|475:12,1,243,8|0,2:0|2:0,2:0:0:0:
341,25,250349,1,0,2:0:0:0:
270,9,250474,2,0,L|72:-19,3,121.5,8|0|2|0,2:0|2:0|2:1|2:0,2:0:0:0:
1,122,250974,2,0,L|146:92,1,121.5,8|0,2:0|2:0,2:0:0:0:
249,187,251224,2,0,L|388:246,1,121.5,0|2,2:0|2:1,2:0:0:0:
463,373,251474,2,2,B|520:263|520:263|413:144|413:144|448:234,1,364.500001390457,8|0,2:0|2:0,2:1:0:0:
436,347,251973,54,0,B|517:142|517:142|502:104,1,252,12|0,2:0|2:0,2:0:0:0:
402,38,252348,1,0,2:0:0:0:
316,44,252473,1,8,2:0:0:0:
238,14,252598,1,0,2:0:0:0:
175,63,252723,1,0,2:0:0:0:
242,95,252848,1,0,2:0:0:0:
289,71,252973,2,0,L|363:219,3,126,8|0|0|0,2:0|2:0|2:0|2:0,2:0:0:0:
119,230,253472,2,0,L|253:283,1,126,8|0,2:0|2:0,2:0:0:0:
475,89,253722,2,0,L|340:142,1,126,10|0,2:1|2:1,2:0:0:0:
471,349,253972,2,0,L|79:298,1,378,8|0,2:0|2:0,2:0:0:0:
75,312,254471,2,0,L|109:55,1,252,8|0,2:0|2:0,2:0:0:0:
60,41,254846,1,0,2:0:0:0:
57,111,254971,2,0,L|172:181,1,126,8|0,2:0|2:0,2:0:0:0:
261,72,255221,2,0,L|376:14,1,126,0|0,2:0|2:0,2:0:0:0:
493,212,255471,2,2,B|327:148|327:148|210:348,1,378,8|0,2:0|2:0,2:1:0:0:
166,240,255970,70,0,L|435:326,1,261,12|0,2:0|2:0,2:0:0:0:
371,352,256345,1,0,2:0:0:0:
329,269,256470,2,0,L|283:142,1,130.5,8|0,2:0|2:0,2:0:0:0:
121,246,256720,2,0,L|77:369,1,130.5,0|0,2:0|2:0,2:0:0:0:
21,122,256970,2,0,L|300:20,1,261,8|0,2:0|2:0,2:0:0:0:
256,10,257344,1,0,2:0:0:0:
317,34,257469,2,0,L|426:138,1,130.5,8|0,2:0|2:0,2:0:0:0:
165,32,257719,2,0,L|178:188,1,130.5,8|0,2:0|2:0,2:0:0:0:
52,0,257969,2,0,L|1:406,1,384.750003669262,8|0,2:0|2:0,2:0:0:0:
76,298,258469,1,8,2:0:0:0:
156,330,258594,1,0,2:0:0:0:
236,322,258719,1,0,2:0:0:0:
306,374,258843,1,0,2:0:0:0:
371,319,258968,2,0,L|506:365,3,130.5,8|0|0|0,2:0|2:0|2:0|2:0,2:0:0:0:
483,262,259468,2,2,B|395:97|483:148|471:-35|230:216,1,391.499999999999,8|0,2:0|2:0,2:1:0:0:
267,124,259968,102,0,B|322:139|367:-45|505:167|341:222|296:141,1,270,12|0,2:0|2:0,2:0:0:0:
187,122,260342,1,0,2:0:0:0:
140,148,260467,2,0,P|118:183|159:156,3,135,8|0|0|0,2:0|2:0|2:0|2:0,2:0:0:0:
60,93,260967,2,0,B|13:125|6:209|41:223,3,135.000005149842,8|0|0|0,2:0|2:0|2:0|2:0,2:0:0:0:
162,33,261467,2,0,B|184:41|184:41|217:68|217:68|333:73,1,135,8|0,2:0|2:0,2:0:0:0:
423,152,261716,2,0,B|436:148|436:148|412:255|412:255|452:330,1,135.000005149842,8|0,2:0|2:0,2:0:0:0:
222,373,261966,2,0,B|108:308|108:308|108:292|108:292|243:365,1,270,8|0,2:0|2:0,2:0:0:0:
134,376,262341,1,0,2:0:0:0:
134,376,262466,2,0,L|-25:352,3,135,8|0|0|0,2:0|2:0|2:0|2:0,2:0:0:0:
261,296,262966,2,0,L|420:272,3,135,8|0|0|0,2:0|2:0|2:0|2:0,2:0:0:0:
138,240,263465,2,2,B|38:132|38:132|127:31|127:31|271:63,1,405.000015449525,8|0,2:0|2:0,2:1:0:0:
231,26,263965,6,0,B|153:92|153:92|79:97|79:97|-60:213,1,279,12|0,2:0|2:0,2:0:0:0:
55,221,264340,1,0,2:0:0:0:
159,187,264465,1,8,2:0:0:0:
211,227,264589,1,0,2:0:0:0:
250,225,264714,1,0,2:0:0:0:
326,255,264839,1,0,2:0:0:0:
401,206,264964,2,0,B|427:221|427:221|474:174|474:174|491:162|491:162|474:198,1,139.5,8|0,2:0|2:0,2:0:0:0:
348,147,265214,1,0,2:0:0:0:
275,108,265339,1,0,2:0:0:0:
184,75,265464,2,0,L|37:27,1,139.5,8|0,2:0|2:0,2:0:0:0:
0,298,265714,2,0,L|147:250,1,139.5,8|0,2:0|2:0,2:0:0:0:
477,375,265964,2,0,L|311:141,1,279,8|0,2:0|2:0,2:0:0:0:
260,201,266338,1,0,2:0:0:0:
338,147,266463,1,8,2:0:0:0:
387,213,266588,1,0,2:0:0:0:
465,211,266713,1,0,2:0:0:0:
501,265,266838,1,0,2:0:0:0:
436,306,266963,2,0,B|371:310|383:350|273:379,1,139.5,8|0,2:0|2:0,2:0:0:0:
66,327,267213,1,0,2:0:0:0:
90,347,267338,1,0,2:0:0:0:
152,330,267462,2,2,P|322:240|323:5,1,418.5,8|0,2:0|2:0,2:1:0:0:
291,18,267962,22,0,P|346:63|406:36,3,144,12|0|0|0,2:0|2:0|2:0|2:0,2:0:0:0:
220,42,268462,1,8,2:0:0:0:
190,82,268587,1,0,2:0:0:0:
87,40,268712,1,0,2:0:0:0:
18,70,268837,1,0,2:0:0:0:
231,93,268961,1,8,2:0:0:0:
317,146,269086,1,0,2:0:0:0:
405,92,269211,1,0,2:0:0:0:
506,167,269336,1,0,2:0:0:0:
321,229,269461,2,0,P|286:291|264:360,1,144,8|0,2:0|2:0,2:0:0:0:
232,253,269711,2,0,P|187:96|186:68,1,144,8|0,2:0|2:0,2:0:0:0:
343,36,269961,2,0,P|227:162|53:296,1,288,8|0,2:0|2:0,2:0:0:0:
69,198,270336,1,0,2:0:0:0:
0,257,270460,1,8,2:0:0:0:
104,300,270585,1,0,2:0:0:0:
109,356,270710,1,0,2:0:0:0:
232,253,270835,1,0,2:0:0:0:
299,306,270960,2,0,L|431:388,3,144,8|0|0|0,2:0|2:0|2:0|2:0,2:0:0:0:
378,133,271460,2,2,B|519:-78|610:119|326:192|494:0|222:201,1,432,8|0,2:0|2:0,2:1:0:0:
199,99,271959,86,0,L|41:51,3,148.5,12|0|0|0,2:0|2:0|2:0|2:0,2:0:0:0:
141,281,272459,2,0,L|-8:235,3,148.5,8|0|0|0,2:0|2:0|2:0|2:0,2:0:0:0:
252,274,272959,2,0,L|394:374,1,148.5,8|0,2:0|2:0,2:0:0:0:
450,323,273209,1,0,2:0:0:0:
512,251,273333,1,0,2:0:0:0:
512,251,273458,2,0,B|493:172|493:172|434:129,1,148.5,8|0,2:0|2:0,2:0:0:0:
171,246,273708,2,0,B|216:299|216:299|339:282,1,148.5,8|0,2:0|2:0,2:0:0:0:
8,71,273958,2,0,B|131:-11|131:-11|314:42,1,297.000002832413,8|0,2:0|2:0,2:0:0:0:
295,18,274333,1,0,2:0:0:0:
295,18,274458,1,8,2:0:0:0:
380,69,274583,1,0,2:0:0:0:
463,42,274707,1,0,2:0:0:0:
414,9,274832,1,0,2:0:0:0:
317,55,274957,1,8,2:0:0:0:
317,144,275082,1,0,2:0:0:0:
232,93,275207,1,0,2:0:0:0:
94,102,275332,1,0,2:0:0:0:
38,196,275457,2,2,B|-4:299|135:245|165:368|192:224|354:196|144:121|220:12|90:162|-11:39|84:210,1,445.5,8|0,2:0|2:0,2:1:0:0:
143,222,275957,22,0,B|193:196|212:261|295:255,3,153,12|0|0|0,2:0|2:0|2:0|2:0,2:0:0:0:
384,191,276456,2,0,B|391:155|457:159|506:63,3,153,8|0|0|0,2:0|2:0|2:0|2:0,2:0:0:0:
446,274,276956,2,0,P|438:321|574:351,3,153.000002918243,8|0|0|0,2:0|2:0|2:0|2:0,2:0:0:0:
317,357,277456,2,0,L|27:288,1,153,8|0,2:0|2:0,2:0:0:0:
9,354,277705,2,0,L|7:181,1,153,8|0,2:0|2:0,2:0:0:0:
324,32,277955,2,0,L|95:270,1,305.999999999999,8|0,2:0|2:0,2:0:0:0:
105,197,278330,1,0,2:0:0:0:
133,154,278455,1,8,2:0:0:0:
114,72,278580,1,0,2:0:0:0:
60,24,278705,1,0,2:0:0:0:
36,42,278830,1,0,2:0:0:0:
131,81,278955,1,8,2:0:0:0:
245,111,279079,1,0,2:0:0:0:
356,160,279204,1,0,2:0:0:0:
429,203,279329,1,0,2:0:0:0:
472,227,279454,2,2,B|518:152|518:152|36:277,1,458.999999999999,8|0,2:0|2:0,2:1:0:0:
219,379,279954,86,0,L|358:58,1,315,12|0,2:0|2:0,2:0:0:0:
271,42,280329,1,0,2:0:0:0:
206,83,280454,2,0,L|362:239,1,157.5,8|0,2:0|2:0,2:0:0:0:
41,150,280703,2,0,L|211:202,1,157.5,0|0,2:0|2:0,2:0:0:0:
375,310,280953,2,0,L|531:365,3,157.5,8|0|0|0,2:0|2:0|2:0|2:0,2:0:0:0:
253,374,281453,2,0,P|203:327|275:192,1,157.5,8|0,2:0|2:0,2:0:0:0:
17,247,281703,2,0,P|155:101|197:118,1,157.5,8|0,2:0|2:0,2:0:0:0:
252,13,281952,2,0,P|415:65|448:274,1,315,8|0,2:0|2:0,2:0:0:0:
504,251,282327,1,0,2:0:0:0:
452,199,282452,1,8,2:0:0:0:
364,218,282577,1,0,2:0:0:0:
272,292,282702,1,0,2:0:0:0:
189,237,282827,1,0,2:0:0:0:
89,299,282952,1,8,2:0:0:0:
173,228,283077,1,0,2:0:0:0:
218,134,283202,1,0,2:0:0:0:
173,52,283327,1,0,2:0:0:0:
92,63,283451,2,2,B|8:91|140:256|521:151,1,472.500004506111,8|0,2:0|2:0,2:1:0:0:
502,124,283951,21,12,2:0:0:0:
462,86,284076,1,0,2:0:0:0:
418,127,284201,1,0,2:0:0:0:
358,64,284326,1,0,2:0:0:0:
294,155,284451,1,8,2:0:0:0:
215,229,284576,1,0,2:0:0:0:
160,137,284701,1,0,2:0:0:0:
80,211,284825,1,0,2:0:0:0:
65,69,284950,2,0,L|3:266,3,162,8|0|0|0,2:0|2:0|2:0|2:0,2:0:0:0:
225,272,285450,2,0,L|456:380,1,162,10|0,2:1|2:0,2:0:0:0:
505,200,285700,2,0,L|421:45,1,162,10|0,2:1|2:0,2:0:0:0:
170,96,285950,2,0,L|-10:390,1,324,10|0,2:1|2:0,2:0:0:0:
54,341,286324,1,0,2:0:0:0:
16,275,286449,1,8,2:0:0:0:
44,222,286574,1,0,2:0:0:0:
24,174,286699,1,0,2:0:0:0:
43,137,286824,1,0,2:0:0:0:
8,66,286949,1,8,2:0:0:0:
62,19,287074,1,0,2:0:0:0:
92,47,287199,1,0,2:0:0:0:
38,111,287324,1,0,2:0:0:0:
97,215,287449,2,2,B|38:375|38:375|110:106|110:106|168:59,1,486,10|0,2:1|2:0,2:1:0:0:
0,116,287948,86,0,L|299:286,1,333,12|0,2:0|2:0,2:0:0:0:
350,227,288323,1,0,2:0:0:0:
350,227,288448,2,0,L|534:201,1,166.5,10|0,2:1|2:0,2:0:0:0:
309,20,288698,2,0,L|127:44,1,166.5,0|0,2:0|2:0,2:0:0:0:
278,138,288948,1,8,2:0:0:0:
389,101,289073,1,0,2:0:0:0:
335,93,289197,1,2,2:1:0:0:
441,157,289322,1,0,2:0:0:0:
397,91,289447,2,0,P|357:99|310:259,1,166.5,8|0,2:0|2:0,2:0:0:0:
164,259,289697,2,0,P|178:303|363:318,1,166.5,10|0,2:1|2:0,2:0:0:0:
467,268,289947,2,0,P|370:70|166:117,1,333,10|0,2:1|2:0,2:0:0:0:
207,108,290322,1,0,2:0:0:0:
207,108,290447,1,8,2:0:0:0:
125,41,290572,1,2,2:1:0:0:
63,145,290696,1,2,2:1:0:0:
143,207,290821,1,0,2:0:0:0:
204,79,290946,2,0,L|250:250,3,166.5,8|0|0|0,2:0|2:0|2:0|2:0,2:0:0:0:
101,360,291446,2,2,B|5:115|459:270|298:-65,1,499.500000000001,10|0,2:1|2:0,2:1:0:0:
292,34,291946,22,0,L|411:242,1,171,12|0,2:0|2:0,2:0:0:0:
137,129,292195,2,0,L|168:350,1,171,0|0,2:0|2:0,2:0:0:0:
451,86,292445,2,0,L|533:254,1,171,8|0,2:0|2:0,2:0:0:0:
63,75,292695,2,0,L|29:277,1,171,0|0,2:0|2:0,2:0:0:0:
512,0,292945,2,0,L|496:236,1,170.999995433807,8|0,2:0|2:0,2:0:0:0:
0,0,293195,2,0,L|24:205,1,170.999995433807,0|0,2:0|2:0,2:0:0:0:
259,371,293445,2,0,L|236:29,2,342,8|8|8,2:0|2:0|2:0,2:0:0:0:
259,371,294069,1,0,0:0:0:0:
196,320,294194,1,0,2:0:0:0:
140,306,294319,1,0,2:0:0:0:
280,293,294444,1,8,2:0:0:0:
202,242,294569,1,0,2:0:0:0:
314,193,294694,1,0,2:0:0:0:
368,198,294819,1,0,2:0:0:0:
274,82,294943,2,0,L|330:5,1,85.5,10|0,2:1|2:0,2:0:0:0:
249,36,295068,2,0,L|198:105,1,85.4999977169037,0|0,2:0|2:0,2:0:0:0:
189,69,295193,2,0,L|245:-8,1,85.5,2|0,2:1|2:1,2:0:0:0:
162,28,295318,2,0,L|111:97,1,85.5,0|0,2:0|2:0,2:0:0:0:
94,74,295443,2,2,B|25:329|371:65|-50:406|527:330,1,513,8|0,2:0|2:0,2:1:0:0:
481,304,295943,86,0,L|120:373,1,351.000000000001,12|0,2:0|2:0,2:0:0:0:
71,332,296318,1,0,2:0:0:0:
0,294,296442,1,8,2:0:0:0:
83,304,296567,1,0,2:0:0:0:
154,348,296692,1,0,2:0:0:0:
203,275,296817,1,0,2:0:0:0:
278,231,296942,1,8,2:0:0:0:
249,165,297067,1,0,2:0:0:0:
250,205,297192,1,0,2:0:0:0:
277,189,297317,1,0,2:0:0:0:
349,147,297442,2,0,B|376:152|376:152|548:61,1,175.500000669479,8|0,2:0|2:0,2:0:0:0:
31,37,297692,2,0,B|43:56|43:56|286:130,1,175.500000669479,8|0,2:0|2:0,2:0:0:0:
414,315,297941,102,0,P|420:323|487:337,28,43.8750001673698,10|0|0|0|0|0|0|0|0|0|0|0|0|0|0|0|8|0|0|0|0|0|0|0|0|0|0|0|0,2:0|2:0|2:0|2:0|2:0|2:0|2:0|2:0|2:0|2:0|2:0|2:0|2:0|2:0|2:0|2:0|2:0|2:0|2:0|2:0|2:0|2:0|2:0|2:0|2:0|2:0|2:0|2:0|2:0,2:0:0:0:
336,257,298941,6,0,B|305:271|310:258|252:285,28,49.5000000000001,10|0|0|0|0|0|0|0|0|0|0|0|0|0|0|0|8|0|0|0|0|0|0|0|0|0|0|0|0,2:0|2:0|2:0|2:0|2:0|2:0|2:0|2:0|2:0|2:0|2:0|2:0|2:0|2:0|2:0|2:0|2:0|2:0|2:0|2:0|2:0|2:0|2:0|2:0|2:0|2:0|2:0|2:0|2:0,2:0:0:0:
162,161,299940,102,0,B|202:199|179:199|212:234,28,55.125000525713,10|0|0|0|0|0|0|0|0|0|0|0|0|0|0|0|8|0|0|0|0|0|0|0|0|0|0|0|0,2:0|2:0|2:0|2:0|2:0|2:0|2:0|2:0|2:0|2:0|2:0|2:0|2:0|2:0|2:0|2:0|2:0|2:0|2:0|2:0|2:0|2:0|2:0|2:0|2:0|2:0|2:0|2:0|2:0,2:0:0:0:
31,38,300939,6,0,B|37:72|44:55|60:64|113:94,28,60.7500002317429,10|0|0|0|0|0|0|0|0|0|0|0|0|0|0|0|8|0|0|0|0|0|0|0|8|0|0|0|0,2:0|2:0|2:0|2:0|2:0|2:0|2:0|2:0|2:0|2:0|2:0|2:0|2:0|2:0|2:0|2:0|2:0|2:0|2:0|2:0|2:0|2:0|2:0|2:0|2:0|2:0|2:0|2:0|2:0,2:0:0:0:
363,102,301939,102,0,B|393:109|374:126|403:86|374:59,28,66.3750021522046,10|0|0|0|0|0|0|0|0|0|0|0|0|0|0|0|8|0|0|0|0|0|0|0|0|0|0|0|0,2:0|2:0|2:0|2:0|2:0|2:0|2:0|2:0|2:0|2:0|2:0|2:0|2:0|2:0|2:0|2:0|2:0|2:0|2:0|2:0|2:0|2:0|2:0|2:0|2:0|2:0|2:0|2:0|2:0,2:0:0:0:
174,273,302938,6,0,B|131:258|162:241|185:357,28,72,10|0|0|0|0|0|0|0|0|0|0|0|0|0|0|0|10|0|0|0|0|0|0|0|0|0|0|0|0,2:0|2:0|2:0|2:0|2:0|2:0|2:0|2:0|2:0|2:0|2:0|2:0|2:0|2:0|2:0|2:0|2:1|2:0|2:0|2:0|2:0|2:0|2:0|2:0|2:0|2:0|2:0|2:0|2:0,2:0:0:0:
487,211,303937,102,0,B|482:200|467:178|487:178|445:198|462:256,28,77.6249980752469,14|0|0|0|0|0|0|0|0|0|0|0|0|0|0|0|8|0|0|0|0|0|0|0|0|0|0|0|0,2:0|2:0|2:0|2:0|2:0|2:0|2:0|2:0|2:0|2:0|2:0|2:0|2:0|2:0|2:0|2:0|2:0|2:0|2:0|2:0|2:0|2:0|2:0|2:0|2:0|2:0|2:0|2:0|2:0,2:0:0:0:
119,134,304937,6,0,B|106:113|37:96|52:108|81:89,28,83.2499996824265,10|0|0|0|0|0|0|0|0|0|0|0|0|0|0|0|8|0|0|0|0|0|0|0|8|0|0|0|0,2:0|2:0|2:0|2:0|2:0|2:0|2:0|2:0|2:0|2:0|2:0|2:0|2:0|2:0|2:0|2:0|2:0|2:0|2:0|2:0|2:0|2:0|2:0|2:0|2:0|2:0|2:0|2:0|2:0,2:0:0:0:
396,37,305936,102,0,B|382:77|368:60|403:45|439:33,28,88.8749994914532,10|0|0|0|0|0|0|0|0|0|0|0|0|0|0|0|8|0|0|0|0|0|0|0|0|0|0|0|0,2:0|2:0|2:0|2:0|2:0|2:0|2:0|2:0|2:0|2:0|2:0|2:0|2:0|2:0|2:0|2:0|2:0|2:0|2:0|2:0|2:0|2:0|2:0|2:0|2:0|2:0|2:0|2:0|2:0,2:0:0:0:
255,251,306935,6,0,B|239:300|278:245|278:301|229:241|224:303|274:216|251:308,28,94.499997116089,10|0|0|0|0|0|0|0|0|0|0|0|0|0|0|0|10|0|0|0|0|0|0|0|0|0|0|0|0,2:0|2:0|2:0|2:0|2:0|2:0|2:0|2:0|2:0|2:0|2:0|2:0|2:0|2:0|2:0|2:0|2:1|2:0|2:0|2:0|2:0|2:0|2:0|2:0|2:0|2:0|2:0|2:0|2:0,2:0:0:0:
31,137,307934,22,0,B|29:170|15:157|70:105|101:109|49:155|42:98|93:163,12,100.124998376727,14|0|0|0|0|0|0|0|0|0|0|0|0,2:0|2:0|2:0|2:0|2:0|2:0|2:0|2:0|2:0|2:0|2:0|2:0|2:0,2:0:0:0:
251,143,308434,70,0,B|325:89|234:231|334:144,12,100.124998376727,14|0|0|0|0|0|0|0|0|0|0|0|0,2:0|2:0|2:0|2:0|2:0|2:0|2:0|2:0|2:0|2:0|2:0|2:0|2:0,2:0:0:0:
475,102,308934,6,0,B|444:113|451:149|425:120|468:154|477:182,12,100.124998376727,14|0|0|0|0|0|0|0|0|0|0|0|0,2:0|2:0|2:0|2:0|2:0|2:0|2:0|2:0|2:0|2:0|2:0|2:0|2:0,2:0:0:0:
272,1,309433,22,0,B|275:12|275:12|266:21|266:21|271:32|271:32|276:73,4,50.0624991883636,14|0|0|0|0,2:0|2:0|2:0|2:0|2:0,2:0:0:0:
91,140,309683,70,0,B|79:149|79:149|98:160|98:160|85:166|85:166|88:163|65:152|76:180,4,50.0624991883636,14|0|0|0|0,2:0|2:0|2:0|2:0|2:0,2:0:0:0:
345,257,309933,22,0,B|360:269|360:269|387:239|394:274|425:245|425:245|428:270,28,105.749998386383,14|0|0|0|0|0|0|0|0|0|0|0|0|0|0|0|8|0|0|0|0|0|0|0|0|0|0|0|0,2:0|2:0|0:0|0:0|0:0|0:0|0:0|0:0|0:0|0:0|0:0|0:0|0:0|0:0|0:0|0:0|0:0|0:0|0:0|0:0|0:0|0:0|0:0|0:0|0:0|0:0|0:0|0:0|0:0,0:0:0:0:
181,329,310932,70,0,B|177:334|177:334|111:313|143:281|151:328|93:310|93:310|73:331,28,111.374997557044,14|0|0|0|0|0|0|0|0|0|0|0|0|0|0|0|8|0|0|0|0|0|0|0|0|0|0|0|0,2:0|2:0|0:0|0:0|0:0|0:0|0:0|0:0|0:0|0:0|0:0|0:0|0:0|0:0|0:0|0:0|0:0|0:0|0:0|0:0|0:0|0:0|0:0|0:0|0:0|0:0|0:0|0:0|0:0,0:0:0:0:
252,110,311932,54,0,L|447:145,1,180,12|0,2:0|2:0,2:0:0:0:
510,95,312182,1,0,2:0:0:0:
475,69,312306,1,0,2:0:0:0:
258,149,312431,86,0,L|63:184,1,180,8|0,2:0|2:0,2:0:0:0:
0,134,312681,1,0,2:0:0:0:
35,108,312806,1,0,2:0:0:0:
326,52,312931,102,0,L|425:269,1,180,8|0,2:0|2:0,2:0:0:0:
294,330,313181,1,0,2:0:0:0:
352,315,313306,1,0,2:0:0:0:
176,236,313431,70,0,L|-53:213,3,180,8|0|8|0,2:0|2:0|2:0|2:0,2:0:0:0:
281,157,313930,6,0,B|533:96|533:96|181:148,1,540,8|0,2:0|2:0,2:0:0:0:
367,207,314430,1,8,2:0:0:0:
427,197,314555,1,0,2:0:0:0:
360,222,314680,2,0,L|277:395,1,180,0|0,2:0|2:0,2:0:0:0:
114,227,314930,1,8,2:0:0:0:
53,173,315055,1,0,2:0:0:0:
129,224,315179,2,0,L|312:108,1,180,0|0,2:0|2:0,2:0:0:0:
8,11,315429,2,2,P|129:47|562:137,1,540,8|0,2:0|2:0,2:1:0:0:
485,29,315929,102,0,P|285:18|33:301,1,540,12|0,2:0|2:0,2:0:0:0:
113,353,316429,1,8,2:0:0:0:
113,353,316554,1,0,2:0:0:0:
113,353,316678,1,0,2:0:0:0:
113,353,316803,1,0,2:0:0:0:
113,353,316928,2,0,L|328:306,3,180,8|0|0|0,2:0|2:0|2:0|2:0,2:0:0:0:
376,128,317428,2,0,L|552:313,1,180,8|0,2:0|2:0,2:0:0:0:
166,128,317678,2,0,L|310:-5,1,180,8|0,2:0|2:0,2:0:0:0:
48,257,317928,2,0,L|440:379,1,360,8|0,2:0|2:0,2:0:0:0:
429,325,318302,1,0,2:0:0:0:
391,312,318427,2,0,L|186:350,3,180,8|0|0|0,2:0|2:0|2:0|2:0,2:0:0:0:
478,204,318927,2,0,L|534:27,1,180,8|0,2:0|2:0,2:0:0:0:
168,109,319177,2,0,L|340:279,1,180,0|0,2:0|2:0,2:0:0:0:
52,315,319427,2,2,L|25:383,6,45,10|0|0|0|0|0|0,2:0|2:0|2:0|2:0|2:0|2:0|2:0,2:1:0:0:
111,309,319676,2,2,P|122:284|81:227,3,90,2|0|0|0,2:0|2:0|2:0|2:0,2:1:0:0:
5,243,319926,6,0,B|395:315|93:313|553:384,1,540,14|0,2:0|2:0,2:0:0:0:
491,343,320426,1,8,2:0:0:0:
432,269,320551,1,0,2:0:0:0:
500,226,320676,1,0,2:0:0:0:
464,189,320801,1,0,2:0:0:0:
491,140,320926,1,8,2:0:0:0:
414,91,321050,1,0,2:0:0:0:
434,171,321175,1,0,2:0:0:0:
497,70,321300,1,0,2:0:0:0:
407,26,321425,2,0,L|251:130,1,180,8|0,2:0|2:0,2:0:0:0:
162,96,321675,2,0,L|104:290,1,180,8|0,2:0|2:0,2:0:0:0:
15,335,321925,2,0,L|288:47,1,360,8|0,2:0|2:0,2:0:0:0:
262,73,322300,1,0,2:0:0:0:
262,73,322424,1,8,2:0:0:0:
262,73,322549,1,0,2:0:0:0:
262,73,322674,1,0,2:0:0:0:
262,73,322799,1,0,2:0:0:0:
260,137,322924,1,8,2:0:0:0:
294,192,323049,1,0,2:0:0:0:
387,178,323174,1,0,2:0:0:0:
452,258,323299,1,0,2:0:0:0:
401,343,323424,2,2,B|204:283|204:283|86:352|86:352|-3:156,1,540,8|0,2:0|2:0,2:1:0:0:
70,157,323923,102,0,L|17:359,3,180,12|0|0|0,2:0|2:0|2:0|2:0,2:0:0:0:
262,78,324423,2,0,L|209:280,3,180,8|0|0|0,2:0|2:0|2:0|2:0,2:0:0:0:
461,25,324923,2,0,L|408:227,3,180,8|0|0|0,2:0|2:0|2:0|2:0,2:0:0:0:
36,49,325422,2,0,L|226:103,1,180,8|0,2:0|2:0,2:0:0:0:
335,323,325672,2,0,L|525:377,1,180,8|0,2:0|2:0,2:0:0:0:
7,16,325922,2,0,L|531:161,1,540,8|0,2:0|2:0,2:0:0:0:
492,103,326422,1,8,2:0:0:0:
379,153,326547,1,0,2:0:0:0:
327,80,326672,1,0,2:0:0:0:
196,124,326796,1,0,2:0:0:0:
131,67,326921,2,0,B|79:110|143:172|13:199|127:-17,3,180,8|0|0|0,2:0|2:0|2:0|2:0,2:0:0:0:
10,196,327421,2,2,B|48:296|48:295|90:231|339:102|515:216,1,540,8|0,2:0|2:0,2:1:0:0:
420,260,327921,6,0,P|382:182|474:120,1,180,8|0,2:0|2:0,2:0:0:0:
331,330,328171,2,0,P|256:196|259:127,1,180,0|0,2:0|2:0,2:0:0:0:
88,86,328420,2,0,P|126:164|34:226,1,180,8|0,2:0|2:0,2:0:0:0:
177,16,328670,2,0,P|252:150|249:219,1,180,0|0,2:0|2:0,2:0:0:0:
61,353,328920,2,0,B|155:272|155:272|143:353,3,180,8|0|0|0,2:0|2:0|2:0|2:0,2:0:0:0:
19,144,329420,2,0,B|202:282|107:262|377:202,1,360,8|8,2:0|2:0,2:0:0:0:
496,24,329919,2,0,B|236:68|644:11,3,180,8|0|0|0,2:0|2:0|2:0|2:0,2:0:0:0:
475,79,330419,1,8,2:0:0:0:
469,92,330544,1,0,2:0:0:0:
462,107,330669,1,0,2:0:0:0:
460,123,330794,1,0,2:0:0:0:
392,131,330919,1,8,2:0:0:0:
409,182,331044,1,0,2:0:0:0:
438,224,331168,1,0,2:0:0:0:
482,261,331293,1,0,2:0:0:0:
414,315,331418,85,10,2:1:0:0:
489,354,331543,1,0,2:0:0:0:
256,192,331668,12,0,336414,2:0:0:0:
