osu file format v14

[General]
AudioFilename: butterfly.mp3
AudioLeadIn: 0
PreviewTime: 228363
Countdown: 0
SampleSet: Soft
StackLeniency: 0.8
Mode: 0
LetterboxInBreaks: 0
WidescreenStoryboard: 1

[Editor]
DistanceSpacing: 0.7
BeatDivisor: 4
GridSize: 32
TimelineZoom: 4.059997

[Metadata]
Title:Butterfly Collector
TitleUnicode:Butterfly Collector
Artist:A.R. Kane
ArtistUnicode:A.R. Kane
Creator:app
Version:Other
Source:
Tags:ar ethereal experimental english dream synth pop synthpop noise indie industrial rock shoegaze giyokon lollita
BeatmapID:4193129
BeatmapSetID:1910103

[Difficulty]
HPDrainRate:6
CircleSize:3.6
OverallDifficulty:8
ApproachRate:8.8
SliderMultiplier:2.22
SliderTickRate:1

[Events]
//Background and Video events
0,0,"png.png",0,0
//Break Periods
2,148054,149425
//Storyboard Layer 0 (Background)
//Storyboard Layer 1 (Fail)
//Storyboard Layer 2 (Pass)
//Storyboard Layer 3 (Foreground)
//Storyboard Layer 4 (Overlay)
//Storyboard Sound Samples

[TimingPoints]
3818,576.923076923077,99,2,1,5,1,8
15212,576.923076923077,99,2,1,5,1,0
19520,845.070422535211,99,2,1,5,1,8
25012,844.772967265047,99,2,1,5,1,8
37261,-1000,99,2,1,10,0,0
37683,-100,99,2,1,5,0,0
46131,499.168053244592,4,2,1,40,1,0
54117,504.201680672269,4,2,1,50,1,0
56133,495.867768595042,4,2,1,50,1,0
57620,508.474576271187,4,2,1,50,1,8
58128,495.867768595042,4,2,1,50,1,0
59119,504.20168067227,4,2,1,50,1,8
60127,495.867768595043,4,2,1,50,1,0
61118,505.263157894738,4,2,1,50,1,8
62128,498.960498960499,4,2,1,50,1,0
70111,497.92531120332,4,2,1,50,1,0
74094,489.795918367347,4,2,1,50,1,0
74583,533.333333333333,4,2,1,50,1,0
74583,-113.636363636364,4,2,1,50,0,0
75116,463.320463320463,4,2,1,50,1,0
75579,532.150776053215,4,2,1,50,1,8
76111,497.92531120332,4,2,1,50,1,0
78102,499.168053244592,4,2,1,50,1,0
82095,502.302218501465,4,2,1,50,1,0
84104,499.168053244592,4,2,1,50,1,0
86100,501.25313283208,4,2,1,50,1,0
88105,498.13200498132,4,2,1,50,1,0
90097,499.375780274657,4,2,1,50,1,0
96588,-125,4,2,1,50,0,0
98087,502.51256281407,4,2,1,50,1,0
98087,-125,4,2,1,50,0,0
100097,495.253817581511,4,2,1,50,1,0
102078,500,4,2,1,55,1,0
102078,-88.8888888888889,4,2,1,55,0,0
104078,500.208420175073,4,2,1,60,1,0
104078,-88.8888888888889,4,2,1,60,0,0
118083,498.753117206983,4,2,1,60,1,0
118083,-88.8888888888889,4,2,1,60,0,0
119828,-80,4,2,1,60,0,0
120078,499.500499500499,4,2,1,60,1,0
120078,-80,4,2,1,60,0,0
120327,-88.8888888888889,4,2,1,60,0,0
121576,-66.6666666666667,4,2,1,60,0,0
122076,-80,4,2,1,60,0,0
124074,498.960498960499,4,2,1,60,1,0
124074,-80,4,2,1,60,0,0
126069,498.753117206983,4,2,1,60,1,0
126069,-80,4,2,1,60,0,0
127565,509.337860780985,4,2,1,60,1,8
127565,-80,4,2,1,60,0,0
128074,499.168053244592,4,2,1,60,1,0
128074,-80,4,2,1,60,0,0
130070,-66.6666666666667,4,2,1,60,0,0
132067,-100,4,2,1,60,0,0
133564,-50,4,2,1,60,0,0
133814,-50,4,2,1,60,0,1
134064,499.708503373032,4,2,1,50,1,1
134230,-50,4,2,1,50,0,1
134563,-100,4,2,1,50,0,1
135063,-100,4,2,1,50,0,0
143058,447.527411053927,4,2,1,50,1,8
143505,605.632381144645,4,2,1,50,1,8
143807,499.770938319937,4,2,1,50,1,8
144056,499.833388870377,4,2,1,50,1,0
150054,499.625281039221,4,2,1,50,1,0
154051,475.850582916964,4,2,1,50,1,0
154526,512.42633871381,4,2,1,50,1,8
155038,483.520025787735,4,2,1,50,1,8
155521,516.840382461883,4,2,1,50,1,8
156037,516.840382461883,4,2,1,50,1,0
156554,498.919008814236,4,2,1,50,1,8
158050,499.043499958413,4,2,1,50,1,0
160046,500,4,2,1,50,1,0
161046,491.501126356748,4,2,1,50,1,8
162029,501.043841336117,4,2,1,50,1,0
166037,498.960498960499,4,2,1,50,1,0
170028,447.761194029851,4,2,1,50,1,0
170251,566.037735849057,4,2,1,50,1,8
170534,495.867768595041,4,2,1,50,1,8
171029,497.92531120332,4,2,1,50,1,8
172024,497.92531120332,4,2,1,50,1,0
173020,483.870967741936,4,2,1,50,1,8
173745,550.45871559633,4,2,1,50,1,8
174020,502.092050209205,4,2,1,50,1,0
176028,500.208420175073,4,2,1,50,1,0
182030,496.894409937888,4,2,1,60,1,0
184017,502.092050209205,4,2,1,60,1,0
186025,498.9604989605,4,2,1,60,1,0
192012,503.144654088051,4,2,1,60,1,0
194024,498.9604989605,4,2,1,60,1,0
196019,495.867768595043,4,2,1,60,1,0
198002,501.043841336119,4,2,1,60,1,0
198002,-88.8888888888889,4,2,1,60,0,0
202010,499.583680266445,4,2,1,60,1,0
206006,500,4,2,1,65,1,0
206006,-80,4,2,1,65,0,0
218506,-66.6666666666667,4,2,1,65,0,0
220006,498.960498960499,4,2,1,65,1,0
220006,-66.6666666666667,4,2,1,65,0,0
221502,-80,4,2,1,65,0,0
225494,-66.6666666666667,4,2,1,65,0,0
226118,-80,4,2,1,65,0,0
229735,-80,4,2,1,75,0,1
229985,504.201680672268,4,2,1,75,1,1
230237,-150.15015015015,4,2,1,75,0,1
230741,-150.15015015015,4,2,1,35,0,1
230993,-800,4,2,1,25,0,0
232001,497.925311203319,4,2,1,15,1,0
232498,-200,4,2,1,50,0,0
233743,-100.603621730382,4,2,1,70,0,1
233992,504.201680672269,4,2,1,70,1,1
234244,-100,4,2,1,70,0,1
234496,-100,4,2,1,35,0,1
235000,-100,4,2,1,35,0,0
236008,-133.333333333333,4,2,1,35,0,0
237521,476.190476190476,4,2,1,35,1,8
237997,461.538461538462,4,2,1,35,1,0
238458,508.044030482642,4,2,1,35,1,8
238458,-57.1428571428571,4,2,1,35,0,0
238748,-57.1428571428571,4,2,1,70,0,0
239791,-57.1428571428571,4,2,1,35,0,0
239982,499.654405702722,4,2,1,75,1,1
239982,-44.4444444444445,4,2,1,75,0,1
251973,-40,4,2,1,75,0,1
263965,-36.3636363636364,4,2,1,75,0,1
267837,-36.3636363636364,4,2,1,75,0,0
267962,-36.3636363636364,4,2,1,75,0,1
275957,-33.3333333333333,4,2,1,75,0,1
287948,-30.7692307692308,4,2,1,75,0,1
292195,-40,4,2,1,75,0,1
293445,-30.7692307692308,4,2,1,75,0,1
294943,-28.5714285714286,4,2,1,75,0,1
297816,-28.5714285714286,4,2,1,75,0,0
297941,-20,4,2,1,75,0,1
299940,-16.6666666666667,4,2,1,75,0,1
301939,-14.2857142857143,4,2,1,75,0,1
303937,-12.5,4,2,1,75,0,1
305936,-11.1111111111111,4,2,1,75,0,1
307934,-10,4,2,1,75,0,1
309433,-16.6666666666667,4,2,1,75,0,1
309683,-12.5,4,2,1,75,0,1
309933,-10,4,2,1,75,0,1
311807,-10,4,2,1,75,0,0
311932,-40,4,2,1,75,0,1
312431,-66.6666666666667,4,2,1,75,0,1
315804,-66.6666666666667,4,2,1,75,0,0
315929,-40,4,2,1,75,0,1
317428,-66.6666666666667,4,2,1,75,0,1
319801,-66.6666666666667,4,2,1,75,0,0
319926,-40,4,2,1,75,0,1
320926,-66.6666666666667,4,2,1,75,0,1
327421,-40,4,2,1,75,0,1
327921,-66.6666666666667,4,2,1,75,0,1
331668,-66.6666666666667,4,2,1,75,0,0
331793,-66.6666666666667,4,2,1,60,0,0
331918,499.654405702722,99,2,1,50,1,0
332042,-100,99,2,1,30,0,0
333083,-100,99,2,1,20,0,0
333458,-133.333333333333,99,2,1,20,0,0
334291,-133.333333333333,99,2,1,15,0,0

[Colours]
Combo1 : 168,168,217
Combo2 : 130,147,217
Combo3 : 95,87,242
Combo4 : 191,0,0
Combo5 : 52,57,116
Combo6 : 32,11,149
Combo7 : 255,102,102
Combo8 : 19,20,79

[HitObjects]
256,192,27123,12,0,36838,0:0:0:0:
191,229,37261,6,0,L|189:238,1,8.325
256,192,37683,12,0,46131,1:0:0:0:
26,20,47129,5,8,2:0:0:0:
494,135,47877,1,0,1:0:0:0:
421,169,48127,85,0,1:0:0:0:
429,89,48626,1,0,1:0:0:0:
494,135,49126,1,8,2:0:0:0:
26,364,50124,5,0,1:0:0:0:
494,249,51121,1,8,2:0:0:0:
26,364,51871,1,0,1:0:0:0:
92,328,52121,5,0,1:0:0:0:
26,290,52620,1,0,1:0:0:0:
26,290,53119,1,8,2:0:0:0:
96,29,54117,86,0,B|25:7|-15:126|71:157,1,194.25,2|0,1:2|0:0,2:0:0:0:
101,181,54621,2,0,B|172:203|212:84|126:53,1,194.25,2|0,2:0|0:0,0:0:0:0:
67,94,55125,5,10,2:0:0:0:
484,43,55629,1,2,2:0:0:0:
393,15,55881,1,2,1:2:0:0:
465,103,56133,5,2,1:2:0:0:
421,2,56380,1,0,0:0:0:0:
333,64,56628,1,2,1:2:0:0:
370,224,57124,1,8,2:0:0:0:
55,353,57620,86,0,L|-3:373,1,55.5,2|0,2:0|0:0,0:0:0:0:
60,360,57874,2,0,L|2:336,1,55.5,2|0,2:0|0:0,0:0:0:0:
66,369,58128,6,0,P|32:357|31:211,1,194.25,2|0,1:2|0:0,2:0:0:0:
48,192,58623,2,0,P|103:214|240:245,1,194.25,2|0,2:0|0:0,0:0:0:0:
297,205,59119,5,8,2:0:0:0:
239,2,59623,1,2,2:0:0:0:
189,58,59875,1,2,1:2:0:0:
309,108,60127,85,2,1:2:0:0:
261,6,60374,1,0,0:0:0:0:
180,98,60622,1,2,1:2:0:0:
246,295,61118,1,8,2:0:0:0:
269,267,61370,1,0,2:0:0:0:
120,182,61623,6,0,L|90:246,1,55.5,2|0,2:1|0:0,0:0:0:0:
73,208,61875,2,0,L|82:284,1,55.5,2|0,2:1|0:0,0:0:0:0:
158,338,62128,6,0,L|365:260,1,222,0|2,1:0|2:0,0:0:0:0:
492,48,63125,2,0,P|404:35|425:143,1,222,8|2,2:0|2:0,0:0:0:0:
492,48,63874,85,0,1:0:0:0:
424,18,64123,1,0,1:0:0:0:
347,25,64373,1,0,0:0:0:0:
286,68,64622,1,0,1:0:0:0:
286,68,65121,6,0,P|280:145|277:197,1,111,8|0,2:0|0:0,2:0:0:0:
434,323,65620,2,0,L|458:379,1,55.5,0|0,2:0|0:0,0:0:0:0:
363,333,65870,2,0,L|418:350,1,55.5,0|0,2:0|2:0,2:0:0:0:
318,268,66119,6,0,B|326:279|326:279|390:317|390:317|296:208,1,222,0|0,1:0|2:0,0:0:0:0:
98,49,67117,2,0,B|68:20|68:20|24:80|24:80|64:112|64:112|94:103|94:103|121:107,1,222,8|0,2:0|2:0,0:0:0:0:
436,5,67866,2,0,L|368:35,1,55.5,0|0,1:0|0:0,0:0:0:0:
373,77,68115,2,0,L|400:160,1,55.5,0|0,1:0|0:0,0:0:0:0:
370,163,68365,1,2,2:0:0:0:
512,301,68614,86,0,B|422:263|422:263|409:272|409:272|395:349|395:349|361:365,1,222,2|10,1:2|2:0,2:0:0:0:
327,273,69612,2,0,B|307:267|307:267|258:349|258:349|346:387|346:387|366:373,1,222,2|2,2:0|1:2,0:0:0:0:
128,113,70608,5,0,2:0:0:0:
87,30,71106,1,8,2:0:0:0:
19,292,71604,2,0,L|-8:365,1,55.5,2|0,2:0|0:0,0:0:0:0:
32,372,71853,1,0,1:0:0:0:
32,372,72102,1,0,1:0:0:0:
6,188,72600,1,0,1:0:0:0:
320,304,73098,6,0,B|302:340|250:354|187:323|237:267|127:246,1,222,10|0,2:0|2:0,2:0:0:0:
356,352,73845,1,0,2:0:0:0:
492,30,74094,86,0,L|454:237,1,194.25,0|0,1:0|0:0,2:0:0:0:
478,251,74583,2,0,L|443:70,1,170.940005216675,0|0,2:0|0:0,0:0:0:0:
427,6,75116,1,8,2:0:0:0:
167,105,75579,5,0,0:0:0:0:
154,125,75845,1,0,1:0:0:0:
230,113,76111,1,0,1:0:0:0:
171,138,76359,1,0,0:0:0:0:
74,138,76608,1,0,1:0:0:0:
47,261,77106,6,0,B|18:269|18:269|26:396,1,111,8|0,2:0|0:0,2:0:0:0:
266,293,77604,2,0,L|280:368,1,55.5,0|0,2:0|0:0,0:0:0:0:
294,311,77853,2,0,L|346:360,1,55.5,0|0,2:0|0:0,0:0:0:0:
193,240,78102,86,0,L|375:323,1,194.25,0|0,1:0|0:0,2:0:0:0:
408,294,78601,2,0,B|436:271|436:271|445:160|382:93,1,222,2|8,2:0|2:0,0:0:0:0:
116,18,79599,2,0,P|126:75|167:125,1,111,2|0,2:0|1:0,0:0:0:0:
0,178,80098,2,0,P|52:206|119:200,1,111,0|0,1:0|2:0,2:0:0:0:
316,78,80597,1,0,1:0:0:0:
372,56,80847,1,0,2:0:0:0:
448,62,81097,5,8,2:0:0:0:
424,87,81346,1,0,0:0:0:0:
378,95,81596,1,0,2:0:0:0:
316,78,81845,1,0,2:0:0:0:
256,19,82095,5,0,1:0:0:0:
256,19,82597,1,0,2:0:0:0:
256,19,83099,1,8,2:0:0:0:
256,19,83601,2,0,P|250:86|249:157,1,111,0|0,2:0|1:0,2:0:0:0:
170,218,84104,85,0,1:0:0:0:
224,291,84353,1,2,2:0:0:0:
142,367,84603,2,0,P|148:269|262:260,1,222,2|10,1:2|2:0,2:0:0:0:
253,253,85351,2,0,P|258:197|260:142,1,111,0|2,2:0|2:0,0:0:0:0:
240,66,85851,1,0,2:0:0:0:
311,3,86100,6,0,P|330:69|495:70,1,222,2|0,1:2|2:0,0:0:0:0:
311,3,87102,1,8,2:0:0:0:
144,43,87603,6,0,P|114:89|56:81,2,111,2|0|0,2:0|1:0|1:0,2:0:0:0:
245,162,88603,1,0,1:0:0:0:
50,345,89101,86,0,B|197:342|247:129|291:338|460:352,1,444,10|2,2:0|1:2,2:0:0:0:
466,295,90596,2,0,B|381:298|368:419|359:297|272:293,1,222,0|8,2:0|2:0,0:0:0:0:
250,363,91345,2,0,B|214:357|199:304|182:356|151:361,1,111,0|0,2:0|2:0,0:0:0:0:
27,257,91844,5,0,1:0:0:0:
85,297,92094,1,0,1:0:0:0:
128,215,92344,1,0,2:0:0:0:
169,295,92593,1,0,1:0:0:0:
444,75,93093,5,8,2:0:0:0:
390,131,93342,1,0,2:0:0:0:
299,21,93592,1,0,2:0:0:0:
220,28,93842,1,0,2:0:0:0:
268,90,94092,86,0,B|208:49|208:49|288:158|288:158|279:197,1,222,0|0,1:0|2:0,2:0:0:0:
202,364,95090,2,0,L|252:138,1,222,8|0,2:0|2:0,2:0:0:0:
185,12,95839,5,0,1:0:0:0:
33,115,96089,2,0,L|225:23,1,194.25,0|0,1:0|0:0,2:0:0:0:
227,51,96588,2,0,L|72:33,1,155.4,0|0,1:0|0:0,2:0:0:0:
0,49,97088,5,8,2:0:0:0:
72,33,97337,1,0,2:0:0:0:
149,61,97587,1,0,2:0:0:0:
189,127,97837,1,0,2:0:0:0:
187,204,98087,86,0,P|167:303|162:381,1,177.6,0|0,1:0|2:0,2:0:0:0:
399,226,98840,1,2,2:0:0:0:
451,220,98966,1,2,2:0:0:0:
444,229,99092,2,0,B|434:173|434:173|452:124|452:124|433:23,1,177.6,10|0,2:0|2:0,2:0:0:0:
497,0,99845,5,0,1:0:0:0:
481,90,100097,1,0,1:0:0:0:
286,11,100344,6,0,L|342:38,1,55.5,2|2,2:0|2:0,0:0:0:0:
256,54,100592,1,0,1:2:0:0:
223,43,100716,1,2,2:0:0:0:
194,68,100839,1,2,2:0:0:0:
147,42,100963,1,2,2:0:0:0:
101,73,101087,86,0,L|33:192,3,111,10|0|0|0,2:0|2:0|2:0|2:0,2:0:0:0:
266,215,102078,6,0,L|284:294,1,62.4375023818017,0|0,1:0|2:0,2:0:0:0:
246,279,102328,2,0,L|250:354,1,62.4375023818017,0|0,1:0|2:0,2:0:0:0:
298,58,102578,6,0,L|344:133,1,62.4375023818017,0|0,1:0|2:0,2:0:0:0:
264,149,102828,2,0,L|220:218,1,62.4375023818017,0|0,1:0|2:0,2:0:0:0:
210,6,103078,86,0,L|157:173,1,124.875004763603,8|0,2:0|1:0,0:0:0:0:
310,318,103578,6,0,L|327:378,1,62.4375023818017,8|0,2:0|0:0,0:0:0:0:
267,270,103828,2,0,L|202:296,1,62.4375023818017,8|0,2:0|0:0,0:0:0:0:
402,241,104078,6,0,L|257:211,1,124.875004763603,0|0,1:0|1:0,0:0:0:0:
168,0,104578,86,0,B|-12:26|-12:26|56:72,1,249.750009527207,2|10,1:2|2:0,0:0:0:0:
44,63,105328,1,0,1:0:0:0:
465,37,106078,5,0,1:2:0:0:
391,49,106328,1,2,1:2:0:0:
403,123,106579,1,0,1:2:0:0:
477,111,106829,1,0,1:2:0:0:
303,57,107079,6,0,L|286:126,1,62.4375023818017,8|0,2:0|0:0,0:0:0:0:
218,15,107329,2,0,L|235:87,1,62.4375023818017,0|0,1:0|0:0,0:0:0:0:
320,213,107579,86,0,L|381:284,1,62.4375023818017,8|0,2:0|0:0,0:0:0:0:
173,158,107829,2,0,L|105:182,1,62.4375023818017,8|0,2:0|0:0,0:0:0:0:
255,262,108079,6,0,L|280:390,3,124.875004763603,0|0|2|0,1:2|1:2|1:2|1:2,0:0:0:0:
188,34,109080,2,0,L|172:162,1,124.875004763603,10|0,2:0|1:2,0:0:0:0:
355,141,110080,5,0,1:2:0:0:
421,171,110330,1,2,1:2:0:0:
449,100,110580,1,0,1:2:0:0:
428,182,110830,1,0,1:2:0:0:
499,210,111080,86,0,L|510:282,1,62.4375023818017,8|0,2:0|0:0,0:0:0:0:
396,249,111331,2,0,L|405:323,1,62.4375023818017,0|0,1:0|0:0,0:0:0:0:
194,32,111581,6,0,L|183:104,1,62.4375023818017,8|0,2:0|0:0,0:0:0:0:
297,71,111831,2,0,L|288:145,1,62.4375023818017,8|0,2:0|0:0,0:0:0:0:
22,212,112081,6,0,L|41:359,3,124.875004763603,0|0|2|0,1:2|1:2|1:2|1:2,0:0:0:0:
279,87,113081,2,0,L|266:218,1,124.875004763603,10|0,2:0|1:0,0:0:0:0:
16,22,113832,1,2,1:2:0:0:
161,71,114082,85,0,1:2:0:0:
227,29,114332,1,2,1:2:0:0:
348,89,114582,1,0,1:2:0:0:
415,47,114832,1,0,1:2:0:0:
512,217,115082,6,0,L|515:135,1,62.4375023818017,8|0,2:0|0:0,0:0:0:0:
483,253,115332,2,0,L|486:335,1,62.4375023818017,0|0,1:0|0:0,0:0:0:0:
345,151,115582,6,0,L|348:69,1,62.4375023818017,8|0,2:0|0:0,0:0:0:0:
303,246,115832,2,0,L|306:328,1,62.4375023818017,8|0,2:0|0:0,0:0:0:0:
172,124,116083,86,0,L|163:-9,3,124.875004763603,0|0|2|0,1:2|1:2|1:2|1:2,0:0:0:0:
63,363,117083,2,0,L|75:215,1,124.875004763603,10|0,2:0|1:0,0:0:0:0:
39,172,117833,1,2,1:2:0:0:
449,117,118083,6,0,L|454:160,6,31.2187511909009,4|0|0|0|2|0|0,1:2|0:0|0:0|0:0|1:2|0:0|0:0,0:0:0:0:
493,76,118581,2,0,L|488:119,6,31.2187511909009,0|0|0|0|0|0|0,1:2|0:0|0:0|0:0|1:2|0:0|0:0,0:0:0:0:
435,21,119080,6,0,B|416:12|416:12|320:117,1,124.875004763603,8|0,2:0|1:0,0:0:0:0:
381,307,119579,2,0,B|360:325|360:325|356:384,1,62.4375023818017,10|2,2:0|2:0,2:0:0:0:
512,384,119828,2,0,B|519:376|519:376|440:347,1,69.375,10|2,2:0|2:0,2:0:0:0:
124,325,120078,86,0,L|78:336,1,34.6875,2|2,1:0|2:0,2:0:0:0:
124,325,120327,2,0,L|-13:300,3,124.875004763603,2|2|0|10,1:2|1:2|1:0|2:0,2:0:0:0:
192,250,121327,1,0,1:0:0:0:
130,191,121576,6,0,B|128:181|128:181|137:190,12,20.8125007939339,2|0|2|0|2|0|0|0|2|0|2|0|2,2:0|0:0|2:0|0:0|2:0|0:0|2:0|0:0|1:2|0:0|2:0|0:0|2:0,2:0:0:0:
29,95,122076,6,0,B|49:100|14:136|14:136|57:96|91:98|123:68|232:109,1,277.5,0|0,1:0|1:0,2:0:0:0:
422,38,122826,1,0,1:0:0:0:
281,18,123075,86,0,L|300:84,1,69.375,8|0,2:0|2:0,2:0:0:0:
430,141,123325,2,0,L|410:207,1,69.375,0|0,1:0|2:0,2:0:0:0:
190,253,123575,2,0,L|248:425,1,138.75,8|8,2:0|2:0,2:0:0:0:
512,89,124074,6,0,B|487:266,3,138.75,0|0|2|0,1:2|1:2|1:2|1:2,0:0:0:0:
382,0,125071,2,0,L|241:89,1,138.75,10|0,2:0|1:2,0:0:0:0:
222,135,125820,1,2,1:2:0:0:
26,346,126069,6,0,L|55:190,1,138.75,0|2,1:2|1:2,2:0:0:0:
252,270,126567,2,0,L|215:103,1,138.75,0|0,1:0|1:0,2:0:0:0:
474,364,127066,86,0,L|491:284,1,69.375,8|0,2:0|2:0,2:0:0:0:
333,196,127315,2,0,L|353:299,1,69.375,0|0,1:0|2:0,2:0:0:0:
184,371,127565,6,0,L|201:291,1,69.375,10|2,2:0|2:0,2:0:0:0:
0,118,127819,2,0,L|20:221,1,69.375,10|2,2:0|2:0,2:0:0:0:
243,15,128074,6,0,L|276:178,3,138.75,0|0|2|0,1:0|1:2|1:2|1:2,0:0:0:0:
5,210,129073,2,0,L|35:369,1,138.75,10|0,2:0|1:0,0:0:0:0:
99,381,129821,1,0,1:0:0:0:
333,193,130070,86,0,B|375:260|475:307|474:276|541:170|396:44|421:172|424:225|357:205,1,333.000012702942,2|2,1:0|1:0,2:0:0:0:
438,356,130820,1,2,1:2:0:0:
357,101,131069,6,0,L|413:14,1,83.2500031757356,8|0,2:0|0:0,2:0:0:0:
207,154,131317,2,0,L|100:117,1,83.2500031757356,0|0,1:0|0:0,0:0:0:0:
429,248,131568,6,0,L|503:309,1,83.2500031757356,8|0,2:0|2:0,2:0:0:0:
218,325,131818,2,0,L|147:383,1,83.2500031757356,8|0,2:0|2:0,2:0:0:0:
272,33,132068,86,0,L|288:152,3,111,0|0|2|0,1:2|1:2|1:2|1:2,0:0:0:0:
93,200,133066,2,0,L|67:332,1,111,10|0,2:0|1:0,0:0:0:0:
413,364,133565,6,0,B|429:368|429:368|419:353,4,27.75,2|0|2|0|2,2:0|0:0|2:0|0:0|2:0,2:0:0:0:
344,323,133814,70,0,B|323:300|323:300|337:263,1,55.5,2|0,1:2|0:0,0:0:0:0:
470,249,134230,2,0,B|495:279|495:279|476:314,1,74,2|0,0:0|0:0,0:0:0:0:
74,113,134563,22,0,L|27:142,1,55.5
93,98,134813,2,0,L|29:73,1,55.5
134,73,135063,2,0,L|105:15,1,55.5,8|0,2:0|2:0,2:0:0:0:
194,73,135313,2,0,L|228:9,1,55.5,0|0,2:0|2:0,2:0:0:0:
276,123,135563,2,0,L|377:104,1,55.5,0|0,2:0|2:0,2:0:0:0:
330,215,135812,2,0,L|402:258,1,55.5,0|0,1:0|2:0,2:0:0:0:
326,329,136062,2,0,L|362:387,1,55.5,0|0,1:0|0:0,0:0:0:0:
344,324,136312,2,0,L|418:353,1,55.5,0|0,2:0|0:0,0:0:0:0:
252,320,136562,22,0,L|373:305,1,111,2|0,1:2|0:0,2:0:0:0:
17,272,137062,2,0,L|280:309,1,222,10|2,2:0|2:0,0:0:0:0:
39,314,137811,54,0,B|42:328|42:328|15:372,1,55.5,2|0,2:0|0:0,2:0:0:0:
66,114,138061,1,0,1:0:0:0:
53,125,138311,2,0,P|52:181|207:199,1,222,2|0,2:0|0:0,0:0:0:0:
256,64,139061,21,8,2:0:0:0:
256,64,139560,2,0,P|252:126|253:192,1,111,0|0,2:0|1:0,2:0:0:0:
271,284,140060,1,0,1:0:0:0:
233,353,140310,1,0,2:0:0:0:
252,174,140560,22,0,P|252:118|248:63,1,111,2|0,1:2|0:0,2:0:0:0:
480,18,141059,2,0,P|413:3|350:150,1,222,10|2,2:0|2:0,0:0:0:0:
497,310,141809,54,0,L|506:379,1,55.5,2|0,2:0|0:0,2:0:0:0:
471,279,142059,1,0,1:0:0:0:
471,279,142309,2,0,B|406:343|345:227|255:296,1,222,2|0,2:0|2:0,2:0:0:0:
387,369,143058,22,0,P|392:125|390:107,1,222,8|0,2:0|2:0,0:0:0:0:
328,63,143807,1,0,1:0:0:0:
258,34,144055,1,0,1:0:0:0:
198,96,144305,1,0,2:0:0:0:
255,185,144556,6,0,P|258:247|213:292,1,111,2|0,1:2|0:0,0:0:0:0:
2,190,145056,2,0,P|-1:128|128:38,1,222,10|2,2:0|2:0,2:0:0:0:
385,106,145806,70,0,L|484:127,1,55.5,2|0,2:0|0:0,2:0:0:0:
481,87,146056,1,0,1:0:0:0:
372,119,146305,2,0,B|414:216|284:231|341:333,1,222,2|0,2:0|0:0,0:0:0:0:
336,324,147055,1,8,2:0:0:0:
334,213,150054,21,0,1:0:0:0:
334,213,150303,2,0,P|335:268|332:324,1,111,2|0,2:0|0:0,2:0:0:0:
367,360,150802,1,2,0:0:0:0:
336,324,151053,22,0,P|333:267|336:192,1,111,8|0,2:0|0:0,2:0:0:0:
355,199,151552,2,0,B|366:166|366:166|348:132,2,55.5,2|0|0,2:0|0:0|1:0,0:0:0:0:
326,124,152052,85,0,1:0:0:0:
273,252,152302,1,0,2:0:0:0:
238,118,152552,1,0,1:0:0:0:
197,187,152801,1,0,2:0:0:0:
169,28,153051,6,0,B|182:125|12:150|-3:90|54:83,1,222,8|0,2:0|2:0,2:0:0:0:
195,7,153801,1,0,2:0:0:0:
256,57,154051,1,0,1:0:0:0:
256,57,154526,1,0,2:0:0:0:
256,57,155038,6,0,P|252:151|258:308,1,222,8|0,2:0|2:0,0:0:0:0:
258,284,155779,1,0,1:0:0:0:
364,90,156037,2,0,P|377:127|424:190,1,111,0|0,1:0|2:0,0:0:0:0:
258,284,156554,2,0,P|354:352|467:374,1,222,0|8,1:0|2:0,0:0:0:0:
479,351,157303,1,0,0:0:0:0:
458,276,157552,1,0,2:0:0:0:
376,203,157802,1,0,2:0:0:0:
215,162,158050,86,0,P|125:145|71:137,1,111,0|2,1:0|2:0,0:0:0:0:
84,154,158425,1,0,0:0:0:0:
103,182,158549,2,0,B|164:169|185:77|88:-2,1,222,0|8,2:0|2:0,2:0:0:0:
165,254,159298,2,0,L|168:350,1,55.5
149,338,159547,1,0,2:0:0:0:
57,255,159795,5,0,1:0:0:0:
241,327,160046,1,0,1:0:0:0:
442,331,160296,1,0,0:0:0:0:
409,340,160546,6,0,L|497:367,1,55.5,2|0,1:2|0:0,2:0:0:0:
501,339,160796,2,0,B|521:272|521:272|481:212,1,111,2|8,2:0|2:0,0:0:0:0:
371,148,161292,85,0,0:0:0:0:
347,167,161538,1,0,0:0:0:0:
422,202,161784,1,2,2:0:0:0:
509,136,162029,2,0,P|480:34|354:63,1,222,0|0,1:0|2:0,2:0:0:0:
353,59,162780,6,0,L|356:93,2,27.75,2|2|2,2:0|2:0|2:0,2:0:0:0:
318,106,163031,2,0,L|315:140,2,27.75,10|2|2,2:0|2:0|2:0,2:0:0:0:
240,32,163281,2,0,L|237:66,2,27.75,2|2|2,2:0|2:0|2:0,2:0:0:0:
128,120,163532,2,0,L|140:253,1,111,0|0,2:0|1:0,0:0:0:0:
108,266,164033,5,0,1:0:0:0:
44,196,164283,1,0,2:0:0:0:
115,103,164534,1,0,1:0:0:0:
115,103,165035,86,0,P|170:125|240:117,1,111,8|0,2:0|2:0,2:0:0:0:
282,163,165536,1,0,2:0:0:0:
336,245,165786,1,0,2:0:0:0:
275,329,166037,6,0,B|157:289|167:386|20:355,1,222,0|0,1:0|0:0,0:0:0:0:
468,191,167034,1,8,2:0:0:0:
489,206,167284,2,0,L|496:281,1,55.5,2|0,2:0|0:0,0:0:0:0:
444,176,167533,2,0,B|402:81|342:31|342:31|417:77|436:120|436:120|394:150|398:207|428:242|465:234,1,444,2|0,2:0|1:0,2:0:0:0:
444,176,169030,6,0,P|441:232|454:288,1,111,8|0,2:0|0:0,2:0:0:0:
320,96,169529,2,0,L|350:171,1,55.5,0|0,2:0|0:0,0:0:0:0:
228,49,169779,2,0,L|271:96,1,55.5,0|0,2:0|0:0,0:0:0:0:
126,58,170028,86,0,L|240:125,1,111,0|0,1:0|2:0,0:0:0:0:
27,83,170534,2,0,L|251:152,1,222,0|8,0:0|0:0,0:0:0:0:
156,32,171526,2,0,L|194:155,1,111,0|0,2:0|1:0,0:0:0:0:
55,194,172024,5,0,1:0:0:0:
2,133,172273,1,0,2:0:0:0:
32,221,172522,1,0,1:0:0:0:
36,336,173020,6,0,L|57:227,1,111,8|0,2:0|2:0,2:0:0:0:
2,133,173504,1,0,2:0:0:0:
15,245,173745,1,0,2:0:0:0:
109,185,174020,86,0,B|223:205|190:261|358:275,1,222,0|2,1:0|2:0,2:0:0:0:
311,269,175024,2,0,B|301:296|301:296|333:329,1,55.5,8|0,2:0|0:0,2:0:0:0:
416,275,175275,1,2,2:0:0:0:
416,275,175401,1,0,0:0:0:0:
416,275,175526,6,0,P|427:229|373:177,1,111,0|0,2:0|1:0,0:0:0:0:
311,269,176028,1,0,1:0:0:0:
234,154,176278,1,0,0:0:0:0:
179,209,176528,6,0,L|169:289,1,55.5,2|0,1:2|0:0,2:0:0:0:
153,181,176778,2,0,B|109:133|94:181|52:156,1,111,0|8,0:0|0:0,0:0:0:0:
83,316,177278,1,2,2:0:0:0:
83,316,177778,1,2,2:0:0:0:
155,357,178028,85,2,1:2:0:0:
194,329,178153,1,2,2:0:0:0:
220,342,178278,1,2,2:0:0:0:
248,316,178403,1,2,2:0:0:0:
295,348,178529,1,2,2:0:0:0:
352,292,178779,1,2,2:0:0:0:
435,365,179029,1,10,2:0:0:0:
512,287,179279,1,2,2:0:0:0:
256,160,179529,5,0,0:0:0:0:
246,168,179654,1,0,2:0:0:0:
272,182,179779,1,2,1:2:0:0:
267,138,179904,1,0,0:0:0:0:
226,149,180029,6,0,L|186:139,1,27.75,0|0,1:0|0:0,0:0:0:0:
235,207,180154,2,0,L|224:255,1,27.75
290,199,180279,2,0,L|329:208,1,27.75,0|0,2:0|0:0,2:0:0:0:
282,142,180404,2,0,L|293:99,1,27.75
224,156,180529,86,0,L|163:74,2,74,0|0|0,1:0|0:0|0:0,0:0:0:0:
317,205,181030,6,0,L|371:277,1,88.8,8|0,2:0|0:0,0:0:0:0:
207,255,181447,5,0,0:0:0:0:
324,101,181630,85,0,0:0:0:0:
126,191,182030,6,0,P|66:169|30:279,1,166.5,8|0,2:0|0:0,2:0:0:0:
143,174,182526,6,0,L|160:41,1,111,10|0,2:0|2:0,2:0:0:0:
275,239,183023,2,0,L|258:372,1,111,10|0,2:0|2:0,2:0:0:0:
59,159,183520,2,0,L|76:26,1,111,10|0,2:0|1:0,2:0:0:0:
362,251,184017,85,10,1:2:0:0:
362,251,184519,2,0,B|387:17,1,222,10|8,2:0|2:0,2:0:0:0:
385,30,185272,1,0,2:0:0:0:
454,243,185523,2,0,L|476:367,1,111,10|0,2:0|0:0,2:0:0:0:
259,147,186025,6,0,L|296:385,2,222,8|8|8,2:0|2:0|2:0,2:0:0:0:
61,43,187272,1,0,2:0:0:0:
61,43,187521,2,0,L|81:183,1,111,8|0,2:0|1:0,2:0:0:0:
362,220,188020,6,0,L|327:0,2,222,8|8|8,1:2|2:0|2:0,2:0:0:0:
181,364,189268,1,0,2:0:0:0:
181,364,189517,2,0,L|168:290,1,55.5,8|0,2:0|0:0,2:0:0:0:
248,164,189767,2,0,L|261:238,1,55.5,0|0,1:0|0:0,0:0:0:0:
22,59,190016,85,8,1:2:0:0:
7,73,190266,1,0,2:0:0:0:
127,10,190515,6,0,P|96:73|78:139,1,111,10|0,2:0|2:0,0:0:0:0:
281,112,191014,2,0,P|263:180|259:247,1,111,10|0,2:0|2:0,0:0:0:0:
494,78,191513,2,0,P|482:140|497:232,1,111,10|0,2:0|1:0,0:0:0:0:
262,316,192012,5,10,1:2:0:0:
247,330,192263,1,0,2:0:0:0:
323,250,192515,2,0,P|280:233|207:220,1,111,8|0,2:0|2:0,0:0:0:0:
418,174,193018,2,0,P|380:116|338:90,1,111,8|0,2:0|2:0,0:0:0:0:
68,13,193521,86,0,B|23:46|101:38|-10:56|55:135,1,111,10|0,2:0|1:0,0:0:0:0:
467,346,194024,2,0,B|425:192|269:233|336:373|289:414|103:312|-27:149|394:123|62:212|169:350|102:339|0:316|-82:114|11:134|145:101|359:390|102:235|124:375,1,777,8|0,1:2|1:0,2:0:0:0:
464,30,196019,6,0,P|426:137|369:216,1,166.5,8|0,1:2|0:0,2:0:0:0:
498,87,196514,2,0,P|416:154|340:186,1,166.5,8|0,2:0|0:0,2:0:0:0:
297,133,197010,1,8,2:0:0:0:
297,133,197506,1,8,2:0:0:0:
500,202,197754,1,0,1:0:0:0:
438,244,198002,6,0,L|468:330,1,62.4375023818017,0|0,1:0|0:0,0:0:0:0:
418,280,198252,2,0,L|428:353,1,62.4375023818017,0|0,1:0|0:0,0:0:0:0:
305,145,198503,2,0,L|277:287,1,124.875004763603,0|0,1:0|1:0,0:0:0:0:
100,272,199004,86,0,L|123:335,1,62.4375023818017,8|0,2:0|0:0,0:0:0:0:
52,363,199254,2,0,L|81:219,1,124.875004763603,0|8,1:0|2:0,0:0:0:0:
281,136,199755,6,0,L|298:6,2,124.875004763603,8|0|0,2:0|1:0|1:0,0:0:0:0:
281,136,200507,1,2,1:2:0:0:
281,136,200757,1,0,1:0:0:0:
223,102,201008,5,10,2:0:0:0:
223,102,201258,1,0,1:0:0:0:
151,77,202010,85,0,1:0:0:0:
151,77,202259,1,2,1:2:0:0:
80,55,202509,1,0,1:0:0:0:
80,55,202759,1,0,1:0:0:0:
7,40,203009,5,8,2:0:0:0:
7,40,203258,1,0,1:0:0:0:
84,73,203508,1,8,2:0:0:0:
84,73,203758,1,8,2:0:0:0:
154,118,204008,5,0,1:0:0:0:
154,118,204258,1,0,1:0:0:0:
215,171,204507,1,2,1:2:0:0:
215,171,204757,1,0,1:2:0:0:
263,238,205007,85,10,2:0:0:0:
263,238,205257,1,0,1:0:0:0:
301,309,205507,1,2,1:2:0:0:
301,309,205756,1,2,1:2:0:0:
321,381,206006,6,0,P|345:252|411:109,3,277.5,8|8|8|8,2:0|2:0|2:0|2:0,2:0:0:0:
459,61,207756,2,0,P|443:128|408:192,1,138.75,8|8,2:0|2:0,2:0:0:0:
138,245,208256,5,0,1:0:0:0:
63,263,208506,2,0,L|198:294,1,138.75,10|0,2:0|1:0,2:0:0:0:
64,50,209006,2,0,L|199:19,1,138.75,10|0,2:0|1:0,2:0:0:0:
0,279,209506,2,0,L|118:308,1,69.375,8|0,2:0|2:0,2:0:0:0:
138,245,209756,1,2,1:2:0:0:
325,374,210006,86,0,B|365:317|365:317|339:244,1,138.75,8|2,2:0|1:2,0:0:0:0:
154,122,210506,2,0,B|114:179|114:179|140:252,1,138.75,8|0,2:0|1:0,2:0:0:0:
406,145,211006,2,0,B|446:88|446:88|420:15,1,138.75,8|0,2:0|1:0,2:0:0:0:
70,62,211506,6,0,B|45:75|45:75|110:155,1,69.375,8|0,2:0|2:0,2:0:0:0:
0,142,211756,2,0,B|-16:164|-16:164|76:208,1,69.375,8|0,2:0|2:0,2:0:0:0:
104,198,212006,6,0,B|311:151|311:151|271:206,1,277.5,8|10,2:0|2:0,2:0:0:0:
272,203,212756,1,0,1:0:0:0:
73,350,213006,86,0,L|87:211,1,138.75,10|0,2:0|1:0,2:0:0:0:
376,98,213506,1,10,2:0:0:0:
425,239,213756,1,2,1:2:0:0:
227,50,214006,6,0,P|124:13|-8:9,1,208.125,10|0,2:0|0:0,0:0:0:0:
4,99,214506,2,0,L|125:75,3,69.375,8|0|0|0,0:0|0:0|1:0|0:0,0:0:0:0:
93,107,215006,1,8,0:0:0:0:
206,146,215256,1,0,1:0:0:0:
348,230,215506,6,0,P|374:323|422:391,2,138.75,8|8|8,2:0|2:0|2:0,0:0:0:0:
436,46,216256,1,0,1:0:0:0:
436,46,216381,1,0,0:0:0:0:
436,46,216506,2,0,L|451:131,3,69.375,10|0|0|0,2:0|2:0|1:0|2:0,2:0:0:0:
304,68,217006,2,0,L|395:132,3,69.375,10|0|0|0,2:0|2:0|1:0|2:0,2:0:0:0:
188,103,217506,86,2,L|485:141,1,277.5,10|8,2:0|2:0,2:1:0:0:
38,289,218256,2,0,B|13:293|13:293|10:354,1,69.375,2|0,1:2|2:0,0:0:0:0:
144,300,218506,2,0,L|126:168,1,83.2500031757356,8|0,2:0|2:0,2:0:0:0:
106,190,218756,1,0,1:0:0:0:
141,145,218881,1,0,2:0:0:0:
108,96,219006,6,0,L|96:178,1,83.2500031757356,8|0,2:0|0:0,2:0:0:0:
18,197,219256,1,0,1:0:0:0:
38,229,219381,1,0,0:0:0:0:
9,268,219506,6,0,L|194:240,2,166.500006351471,8|8|8,2:0|2:0|2:0,0:0:0:0:
326,351,220255,2,0,L|449:378,1,83.2500031757356,0|0,1:0|2:0,0:0:0:0:
468,325,220504,85,10,2:0:0:0:
478,313,220629,1,0,2:0:0:0:
468,290,220754,1,0,1:0:0:0:
440,272,220879,1,0,2:0:0:0:
404,243,221003,5,10,2:0:0:0:
394,231,221128,1,0,2:0:0:0:
404,208,221253,1,0,1:0:0:0:
432,190,221378,1,0,2:0:0:0:
484,163,221502,6,2,P|468:60|300:83,1,277.5,10|8,2:0|2:0,2:1:0:0:
440,272,222251,1,2,1:2:0:0:
258,116,222500,86,0,L|258:215,1,69.375,8|0,2:0|2:0,2:0:0:0:
300,249,222750,1,0,1:0:0:0:
100,88,222999,2,0,L|100:187,1,69.375,8|0,2:0|0:0,2:0:0:0:
142,221,223249,1,0,1:0:0:0:
284,40,223498,5,8,2:0:0:0:
431,369,223748,1,8,2:0:0:0:
50,313,223997,1,8,2:0:0:0:
264,189,224247,1,0,1:0:0:0:
121,172,224496,6,0,B|96:237|96:237|156:319,1,138.75,10|0,2:0|1:0,2:0:0:0:
423,230,224995,2,0,B|448:165|448:165|388:83,1,138.75,10|0,2:0|1:0,0:0:0:0:
221,18,225494,86,0,P|240:160|267:385,1,333.000012702942,10|8,2:0|2:0,0:0:0:0:
242,373,226118,1,0,0:0:0:0:
230,350,226243,2,0,L|256:253,1,69.375,2|0,1:2|0:0,0:0:0:0:
323,277,226492,6,0,L|393:229,3,69.375,8|0|0|0,2:0|0:0|1:0|0:0,2:0:0:0:
433,291,226991,2,0,L|514:289,1,69.375,8|0,2:0|0:0,2:0:0:0:
466,217,227240,1,0,1:0:0:0:
117,105,227490,5,8,2:0:0:0:
466,217,227739,1,8,2:0:0:0:
145,176,227989,1,8,2:0:0:0:
508,151,228238,1,0,1:0:0:0:
117,105,228488,86,0,P|172:43|326:43,1,208.125,10|0,2:0|2:0,0:0:0:0:
145,176,228987,2,0,B|130:108|-21:72|-35:183|56:171,1,208.125,10|0,2:0|2:0,2:0:0:0:
199,223,229486,2,0,B|233:241|233:241|201:323,1,69.375,10|0,2:0|2:0,2:0:0:0:
0,383,229735,38,2,P|1:371|3:360,6,23.125,2|0|0|0|0|0|0,1:0|0:0|0:0|0:0|0:0|0:0|0:0,2:1:0:0:
512,144,230237,2,2,B|498:1|526:147|511:1,1,147.852003609668,2|0,1:0|0:0,0:1:0:0:
105,328,230993,38,2,P|83:352|87:378,1,55.5,2|0,0:1|0:0,0:1:0:0:
31,30,232498,2,0,B|55:141|24:38|51:161,2,111,2|2|2,0:1|0:1|0:1,0:0:0:0:
406,272,233743,70,2,B|479:380|623:409|449:312,1,222,2|2,1:0|0:1,0:1:0:0:
386,343,234496,1,2,0:0:0:0:
499,25,235000,102,0,P|492:89|482:147,3,111
154,128,236008,102,0,P|180:239|162:306,1,166.500006351471
316,354,236765,1,0,0:0:0:0:
469,3,237017,102,0,P|477:53|482:104,2,83.2500031757356,2|2|2,0:0|0:0|0:0,0:0:0:0:
200,78,237759,1,0,0:0:0:0:
22,248,237997,22,0,P|81:262|164:342,1,166.5
256,192,238458,102,0,B|252:146|366:104|331:239|431:234,1,222.000002117157,0|2,0:0|1:0,0:0:0:0:
256,192,238839,12,0,239791,0:0:0:0:
118,75,239982,38,0,P|123:132|186:216,1,124.875004763603,12|0,2:0|2:0,2:0:0:0:
103,298,240231,1,0,2:0:0:0:
95,311,240356,1,0,2:0:0:0:
112,330,240481,54,0,P|161:366|258:370,1,124.875004763603,8|0,2:0|2:0,2:0:0:0:
411,318,240731,1,0,2:0:0:0:
433,353,240856,1,0,2:0:0:0:
395,333,240981,54,0,P|396:267|366:211,1,124.875004763603,8|0,2:0|2:0,2:0:0:0:
225,132,241231,2,0,P|162:145|103:190,1,124.875004763603,0|0,2:0|2:0,0:0:0:0:
490,214,241480,54,0,B|373:247|359:282|168:336,2,249.750009527207,8|8|8,2:0|2:0|2:0,2:0:0:0:
349,11,242230,53,0,2:0:0:0:
323,21,242355,1,0,2:0:0:0:
319,35,242480,53,8,2:0:0:0:
351,64,242605,1,0,2:0:0:0:
297,99,242730,1,0,2:0:0:0:
316,142,242855,1,0,2:0:0:0:
273,176,242979,54,0,B|279:240|239:240|249:307,1,124.875004763603,8|0,2:0|2:0,0:0:0:0:
407,363,243229,1,0,2:0:0:0:
407,363,243354,1,0,2:0:0:0:
407,363,243479,2,2,B|286:241|53:252|39:388|227:381,1,374.62501429081,8|0,2:0|2:0,2:1:0:0:
237,330,243979,54,0,B|251:270|197:273|229:182,1,124.875004763603,12|0,2:0|0:0,2:0:0:0:
96,62,244229,1,0,2:0:0:0:
58,88,244353,1,0,2:0:0:0:
21,54,244478,53,8,2:0:0:0:
21,54,244603,1,0,2:0:0:0:
21,54,244728,1,0,2:0:0:0:
255,17,244978,53,8,2:0:0:0:
255,17,245103,1,0,0:0:0:0:
255,17,245228,1,0,2:0:0:0:
225,43,245353,1,0,2:0:0:0:
268,81,245478,54,0,B|248:107|245:104|229:128|229:128|294:173|326:245|326:245|301:336,2,249.750009527207,8|8|8,2:0|2:0|2:0,2:0:0:0:
491,163,246227,1,0,2:0:0:0:
438,182,246352,1,0,2:0:0:0:
443,143,246477,54,0,B|470:184|470:184|418:285,1,124.875004763603,8|0,2:0|2:0,0:0:0:0:
280,370,246727,1,0,2:0:0:0:
258,374,246852,1,0,2:0:0:0:
238,378,246977,54,0,B|190:377|190:377|115:323,1,124.875004763603,8|0,2:0|0:0,2:0:0:0:
271,231,247226,1,0,0:0:0:0:
271,231,247351,1,0,2:0:0:0:
299,199,247476,54,0,L|305:278,6,62.4375023818017,14|0|2|0|2|0|2,2:0|2:0|2:0|2:0|2:0|2:0|2:0,2:0:0:0:
228,160,247976,54,0,B|237:-4|201:-7|210:165,1,249.750009527207,8|0,2:0|2:0,2:0:0:0:
216,292,248351,1,0,2:0:0:0:
156,336,248476,2,0,P|225:327|306:347,1,124.875004763603,8|0,2:0|0:0,2:0:0:0:
156,193,248725,2,0,P|218:202|310:181,1,124.875004763603,2|0,2:1|2:0,0:0:0:0:
211,60,248975,53,8,2:0:0:0:
185,6,249100,1,0,2:0:0:0:
113,14,249225,1,0,2:0:0:0:
94,83,249350,1,0,2:0:0:0:
161,119,249475,54,0,B|277:73|277:73|409:131,2,249.750009527207,10|8|8,2:1|2:0|2:0,2:0:0:0:
95,206,250224,53,0,2:0:0:0:
36,188,250349,1,0,2:0:0:0:
18,253,250474,53,8,2:0:0:0:
79,218,250599,1,0,2:0:0:0:
131,241,250724,1,2,2:1:0:0:
138,288,250849,1,0,2:0:0:0:
159,292,250974,54,0,B|181:336|181:336|72:305,1,124.875004763603,8|0,2:0|2:0,2:0:0:0:
329,365,251224,2,0,B|307:321|307:321|416:352,1,124.875004763603,0|2,2:0|2:1,2:0:0:0:
257,184,251474,54,2,B|218:19|218:19|328:98|328:98|259:174,1,374.62501429081,8|0,2:0|2:0,2:1:0:0:
189,156,251973,54,0,B|121:169|121:169|6:66,1,138.75,12|0,2:0|0:0,2:0:0:0:
325,216,252223,2,0,B|396:203|396:203|494:291,1,138.75,0|0,2:0|2:0,0:0:0:0:
223,362,252473,53,8,2:0:0:0:
193,293,252598,1,0,2:0:0:0:
237,331,252723,1,0,2:0:0:0:
176,363,252848,1,0,2:0:0:0:
131,328,252973,54,0,P|110:282|117:166,1,138.75,8|0,2:0|2:0,2:0:0:0:
345,207,253222,2,0,P|357:288|329:366,1,138.75,0|0,2:0|2:0,0:0:0:0:
203,22,253472,53,8,2:0:0:0:
242,51,253597,1,0,2:0:0:0:
319,43,253722,1,10,2:1:0:0:
270,17,253847,1,0,2:1:0:0:
211,77,253972,54,0,B|116:152|181:369|253:357,1,277.5,8|0,2:0|0:0,2:0:0:0:
268,308,254347,1,0,2:0:0:0:
278,292,254471,53,8,2:0:0:0:
223,263,254596,1,0,0:0:0:0:
188,296,254721,1,0,2:0:0:0:
136,292,254846,1,0,2:0:0:0:
96,311,254971,54,0,B|43:265|43:265|71:177,1,138.75,8|0,2:0|2:0,2:0:0:0:
303,223,255221,2,0,B|323:157|323:157|270:111,1,138.75,0|0,2:0|2:0,2:0:0:0:
305,331,255471,54,2,B|290:365|290:365|340:346,6,69.375,8|0|0|0|0|0|0,2:0|0:0|0:0|0:0|0:0|0:0|2:0,2:1:0:0:
404,363,255970,5,12,2:0:0:0:
428,322,256095,1,0,0:0:0:0:
411,269,256220,1,0,2:0:0:0:
432,222,256345,1,0,2:0:0:0:
405,150,256470,102,0,B|411:214|387:258|387:258|423:338,1,138.75,8|0,2:0|2:0,2:0:0:0:
341,84,256720,2,0,B|295:127|247:135|247:135|184:87,1,138.75,0|0,2:0|2:0,2:0:0:0:
47,206,256970,5,8,2:0:0:0:
66,173,257095,1,0,0:0:0:0:
25,134,257220,1,0,2:0:0:0:
52,83,257344,1,0,2:0:0:0:
34,51,257469,102,0,B|104:-12|124:37|246:42|187:144|84:61|179:262,2,277.5,8|8|8,2:0|2:0|2:0,2:0:0:0:
56,337,258219,5,0,0:0:0:0:
52,344,258344,1,0,2:0:0:0:
34,306,258469,101,8,2:0:0:0:
103,292,258594,1,0,2:0:0:0:
118,361,258719,1,0,2:0:0:0:
188,347,258843,1,0,2:0:0:0:
192,354,258968,6,0,P|241:313|212:198,1,138.75,8|0,2:0|2:0,2:0:0:0:
88,193,259218,2,0,P|39:234|68:349,1,138.75,0|0,2:0|2:0,0:0:0:0:
194,94,259468,102,2,B|291:-58|542:-48|385:98|306:95|241:72,1,416.25,8|0,2:0|2:0,2:1:0:0:
164,15,259968,5,12,2:0:0:0:
126,8,260093,1,0,0:0:0:0:
94,15,260218,1,0,2:0:0:0:
73,32,260342,1,0,2:0:0:0:
4,71,260467,101,8,2:0:0:0:
55,61,260592,1,0,2:0:0:0:
101,79,260717,1,0,2:0:0:0:
135,113,260841,1,0,2:0:0:0:
200,153,260967,5,8,2:0:0:0:
145,122,261092,1,0,2:0:0:0:
87,135,261217,1,0,2:0:0:0:
47,178,261342,1,0,2:0:0:0:
0,240,261467,102,0,B|77:168|231:107|147:275|281:306|306:232,2,277.5,8|8|8,2:0|2:0|2:0,2:0:0:0:
261,113,262216,5,0,2:0:0:0:
261,113,262341,1,0,2:0:0:0:
244,88,262466,101,8,2:0:0:0:
261,34,262591,1,0,2:0:0:0:
321,76,262716,1,0,2:0:0:0:
336,63,262841,1,0,2:0:0:0:
343,82,262966,6,0,B|308:152|308:152|363:284,1,138.75,8|0,2:0|2:0,2:0:0:0:
410,15,263215,2,0,B|437:82|437:82|562:149,1,138.75,0|0,2:0|2:0,0:0:0:0:
440,297,263465,102,2,L|453:370,6,69.375,8|0|0|0|0|0|0,2:0|0:0|0:0|0:0|0:0|0:0|2:0,2:1:0:0:
423,384,263965,6,0,L|80:267,1,305.250002911091,12|0,2:0|2:0,2:0:0:0:
0,319,264340,1,0,2:0:0:0:
33,354,264465,2,0,L|199:319,1,152.625001455545,8|0,2:0|2:0,0:0:0:0:
229,383,264714,2,0,L|90:299,1,152.625001455545,0|0,2:0|2:0,0:0:0:0:
59,29,264964,101,8,2:0:0:0:
116,81,265089,1,0,2:0:0:0:
164,62,265214,1,0,2:0:0:0:
129,53,265339,1,0,2:0:0:0:
165,93,265464,6,0,B|190:151|190:151|242:38,1,152.625001455545,8|0,2:0|2:0,2:0:0:0:
309,180,265714,2,0,B|290:240|290:240|396:187,1,152.625001455545,8|0,2:0|2:0,2:0:0:0:
10,234,265964,102,0,B|252:117|252:117|162:348,1,457.875004366636,8|0,2:0|2:0,2:0:0:0:
165,369,266463,5,8,2:0:0:0:
147,363,266588,1,0,2:0:0:0:
113,320,266713,1,0,2:0:0:0:
56,348,266838,1,0,2:0:0:0:
20,300,266963,101,8,2:0:0:0:
25,289,267088,1,0,2:0:0:0:
75,274,267213,1,0,2:0:0:0:
113,320,267338,1,0,2:0:0:0:
147,363,267462,6,2,P|375:279|361:30,1,457.875004366636,8|0,2:0|2:0,2:1:0:0:
390,19,267962,21,12,2:0:0:0:
337,45,268087,1,0,2:0:0:0:
353,94,268212,1,0,2:0:0:0:
388,118,268337,1,0,2:0:0:0:
431,97,268462,85,8,2:0:0:0:
388,118,268587,1,0,2:0:0:0:
379,138,268712,1,0,2:0:0:0:
345,154,268837,1,0,2:0:0:0:
314,201,268961,21,8,2:0:0:0:
259,162,269086,1,0,2:0:0:0:
207,185,269211,1,0,2:0:0:0:
167,158,269336,1,0,2:0:0:0:
136,169,269461,86,0,B|-51:65|-45:192|83:104|72:-33|11:47|121:76,2,305.250002911091,8|8|8,2:0|2:0|2:0,2:0:0:0:
440,362,270211,21,0,2:0:0:0:
448,353,270336,1,0,2:0:0:0:
423,313,270460,85,8,2:0:0:0:
378,325,270585,1,0,2:0:0:0:
343,290,270710,1,0,2:0:0:0:
373,246,270835,1,0,2:0:0:0:
428,261,270960,21,8,2:0:0:0:
468,222,271085,1,0,2:0:0:0:
430,162,271210,1,0,2:0:0:0:
364,189,271335,1,0,2:0:0:0:
364,189,271460,2,2,B|333:163|333:163|329:206,6,76.3125007277727,8|0|0|0|0|0|0,2:0|0:0|0:0|0:0|0:0|0:0|2:0,2:1:0:0:
96,332,271959,85,12,2:0:0:0:
83,323,272084,1,0,2:0:0:0:
40,337,272209,1,0,2:0:0:0:
88,363,272334,1,0,2:0:0:0:
139,335,272459,21,8,2:0:0:0:
162,343,272584,1,0,2:0:0:0:
190,373,272709,1,0,2:0:0:0:
242,364,272834,1,0,2:0:0:0:
288,313,272959,85,8,2:0:0:0:
320,321,273084,1,0,2:0:0:0:
352,370,273209,1,0,2:0:0:0:
424,382,273333,1,0,2:0:0:0:
495,346,273458,22,0,B|395:160|473:41|420:215|499:293,2,305.250002911091,8|8|8,2:0|2:0|2:0,2:0:0:0:
256,192,274208,85,0,2:0:0:0:
256,192,274333,1,0,2:0:0:0:
232,193,274458,21,8,2:0:0:0:
266,211,274583,1,0,2:0:0:0:
262,172,274707,1,0,2:0:0:0:
234,223,274832,1,0,2:0:0:0:
289,206,274957,85,8,2:0:0:0:
242,165,275082,1,0,2:0:0:0:
222,233,275207,1,0,2:0:0:0:
293,246,275332,1,0,2:0:0:0:
315,177,275457,22,2,B|295:167|295:167|33:227|94:185|48:253|48:253|184:305|184:305|204:329,1,457.875004366636,8|0,2:0|0:0,2:1:0:0:
280,346,275957,86,0,P|390:344|461:356,1,166.500006351471,12|0,2:0|2:0,2:0:0:0:
482,314,276206,1,0,2:0:0:0:
475,264,276331,1,0,2:0:0:0:
473,222,276456,22,0,P|362:210|271:223,1,166.500006351471,8|0,2:0|2:0,2:0:0:0:
227,242,276706,1,0,2:0:0:0:
218,295,276831,1,0,2:0:0:0:
259,328,276956,86,0,P|282:241|283:138,1,166.500006351471,8|0,2:0|2:0,2:0:0:0:
85,315,277206,2,0,P|86:204|109:125,1,166.500006351471,0|0,2:0|2:0,0:0:0:0:
320,0,277456,21,8,2:0:0:0:
392,189,277705,85,8,2:0:0:0:
294,373,277955,21,8,2:0:0:0:
314,333,278080,1,0,0:0:0:0:
268,290,278205,1,0,2:0:0:0:
218,321,278330,1,0,2:0:0:0:
235,368,278455,85,8,2:0:0:0:
189,338,278580,1,0,2:0:0:0:
145,356,278705,1,0,2:0:0:0:
110,326,278830,1,0,2:0:0:0:
64,339,278955,22,0,B|9:272|9:272|95:311,1,166.500006351471,8|0,2:0|2:0,0:0:0:0:
251,317,279204,2,0,B|277:235|277:235|204:322,1,166.500006351471,0|0,2:0|2:0,0:0:0:0:
407,276,279454,86,2,B|414:258|414:258|437:281|437:281|430:248,6,83.2500031757356,8|0|0|0|0|0|0,2:0|0:0|0:0|0:0|0:0|0:0|2:0,2:1:0:0:
356,292,279954,21,12,2:0:0:0:
389,330,280079,1,0,0:0:0:0:
441,318,280204,1,0,2:0:0:0:
478,352,280329,1,0,2:0:0:0:
466,364,280454,86,0,L|496:188,1,166.500006351471,8|0,2:0|2:0,2:0:0:0:
382,127,280703,2,0,L|354:303,1,166.500006351471,0|0,2:0|2:0,2:0:0:0:
280,356,280953,21,8,2:0:0:0:
246,325,281078,1,0,2:0:0:0:
200,336,281203,1,0,2:0:0:0:
165,301,281328,1,0,2:0:0:0:
152,308,281453,86,0,B|222:201|204:166|212:159|212:159|220:164|212:202|314:294,2,333.000012702942,8|8|8,2:0|2:0|2:0,2:0:0:0:
327,22,282202,1,0,2:0:0:0:
327,22,282327,1,0,2:0:0:0:
362,52,282452,21,8,2:0:0:0:
406,26,282577,1,0,2:0:0:0:
444,61,282702,1,0,2:0:0:0:
489,37,282827,1,0,2:0:0:0:
444,61,282952,85,8,2:0:0:0:
406,26,283077,1,0,2:0:0:0:
362,52,283202,1,0,2:0:0:0:
327,22,283327,1,0,2:0:0:0:
283,42,283451,22,2,B|191:245|332:201|240:362|240:362|263:267|192:151,1,499.500019054414,8|0,2:0|2:0,2:1:0:0:
174,135,283951,86,0,B|74:169|145:32|191:45,1,166.500006351471,12|0,2:0|2:0,0:0:0:0:
342,205,284201,2,0,B|441:239|370:102|324:115,1,166.500006351471,0|0,2:0|2:0,0:0:0:0:
94,276,284451,21,8,2:0:0:0:
157,261,284576,1,0,2:0:0:0:
215,272,284701,1,0,2:0:0:0:
271,293,284825,1,0,2:0:0:0:
303,344,284950,85,8,2:0:0:0:
318,335,285075,1,0,2:0:0:0:
333,328,285200,1,0,2:0:0:0:
352,323,285325,1,0,2:0:0:0:
400,348,285450,22,0,B|450:296|436:260|529:48|267:117|521:312,2,333.000012702942,10|10|10,2:1|2:1|2:1,2:0:0:0:
201,79,286200,85,0,2:0:0:0:
201,79,286324,1,0,2:0:0:0:
149,82,286449,21,8,2:0:0:0:
125,120,286574,1,0,2:0:0:0:
152,157,286699,1,0,2:0:0:0:
205,156,286824,1,0,2:0:0:0:
236,116,286949,85,8,2:0:0:0:
264,73,287074,1,0,2:0:0:0:
313,66,287199,1,0,2:0:0:0:
354,100,287324,1,0,2:0:0:0:
346,111,287449,22,2,B|344:153|344:153|370:78,6,83.2500031757356,10|0|0|0|0|0|0,2:1|0:0|0:0|0:0|0:0|0:0|2:0,2:1:0:0:
456,16,287948,85,12,2:0:0:0:
456,16,288073,1,0,0:0:0:0:
456,16,288198,1,0,2:0:0:0:
456,16,288323,1,0,2:0:0:0:
456,16,288448,21,10,2:1:0:0:
425,56,288573,1,0,2:0:0:0:
447,88,288698,1,0,2:0:0:0:
430,103,288823,1,0,2:0:0:0:
447,114,288948,85,8,2:0:0:0:
418,155,289073,1,0,2:0:0:0:
452,185,289197,1,2,2:1:0:0:
426,238,289322,1,0,2:0:0:0:
480,290,289447,22,0,L|116:349,2,360.750010321141,8|10|10,2:0|2:1|2:1,2:0:0:0:
377,274,290197,85,0,2:0:0:0:
377,274,290322,1,0,2:0:0:0:
377,274,290447,21,8,2:0:0:0:
421,248,290572,1,2,2:1:0:0:
415,195,290696,1,2,2:1:0:0:
383,153,290821,1,0,2:0:0:0:
332,159,290946,85,8,2:0:0:0:
297,199,291071,1,0,2:0:0:0:
301,241,291196,1,0,2:0:0:0:
350,237,291321,1,0,2:0:0:0:
350,237,291446,2,2,B|279:234|152:137|258:141|229:42|229:42|249:83|294:71|305:128|305:128|287:176|258:205|225:213|213:296,1,541.125015481711,10|0,2:1|2:0,2:1:0:0:
200,326,291946,21,12,2:0:0:0:
92,89,292195,2,0,L|24:273,1,138.75,0|0,2:0|0:0,2:0:0:0:
349,120,292445,2,0,L|373:364,1,138.75,8|0,2:0|0:0,2:0:0:0:
82,40,292695,2,0,L|12:234,1,138.75,0|0,2:0|0:0,2:0:0:0:
391,95,292945,1,8,2:0:0:0:
391,95,293070,1,0,2:0:0:0:
391,95,293195,1,0,2:0:0:0:
391,95,293320,1,0,2:0:0:0:
391,95,293445,86,0,L|441:387,1,180.37500516057,8|0,2:0|0:0,2:0:0:0:
233,57,293694,2,0,L|283:349,1,180.37500516057,8|0,2:0|0:0,0:0:0:0:
82,40,293944,2,0,L|132:332,1,180.37500516057,8|0,2:0|0:0,0:0:0:0:
75,344,294194,21,0,2:0:0:0:
59,354,294319,1,0,2:0:0:0:
26,327,294444,85,8,2:0:0:0:
69,289,294569,1,0,2:0:0:0:
121,313,294694,1,0,2:0:0:0:
157,350,294819,1,0,2:0:0:0:
202,358,294943,22,0,B|197:305|197:305|216:344,1,97.1250009262562,10|0,2:1|2:0,2:0:0:0:
246,337,295068,2,0,B|255:286|255:286|269:341,1,97.1250009262562,0|0,2:0|2:0,2:0:0:0:
281,305,295193,2,0,B|281:254|281:254|301:296,1,97.1250009262562,2|0,2:1|2:0,2:0:0:0:
330,280,295318,2,0,B|329:234|329:234|374:320,1,97.1250009262562,0|0,2:0|2:0,2:0:0:0:
391,265,295443,86,2,B|390:216|390:216|427:314,6,97.1250009262562,8|0|0|0|0|0|0,2:0|0:0|0:0|0:0|0:0|0:0|2:0,2:1:0:0:
512,319,295943,21,12,2:0:0:0:
489,298,296068,1,0,0:0:0:0:
505,258,296193,1,0,2:0:0:0:
493,224,296318,1,0,2:0:0:0:
506,174,296442,85,8,2:0:0:0:
474,137,296567,1,0,2:0:0:0:
422,135,296692,1,0,2:0:0:0:
384,157,296817,1,0,2:0:0:0:
358,137,296942,21,8,2:0:0:0:
336,148,297067,1,0,2:0:0:0:
308,114,297192,1,0,2:0:0:0:
352,66,297317,1,0,2:0:0:0:
429,88,297442,86,0,P|281:127|-23:176,1,388.500003705025,8|8,2:0|2:0,2:0:0:0:
20,333,297941,102,0,B|31:325|31:325|50:339|50:339|68:337|68:337|80:357,28,69.375,10|0|0|0|0|0|0|0|0|0|0|0|0|0|0|0|8|0|0|0|0|0|0|0|0|0|0|0|0,2:0|2:0|2:0|2:0|2:0|2:0|2:0|2:0|2:0|2:0|2:0|2:0|2:0|2:0|2:0|2:0|2:0|2:0|2:0|2:0|2:0|2:0|2:0|2:0|2:0|2:0|2:0|2:0|2:0,2:0:0:0:
156,295,298941,6,0,B|189:283|189:283|223:298,28,69.375,10|0|0|0|0|0|0|0|0|0|0|0|0|0|0|0|8|0|0|0|0|0|0|0|0|0|0|0|0,2:0|2:0|2:0|2:0|2:0|2:0|2:0|2:0|2:0|2:0|2:0|2:0|2:0|2:0|2:0|2:0|2:0|2:0|2:0|2:0|2:0|2:0|2:0|2:0|2:0|2:0|2:0|2:0|2:0,2:0:0:0:
295,230,299940,102,0,B|304:239|304:239|329:232|329:232|354:243|354:243|373:224,28,83.2500031757356,10|0|0|0|0|0|0|0|0|0|0|0|0|0|0|0|8|0|0|0|0|0|0|0|0|0|0|0|0,2:0|2:0|2:0|2:0|2:0|2:0|2:0|2:0|2:0|2:0|2:0|2:0|2:0|2:0|2:0|2:0|2:0|2:0|2:0|2:0|2:0|2:0|2:0|2:0|2:0|2:0|2:0|2:0|2:0,2:0:0:0:
436,134,300939,6,0,B|466:139|466:139|450:152|450:152|461:100,28,83.2500031757356,10|0|0|0|0|0|0|0|0|0|0|0|0|0|0|0|8|0|0|0|0|0|0|0|8|0|0|0|0,2:0|2:0|2:0|2:0|2:0|2:0|2:0|2:0|2:0|2:0|2:0|2:0|2:0|2:0|2:0|2:0|2:0|2:0|2:0|2:0|2:0|2:0|2:0|2:0|2:0|2:0|2:0|2:0|2:0,2:0:0:0:
363,16,301939,102,0,B|349:23|346:38|346:38|352:48|360:62|360:62|368:48|375:32|375:32|373:22|366:8,28,97.1250009262562,10|0|0|0|0|0|0|0|0|0|0|0|0|0|0|0|8|0|0|0|0|0|0|0|0|0|0|0|0,2:0|2:0|2:0|2:0|2:0|2:0|2:0|2:0|2:0|2:0|2:0|2:0|2:0|2:0|2:0|2:0|2:0|2:0|2:0|2:0|2:0|2:0|2:0|2:0|2:0|2:0|2:0|2:0|2:0,2:0:0:0:
232,127,302938,6,0,B|242:106|242:106|230:80|230:80|216:108|216:108|227:133,28,97.1250009262562,10|0|0|0|0|0|0|0|0|0|0|0|0|0|0|0|10|0|0|0|0|0|0|0|0|0|0|0|0,2:0|2:0|2:0|2:0|2:0|2:0|2:0|2:0|2:0|2:0|2:0|2:0|2:0|2:0|2:0|2:0|2:1|2:0|2:0|2:0|2:0|2:0|2:0|2:0|2:0|2:0|2:0|2:0|2:0,2:0:0:0:
72,11,303937,102,0,B|63:22|63:22|78:48|78:48|43:63|43:63|39:58|39:58|60:38,28,111,14|0|0|0|0|0|0|0|0|0|0|0|0|0|0|0|8|0|0|0|0|0|0|0|0|0|0|0|0,2:0|2:0|2:0|2:0|2:0|2:0|2:0|2:0|2:0|2:0|2:0|2:0|2:0|2:0|2:0|2:0|2:0|2:0|2:0|2:0|2:0|2:0|2:0|2:0|2:0|2:0|2:0|2:0|2:0,2:0:0:0:
98,136,304937,6,0,B|75:160|75:160|111:161|111:161|127:172|127:172|112:141|112:141|107:150,28,111,10|0|0|0|0|0|0|0|0|0|0|0|0|0|0|0|8|0|0|0|0|0|0|0|8|0|0|0|0,2:0|2:0|2:0|2:0|2:0|2:0|2:0|2:0|2:0|2:0|2:0|2:0|2:0|2:0|2:0|2:0|2:0|2:0|2:0|2:0|2:0|2:0|2:0|2:0|2:0|2:0|2:0|2:0|2:0,2:0:0:0:
20,253,305936,102,0,B|30:272|30:272|48:254|77:257|77:257|44:273|44:273|30:294,28,124.875004763603,10|0|0|0|0|0|0|0|0|0|0|0|0|0|0|0|8|0|0|0|0|0|0|0|0|0|0|0|0,2:0|2:0|2:0|2:0|2:0|2:0|2:0|2:0|2:0|2:0|2:0|2:0|2:0|2:0|2:0|2:0|2:0|2:0|2:0|2:0|2:0|2:0|2:0|2:0|2:0|2:0|2:0|2:0|2:0,2:0:0:0:
123,351,306935,6,0,B|153:333|177:306|177:306|165:341|127:386,28,124.875004763603,10|0|0|0|0|0|0|0|0|0|0|0|0|0|0|0|10|0|0|0|0|0|0|0|0|0|0|0|0,2:0|2:0|2:0|2:0|2:0|2:0|2:0|2:0|2:0|2:0|2:0|2:0|2:0|2:0|2:0|2:0|2:1|2:0|2:0|2:0|2:0|2:0|2:0|2:0|2:0|2:0|2:0|2:0|2:0,2:0:0:0:
307,306,307934,22,0,B|292:304|292:304|306:286|302:272|302:272|309:283|309:283|315:293|327:295|327:295|339:298|339:298|326:299|314:319|314:319|307:306,12,138.75,14|0|0|0|0|0|0|0|0|0|0|0|0,2:0|2:0|2:0|2:0|2:0|2:0|2:0|2:0|2:0|2:0|2:0|2:0|2:0,2:0:0:0:
163,222,308434,70,0,B|178:223|178:223|168:202|175:189|175:189|166:199|166:199|158:207|145:206|145:206|133:207|133:207|146:210|153:233|153:233|163:222,12,138.75,14|0|0|0|0|0|0|0|0|0|0|0|0,2:0|2:0|2:0|2:0|2:0|2:0|2:0|2:0|2:0|2:0|2:0|2:0|2:0,2:0:0:0:
356,136,308934,6,0,B|340:137|340:137|350:116|343:103|343:103|352:113|352:113|360:121|373:120|373:120|385:121|385:121|372:124|365:147|365:147|356:136,12,138.75,14|0|0|0|0|0|0|0|0|0|0|0|0,2:0|2:0|2:0|2:0|2:0|2:0|2:0|2:0|2:0|2:0|2:0|2:0|2:0,2:0:0:0:
444,43,309433,22,0,B|455:15|457:24|457:24|436:51|425:49|425:49|406:40|407:17|407:17|430:14|430:39,4,83.2500031757356,14|0|0|0|0,2:0|2:0|2:0|2:0|2:0,2:0:0:0:
473,162,309683,70,0,B|478:163|478:163|485:157|501:172|501:172|491:145|496:135|496:135|480:142|476:129|476:129|473:137|465:140|465:140|468:158,5,111,14|0|0|0|0|0,2:0|2:0|2:0|2:0|2:0|0:0,2:0:0:0:
356,136,309933,102,0,B|340:137|340:137|350:116|343:103|343:103|352:113|352:113|360:121|373:120|373:120|385:121|385:121|372:124|365:147|365:147|356:136,28,138.75,14|0|0|0|0|0|0|0|0|0|0|0|0|0|0|0|8|0|0|0|0|0|0|0|0|0|0|0|0,2:0|2:0|2:0|2:0|2:0|2:0|2:0|2:0|2:0|2:0|2:0|2:0|2:0|2:0|2:0|2:0|2:0|2:0|2:0|2:0|2:0|2:0|2:0|2:0|2:0|2:0|2:0|2:0|2:0,2:0:0:0:
208,99,310932,38,0,B|223:100|223:100|213:79|220:66|220:66|211:76|211:76|203:84|190:83|190:83|178:84|178:84|191:87|198:110|198:110|208:99,12,138.75,14|0|0|0|0|0|0|0|0|0|0|0|0,2:0|2:0|2:0|2:0|2:0|2:0|2:0|2:0|2:0|2:0|2:0|2:0|2:0,2:0:0:0:
93,191,311432,70,0,B|77:192|77:192|87:171|80:158|80:158|89:168|89:168|97:176|110:175|110:175|122:176|122:176|109:179|102:202|102:202|93:191,12,138.75,10|0|0|0|0|0|0|0|0|0|0|0|0,2:1|2:0|2:0|2:0|2:0|2:0|2:0|2:0|2:0|2:0|2:0|2:0|2:0,0:0:0:0:
17,317,311932,54,0,P|212:266|207:70,1,416.25,12|0,2:0|0:0,2:0:0:0:
196,36,312431,85,8,2:0:0:0:
158,73,312556,1,0,2:0:0:0:
203,97,312681,1,0,2:0:0:0:
254,120,312806,1,0,2:0:0:0:
271,150,312931,101,8,2:0:0:0:
226,164,313056,1,0,2:0:0:0:
182,175,313181,1,0,2:0:0:0:
162,208,313306,1,0,2:0:0:0:
181,246,313431,70,0,L|281:272,1,83.2500031757356,8|0,2:0|2:0,2:0:0:0:
346,138,313681,2,0,L|426:158,1,83.2500031757356,8|0,2:0|2:0,0:0:0:0:
204,333,313930,2,0,L|382:380,1,166.500006351471,8|0,2:0|0:0,2:0:0:0:
386,360,314305,1,0,2:0:0:0:
423,377,314430,5,8,2:0:0:0:
462,342,314555,1,0,2:0:0:0:
443,292,314680,1,0,2:0:0:0:
396,274,314805,1,0,2:0:0:0:
365,238,314930,101,8,2:0:0:0:
383,190,315055,1,0,2:0:0:0:
427,160,315179,1,0,2:0:0:0:
480,171,315304,1,0,2:0:0:0:
511,206,315429,6,2,L|500:273,6,41.6250015878678,8|0|0|0|0|0|0,2:0|0:0|0:0|0:0|0:0|0:0|2:0,2:1:0:0:
460,81,315929,102,0,B|426:-11|254:101|432:222|475:197|468:332|356:355|329:267,1,416.25,12|0,2:0|0:0,2:0:0:0:
300,262,316429,5,8,2:0:0:0:
255,234,316554,1,0,2:0:0:0:
202,224,316678,1,0,2:0:0:0:
147,236,316803,1,0,2:0:0:0:
96,211,316928,101,8,2:0:0:0:
61,167,317053,1,0,2:0:0:0:
57,115,317178,1,0,2:0:0:0:
74,62,317303,1,0,2:0:0:0:
110,22,317428,6,0,L|203:10,1,83.2500031757356,8|0,2:0|2:0,2:0:0:0:
281,125,317678,2,0,L|363:135,1,83.2500031757356,8|0,2:0|2:0,2:0:0:0:
110,22,317928,2,0,L|286:-2,1,166.500006351471,8|0,2:0|2:0,2:0:0:0:
290,15,318302,1,0,2:0:0:0:
336,0,318427,101,8,2:0:0:0:
391,25,318552,1,0,2:0:0:0:
443,50,318677,1,0,2:0:0:0:
493,76,318802,1,0,2:0:0:0:
504,53,318927,5,8,2:0:0:0:
446,72,319052,1,0,2:0:0:0:
391,92,319177,1,0,2:0:0:0:
340,108,319302,1,0,2:0:0:0:
330,125,319427,102,2,L|333:161,4,20.8125007939339,10|0|0|0|0,2:0|0:0|0:0|2:0|0:0,2:1:0:0:
243,174,319676,6,2,L|237:237,2,41.6250015878678,2|0|0,2:0|2:0|2:0,2:1:0:0:
139,199,319926,102,0,B|110:156|84:163|84:163|81:210|117:261|163:284|288:113|266:299|311:305|426:258,1,416.25,14|0,2:0|0:0,2:0:0:0:
412,269,320426,5,8,2:0:0:0:
386,296,320551,1,0,2:0:0:0:
431,309,320676,1,0,2:0:0:0:
402,330,320801,1,0,2:0:0:0:
430,351,320926,102,0,L|513:336,1,83.2500031757356,8|0,2:0|2:0,0:0:0:0:
505,187,321175,2,0,L|423:172,1,83.2500031757356,0|0,2:0|2:0,0:0:0:0:
216,250,321425,2,0,L|33:250,2,166.500006351471,8|8|8,2:0|2:0|2:0,2:0:0:0:
354,13,322175,5,0,2:0:0:0:
354,13,322300,1,0,2:0:0:0:
396,37,322424,101,8,2:0:0:0:
378,90,322549,1,0,2:0:0:0:
432,117,322674,1,0,2:0:0:0:
418,166,322799,1,0,2:0:0:0:
466,192,322924,6,0,L|476:309,1,83.2500031757356,8|0,2:0|2:0,0:0:0:0:
304,155,323174,2,0,L|311:237,1,83.2500031757356,0|0,2:0|2:0,0:0:0:0:
152,122,323424,102,2,L|159:183,6,41.6250015878678,8|0|0|0|0|0|0,2:0|0:0|0:0|0:0|0:0|0:0|2:0,2:1:0:0:
6,221,323923,6,0,L|107:249,1,83.2500031757356,12|0,2:0|2:0,2:0:0:0:
162,276,324173,1,0,2:0:0:0:
191,318,324298,1,0,2:0:0:0:
240,296,324423,102,0,L|341:268,1,83.2500031757356,8|0,2:0|2:0,2:0:0:0:
422,210,324673,1,0,2:0:0:0:
470,230,324798,1,0,2:0:0:0:
509,201,324923,6,0,L|486:93,1,83.2500031757356,8|0,2:0|2:0,2:0:0:0:
399,14,325173,1,0,2:0:0:0:
353,42,325297,1,0,2:0:0:0:
378,63,325422,102,0,L|132:44,2,166.500006351471,8|8|8,2:0|2:0|2:0,2:0:0:0:
48,107,326172,5,0,0:0:0:0:
48,107,326297,1,0,2:0:0:0:
21,73,326422,101,8,2:0:0:0:
67,56,326547,1,0,2:0:0:0:
95,98,326672,1,0,2:0:0:0:
62,140,326796,1,0,2:0:0:0:
15,120,326921,6,0,B|-20:176|40:153|4:225,3,83.2500031757356,8|0|0|0,2:0|2:0|2:0|2:0,2:0:0:0:
54,52,327421,102,2,B|176:32|296:143|238:174|369:224|444:211,1,416.25,8|0,2:0|0:0,2:1:0:0:
502,193,327921,5,8,2:0:0:0:
496,148,328046,1,0,2:0:0:0:
456,117,328171,1,0,2:0:0:0:
432,76,328295,1,0,2:0:0:0:
460,21,328420,102,0,L|469:150,1,83.2500031757356,8|0,2:0|2:0,2:0:0:0:
470,222,328670,2,0,L|475:305,1,83.2500031757356,0|0,2:0|2:0,2:0:0:0:
333,365,328920,5,8,2:0:0:0:
276,339,329045,1,0,2:0:0:0:
307,329,329170,1,0,2:0:0:0:
315,372,329295,1,0,2:0:0:0:
261,384,329420,102,0,L|271:170,2,166.500006351471,8|8|8,2:0|2:0|2:0,2:0:0:0:
224,37,330169,5,0,2:0:0:0:
212,42,330294,1,0,2:0:0:0:
179,58,330419,101,8,2:0:0:0:
230,77,330544,1,0,2:0:0:0:
277,94,330669,1,0,2:0:0:0:
315,114,330794,1,0,2:0:0:0:
326,128,330919,5,8,2:0:0:0:
271,142,331044,1,0,2:0:0:0:
217,155,331168,1,0,2:0:0:0:
168,176,331293,1,0,2:0:0:0:
156,191,331418,86,0,L|165:256,2,41.6250015878678,10|0|0,2:1|0:0|2:0,0:0:0:0:
255,251,331668,2,0,L|268:333,1,83.2500031757356
314,312,331918,1,0,0:0:0:0:
342,292,332043,1,0,0:0:0:0:
202,109,333083,118,0,L|136:57,1,74
134,42,333333,1,0,0:0:0:0:
128,35,333458,2,0,L|142:102,1,55.5
122,118,333729,118,0,L|288:17,1,187.312507145405
