osu file format v14

[General]
AudioFilename: audio.mp3
AudioLeadIn: 0
PreviewTime: 78833
Countdown: 0
SampleSet: Normal
StackLeniency: 0.7
Mode: 0
LetterboxInBreaks: 0
WidescreenStoryboard: 0

[Editor]
Bookmarks: 14090,49846,55427
DistanceSpacing: 1.9
BeatDivisor: 4
GridSize: 32
TimelineZoom: 1

[Metadata]
Title:Under Cover
TitleUnicode:Under Cover
Artist:A.C.E
ArtistUnicode:에이스
Creator:Fallen Drop
Version:Insane
Source:
Tags:kpop, a.c.e, 에이스, byeongkwan, jun, chan, donghun, wow, rock, ace
BeatmapID:2074277
BeatmapSetID:991858

[Difficulty]
HPDrainRate:7
CircleSize:4
OverallDifficulty:8
ApproachRate:9
SliderMultiplier:1.8
SliderTickRate:1

[Events]
//Background and Video events
0,0,"sasasasasas.jpg",0,0
//Break Periods
2,127924,138287
2,200046,221920
//Storyboard Layer 0 (Background)
//Storyboard Layer 1 (Fail)
//Storyboard Layer 2 (Pass)
//Storyboard Layer 3 (Foreground)
//Storyboard Sound Samples

[TimingPoints]
10864,348.837209302326,4,1,0,100,1,0
16096,-66.6666666666667,4,1,0,100,0,0
17143,-100,4,1,0,100,0,0
21677,-80,4,1,0,100,0,0
32840,-100,4,1,0,100,0,0
37026,-133.333333333333,4,1,0,100,0,0
38422,-100,4,1,0,100,0,0
55166,-133.333333333333,4,1,0,100,0,0
66329,-100,4,1,0,100,0,0
78887,-80,4,1,0,100,0,0
102608,-100,4,1,0,100,0,0
109236,-66.6666666666667,4,1,0,100,0,0
110631,-100,4,1,0,100,0,0
114817,-66.6666666666667,4,1,0,100,0,0
116212,-100,4,1,0,100,0,0
127724,-133.333333333333,4,1,0,100,0,0
138887,-100,4,1,0,100,0,0
151445,-80,4,1,0,100,0,0
175166,-100,4,1,0,100,0,0
183538,-80,4,1,0,100,0,0
186329,-66.6666666666667,4,1,0,100,0,0
197491,-133.333333333333,4,1,0,100,0,0
198887,-80,4,1,0,100,0,0

[HitObjects]
113,83,10863,6,0,P|145:55|182:55,1,45
310,57,11212,1,0,0:0:0:0:
180,232,11561,2,0,L|114:301,1,90
82,209,11910,2,0,L|116:177,2,45
134,90,12259,1,0,0:0:0:0:
344,111,12608,2,0,L|429:148,1,90
352,188,12957,2,0,L|439:225,1,90
92,321,13654,5,0,0:0:0:0:
92,321,13741,1,0,0:0:0:0:
92,321,13829,2,0,L|131:273,1,45
137,156,14352,1,0,0:0:0:0:
246,108,14526,1,0,0:0:0:0:
348,185,14701,2,0,P|347:231|288:269,2,90
197,199,15224,2,0,P|176:237|184:274,1,45
110,180,15573,2,0,P|129:132|154:114,1,45
165,34,16096,1,0,0:0:0:0:
374,117,16445,6,0,B|285:75|279:124|245:132,1,135.000005149842
238,162,16707,2,0,L|162:232,1,67.5000025749208
72,267,16968,1,0,0:0:0:0:
106,127,17143,1,0,0:0:0:0:
121,106,17230,1,0,0:0:0:0:
147,93,17317,2,0,P|145:141|188:195,1,90
370,137,17840,6,0,L|306:184,2,45
308,252,18102,2,0,L|383:199,2,90
113,146,18712,2,0,B|139:103|174:117|179:128|183:133|189:133|206:127|199:99,1,90
111,254,19148,1,0,0:0:0:0:
111,254,19236,2,0,L|152:286,1,45
300,264,19497,2,0,P|304:215|246:172,1,120
126,58,20108,1,8,0:0:0:0:
474,56,20457,1,0,0:0:0:0:
462,51,20631,2,0,B|414:45|404:72|376:85|342:84|309:73|291:54|278:28|250:54,1,225
110,112,21503,5,0,0:0:0:0:
89,217,21677,6,0,B|123:290|166:302|191:295|280:237,1,225
350,185,22201,1,0,0:0:0:0:
419,131,22375,2,0,P|360:90|306:141,1,112.5
291,220,22724,2,0,B|314:274|342:273|386:247,1,112.5
226,48,23073,1,0,0:0:0:0:
173,62,23160,2,0,L|101:119,1,56.25
89,165,23422,1,0,0:0:0:0:
228,235,23596,2,0,P|285:231|304:192,1,56.25
384,225,23858,1,0,0:0:0:0:
413,143,24032,2,0,P|368:121|268:140,1,150
238,196,24817,6,0,L|315:203,2,56.25
175,142,25166,2,0,L|99:141,2,56.25
371,311,25515,2,0,P|356:264|318:247,1,56.25
295,201,25776,2,0,P|265:180|205:177,1,56.25
385,47,26038,2,0,B|325:15|281:25|282:47,1,112.5
159,195,26561,2,0,B|114:247|117:254|117:262|132:265|160:251|170:244|173:234|172:227|191:210|208:214|219:230|225:243|219:254|219:263|219:268|219:270|213:287|207:301|199:314|198:316|179:352,1,281.25
94,71,27608,6,0,P|162:77|213:104,1,112.5
112,266,27957,2,0,B|168:237|184:254|202:258|215:253|225:249|230:227|236:202|218:187|210:187,1,150
154,107,28393,1,0,0:0:0:0:
131,142,28480,2,0,P|125:197|186:257,1,112.5
272,319,29003,2,0,L|399:299,1,112.5
286,188,29352,1,0,0:0:0:0:
190,77,29526,1,0,0:0:0:0:
389,56,29701,2,0,P|330:46|291:65,2,56.25
218,138,30398,5,0,0:0:0:0:
314,253,30573,1,0,0:0:0:0:
131,308,30747,2,0,L|196:259,2,56.25
368,225,31445,1,0,0:0:0:0:
162,43,31794,2,0,L|231:74,1,56.25
369,286,32143,2,0,L|310:263,1,56.25
205,290,32317,2,0,L|282:329,1,56.25
324,104,32753,1,0,0:0:0:0:
324,104,32840,5,0,0:0:0:0:
231,143,33015,2,0,L|151:152,1,45
173,45,33276,1,0,0:0:0:0:
124,246,33538,2,0,L|168:198,2,45
293,224,34148,1,0,0:0:0:0:
293,224,34236,1,0,0:0:0:0:
432,140,34410,1,0,0:0:0:0:
291,30,34584,2,0,P|261:48|244:105,1,90
317,147,34933,2,0,P|366:141|400:86,1,90
64,185,35282,6,0,L|69:68,1,90
185,35,35718,2,0,P|238:45|325:84,1,120
166,170,36154,2,0,P|131:205|134:248,1,90
369,247,36503,1,0,0:0:0:0:
345,245,36590,2,0,L|271:231,1,45
450,77,37026,2,0,P|432:103|381:139,1,67.5000025749208
319,83,37375,2,0,P|314:128|340:155,1,67.5000025749208
435,165,37724,1,0,0:0:0:0:
367,257,37898,2,0,L|315:290,2,33.7500012874604
225,187,38247,6,0,L|226:137,1,33.7500012874604
225,59,38422,1,0,0:0:0:0:
50,73,38858,1,0,0:0:0:0:
51,90,38945,1,0,0:0:0:0:
52,105,39032,1,0,0:0:0:0:
54,120,39119,1,0,0:0:0:0:
213,230,39294,2,0,P|271:235|303:161,1,120
242,159,39730,2,0,P|201:163|186:211,1,90
50,300,40166,5,0,0:0:0:0:
73,306,40253,1,0,0:0:0:0:
103,301,40340,1,0,0:0:0:0:
135,290,40427,1,0,0:0:0:0:
150,268,40515,2,0,P|151:229|87:185,1,90
108,68,40951,1,0,0:0:0:0:
138,56,41038,1,0,0:0:0:0:
176,51,41125,2,0,L|242:48,1,45
235,207,41561,5,0,0:0:0:0:
281,199,41648,2,0,L|320:261,1,45
321,159,41823,1,0,0:0:0:0:
352,121,41910,2,0,L|427:132,1,45
201,67,42433,2,0,P|169:104|130:106,1,90
55,164,42782,1,0,0:0:0:0:
69,256,42957,2,0,L|97:325,1,45
138,272,43131,2,0,L|158:312,1,45
205,265,43305,2,0,L|240:300,1,45
275,67,43654,5,0,0:0:0:0:
88,114,44003,1,0,0:0:0:0:
162,220,44177,2,0,L|140:276,2,45
234,94,44526,1,0,0:0:0:0:
372,53,44701,2,0,P|416:81|429:116,1,90
279,188,45050,2,0,L|212:146,2,45
275,184,45398,2,0,L|178:106,1,90
106,62,45747,5,0,0:0:0:0:
37,151,45922,1,0,0:0:0:0:
81,236,46096,1,0,0:0:0:0:
196,33,46270,1,0,0:0:0:0:
307,96,46445,2,0,L|299:88|296:85|292:81|288:77|268:57|265:54|261:50|253:42|250:39|238:27|235:24|227:16|224:13|220:9|216:5|213:2|209:-1,2,45
307,96,46794,2,0,L|235:173,1,90
95,182,47143,2,0,P|96:241|114:271,1,90
299,337,47491,2,0,P|374:301|385:267,1,90
432,141,47840,5,0,0:0:0:0:
265,30,48015,1,0,0:0:0:0:
214,120,48189,2,0,P|186:78|128:60,1,90
119,65,48451,1,0,0:0:0:0:
75,187,48538,2,0,P|118:205|176:178,1,90
246,255,48800,2,0,P|284:238|293:221,1,45
393,132,49148,1,0,0:0:0:0:
393,132,49236,2,0,P|396:173|357:219,2,90
193,167,49933,6,0,B|139:161|107:195|118:240,1,90
233,237,50282,2,0,P|279:236|336:190,1,90
388,117,50631,1,0,0:0:0:0:
375,89,50718,1,0,0:0:0:0:
357,74,50805,1,0,0:0:0:0:
120,261,51067,2,0,P|183:272|211:224,1,90
146,72,51503,1,0,0:0:0:0:
68,141,51677,2,0,B|106:163|152:166|198:141,1,135
208,309,52201,5,0,0:0:0:0:
208,309,52288,1,0,0:0:0:0:
208,309,52375,2,0,L|281:284,1,45
364,119,52724,2,0,P|297:77|262:85,1,90
157,37,53073,1,0,0:0:0:0:
122,140,53247,2,0,P|159:159|227:162,1,90
136,292,53770,2,0,B|184:279|235:247|255:174|216:123|185:163,1,180
141,188,54468,1,0,0:0:0:0:
291,274,54643,2,0,P|332:274|393:231,1,90
263,62,55166,5,0,0:0:0:0:
459,45,55515,1,0,0:0:0:0:
307,172,55864,2,0,B|254:147|216:174|235:211|242:239|219:248|178:241|172:236|159:208|153:190|161:178,1,202.500007724762
191,55,56648,2,0,L|275:51,1,67.5000025749208
93,225,57259,2,0,L|189:314,1,101.250003862381
324,293,57782,1,0,0:0:0:0:
389,158,57957,1,0,0:0:0:0:
199,57,58305,6,0,B|136:44|97:63|123:102,1,101.250003862381
187,179,58829,2,0,B|228:198|261:188|273:144,1,101.250003862381
85,107,59352,2,0,L|78:205,1,67.5000025749208
115,294,59788,2,0,B|152:323|169:327|187:324|202:315|194:280,1,101.250003862381
242,278,60137,1,0,0:0:0:0:
255,261,60224,1,0,0:0:0:0:
265,248,60311,1,0,0:0:0:0:
273,234,60398,1,0,0:0:0:0:
229,155,60747,6,0,L|144:112,1,67.5000025749208
240,50,61270,1,0,0:0:0:0:
248,54,61445,2,0,P|313:82|344:133,1,101.250003862381
265,214,61968,2,0,L|207:209,2,33.7500012874604
165,317,62317,2,0,P|131:300|98:257,1,67.5000025749208
117,120,62666,2,0,P|104:177|131:205,2,101.250003862381
225,71,63364,1,0,0:0:0:0:
265,191,63538,6,0,L|348:226,1,67.5000025749208
410,320,63887,2,0,P|371:340|300:341,1,101.250003862381
132,288,64323,2,0,L|114:236,2,33.7500012874604
178,131,64759,1,0,0:0:0:0:
371,83,65020,2,0,P|330:93|320:139,1,67.5000025749208
374,245,65282,2,0,P|346:289|288:322,1,101.250003862381
284,211,65631,2,0,P|272:157|290:120,1,67.5000025749208
127,220,66329,5,8,0:0:0:0:
68,136,66590,2,0,P|67:97|105:53,1,90
162,32,66852,1,8,0:0:0:0:
392,103,67201,1,8,0:0:0:0:
278,178,67375,1,8,0:0:0:0:
258,193,67550,2,0,P|240:232|270:266,1,90
307,287,67898,2,0,B|337:316|332:357|292:374,1,90
173,279,68334,2,0,L|114:333,2,45
100,184,68770,5,8,0:0:0:0:
253,189,68945,1,8,0:0:0:0:
211,39,69119,2,0,P|166:50|144:91,1,90
144,174,69468,2,0,P|164:220|217:234,1,90
320,289,69817,2,0,P|355:267|371:217,1,90
227,57,70166,1,8,0:0:0:0:
97,66,70253,2,0,P|67:94|125:150,1,135
207,197,70689,5,8,0:0:0:0:
242,233,70864,2,0,L|292:283,1,45
378,267,71125,2,0,L|359:202,1,45
282,64,71561,1,0,0:0:0:0:
404,102,71736,1,8,0:0:0:0:
416,218,71910,1,8,0:0:0:0:
243,264,72172,2,0,P|198:311|74:285,1,180
118,211,72695,6,0,L|195:200,1,45
151,78,72957,1,8,0:0:0:0:
361,191,73218,1,0,0:0:0:0:
360,218,73305,1,0,0:0:0:0:
351,246,73393,2,0,L|306:305,1,45
67,259,73654,2,0,P|83:301|125:310,1,90
144,220,74003,2,0,P|200:210|216:232,1,90
169,50,74352,5,8,0:0:0:0:
253,170,74526,1,8,0:0:0:0:
389,58,74701,2,0,P|423:92|443:110,1,45
436,233,74875,2,0,P|415:287|388:296,1,90
189,157,75311,2,0,B|175:159|140:104|225:78|265:124|243:151,2,135
89,255,76096,1,0,0:0:0:0:
93,273,76183,1,0,0:0:0:0:
105,288,76270,1,0,0:0:0:0:
123,303,76358,1,0,0:0:0:0:
142,313,76445,1,0,0:0:0:0:
161,320,76532,1,0,0:0:0:0:
376,322,76794,6,0,P|420:316|447:270,1,90
291,224,77143,1,0,0:0:0:0:
261,61,77491,1,0,0:0:0:0:
234,60,77579,1,0,0:0:0:0:
205,62,77666,1,0,0:0:0:0:
176,73,77753,1,0,0:0:0:0:
145,85,77840,1,0,0:0:0:0:
108,257,78015,6,0,L|143:307,1,45
251,309,78276,2,0,L|216:263,1,45
354,230,78538,2,0,P|389:208|405:148,1,90
223,58,78887,1,0,0:0:0:0:
55,239,79061,1,0,0:0:0:0:
216,256,79410,6,0,P|282:260|308:194,1,112.5
359,145,79933,1,0,0:0:0:0:
345,136,80020,2,0,L|252:55,1,112.5
97,61,80980,1,0,0:0:0:0:
221,107,81154,1,0,0:0:0:0:
59,193,81329,1,0,0:0:0:0:
214,222,81503,1,0,0:0:0:0:
85,319,81677,1,0,0:0:0:0:
271,179,81852,1,0,0:0:0:0:
178,50,82026,2,0,L|104:35,1,56.25
84,173,82375,6,0,B|127:185|156:201|163:210|153:244|108:257|95:255|72:248|64:249|53:253|67:297|101:318|121:315|133:310|151:309|155:311|175:328,1,281.25
265,284,83073,2,0,P|308:249|325:193,1,112.5
247,121,83334,2,0,P|290:86|303:27,1,112.5
265,284,83683,2,0,P|308:249|319:192,1,112.5
247,121,84032,2,0,P|290:86|298:32,1,112.5
83,104,84468,1,0,0:0:0:0:
92,132,84555,2,0,P|123:186|183:167,1,112.5
396,50,85166,6,0,L|363:110,1,56.25
361,123,85340,2,0,L|278:273,1,168.75
213,171,85864,2,0,P|237:127|213:64,2,112.5
114,272,86561,2,0,L|186:294,1,56.25
304,228,86910,1,0,0:0:0:0:
360,101,87084,1,0,0:0:0:0:
389,126,87172,1,0,0:0:0:0:
410,161,87259,1,0,0:0:0:0:
277,131,87433,2,0,P|239:87|186:82,1,112.5
86,156,87782,1,0,0:0:0:0:
65,241,87957,2,0,B|116:264|145:247|142:234|133:224|122:214|94:225|85:241|89:247|90:250,1,112.5
83,113,88654,6,0,P|145:61|283:69,1,225
330,102,89090,1,0,0:0:0:0:
325,305,89265,2,0,L|440:251,2,112.5
95,300,89788,2,0,L|47:210,1,56.25
80,154,90050,1,0,0:0:0:0:
234,89,90224,1,0,0:0:0:0:
232,70,90398,2,0,P|195:32|150:41,1,56.25
189,197,90660,1,0,0:0:0:0:
269,254,90834,1,0,0:0:0:0:
138,309,91096,2,0,L|70:351,1,56.25
98,258,91270,2,0,P|44:231|26:195,1,56.25
96,88,91619,6,0,P|144:45|208:75,1,112.5
326,123,91968,1,0,0:0:0:0:
153,221,92491,2,0,P|203:256|282:262,1,112.5
194,168,92840,2,0,B|225:209|234:223|250:231|273:234|290:230|309:227|335:216,1,168.75
436,247,93364,1,0,0:0:0:0:
343,299,93538,1,0,0:0:0:0:
224,163,93887,6,0,P|154:133|102:149,1,112.5
281,95,94236,2,0,B|230:54|188:49|105:70,1,168.75
126,259,94759,1,0,0:0:0:0:
233,281,94933,1,0,0:0:0:0:
163,92,95282,5,0,0:0:0:0:
53,269,95631,1,0,0:0:0:0:
159,276,95718,1,0,0:0:0:0:
289,170,95980,2,0,L|364:80,1,112.5
396,169,96329,2,0,P|451:152|473:84,1,112.5
431,56,96677,1,0,0:0:0:0:
91,128,97026,5,0,0:0:0:0:
160,135,97201,1,0,0:0:0:0:
231,89,97375,2,0,P|267:51|338:64,1,112.5
372,164,97724,2,0,P|343:206|357:217,1,56.25
347,312,98073,2,0,P|402:315|448:270,2,112.5
261,302,98596,2,0,L|166:223,1,112.5
184,72,98945,1,0,0:0:0:0:
263,146,99119,2,0,L|355:183,1,56.25
130,237,99468,6,0,L|223:268,1,56.25
186,309,99730,2,0,P|235:320|268:300,1,56.25
337,270,99991,1,0,0:0:0:0:
225,136,100166,1,0,0:0:0:0:
383,57,100515,2,0,P|350:114|290:126,1,112.5
286,38,100864,5,0,0:0:0:0:
264,60,100951,1,0,0:0:0:0:
237,92,101038,1,0,0:0:0:0:
221,121,101125,1,0,0:0:0:0:
395,148,101387,2,0,L|374:220,1,56.25
325,309,101648,1,0,0:0:0:0:
325,309,101736,1,0,0:0:0:0:
325,309,101823,1,0,0:0:0:0:
136,291,102084,6,0,P|105:231|117:186,1,112.5
199,217,102433,2,0,P|229:173|167:127,1,112.5
319,109,102957,5,0,0:0:0:0:
344,152,103044,2,0,L|306:217,1,45
146,114,103393,2,0,L|125:173,2,45
275,306,103741,2,0,P|329:317|370:290,1,90
416,269,104090,2,0,P|443:237|441:162,1,90
182,131,104701,5,0,0:0:0:0:
158,144,104875,1,0,0:0:0:0:
141,157,105050,1,0,0:0:0:0:
235,318,105224,2,0,B|315:256|275:193|260:236|261:236,2,90
122,213,105922,2,0,P|107:168|110:140,1,45
113,46,106183,1,0,0:0:0:0:
278,115,106445,2,0,L|294:59,1,45
265,178,106707,2,0,L|250:254,1,45
153,57,106881,2,0,B|106:49|70:59|53:131,1,135
103,277,107317,5,0,0:0:0:0:
115,288,107404,1,0,0:0:0:0:
137,298,107491,2,0,P|183:305|202:284,1,45
296,224,107840,1,0,0:0:0:0:
204,88,108189,6,0,B|133:64|132:65|127:86|135:95|142:109|156:128|183:121,1,135
385,110,108625,1,0,0:0:0:0:
394,128,108712,2,0,L|398:189,1,45
329,302,108974,1,0,0:0:0:0:
306,312,109061,2,0,L|245:296,1,45
120,264,109584,6,0,L|159:209,1,67.5000025749208
192,261,109759,2,0,L|224:202,1,67.5000025749208
298,253,110020,2,0,L|355:126,1,135.000005149842
73,189,110631,6,0,P|55:233|119:223,1,135
248,106,111154,1,0,0:0:0:0:
416,114,111329,1,0,0:0:0:0:
411,131,111416,2,0,L|392:184,1,45
363,300,111677,2,0,L|335:243,1,45
143,153,112026,2,0,B|106:173|122:212|142:230|170:240|193:235|211:227|229:210|226:198|218:174|203:152|203:152,1,180
317,40,112637,1,0,0:0:0:0:
330,69,112724,2,0,L|359:111,2,45
133,65,113073,5,0,0:0:0:0:
113,82,113160,1,0,0:0:0:0:
93,111,113247,1,0,0:0:0:0:
80,136,113334,1,0,0:0:0:0:
74,172,113422,1,0,0:0:0:0:
77,202,113509,1,0,0:0:0:0:
116,285,113683,2,0,P|155:306|176:297,1,45
271,306,113945,1,0,0:0:0:0:
372,286,114119,2,0,P|407:245|406:186,1,90
304,140,114468,1,0,0:0:0:0:
157,218,114643,1,0,0:0:0:0:
167,72,115079,6,0,L|94:162,1,67.5000025749208
238,75,115253,2,0,L|171:172,1,67.5000025749208
340,65,115515,2,0,L|220:240,1,202.500007724762
220,311,116212,5,0,0:0:0:0:
40,184,116387,1,0,0:0:0:0:
166,214,116561,2,0,B|182:170|219:161|252:164|290:159|299:154|307:144|313:135|314:129|320:117|324:92|318:55,1,225
213,60,117259,1,0,0:0:0:0:
186,68,117346,1,0,0:0:0:0:
144,88,117608,2,0,P|113:128|120:189,1,90
160,260,117957,2,0,B|210:292|226:289|231:288|250:280|258:270|261:258|261:252|253:239|247:232|229:219|209:209|199:215|204:236|205:241|209:247|219:257|235:252|231:245|225:239,1,180
374,101,118654,5,0,0:0:0:0:
384,125,118829,2,0,L|423:184,2,45
204,47,119265,2,0,B|131:67|115:76|150:96|202:104|226:111|227:111|238:120|238:136|236:144|235:155|234:159|230:161|212:179,1,225
247,286,119875,2,0,L|179:356,1,90
89,277,120224,1,0,0:0:0:0:
57,226,120486,2,0,P|41:190|86:114,1,135
165,128,120922,2,0,P|211:122|224:43,1,135
122,304,121445,2,0,L|186:328,1,45
298,317,121707,1,0,0:0:0:0:
298,317,121794,2,0,L|413:289,1,90
268,150,122143,6,0,P|332:157|349:182,1,90
270,229,122579,1,0,0:0:0:0:
190,169,122753,2,0,P|166:119|182:83,1,90
250,50,123102,1,0,0:0:0:0:
359,81,123364,2,0,L|415:93,2,45
117,136,123712,2,0,B|147:184|187:215,1,90
272,278,124061,1,0,0:0:0:0:
272,278,124148,1,0,0:0:0:0:
272,278,124236,1,0,0:0:0:0:
376,110,124584,6,0,L|398:159,1,45
247,177,124933,1,0,0:0:0:0:
131,111,125195,1,0,0:0:0:0:
131,111,125282,2,0,B|106:145|121:179|106:189,1,45
186,266,125631,1,0,0:0:0:0:
377,77,125980,5,0,0:0:0:0:
299,133,126154,1,0,0:0:0:0:
334,227,126329,2,0,P|407:204|355:137,1,180
86,189,126852,1,0,0:0:0:0:
90,163,127026,2,0,P|120:119|141:114,2,45
182,179,127375,2,0,L|229:132,1,45
255,94,127724,1,0,0:0:0:0:
97,237,138887,5,8,0:0:0:0:
132,299,139061,2,0,P|197:310|232:283,1,90
303,229,139410,1,8,0:0:0:0:
224,185,139584,2,0,P|243:125|279:107,1,90
120,100,139933,1,8,0:0:0:0:
313,42,140195,2,0,L|381:73,1,45
395,100,140457,1,8,0:0:0:0:
383,283,140631,5,0,0:0:0:0:
365,269,140718,2,0,P|324:241|302:251,1,45
233,304,140980,2,0,L|115:339,1,90
239,176,141329,1,8,0:0:0:0:
239,176,141503,1,8,0:0:0:0:
161,265,141677,2,0,L|104:325,2,45
97,117,142201,1,8,0:0:0:0:
109,129,142375,2,0,P|148:158|161:212,1,90
258,97,142724,5,8,0:0:0:0:
419,196,142898,2,0,L|387:96,1,90
378,76,143247,1,8,0:0:0:0:
302,172,143422,2,0,P|252:267|245:270,1,90
188,232,143770,2,0,P|122:283|116:318,1,90
104,185,144119,1,8,0:0:0:0:
227,223,144294,1,8,0:0:0:0:
367,247,144468,1,8,0:0:0:0:
329,78,144817,5,0,0:0:0:0:
301,79,144904,1,0,0:0:0:0:
272,79,144991,1,8,0:0:0:0:
104,101,145166,2,0,L|79:171,1,45
159,152,145427,2,0,P|157:238|128:262,1,90
240,216,145689,5,0,0:0:0:0:
240,216,145776,1,0,0:0:0:0:
240,216,145864,1,0,0:0:0:0:
394,299,146212,2,0,P|353:337|294:322,1,90
305,262,146561,2,0,P|257:250|189:277,1,90
151,158,146910,1,0,0:0:0:0:
420,118,147259,5,0,0:0:0:0:
420,118,147346,1,0,0:0:0:0:
420,118,147433,1,0,0:0:0:0:
420,118,147520,2,0,P|408:157|341:178,1,90
342,277,147782,5,0,0:0:0:0:
342,277,147869,1,0,0:0:0:0:
342,277,147957,1,0,0:0:0:0:
146,262,148218,2,0,P|103:201|113:166,1,90
123,110,148654,1,0,0:0:0:0:
123,110,148741,1,0,0:0:0:0:
123,110,148829,1,0,0:0:0:0:
285,143,149090,6,0,P|320:186|303:233,1,90
210,272,149439,1,0,0:0:0:0:
194,263,149526,2,0,P|147:220|134:166,1,90
75,88,149875,1,0,0:0:0:0:
85,72,149962,1,0,0:0:0:0:
97,62,150050,1,0,0:0:0:0:
243,65,150224,6,0,P|294:45|361:70,1,90
413,182,150486,2,0,B|397:218|392:258|387:247|374:230|369:224|361:212|357:200|347:155,1,135
213,184,150922,1,0,0:0:0:0:
330,319,151096,1,0,0:0:0:0:
348,92,151445,6,0,P|281:65|209:66,1,112.5
69,192,151794,1,0,0:0:0:0:
166,311,151968,2,0,P|232:300|232:267,1,112.5
250,219,152317,1,0,0:0:0:0:
165,45,152491,2,0,L|320:49,2,112.5
192,113,153102,2,0,P|179:162|138:195,1,56.25
316,89,153538,5,0,0:0:0:0:
486,121,153712,1,0,0:0:0:0:
303,177,153887,1,0,0:0:0:0:
434,211,154061,1,0,0:0:0:0:
341,310,154236,1,0,0:0:0:0:
166,311,154584,2,0,P|101:283|90:224,1,112.5
123,86,154933,1,0,0:0:0:0:
141,97,155020,2,0,L|189:131,1,56.25
245,225,155282,2,0,L|290:165,1,56.25
141,44,155631,6,0,B|104:68|94:96|98:126|110:149|134:157|165:171,1,168.75
199,212,155980,2,0,B|162:236|152:264|156:294|168:317|192:325|228:338,1,168.75
141,44,156416,2,0,B|104:68|94:96|98:126|110:149|134:157|163:171,1,168.75
199,212,156852,2,0,B|162:236|152:264|156:294|168:317|194:328|226:331,1,168.75
238,65,157724,5,0,0:0:0:0:
309,287,158073,1,0,0:0:0:0:
193,277,158422,1,0,0:0:0:0:
172,274,158509,1,0,0:0:0:0:
152,263,158596,1,0,0:0:0:0:
162,65,159119,2,0,L|263:79,1,56.25
306,88,159468,2,0,P|394:128|413:165,1,112.5
330,260,159817,2,0,L|239:252,3,56.25
137,252,160253,5,0,0:0:0:0:
114,227,160340,2,0,L|51:149,1,56.25
143,141,160515,2,0,L|109:48,1,56.25
180,72,160776,2,0,L|193:-13,1,56.25
256,64,161212,2,0,L|252:168,1,56.25
206,210,161474,2,0,L|179:57,1,112.5
378,65,161910,1,0,0:0:0:0:
79,82,162172,2,0,P|133:36|199:55,1,112.5
362,166,162520,2,0,P|365:224|343:241,1,56.25
122,318,162957,6,0,L|261:344,1,112.5
322,340,163305,1,0,0:0:0:0:
407,285,163393,1,0,0:0:0:0:
351,192,163654,1,0,0:0:0:0:
351,192,163829,2,0,P|261:198|266:226,1,112.5
314,79,164177,2,0,L|234:15,1,56.25
170,50,164352,1,0,0:0:0:0:
69,55,164526,1,0,0:0:0:0:
82,69,164701,2,0,L|149:122,1,56.25
121,181,165050,6,0,P|149:242|191:269,1,112.5
186,131,165398,2,0,P|236:209|341:253,1,168.75
295,52,165922,1,0,0:0:0:0:
413,155,166096,1,0,0:0:0:0:
258,152,166445,2,0,P|189:84|134:85,1,112.5
208,264,166794,2,0,P|138:142|70:121,1,168.75
98,340,167317,1,0,0:0:0:0:
257,345,167491,1,0,0:0:0:0:
278,85,167840,6,0,L|360:107,1,56.25
403,170,168102,1,0,0:0:0:0:
409,189,168189,1,0,0:0:0:0:
405,217,168276,1,0,0:0:0:0:
391,239,168364,1,0,0:0:0:0:
272,312,168538,1,0,0:0:0:0:
165,252,168712,2,0,P|205:195|236:192,1,56.25
277,141,168974,2,0,P|288:77|228:37,1,112.5
134,86,169323,1,0,0:0:0:0:
329,144,169584,5,0,0:0:0:0:
329,144,169672,1,0,0:0:0:0:
329,144,169759,2,0,L|232:206,1,112.5
225,48,170108,2,0,P|157:52|110:91,1,112.5
274,241,170457,1,0,0:0:0:0:
274,241,170631,2,0,P|326:255|362:233,1,56.25
70,184,170980,2,0,L|88:117,2,56.25
272,69,171329,1,0,0:0:0:0:
156,162,171677,6,0,P|110:197|104:230,1,56.25
181,319,172026,2,0,L|226:264,1,56.25
246,252,172288,2,0,L|280:184,1,56.25
176,61,172724,2,0,P|109:55|68:109,2,112.5
201,279,173422,1,0,0:0:0:0:
353,206,173509,1,0,0:0:0:0:
247,192,173683,2,0,P|247:115|255:88,1,56.25
179,46,173945,1,0,0:0:0:0:
75,82,174119,2,0,P|120:129|159:130,1,56.25
101,224,174381,5,0,0:0:0:0:
117,227,174468,2,0,P|169:200|182:167,1,56.25
143,322,174817,2,0,P|206:306|246:248,1,112.5
186,84,175166,6,0,L|240:114,1,45
167,162,175340,2,0,L|242:144,1,45
242,221,175515,2,0,L|248:156,1,45
339,38,175864,2,0,L|421:83,2,90
196,60,176387,2,0,P|155:99|188:152,1,90
240,264,176736,1,0,0:0:0:0:
119,121,177259,5,0,0:0:0:0:
111,152,177346,2,0,L|100:219,1,45
204,329,177608,2,0,L|299:288,1,90
341,124,177957,1,0,0:0:0:0:
282,59,178131,2,0,P|238:112|253:178,1,135
342,271,178654,5,0,0:0:0:0:
342,271,178741,1,0,0:0:0:0:
342,271,178829,2,0,L|265:295,1,45
221,313,179003,2,0,L|144:333,1,45
120,167,179352,2,0,B|172:157|173:143|165:121|148:104|101:80|68:95|50:106|44:122|43:136|48:152|60:163,1,225
100,303,180050,1,0,0:0:0:0:
200,316,180224,2,0,B|240:289|257:316|273:326|297:320|290:283,1,90
336,63,180660,6,0,P|301:45|288:52,1,45
247,75,180834,2,0,P|261:119|342:142,1,135
232,243,181445,2,0,P|274:261|339:242,1,90
229,121,181794,1,0,0:0:0:0:
130,74,181968,2,0,L|73:122,1,45
335,60,182230,1,0,0:0:0:0:
335,60,182317,1,0,0:0:0:0:
335,60,182404,2,0,L|326:184,1,90
61,184,183538,5,4,0:0:0:0:
299,45,184061,1,4,0:0:0:0:
301,284,184584,1,4,0:0:0:0:
211,133,184933,2,0,P|134:104|137:174,1,168.75
332,238,185457,2,0,P|402:256|404:286,2,112.5
118,72,186329,5,0,0:0:0:0:
118,72,186416,2,0,L|52:182,1,67.5000025749208
138,223,186677,1,0,0:0:0:0:
276,198,186852,2,0,L|179:141,1,67.5000025749208
177,45,187114,6,0,L|111:134,1,67.5000025749208
206,121,187288,2,0,L|122:185,1,67.5000025749208
207,272,187462,2,0,L|185:166,1,67.5000025749208
321,133,187724,1,0,0:0:0:0:
321,133,187811,2,0,L|249:197,1,67.5000025749208
177,145,188073,1,0,0:0:0:0:
118,72,188160,6,0,P|182:45|222:59,1,67.5000025749208
255,45,188422,2,0,P|344:79|383:159,1,135.000005149842
417,239,188770,1,2,0:0:0:0:
215,240,188945,1,2,0:0:0:0:
103,253,189468,6,0,L|185:174,1,67.5000025749208
126,128,189643,1,0,0:0:0:0:
126,128,189730,2,0,L|224:162,1,67.5000025749208
262,246,190079,2,0,L|205:181,1,67.5000025749208
200,113,190340,6,0,P|228:51|273:66,1,67.5000025749208
334,56,190602,2,0,P|331:156|319:162,1,67.5000025749208
262,168,190864,1,0,0:0:0:0:
244,177,190951,2,0,P|249:250|292:265,1,67.5000025749208
324,192,191212,6,0,L|224:105,1,67.5000025749208
161,261,191561,1,2,0:0:0:0:
65,99,191736,1,2,0:0:0:0:
304,118,192259,5,0,0:0:0:0:
305,155,192346,1,0,0:0:0:0:
240,232,192433,2,0,P|179:199|159:162,1,67.5000025749208
181,53,192782,2,0,L|247:141,1,67.5000025749208
329,229,193044,2,0,L|378:127,1,67.5000025749208
291,40,193305,5,0,0:0:0:0:
310,50,193393,2,0,L|418:103,1,67.5000025749208
441,172,193567,2,0,P|322:187|299:148,1,135.000005149842
193,109,193916,2,0,P|143:159|168:197,1,67.5000025749208
225,228,194177,5,0,0:0:0:0:
250,228,194265,2,0,L|362:259,1,67.5000025749208
416,219,194526,2,0,P|464:170|383:169,1,135.000005149842
203,183,195050,5,0,0:0:0:0:
203,183,195224,1,0,0:0:0:0:
203,183,195398,1,0,0:0:0:0:
203,183,195573,1,0,0:0:0:0:
203,183,195747,2,0,L|124:101,1,67.5000025749208
378,48,196270,6,0,P|401:118|374:146,1,67.5000025749208
308,134,196445,2,0,L|202:77,1,67.5000025749208
105,96,196707,2,0,P|57:144|77:162,1,67.5000025749208
83,200,196881,1,0,0:0:0:0:
203,183,197143,1,0,0:0:0:0:
183,161,197491,6,0,L|146:207,1,33.7500012874604
328,271,198189,2,0,P|394:259|438:231,1,101.250003862381
382,67,198712,1,0,0:0:0:0:
159,140,198887,2,0,P|99:130|78:178,1,112.5
95,246,199148,2,0,P|146:257|197:229,1,112.5
328,178,199584,1,0,0:0:0:0:
339,149,199759,2,0,L|373:79,1,56.25
256,192,222520,12,0,225050,0:0:0:0:
