osu file format v14

[General]
AudioFilename: audio.mp3
AudioLeadIn: 0
PreviewTime: 55512
Countdown: 0
SampleSet: Soft
StackLeniency: 0.4
Mode: 0
LetterboxInBreaks: 0
WidescreenStoryboard: 1

[Editor]
DistanceSpacing: 1.1
BeatDivisor: 4
GridSize: 16
TimelineZoom: 3.299998

[Metadata]
Title:VII. THE RUST
TitleUnicode:Ⅶ. THE RUST
Artist:A.A. (CV: Chihara Minori)
ArtistUnicode:A.A. (CV: 茅原実里)
Creator:Kuro Fuyusaki
Version:Easy
Source:メメントモリ
Tags:mementomori memento mori mememori folk japanese video game gacha bank of innovation female vocalist shurelia fnayr arutama syarika ievan polkka polokka eino kettunen witches of qliphas クリファの魔女 kurifa no majo
BeatmapID:4064628
BeatmapSetID:1952490

[Difficulty]
HPDrainRate:2
CircleSize:3.3
OverallDifficulty:3
ApproachRate:3
SliderMultiplier:1.4
SliderTickRate:1

[Events]
//Background and Video events
0,0,"iXYFUVB.png",0,0
//Break Periods
2,93813,111014
2,145275,162276
2,182557,199558
//Storyboard Layer 0 (Background)
//Storyboard Layer 1 (Fail)
//Storyboard Layer 2 (Pass)
//Storyboard Layer 3 (Foreground)
//Storyboard Layer 4 (Overlay)
//Storyboard Sound Samples

[TimingPoints]
610,582.52427184466,4,2,1,24,1,0
9930,-100,4,2,1,30,0,0
11313,-100,4,2,1,5,0,0
11386,-100,4,2,1,30,0,0
12478,-100,4,2,1,5,0,0
12551,-100,4,2,1,30,0,0
14809,-100,4,2,1,5,0,0
14882,-100,4,2,1,30,0,0
15974,-100,4,2,1,5,0,0
16047,-100,4,2,1,30,0,0
19177,-100,4,2,1,5,0,0
19250,-100,4,2,1,30,0,0
20634,-100,4,2,1,5,0,0
20707,-100,4,2,1,30,0,0
28571,-100,4,2,1,45,0,0
38037,-100,4,2,1,5,0,0
38182,-100,4,2,1,45,0,0
38619,-100,4,2,1,5,0,0
38764,-100,4,2,1,45,0,0
39202,-100,4,2,1,5,0,0
39347,-100,4,2,1,45,0,0
39784,-100,4,2,1,5,0,0
39929,-100,4,2,1,45,0,0
40367,-100,4,2,1,5,0,0
40512,-100,4,2,1,45,0,0
41532,-100,4,2,1,5,0,0
41677,-100,4,2,1,45,0,0
42114,-100,4,2,1,5,0,0
42259,-100,4,2,1,45,0,0
55949,-100,4,2,1,36,0,0
56241,-100,4,2,1,42,0,0
56532,-100,4,2,1,66,0,0
58279,-100,4,2,2,66,0,0
58571,-100,4,2,1,66,0,0
60609,-100,4,2,2,66,0,0
60901,-100,4,2,1,66,0,0
63741,-100,4,2,2,5,0,0
63813,-100,4,2,2,66,0,0
63959,-100,4,2,1,66,0,0
64177,-100,4,2,2,5,0,0
64250,-100,4,2,2,66,0,0
64396,-100,4,2,1,66,0,0
65270,-100,4,2,2,66,0,0
65561,-100,4,2,1,66,0,0
67600,-100,4,2,2,66,0,0
67891,-100,4,2,1,66,0,0
69930,-100,4,2,2,66,0,0
70221,-100,4,2,1,66,0,0
93813,-100,4,2,1,45,0,0
120027,-100,4,2,1,30,0,0
120173,-100,4,2,1,33,0,0
120318,-100,4,2,1,36,0,0
120464,-100,4,2,1,39,0,0
120609,-100,4,2,1,45,0,0
121775,-100,4,2,1,66,0,0
123522,-100,4,2,3,52,0,0
124105,-100,4,2,2,66,0,0
124979,-100,4,2,1,66,0,0
125852,-100,4,2,2,66,0,0
126143,-100,4,2,1,66,0,0
127891,-100,4,2,2,66,0,0
128037,-100,4,2,1,66,0,0
128328,-100,4,2,2,66,0,0
128474,-100,4,2,1,66,0,0
128983,-100,4,2,2,5,0,0
129056,-100,4,2,1,66,0,0
129420,-100,4,2,2,5,0,0
129493,-100,4,2,1,66,0,0
129930,-100,4,2,2,66,0,0
130221,-100,4,2,1,66,0,0
130512,-100,4,2,2,66,0,0
130804,-100,4,2,1,66,0,0
132843,-100,4,2,3,52,0,0
133425,-100,4,2,2,66,0,0
134299,-100,4,2,1,66,0,0
135173,-100,4,2,2,66,0,0
135464,-100,4,2,1,66,0,0
139833,-100,4,2,2,66,0,0
140124,-100,4,2,1,66,0,0
144493,-100,4,2,3,60,0,0
145076,-100,4,2,3,72,0,0
163716,-100,4,2,2,88,0,0
164517,-100,4,2,2,5,0,0
164590,-100,4,2,2,88,0,0
169177,-100,4,2,2,5,0,0
169250,-100,4,2,2,88,0,0
172964,-100,4,2,2,5,0,0
173037,-100,4,2,2,88,0,0
173838,-100,4,2,2,5,0,0
173910,-100,4,2,2,88,0,0
176920,-100,4,2,2,5,0,0
177017,-100,4,2,2,88,0,0
178207,-100,4,2,2,5,0,0
178279,-100,4,2,2,88,0,0
179372,-100,4,2,2,5,0,0
179444,-100,4,2,2,88,0,0
182284,-100,4,2,2,5,0,0
182357,-100,4,2,2,88,0,0
182430,-100,4,2,1,35,0,0
191677,-100,4,2,1,42,0,0
196338,-100,4,2,1,48,0,0
197503,-100,4,2,2,48,0,0
197940,-100,4,2,2,60,0,0
198376,-100,4,2,2,70,0,0
198571,-100,4,2,2,5,0,0
198668,-100,4,2,2,5,0,0
198716,-100,4,2,2,45,0,0
199881,-100,4,2,2,15,0,0
200998,-100,4,2,2,52,0,0
203910,-100,4,2,1,30,0,0
204493,-100,4,2,1,40,0,0
205367,-100,4,2,2,52,0,0
210027,-100,4,2,1,52,0,0
210318,-100,4,2,2,100,0,1
211338,-100,4,2,1,100,0,1
211775,-100,4,2,2,100,0,1
212066,-100,4,2,1,100,0,1
212357,-100,4,2,2,100,0,1
213668,-100,4,2,1,100,0,1
214105,-100,4,2,2,100,0,1
214396,-100,4,2,1,100,0,1
214687,-100,4,2,2,100,0,1
215852,-100,4,2,1,100,0,1
216143,-100,4,2,2,100,0,1
217017,-100,4,2,1,100,0,1
219639,-100,4,2,1,40,0,0
220804,-100,4,2,1,32,0,0
221969,-100,4,2,1,28,0,0
223134,-100,4,2,1,24,0,0
224299,-100,4,2,1,20,0,0
225464,-100,4,2,1,16,0,0
226629,-100,4,2,1,12,0,0
227794,-100,4,2,1,10,0,0
228085,-100,4,2,1,8,0,0
228376,-100,4,2,1,6,0,0
228668,-100,4,2,1,5,0,0

[Colours]
Combo1 : 238,201,164
Combo2 : 163,135,92
Combo3 : 175,171,146

[HitObjects]
487,195,9930,6,0,P|420:173|366:130,1,140,2|0,0:0|0:0,0:0:0:0:
225,67,11095,2,0,P|158:88|104:131,1,140,2|0,0:0|0:0,0:0:0:0:
18,259,12260,2,0,L|1:339,2,70,2|0|2,0:0|0:0|0:0,0:0:0:0:
167,297,13425,2,0,L|184:377,2,70,2|0|2,0:0|0:0|0:0,0:0:0:0:
293,208,14590,6,0,L|446:169,1,140,2|0,0:0|0:0,0:0:0:0:
501,37,15755,2,0,L|365:2,1,140,2|0,0:0|0:0,0:0:0:0:
279,130,16920,2,0,L|143:159,2,140,2|0|2,0:0|0:0|0:0,0:0:0:0:
398,227,18668,1,2,0:0:0:0:
323,361,19250,6,0,P|260:329|192:313,1,140,2|0,0:0|0:0,0:0:0:0:
54,245,20415,2,0,P|37:178|6:115,1,140,2|0,0:0|0:0,0:0:0:0:
124,15,21580,2,0,L|194:0,2,70,2|0|0,0:0|0:0|0:0,0:0:0:0:
79,162,22745,1,2,0:0:0:0:
219,225,23328,1,2,0:0:0:0:
323,112,23910,6,0,P|346:170|362:250,1,140,2|0,0:0|0:0,0:0:0:0:
458,365,25076,1,2,0:0:0:0:
510,220,25658,1,0,0:0:0:0:
395,116,26241,2,0,P|319:91|234:79,2,140,2|0|2,0:0|0:0|0:0,0:0:0:0:
512,308,28571,6,0,P|442:320|408:242,1,140,0|0,3:0|3:0,0:0:0:0:
437,120,29736,2,0,L|519:103,2,70,0|2|0,3:0|0:0|3:0,0:0:0:0:
311,30,30901,2,0,L|222:14,1,70,0|2,3:0|0:0,0:0:0:0:
165,26,31483,2,0,P|101:62|96:136,1,140,0|0,3:0|3:0,0:0:0:0:
201,230,32648,1,0,3:0:0:0:
344,173,33231,6,0,P|367:219|361:258,1,70,0|2,3:0|0:0,0:0:0:0:
427,283,33813,2,0,P|480:238|479:150,1,140,0|0,3:0|3:0,0:0:0:0:
399,44,34978,2,0,P|369:24|335:21,1,70,0|2,3:0|0:0,0:0:0:0:
269,61,35561,2,0,L|234:221,1,140,0|0,3:0|3:0,0:0:0:0:
200,347,36726,1,0,3:0:0:0:
49,315,37309,1,0,3:0:0:0:
1,172,37891,6,0,P|47:148|139:124,1,140,0|0,3:0|3:0,0:0:0:0:
207,136,38765,1,2,0:0:0:0:
269,181,39056,2,0,P|293:226|317:318,1,140,0|0,3:0|3:0,0:0:0:0:
453,383,40221,1,0,3:0:0:0:
511,240,40804,1,0,3:0:0:0:
388,147,41386,2,0,L|370:52,2,70,0|2|0,3:0|0:0|3:0,0:0:0:0:
253,221,42551,6,0,L|228:366,1,140,0|0,3:0|3:0,0:0:0:0:
82,310,43716,1,0,3:0:0:0:
14,171,44299,2,0,L|98:150,1,70,0|2,3:0|0:0,0:0:0:0:
134,98,44881,2,0,B|183:115|183:115|205:143|205:143|260:161,1,140,0|0,3:0|3:0,0:0:0:0:
337,289,46046,2,0,L|421:268,2,70,0|2|0,3:0|0:0|3:0,0:0:0:0:
193,368,47211,6,0,P|113:293|0:268,2,210,0|0|0,3:0|3:0|0:0,0:0:0:0:
345,344,49542,2,0,P|397:247|483:180,2,210,0|0|2,3:0|3:0|0:0,0:0:0:0:
193,368,51872,6,0,P|111:297|141:191,1,210,0|0,3:0|3:0,0:0:0:0:
269,145,53328,2,0,P|272:93|241:52,1,105,0|0,3:0|3:2,0:0:0:0:
133,11,54202,2,0,L|6:39,2,105,0|0|0,3:0|3:0|3:0,0:0:0:0:
370,114,56532,6,0,L|486:149,1,105,4|0,3:2|3:2,0:0:0:0:
504,255,57406,2,0,P|425:352|410:355,2,140,2|2|2,3:2|0:0|0:0,0:0:0:0:
439,213,58862,2,0,L|314:242,1,105,0|0,3:0|3:0,0:0:0:0:
193,365,60027,2,0,L|27:338,1,140,0|2,3:0|0:0,0:0:0:0:
22,191,61192,6,0,L|46:69,1,105,4|0,3:0|3:0,0:0:0:0:
140,26,62066,1,2,3:2:0:0:
215,42,62357,2,0,P|271:127|292:172,1,140,2|0,0:0|0:0,0:0:0:0:
423,233,63522,2,0,P|468:211|469:161,2,105,2|2|2,3:2|3:2|0:0,0:0:0:0:
274,274,64978,1,2,3:2:0:0:
162,167,65561,1,2,3:2:0:0:
216,112,65852,6,0,L|319:88,1,105,4|0,3:0|3:0,0:0:0:0:
423,137,66726,2,0,P|473:182|476:250,2,140,2|2|2,3:2|0:0|0:0,0:0:0:0:
349,160,68182,2,0,P|317:201|305:252,2,105,0|0|2,3:0|3:0|0:0,0:0:0:0:
467,60,69639,1,2,3:2:0:0:
239,20,70512,6,0,P|187:24|140:48,1,105,4|0,3:0|3:0,0:0:0:0:
83,232,71677,2,0,P|105:269|153:305,1,105,2|2,3:2|3:2,0:0:0:0:
337,245,72843,2,0,P|358:197|360:145,1,105,2|0,3:2|3:0,0:0:0:0:
123,16,74299,1,0,3:0:0:0:
50,151,74881,1,2,0:0:0:0:
109,200,75173,6,0,L|212:183,1,105,4|0,3:0|3:0,0:0:0:0:
299,107,76046,2,0,B|335:93|369:126|369:126|373:160|408:171,1,140,0|0,3:0|3:0,0:0:0:0:
298,375,77503,1,0,3:0:0:0:
156,194,78376,1,0,3:0:0:0:
156,194,79833,6,0,P|182:253|190:306,1,105,0|0,3:0|3:0,0:0:0:0:
281,362,80707,2,0,P|361:359|401:177,1,280,2|0,3:2|0:0,0:0:0:0:
348,151,82163,2,0,P|296:161|249:184,1,105,0|0,3:0|3:0,0:0:0:0:
93,297,83328,1,2,3:2:0:0:
0,43,84493,6,0,P|51:32|98:9,1,105,2|0,3:2|3:0,0:0:0:0:
200,64,85367,2,0,P|221:193|105:256,1,280,0|0,3:0|0:0,0:0:0:0:
38,219,86823,2,0,P|27:167|4:120,1,105,0|0,3:0|3:0,0:0:0:0:
246,1,88279,5,0,3:0:0:0:
409,195,89153,1,0,3:0:0:0:
256,192,90027,12,10,93231,0:0:0:0:
0,27,112454,6,0,P|75:107|100:220,1,210,0|0,3:0|0:0,0:0:0:0:
71,273,113619,1,2,0:0:0:0:
266,384,114784,6,0,P|294:283|366:209,1,210,0|0,3:0|0:0,0:0:0:0:
438,182,115949,1,2,0:0:0:0:
282,21,117115,6,0,P|182:7|120:86,1,210,0|0,3:0|0:0,0:0:0:0:
90,157,118279,1,2,0:0:0:0:
244,319,119444,6,0,B|324:301|361:235|332:216|365:154|441:139,1,280,0|2,3:0|0:0,0:0:0:0:
440,139,121775,6,0,L|475:23,1,105,4|4,3:2|3:0,0:0:0:0:
361,0,122648,2,0,P|240:56|236:74,1,140,2|0,3:2|0:0,0:0:0:0:
166,180,123813,1,2,0:0:0:0:
106,228,124105,2,0,L|3:204,1,105,4|4,3:0|3:0,0:0:0:0:
99,37,125270,2,0,L|264:11,1,140,0|2,3:0|0:0,0:0:0:0:
374,85,126435,6,0,L|350:207,1,105,4|4,3:0|3:0,0:0:0:0:
364,303,127309,1,2,3:2:0:0:
397,372,127600,2,0,P|464:369|505:315,1,140,2|0,0:0|0:0,0:0:0:0:
459,168,128765,2,0,P|465:118|508:87,2,105,4|4|0,3:0|3:0|0:0,0:0:0:0:
338,263,130221,1,2,3:2:0:0:
206,183,130804,1,2,3:2:0:0:
135,214,131095,6,0,L|111:317,1,105,4|4,3:0|3:0,0:0:0:0:
215,366,131969,2,0,P|277:339|299:274,1,140,2|2,3:2|0:0,0:0:0:0:
213,146,133134,1,2,0:0:0:0:
245,76,133425,2,0,P|285:42|334:27,2,105,4|4|2,3:0|3:0|0:0,0:0:0:0:
323,209,134882,1,0,3:0:0:0:
155,368,135755,6,0,P|108:344|56:340,1,105,4|4,3:0|3:0,0:0:0:0:
9,153,136920,2,0,P|51:123|79:78,1,105,4|2,3:0|3:2,0:0:0:0:
267,121,138086,2,0,P|269:173|291:220,1,105,4|4,3:0|3:0,0:0:0:0:
510,63,139542,1,0,3:0:0:0:
460,208,140124,1,2,0:0:0:0:
393,247,140416,6,0,L|283:217,1,105,4|4,3:0|3:0,0:0:0:0:
177,203,141289,2,0,B|138:202|118:245|118:245|126:278|98:301,1,140,0|0,3:0|3:0,0:0:0:0:
10,87,142745,2,0,P|52:82|228:22,1,210,0|0,3:0|3:0,0:0:0:0:
286,46,143910,2,0,P|326:75|195:157,1,280,0|4,0:0|3:2,0:0:0:0:
479,340,163716,6,0,P|417:307|350:287,1,140,6|8,3:2|3:2,0:0:0:0:
209,224,164881,2,0,P|169:245|134:275,1,70,0|2,3:0|0:0,0:0:0:0:
90,308,165464,2,0,P|26:287|25:197,1,140,8|0,3:2|3:0,0:0:0:0:
34,148,166338,1,2,0:0:0:0:
79,85,166629,2,0,P|143:64|196:136,1,140,8|0,3:2|3:0,0:0:0:0:
241,168,167503,1,2,0:0:0:0:
315,147,167794,1,8,3:2:0:0:
365,292,168376,6,0,L|445:272,1,70,0|2,3:0|0:0,0:0:0:0:
488,221,168959,2,0,L|511:83,1,140,8|0,3:2|3:0,0:0:0:0:
466,20,169833,1,2,0:0:0:0:
390,34,170124,2,0,P|348:85|350:110,1,70,8|2,3:2|0:0,0:0:0:0:
284,129,170707,2,0,B|228:98|228:98|187:105,2,105,0|0|2,3:0|0:0|0:0,0:0:0:0:
329,193,171872,1,0,3:0:0:0:
223,305,172454,1,8,3:2:0:0:
76,257,173037,6,0,L|53:178,1,70,0|2,3:0|0:0,0:0:0:0:
13,125,173619,2,0,L|44:38,1,70,8|2,3:2|0:0,0:0:0:0:
103,20,174202,2,0,L|199:3,1,70,0|2,3:0|0:0,0:0:0:0:
239,45,174784,1,8,3:2:0:0:
314,179,175367,6,0,L|451:207,1,140,0|8,3:0|3:2,0:0:0:0:
503,149,176241,1,2,0:0:0:0:
467,80,176532,2,0,L|371:63,1,70,0|0,3:0|0:0,0:0:0:0:
334,24,177114,2,0,L|246:66,1,70,8|2,3:2|0:0,0:0:0:0:
202,90,177697,1,0,3:0:0:0:
96,202,178279,6,0,L|117:292,1,70,8|2,3:2|0:0,0:0:0:0:
168,322,178862,2,0,B|218:337|218:337|255:243,1,140,0|8,3:2|3:2,0:0:0:0:
306,202,179736,1,2,0:0:0:0:
376,231,180027,5,0,3:0:0:0:
473,111,180609,1,0,3:2:0:0:
347,22,181192,1,0,3:2:0:0:
231,124,181775,1,0,3:2:0:0:
89,64,182357,1,4,3:0:0:0:
462,307,200998,6,0,L|481:383,2,70,0|0|8,3:0|3:0|0:2,0:0:0:0:
308,78,203328,6,0,L|289:2,2,70,0|0|2,3:0|3:0|0:0,0:0:0:0:
71,357,205658,6,0,L|-5:376,2,70,0|0|8,3:0|3:0|0:2,0:0:0:0:
290,163,207988,6,0,L|214:144,2,70,0|0|8,3:0|3:0|0:2,0:0:0:0:
382,374,209444,2,0,L|488:348,1,105,0|0,3:0|3:0,0:0:0:0:
506,235,210318,6,0,L|340:193,1,140,4|0,3:2|0:0,0:0:0:0:
295,182,211192,1,2,3:2:0:0:
221,205,211483,2,0,P|192:280|197:295,1,70,0|2,0:0|0:0,0:0:0:0:
135,319,212066,2,0,P|101:310|75:288,1,70,2|2,0:0|0:0,0:0:0:0:
30,225,212648,6,0,L|3:68,1,140,4|0,3:0|0:0,0:0:0:0:
59,30,213522,1,2,0:0:0:0:
125,68,213813,2,0,L|144:168,1,70,0|2,0:0|0:0,0:0:0:0:
186,197,214396,2,0,L|338:239,1,140,2|4,0:0|3:0,0:0:0:0:
374,290,215270,6,0,L|358:360,2,70,2|0|2,0:0|0:0|0:0,0:0:0:0:
443,256,216143,2,0,B|466:177|466:177|456:155|456:155|475:93,1,140
493,50,217017,1,2,0:0:0:0:
430,5,217309,2,0,P|328:20|312:164,1,245,4|0,3:0|0:0,0:0:0:0:
424,289,219056,2,0,P|481:284|489:211,1,140,0|2,0:0|0:0,0:0:0:0:
