osu file format v14

[General]
AudioFilename: audio.mp3
AudioLeadIn: 0
PreviewTime: 177089
Countdown: 0
SampleSet: Soft
StackLeniency: 0.5
Mode: 0
LetterboxInBreaks: 0
EpilepsyWarning: 1
WidescreenStoryboard: 1

[Editor]
DistanceSpacing: 1.1
BeatDivisor: 4
GridSize: 32
TimelineZoom: 1.8

[Metadata]
Title:Kodoku no Kakurenbo
TitleUnicode:孤独ノ隠レンボ
Artist:A-ya (CV: Ogata Megumi)
ArtistUnicode:A弥 (CV: 緒方恵美)
Creator:Nevo
Version:Smoke's Normal
Source:終焉ノ栞プロジェクト
Tags:vocaloid IA cover Shuuen no Shiori aya Hide and Seek of Isolation 終焉-Re.act- bookmark demise project yukiyo frontier -_frontier_- nikakis lukas seolv synderes frostwich kowari agatsu smoke himeringo 150p japanese novelty suzumu Lonely
BeatmapID:2285111
BeatmapSetID:1044564

[Difficulty]
HPDrainRate:4
CircleSize:2.5
OverallDifficulty:4.5
ApproachRate:5.2
SliderMultiplier:0.9
SliderTickRate:1

[Events]
//Background and Video events
0,0,"43464963_p0.png",0,0
Video,-269,"kodoku.flv"
//Break Periods
2,87269,92035
2,111405,113969
2,160560,168049
//Storyboard Layer 0 (Background)
//Storyboard Layer 1 (Fail)
//Storyboard Layer 2 (Pass)
//Storyboard Layer 3 (Foreground)
//Storyboard Layer 4 (Overlay)
//Storyboard Sound Samples

[TimingPoints]
1024,272.727272727273,4,2,1,60,1,0
1024,-111.111111111111,4,2,1,60,0,0
9751,-100,4,2,1,80,0,0
17524,-100,4,2,1,70,0,0
17796,-100,4,2,1,70,0,0
18069,-100,4,2,1,70,0,0
18342,-100,4,2,1,70,0,0
19569,-100,4,2,1,70,0,0
19842,-100,4,2,1,70,0,0
28296,-100,4,2,1,75,0,0
28569,-100,4,2,1,75,0,0
36887,-100,4,2,1,75,0,0
45205,-100,4,2,1,75,0,0
45478,-100,4,2,1,75,0,0
45751,-100,4,2,1,90,0,1
56660,-100,4,2,1,85,0,0
57205,-100,4,2,1,85,0,0
61024,-100,4,2,1,80,0,0
69751,-100,4,2,1,70,0,0
78478,-100,4,2,1,75,0,0
78751,-100,4,2,1,75,0,0
87069,-100,4,2,1,50,0,0
93205,-100,4,2,1,80,0,0
95933,-100,4,2,1,90,0,1
106842,-100,4,2,1,85,0,0
111205,245.901639344262,4,2,1,65,1,0
115139,-111.111111111111,4,2,1,65,0,0
115630,-111.111111111111,4,2,1,70,0,0
116123,-111.111111111111,4,2,1,65,0,0
116614,-111.111111111111,4,2,1,70,0,0
117106,-111.111111111111,4,2,1,65,0,0
117351,-111.111111111111,4,2,1,70,0,0
117598,-111.111111111111,4,2,1,65,0,0
117843,-111.111111111111,4,2,1,70,0,0
118090,-99.9999999999999,4,2,1,65,0,0
118335,-99.9999999999999,4,2,1,75,0,0
126942,-100,4,2,1,90,0,1
142188,-100,4,2,1,90,0,0
142680,-100,4,2,1,90,0,1
149565,-100,4,2,1,90,0,0
149811,-100,4,2,1,90,0,0
150057,-100,4,2,1,90,0,0
150303,-100,4,2,1,90,0,0
150549,-100,4,2,1,90,0,1
159401,272.727272727273,4,2,1,80,1,0
160560,-100,4,2,1,80,0,0
169219,-111.111111111111,4,2,1,60,0,0
177946,-100,4,2,1,80,0,0
178219,272.727272727273,4,2,1,90,1,0
178219,-100,4,2,1,90,0,1
189128,-100,4,2,1,85,0,0
192264,-100,4,2,1,85,0,0
192809,-100,4,2,1,85,0,0
194037,272.727272727273,4,2,1,80,1,0
194037,-100,4,2,1,80,0,0
220764,-100,4,2,1,5,0,0

[Colours]
Combo1 : 184,33,33
Combo2 : 192,192,192
Combo3 : 255,83,83
Combo4 : 116,116,116

[HitObjects]
0,339,1024,6,0,P|81:327|166:315,1,161.999995056153,2|2,0:0|0:0,0:0:0:0:
283,263,1978,2,0,P|343:300|401:284,1,121.499996292114,2|0,0:0|0:0,0:0:0:0:
465,243,2660,1,2,0:0:0:0:
450,154,2933,1,2,0:0:0:0:
361,160,3205,6,0,L|270:148,1,80.9999975280763,2|0,0:0|0:0,0:0:0:0:
245,121,3614,2,0,P|183:151|122:140,1,121.499996292114,2|2,0:0|0:0,0:0:0:0:
47,113,4296,2,0,P|38:177|31:243,1,121.499996292114,2|2,0:0|0:0,0:0:0:0:
14,365,5114,1,2,0:0:0:0:
100,344,5387,6,0,P|168:358|222:365,1,121.499996292114,2|2,0:0|0:0,0:0:0:0:
262,352,5933,2,0,P|243:298|269:235,1,121.499996292114,2|2,0:0|0:0,0:0:0:0:
296,209,6478,1,2,0:0:0:0:
382,231,6751,1,2,0:0:0:0:
459,186,7024,1,2,0:0:0:0:
471,97,7296,1,2,0:0:0:0:
400,41,7569,6,0,L|266:59,2,121.499996292114,2|2|2,0:0|0:0|0:0,0:0:0:0:
471,97,8660,1,2,0:0:0:0:
405,262,9205,1,2,0:0:0:0:
234,161,9751,6,0,P|253:219|263:263,1,90,6|10,3:2|0:0,0:0:0:0:
201,327,10296,2,0,P|147:339|96:320,1,90,2|10,3:2|0:0,0:0:0:0:
67,313,10705,1,2,3:2:0:0:
16,227,10978,2,0,L|25:178,1,45,2|10,3:2|0:0,0:0:0:0:
54,143,11251,2,0,P|49:103|47:48,1,90,10|2,0:0|3:2,0:0:0:0:
85,21,11660,1,10,0:0:0:0:
179,50,11933,6,0,P|230:37|282:28,1,90,2|10,3:2|0:0,0:0:0:0:
309,55,12342,2,0,P|298:111|313:155,1,90,2|2,0:0|3:2,0:0:0:0:
339,178,12751,2,0,P|364:172|398:168,1,45,8|0,0:0|3:0,0:0:0:0:
481,175,13160,2,0,P|488:203|489:236,1,45,0|8,3:0|0:0,0:0:0:0:
510,263,13433,2,0,P|493:320|484:357,1,90,10|0,0:0|3:0,0:0:0:0:
436,347,13842,1,10,0:0:0:0:
337,356,14114,6,0,L|228:339,1,90,6|10,3:2|0:0,0:0:0:0:
188,262,14660,2,0,L|285:244,1,90,2|10,3:2|0:0,0:0:0:0:
301,202,15069,1,2,3:2:0:0:
399,193,15342,2,0,P|422:176|448:154,1,45,2|10,3:2|0:0,0:0:0:0:
436,116,15614,2,0,P|437:70|406:28,1,90,10|2,0:0|3:2,0:0:0:0:
365,21,16024,1,10,0:0:0:0:
268,41,16296,6,0,P|220:32|164:56,1,90,2|10,3:2|0:0,0:0:0:0:
135,63,16705,2,0,P|148:124|152:163,1,90,2|2,0:0|3:2,0:0:0:0:
144,201,17114,2,0,P|138:230|133:261,1,45,10|2,0:0|3:2,0:0:0:0:
144,344,17524,1,2,3:2:0:0:
234,305,17796,1,10,3:2:0:0:
327,337,18069,1,10,3:2:0:0:
406,278,18342,1,10,3:2:0:0:
57,46,19569,5,6,3:2:0:0:
145,91,19842,2,0,P|195:82|243:77,2,90,10|2|2,0:0|3:2|0:0,0:0:0:0:
106,182,20660,1,0,0:0:0:0:
186,239,20933,2,0,P|234:231|277:225,1,90,10|8,0:0|0:0,0:0:0:0:
303,184,21342,2,0,P|346:167|391:171,1,90,2|2,3:2|3:2,0:0:0:0:
494,274,22024,6,0,P|483:320|476:375,1,90,10|2,0:0|3:2,0:0:0:0:
390,313,22569,1,2,0:0:0:0:
292,329,22842,2,0,P|289:307|282:277,2,45,2|2|10,0:0|3:2|0:0,0:0:0:0:
255,363,23251,1,2,3:2:0:0:
157,348,23524,2,0,P|173:305|183:243,1,90,0|2,3:0|3:2,0:0:0:0:
211,116,24205,6,0,P|259:100|304:111,2,90,14|2|2,0:0|3:2|0:0,0:0:0:0:
132,176,25024,1,2,0:0:0:0:
181,261,25296,1,10,0:0:0:0:
262,204,25569,2,0,L|321:214,1,45,8|4,0:0|3:2,0:0:0:0:
394,165,25978,6,0,P|443:165|493:195,1,90,14|0,0:0|3:0,0:0:0:0:
509,222,26387,1,8,0:0:0:0:
420,266,26660,2,0,P|409:297|402:321,1,45,10|2,0:0|3:2,0:0:0:0:
390,356,26933,1,10,0:0:0:0:
296,322,27205,2,0,P|245:321|197:354,1,90,10|10,0:0|0:0,0:0:0:0:
163,353,27614,2,0,P|176:282|185:203,1,135,2|8,3:2|0:0,0:0:0:0:
156,124,28296,5,6,3:2:0:0:
62,157,28569,2,0,L|83:260,1,90,10|2,0:0|3:2,0:0:0:0:
95,343,29114,1,10,0:0:0:0:
179,291,29387,1,2,3:2:0:0:
272,324,29660,2,0,P|300:290|307:231,1,90,10|8,0:0|0:0,0:0:0:0:
310,196,30069,1,2,3:2:0:0:
283,100,30342,1,2,3:2:0:0:
412,27,30751,6,0,P|425:67|439:114,1,90,10|2,0:0|3:2,0:0:0:0:
420,210,31296,1,10,0:0:0:0:
475,292,31569,1,2,3:2:0:0:
408,365,31842,2,0,P|360:350|319:354,1,90,10|8,0:0|0:0,0:0:0:0:
271,359,32251,1,2,3:2:0:0:
197,292,32524,1,2,3:2:0:0:
293,179,32933,6,0,L|275:85,1,90,10|2,0:0|3:2,0:0:0:0:
206,20,33478,1,10,0:0:0:0:
107,27,33751,1,2,3:2:0:0:
43,103,34024,2,0,P|53:158|65:208,1,90,10|2,0:0|3:2,0:0:0:0:
30,230,34433,1,8,0:0:0:0:
104,294,34705,6,0,P|155:275|235:316,1,135,6|8,3:2|0:0,0:0:0:0:
308,360,35387,2,0,P|336:353|362:347,1,45,10|2,0:0|3:2,0:0:0:0:
400,340,35660,1,10,0:0:0:0:
468,268,35933,2,0,L|457:205,1,45,10|8,0:0|0:0,0:0:0:0:
439,126,36342,2,0,P|447:79|461:27,1,90,10|8,0:0|0:0,0:0:0:0:
361,14,36887,6,0,P|313:8|264:41,1,90,6|0,3:2|0:0,0:0:0:0:
236,55,37296,1,0,3:0:0:0:
274,146,37569,2,0,P|258:203|249:251,1,90,12|2,0:0|0:0,0:0:0:0:
226,275,37978,2,0,P|176:277|132:245,1,90,2|0,3:2|0:0,0:0:0:0:
100,231,38387,1,0,3:0:0:0:
135,138,38660,2,0,P|128:91|113:37,1,90,12|2,0:0|0:0,0:0:0:0:
73,27,39069,6,0,P|50:93|30:174,1,135,2|2,3:2|3:2,0:0:0:0:
87,239,39751,2,0,P|83:290|55:330,1,90,14|2,0:0|0:0,0:0:0:0:
37,365,40160,2,0,P|88:355|145:350,1,90,2|0,3:2|0:0,0:0:0:0:
173,366,40569,1,0,3:0:0:0:
233,287,40842,1,14,0:0:0:0:
197,194,41114,1,10,0:0:0:0:
216,96,41387,5,2,3:2:0:0:
397,16,41933,1,2,3:2:0:0:
471,199,42478,1,2,3:2:0:0:
289,278,43024,2,0,L|227:269,1,45,10|10,0:0|0:0,0:0:0:0:
205,240,43296,2,0,L|146:251,1,45,10|10,0:0|0:0,0:0:0:0:
65,276,43705,6,0,P|77:223|83:168,1,90,6|8,3:2|0:0,0:0:0:0:
76,138,44114,2,0,P|117:116|171:123,1,90,6|8,3:2|0:0,0:0:0:0:
205,138,44524,2,0,P|252:128|304:116,1,90,6|8,3:2|0:0,0:0:0:0:
340,105,44933,1,6,3:2:0:0:
496,173,45751,6,0,P|481:227|469:280,1,90,6|8,3:2|0:0,0:0:0:0:
448,356,46296,1,2,3:2:0:0:
360,309,46569,1,10,0:0:0:0:
261,323,46842,2,0,P|215:306|158:315,1,90,2|8,3:2|0:0,0:0:0:0:
76,319,47387,1,2,3:2:0:0:
14,241,47660,1,10,0:0:0:0:
51,149,47933,6,0,P|69:155|99:162,1,45,0|2,3:0|3:2,0:0:0:0:
142,170,48205,1,10,0:0:0:0:
208,96,48478,2,0,P|258:122|293:128,1,90,2|10,3:2|0:0,0:0:0:0:
339,120,48887,2,0,P|391:111|432:129,1,90,2|0,0:0|3:0,0:0:0:0:
471,140,49296,1,8,0:0:0:0:
447,236,49569,1,10,0:0:0:0:
460,334,49842,1,10,0:0:0:0:
361,324,50114,6,0,L|267:313,1,90,6|10,3:2|0:0,0:0:0:0:
221,307,50524,1,2,0:0:0:0:
166,224,50796,1,2,3:2:0:0:
225,144,51069,2,0,P|230:96|207:41,1,90,2|2,0:0|3:2,0:0:0:0:
179,24,51478,2,0,P|151:31|126:36,1,45,10|2,0:0|0:0,0:0:0:0:
43,64,51887,1,2,3:2:0:0:
43,64,52024,2,0,P|58:103|73:154,1,90,10|2,0:0|3:2,0:0:0:0:
85,196,52433,6,0,P|68:243|54:288,1,90,6|2,3:2|3:2,0:0:0:0:
89,317,52842,2,0,P|134:292|188:300,1,90,6|2,3:2|3:2,0:0:0:0:
214,318,53251,2,0,P|261:310|315:306,1,90,6|0,3:2|3:0,0:0:0:0:
349,325,53660,1,10,0:0:0:0:
441,289,53933,2,0,L|431:235,1,45,10|10,0:0|0:0,0:0:0:0:
427,195,54205,2,0,L|438:142,1,45,10|10,0:0|0:0,0:0:0:0:
412,107,54478,6,0,P|366:119|310:128,1,90,6|8,3:2|0:0,0:0:0:0:
242,68,55024,1,2,3:2:0:0:
147,95,55296,1,10,0:0:0:0:
122,193,55569,2,0,P|176:189|212:215,1,90,2|8,3:2|0:0,0:0:0:0:
246,296,56114,1,2,3:2:0:0:
168,358,56387,2,0,P|140:352|106:347,1,45,10|0,0:0|3:0,0:0:0:0:
74,351,56660,6,0,P|44:262|10:181,2,180,6|6|8,3:2|3:2|0:0,0:0:0:0:
244,249,58296,2,0,P|277:285|327:295,1,90,10|8,0:0|0:0,0:0:0:0:
412,275,58842,6,0,P|421:226|437:169,1,90,6|10,3:2|0:0,0:0:0:0:
442,138,59251,1,6,3:2:0:0:
369,69,59524,1,6,3:2:0:0:
275,99,59796,1,6,3:2:0:0:
40,37,61024,6,0,P|56:94|66:140,1,90,6|10,3:2|0:0,0:0:0:0:
142,182,61569,2,0,P|180:164|238:169,1,90,2|10,3:2|0:0,0:0:0:0:
275,177,61978,1,2,3:2:0:0:
354,117,62251,2,0,P|381:130|412:138,1,45,2|10,3:2|0:0,0:0:0:0:
444,139,62524,2,0,P|430:186|422:229,1,90,10|2,0:0|3:2,0:0:0:0:
436,273,62933,1,10,0:0:0:0:
352,325,63205,6,0,P|290:304|254:298,1,90,2|10,3:2|0:0,0:0:0:0:
219,282,63614,2,0,L|132:303,1,90,2|0,0:0|3:0,0:0:0:0:
86,281,64024,1,10,0:0:0:0:
35,195,64296,1,0,0:0:0:0:
94,116,64569,2,0,P|140:126|186:132,1,90,10|0,0:0|3:0,0:0:0:0:
269,84,65114,1,10,0:0:0:0:
356,37,65387,6,0,P|407:35|449:56,1,90,6|10,3:2|0:0,0:0:0:0:
499,131,65933,2,0,P|479:179|460:231,1,90,2|10,3:2|0:0,0:0:0:0:
452,262,66342,1,2,3:2:0:0:
365,309,66614,2,0,P|342:306|316:302,1,45,2|10,3:2|0:0,0:0:0:0:
279,274,66887,2,0,P|268:235|259:179,1,90,10|2,0:0|3:2,0:0:0:0:
252,137,67296,1,10,0:0:0:0:
180,77,67569,1,0,3:0:0:0:
180,77,67705,6,0,P|137:75|81:105,1,90,6|0,3:2|3:0,0:0:0:0:
52,119,68114,1,6,3:2:0:0:
62,222,68387,1,0,3:0:0:0:
62,222,68524,2,0,L|39:316,1,90,6|0,3:2|3:2,0:0:0:0:
66,351,68933,1,14,0:0:0:0:
161,374,69205,1,0,3:0:0:0:
232,305,69478,1,0,3:0:0:0:
328,327,69751,5,6,3:2:0:0:
411,276,70024,2,0,L|396:183,1,90,10|2,0:0|3:2,0:0:0:0:
427,92,70569,1,10,0:0:0:0:
329,109,70842,1,2,3:2:0:0:
237,60,71114,2,0,P|196:53|143:47,1,90,10|8,0:0|0:0,0:0:0:0:
97,45,71524,1,2,3:2:0:0:
110,142,71796,1,2,3:2:0:0:
34,269,72205,6,0,P|27:313|22:370,1,90,10|2,0:0|3:2,0:0:0:0:
118,332,72751,1,10,0:0:0:0:
208,373,73024,1,2,3:2:0:0:
296,329,73296,2,0,P|303:290|272:228,1,90,10|8,0:0|0:0,0:0:0:0:
262,199,73705,1,2,3:2:0:0:
289,103,73978,1,2,3:2:0:0:
417,29,74387,6,0,P|434:79|444:120,1,90,10|2,0:0|3:2,0:0:0:0:
494,200,74933,1,10,0:0:0:0:
445,286,75205,1,2,3:2:0:0:
347,269,75478,2,0,P|300:275|245:285,1,90,10|10,0:0|0:0,0:0:0:0:
218,311,75887,1,2,3:2:0:0:
127,269,76160,6,0,P|130:226|165:172,1,90,14|2,0:0|3:2,0:0:0:0:
187,151,76569,1,10,0:0:0:0:
123,74,76842,2,0,L|70:87,1,45,10|2,0:0|3:2,0:0:0:0:
32,99,77114,1,10,0:0:0:0:
23,197,77387,2,0,P|17:225|12:260,1,45,10|2,0:0|3:2,0:0:0:0:
78,317,77796,2,0,P|124:308|223:299,1,135,2|0,3:2|3:0,0:0:0:0:
305,330,78478,5,6,3:2:0:0:
392,283,78751,2,0,P|401:243|417:186,1,90,10|2,0:0|3:2,0:0:0:0:
463,110,79296,1,10,0:0:0:0:
395,37,79569,1,2,3:2:0:0:
302,72,79842,2,0,L|201:55,1,90,10|8,0:0|0:0,0:0:0:0:
164,48,80251,1,2,3:2:0:0:
175,146,80524,1,2,3:2:0:0:
76,257,80933,6,0,P|89:307|97:355,1,90,10|2,0:0|3:2,0:0:0:0:
193,328,81478,1,10,0:0:0:0:
289,349,81751,1,2,3:2:0:0:
364,285,82024,2,0,P|319:251|271:249,1,90,10|8,0:0|0:0,0:0:0:0:
237,246,82433,1,2,3:2:0:0:
200,154,82705,1,2,3:2:0:0:
292,37,83114,6,0,P|333:22|385:18,1,90,10|2,0:0|3:2,0:0:0:0:
462,71,83660,1,10,0:0:0:0:
425,163,83933,1,2,3:2:0:0:
483,242,84205,2,0,P|474:283|467:337,1,90,10|8,0:0|0:0,0:0:0:0:
436,369,84614,1,2,3:2:0:0:
353,314,84887,6,0,P|307:293|253:299,1,90,14|0,0:0|3:0,0:0:0:0:
220,305,85296,1,8,0:0:0:0:
122,322,85569,2,0,L|72:313,1,45,10|2,0:0|3:2,0:0:0:0:
28,306,85842,1,10,0:0:0:0:
67,215,86114,2,0,L|78:165,1,45,10|8,0:0|0:0,0:0:0:0:
43,77,86524,2,0,P|95:70|150:67,1,90,10|8,0:0|0:0,0:0:0:0:
231,64,87069,5,2,0:0:0:0:
433,336,93205,6,0,B|375:315|375:315|323:339|323:339|251:313,1,180,2|8,0:0|0:0,0:0:0:0:
219,337,93887,6,0,L|119:322,1,90,6|8,3:2|0:0,0:0:0:0:
95,288,94296,2,0,P|115:249|109:192,1,90,6|8,3:2|0:0,0:0:0:0:
86,161,94705,2,0,P|66:122|72:65,1,90,6|8,3:2|0:0,0:0:0:0:
79,28,95114,1,6,3:2:0:0:
309,104,95933,6,0,P|354:94|413:87,1,90,6|8,3:2|0:0,0:0:0:0:
487,128,96478,1,2,3:2:0:0:
496,226,96751,1,10,0:0:0:0:
425,296,97024,2,0,P|382:283|319:274,1,90,2|8,3:2|0:0,0:0:0:0:
239,261,97569,1,2,3:2:0:0:
152,309,97842,1,10,0:0:0:0:
77,243,98114,6,0,L|93:196,1,45,2|2,3:2|3:2,0:0:0:0:
108,153,98387,1,10,0:0:0:0:
55,68,98660,2,0,P|98:50|153:60,1,90,2|10,3:2|0:0,0:0:0:0:
187,69,99069,2,0,P|233:59|289:51,1,90,2|0,0:0|3:0,0:0:0:0:
324,46,99478,1,8,0:0:0:0:
383,124,99751,1,10,0:0:0:0:
363,221,100024,1,10,0:0:0:0:
273,262,100296,6,0,P|224:252|166:242,1,90,6|10,3:2|0:0,0:0:0:0:
138,263,100705,1,2,0:0:0:0:
163,358,100978,1,2,0:0:0:0:
261,372,101251,2,0,P|308:356|354:345,1,90,2|2,0:0|3:2,0:0:0:0:
386,315,101660,2,0,P|410:322|433:325,1,45,10|2,0:0|0:0,0:0:0:0:
498,253,102069,1,2,3:2:0:0:
498,253,102205,2,0,P|476:210|488:153,1,90,10|2,0:0|3:2,0:0:0:0:
479,119,102614,6,0,P|434:128|379:136,1,90,6|2,3:2|3:2,0:0:0:0:
364,91,103024,2,0,P|319:82|264:74,1,90,6|2,3:2|3:2,0:0:0:0:
242,38,103433,2,0,P|206:58|147:59,1,90,6|2,3:2|3:2,0:0:0:0:
110,46,103842,2,0,L|130:140,1,90,6|10,3:2|0:0,0:0:0:0:
149,230,104387,1,10,0:0:0:0:
99,317,104660,6,0,P|54:321|10:295,1,90,6|8,3:2|0:0,0:0:0:0:
7,201,105205,1,2,3:2:0:0:
89,146,105478,1,10,0:0:0:0:
184,171,105751,2,0,P|231:161|288:154,1,90,2|8,3:2|0:0,0:0:0:0:
364,191,106296,1,10,0:0:0:0:
446,136,106569,2,0,L|433:75,1,45,10|2,0:0|3:2,0:0:0:0:
423,44,106842,6,0,P|338:21|232:3,2,180,6|6|8,3:2|3:2|0:0,0:0:0:0:
488,231,108478,1,2,3:2:0:0:
424,307,108751,1,0,0:0:0:0:
329,277,109024,6,0,P|284:265|226:255,1,90,6|10,3:2|0:0,0:0:0:0:
193,244,109433,1,6,3:2:0:0:
104,286,109705,1,6,3:2:0:0:
27,222,109978,1,6,3:2:0:0:
133,375,111205,5,2,3:2:0:0:
479,300,115139,6,0,P|413:255|331:274,1,161.999995056153,0|0,3:0|0:0,0:0:0:0:
177,350,116123,2,0,P|99:364|34:320,1,161.999995056153,0|0,3:0|0:0,0:0:0:0:
8,143,117106,2,0,L|92:133,1,80.9999975280763,0|0,3:0|0:0,0:0:0:0:
162,83,117598,2,0,L|246:93,1,80.9999975280763,0|0,3:0|0:0,0:0:0:0:
299,164,118090,6,0,P|275:203|280:250,1,90,8|0,0:0|3:0,0:0:0:0:
335,326,118582,2,0,L|391:316,1,45,0|8,3:0|0:0,0:0:0:0:
426,332,118827,2,0,L|482:322,1,45,8|8,0:0|0:0,0:0:0:0:
506,292,119073,6,0,P|508:252|480:205,1,90,4|8,3:2|0:0,0:0:0:0:
418,135,119565,1,0,3:0:0:0:
453,42,119811,1,8,0:0:0:0:
362,2,120057,2,0,L|305:11,1,45,0|0,3:0|0:0,0:0:0:0:
226,47,120426,2,0,L|174:35,1,45,0|0,0:0|3:0,0:0:0:0:
85,12,120795,1,8,0:0:0:0:
18,85,121041,6,0,P|34:137|44:185,1,90,0|8,3:0|0:0,0:0:0:0:
4,263,121532,1,0,3:0:0:0:
51,349,121778,1,8,0:0:0:0:
149,337,122024,2,0,P|176:332|210:328,1,45,0|0,3:0|0:0,0:0:0:0:
259,255,122393,2,0,P|252:229|244:196,1,45,0|0,0:0|3:0,0:0:0:0:
271,114,122762,1,8,0:0:0:0:
212,32,123008,6,0,P|251:13|306:19,1,90,4|8,3:2|0:0,0:0:0:0:
384,62,123500,1,0,3:0:0:0:
479,35,123745,1,8,0:0:0:0:
498,132,123991,2,0,L|486:179,1,45,0|0,3:0|0:0,0:0:0:0:
458,270,124360,2,0,L|470:317,1,45,0|0,0:0|3:0,0:0:0:0:
391,375,124729,1,8,0:0:0:0:
297,342,124975,6,0,P|248:328|191:316,1,90,0|8,3:0|0:0,0:0:0:0:
110,324,125467,1,0,3:0:0:0:
45,248,125713,1,8,0:0:0:0:
115,178,125959,2,0,L|170:163,1,45,0|8,3:0|0:0,0:0:0:0:
224,92,126327,2,0,L|212:35,1,45,8|0,0:0|0:0,0:0:0:0:
312,28,126696,2,0,L|321:72,1,45,8|8,0:0|0:0,0:0:0:0:
353,109,126942,6,0,P|340:165|329:215,1,90,6|10,3:2|0:2,0:0:0:0:
337,296,127434,1,2,3:2:0:0:
432,320,127680,1,10,0:0:0:0:
482,234,127926,2,0,P|491:190|502:146,1,90,2|10,3:2|0:0,0:0:0:0:
486,99,128295,2,0,P|458:80|391:68,1,90,2|2,0:0|0:0,0:0:0:0:
358,89,128664,1,10,0:0:0:0:
274,35,128909,6,0,P|232:39|166:53,1,90,2|10,3:2|0:0,0:0:0:0:
91,13,129401,1,2,3:2:0:0:
11,72,129647,1,10,0:0:0:0:
24,170,129893,2,0,L|13:219,1,45,2|2,3:2|0:0,0:0:0:0:
5,262,130139,2,0,P|19:313|61:335,1,90,10|2,0:0|3:2,0:0:0:0:
146,317,130631,2,0,L|195:306,1,45,10|2,0:0|0:0,0:0:0:0:
233,282,130877,6,0,P|276:287|337:298,1,90,6|10,3:2|0:0,0:0:0:0:
392,225,131368,2,0,P|374:185|353:126,1,90,2|10,3:2|0:0,0:0:0:0:
292,66,131860,2,0,P|298:39|306:12,2,45,2|2|10,3:2|0:0|0:0,0:0:0:0:
246,86,132229,2,0,P|202:77|156:70,1,90,2|2,0:0|0:0,0:0:0:0:
108,65,132598,1,10,0:0:0:0:
35,132,132844,6,0,P|52:178|56:235,1,90,2|10,3:2|0:0,0:0:0:0:
51,317,133336,1,2,3:2:0:0:
142,278,133582,1,10,0:0:0:0:
217,341,133827,2,0,P|206:364|188:395,2,45,8|10|2,0:0|0:0|3:2,0:0:0:0:
262,319,134196,1,2,3:2:0:0:
400,373,134565,1,2,0:0:0:0:
476,308,134811,6,0,L|491:213,1,90,6|10,3:2|0:0,0:0:0:0:
448,129,135303,1,2,3:2:0:0:
353,159,135549,1,10,0:0:0:0:
281,90,135795,2,0,P|295:52|288:0,2,90,2|10|2,3:2|0:0|3:2,0:0:0:0:
199,145,136532,1,10,0:0:0:0:
107,104,136778,6,0,P|63:110|16:119,1,90,2|8,3:2|0:0,0:0:0:0:
8,217,137270,2,0,P|29:253|29:303,1,90,2|8,3:2|0:0,0:0:0:0:
106,363,137762,2,0,P|145:357|190:328,2,90,2|10|2,3:2|0:0|3:2,0:0:0:0:
29,300,138500,1,10,0:0:0:0:
70,210,138745,6,0,P|58:167|39:108,2,90,10|10|10,0:0|0:0|0:0,0:0:0:0:
166,235,139483,1,10,0:0:0:0:
251,184,139729,2,0,P|263:141|282:82,2,90,10|10|10,0:0|0:0|0:0,0:0:0:0:
324,251,140467,1,10,0:0:0:0:
422,258,140713,6,0,P|447:295|452:344,2,90,10|10|10,0:0|0:0|0:0,0:0:0:0:
435,210,141327,2,0,P|428:171|424:119,1,90,10|10,0:0|0:0,0:0:0:0:
447,76,141696,2,0,P|476:81|498:88,2,45,10|10|10,0:0|0:0|0:0,0:0:0:0:
423,31,142065,1,10,0:0:0:0:
291,100,142434,1,8,0:0:0:0:
201,58,142680,6,0,P|158:47|102:35,1,90,4|10,3:2|0:2,0:0:0:0:
25,84,143172,2,0,P|19:137|40:177,1,90,0|8,3:2|3:0,0:0:0:0:
120,218,143664,2,0,P|163:207|222:198,1,90,2|10,3:2|0:0,0:0:0:0:
295,244,144155,2,0,P|301:297|280:337,1,90,0|8,3:0|0:0,0:0:0:0:
196,372,144647,6,0,P|152:359|101:348,1,90,6|8,3:2|0:0,0:0:0:0:
31,286,145139,1,0,3:0:0:0:
76,198,145385,2,0,L|135:185,1,45,10|2,0:0|3:2,0:0:0:0:
168,178,145631,1,2,3:2:0:0:
262,206,145877,1,10,0:0:0:0:
340,145,146123,1,2,3:2:0:0:
435,170,146368,1,10,0:0:0:0:
497,92,146614,6,0,P|459:70|402:75,1,90,2|0,3:2|0:0,0:0:0:0:
324,26,147106,2,0,P|286:48|229:43,1,90,0|10,3:0|0:0,3:0:0:0:
142,33,147598,2,0,L|163:137,1,90,2|10,3:2|0:0,0:0:0:0:
96,197,148090,2,2,L|75:301,1,90,2|10,3:2|0:0,0:0:0:0:
153,350,148582,6,0,P|198:339|245:329,1,90,6|8,3:2|0:0,0:0:0:0:
311,261,149073,2,0,P|354:270|398:281,1,90,0|8,3:0|0:0,0:0:0:0:
495,303,149565,1,10,0:0:0:0:
465,208,149811,1,2,3:2:0:0:
505,117,150057,1,0,3:0:0:0:
431,50,150303,1,8,0:0:0:0:
343,97,150549,6,0,P|300:95|254:71,1,90,4|0,3:2|3:0,0:0:0:0:
173,22,151041,2,0,L|76:37,1,90,8|8,0:0|0:0,0:0:0:0:
22,113,151532,2,0,P|36:158|46:208,1,90,0|10,3:0|0:0,3:0:0:0:
92,286,152024,2,0,P|78:331|68:381,1,90,2|10,3:2|0:0,0:0:0:0:
168,367,152516,6,0,P|203:343|261:336,1,90,0|8,3:0|0:0,0:0:0:0:
272,238,153008,2,0,P|233:219|198:172,1,90,0|8,3:0|0:0,0:0:0:0:
174,88,153500,1,0,3:0:0:0:
257,35,153745,1,8,0:0:0:0:
351,66,153991,1,0,3:0:0:0:
431,9,154237,1,8,0:0:0:0:
511,67,154483,6,0,L|492:171,1,90,6|8,3:2|0:0,0:0:0:0:
409,206,154975,2,0,P|368:201|323:166,1,90,2|8,3:2|0:0,0:0:0:0:
274,90,155467,2,0,P|281:70|293:42,2,45,2|2|10,3:0|0:0|0:0,0:0:0:0:
176,110,155959,2,2,P|140:96|77:81,1,90,2|10,3:0|0:0,0:0:0:0:
7,137,156450,5,10,0:0:0:0:
81,265,156819,1,8,0:0:0:0:
216,205,157188,1,10,0:0:0:0:
310,234,157434,2,0,P|355:223|402:215,1,90,10|8,0:0|0:0,0:0:0:0:
451,299,157926,1,0,3:0:0:0:
397,382,158172,2,0,P|374:377|349:373,1,45,0|0,3:0|3:0,0:0:0:0:
313,342,158418,6,8,L|329:281,2,45,10|2|10,0:0|0:0|0:0,0:0:0:0:
264,353,158786,1,8,0:0:0:0:
187,289,159032,1,10,0:0:0:0:
92,319,159278,1,6,3:2:0:0:
37,340,169219,6,0,P|124:323|212:309,1,161.999995056153,2|0,0:0|0:0,0:0:0:0:
370,352,170310,2,0,P|315:291|334:216,1,161.999995056153,2|0,0:0|0:0,0:0:0:0:
472,113,171401,2,0,P|382:92|308:71,1,161.999995056153,2|2,0:0|0:0,0:0:0:0:
173,181,172491,1,2,0:0:0:0:
29,74,173037,1,2,0:0:0:0:
96,15,173310,1,2,0:0:0:0:
170,63,173582,6,0,P|149:127|132:193,1,121.499996292114,2|2,0:0|0:0,0:0:0:0:
178,257,174264,1,2,0:0:0:0:
255,212,174537,1,2,0:0:0:0:
342,250,174810,1,2,0:0:0:0:
342,250,174946,2,0,L|327:314,2,60.7499981460572,2|2|2,0:0|0:0|0:0,0:0:0:0:
378,223,175491,2,0,L|468:203,1,80.9999975280763,2|2,0:0|0:0,0:0:0:0:
77,319,178219,6,0,P|91:275|103:222,1,90,6|8,3:2|0:0,0:0:0:0:
57,143,178764,1,2,3:2:0:0:
116,63,179037,1,10,0:0:0:0:
209,95,179309,2,0,P|261:100|303:72,1,90,2|8,3:2|0:0,0:0:0:0:
377,30,179855,1,2,3:2:0:0:
459,84,180128,1,10,0:0:0:0:
422,175,180400,6,0,P|433:206|441:234,1,45,0|2,3:0|3:2,0:0:0:0:
450,265,180673,1,10,0:0:0:0:
367,320,180946,2,0,P|319:307|260:294,1,90,2|10,3:2|0:0,0:0:0:0:
241,266,181355,2,0,P|196:278|141:284,1,90,2|0,0:0|3:0,0:0:0:0:
104,292,181764,1,8,0:0:0:0:
55,205,182037,1,10,0:0:0:0:
87,111,182309,1,10,0:0:0:0:
24,34,182582,6,0,P|65:12|123:17,1,90,6|10,3:2|0:0,0:0:0:0:
152,33,182991,1,2,0:0:0:0:
246,3,183264,1,2,3:2:0:0:
327,59,183537,2,0,P|311:108|297:159,1,90,2|2,0:0|3:2,0:0:0:0:
289,193,183946,2,0,P|295:218|298:242,1,45,10|2,0:0|0:0,0:0:0:0:
335,334,184355,1,2,3:2:0:0:
335,334,184491,2,0,P|372:358|428:352,1,90,10|2,0:0|3:2,0:0:0:0:
462,338,184900,6,0,P|457:298|445:232,1,90,6|2,3:2|3:2,0:0:0:0:
440,200,185309,2,0,P|445:160|457:94,1,90,6|2,3:2|3:2,0:0:0:0:
425,69,185719,2,0,P|380:69|339:103,1,90,6|0,3:2|3:0,0:0:0:0:
299,192,186264,2,0,L|247:176,1,45,8|10,0:0|0:0,0:0:0:0:
215,142,186537,2,0,L|160:159,1,45,10|10,0:0|0:0,0:0:0:0:
126,179,186809,1,10,0:0:0:0:
126,179,186946,6,0,P|75:160|35:152,1,90,6|8,3:2|0:0,0:0:0:0:
5,50,187491,1,2,3:2:0:0:
104,6,187764,1,10,0:0:0:0:
194,64,188037,2,0,P|235:50|283:40,1,90,2|8,3:2|0:0,0:0:0:0:
383,5,188582,1,2,3:2:0:0:
439,96,188855,2,0,L|423:152,1,45,10|0,0:0|3:0,0:0:0:0:
396,184,189128,6,0,P|315:152|228:180,2,180,6|6|8,3:2|3:2|0:0,0:0:0:0:
307,381,190764,1,10,0:0:0:0:
250,288,191037,1,0,0:0:0:0:
150,329,191309,6,0,P|108:318|60:306,1,90,6|10,3:2|0:0,0:0:0:0:
32,268,191719,1,6,3:2:0:0:
76,179,191991,1,6,3:2:0:0:
45,84,192264,1,6,3:2:0:0:
45,84,194037,6,0,L|149:72,1,90,6|10,3:2|0:0,0:0:0:0:
226,36,194582,2,0,P|267:56|314:72,1,90,2|10,3:2|0:0,0:0:0:0:
357,58,194991,1,2,3:2:0:0:
447,17,195264,2,0,P|454:44|458:65,1,45,2|10,3:2|0:0,0:0:0:0:
483,103,195537,2,0,P|465:140|447:203,1,90,10|2,0:0|3:2,0:0:0:0:
472,230,195946,1,10,0:0:0:0:
406,303,196218,6,0,P|368:282|309:290,1,90,2|10,3:2|0:0,0:0:0:0:
269,294,196627,2,0,P|279:246|286:199,1,90,2|0,0:0|3:0,0:0:0:0:
252,161,197037,2,0,P|246:135|240:100,1,45,10|2,0:0|3:2,0:0:0:0:
241,8,197446,2,0,P|215:14|180:20,1,45,2|10,3:2|0:0,0:0:0:0:
146,35,197718,2,0,P|103:26|41:19,1,90,2|2,0:0|3:2,0:0:0:0:
9,45,198127,1,10,0:0:0:0:
57,141,198400,6,0,P|38:184|41:227,1,90,6|10,3:2|0:0,0:0:0:0:
116,303,198946,2,0,P|157:293|219:282,1,90,2|10,3:2|0:0,0:0:0:0:
257,273,199355,1,2,3:2:0:0:
222,170,199627,2,0,L|213:120,1,45,2|10,3:2|0:0,0:0:0:0:
221,71,199900,2,0,P|270:50|323:61,1,90,10|2,0:0|3:2,0:0:0:0:
356,71,200309,1,10,0:0:0:0:
505,8,200718,6,0,P|489:73|485:108,1,90,6|0,3:2|3:0,0:0:0:0:
453,139,201127,2,0,P|469:204|473:239,1,90,6|0,3:2|3:0,0:0:0:0:
436,268,201537,2,0,P|399:248|346:252,1,90,6|0,3:2|3:2,0:0:0:0:
306,279,201946,2,0,P|269:299|216:295,1,90,14|0,0:0|3:0,0:0:0:0:
129,241,202491,1,0,3:0:0:0:
181,146,202764,6,0,P|193:104|203:45,1,90,6|10,3:2|0:0,0:0:0:0:
109,1,203309,2,0,P|65:3|22:34,1,90,2|10,3:2|0:0,0:0:0:0:
0,74,203718,1,2,3:2:0:0:
57,165,203991,2,0,P|49:189|43:213,1,45,2|10,3:2|0:0,0:0:0:0:
14,253,204264,2,0,P|29:298|40:341,1,90,10|2,0:0|3:2,0:0:0:0:
86,365,204673,1,10,0:0:0:0:
178,309,204946,6,0,L|278:293,1,90,2|10,3:2|0:0,0:0:0:0:
308,259,205355,2,0,P|353:280|403:286,1,90,2|0,0:0|3:0,0:0:0:0:
433,250,205764,2,0,P|426:227|421:205,1,45,10|2,0:0|3:2,0:0:0:0:
462,106,206173,2,0,P|469:83|474:61,1,45,2|10,3:2|0:0,0:0:0:0:
442,18,206446,2,0,P|401:26|335:33,1,90,2|2,0:0|3:2,0:0:0:0:
303,10,206855,1,10,0:0:0:0:
221,80,207127,6,0,P|242:128|237:168,1,90,6|10,3:2|0:0,0:0:0:0:
158,237,207673,2,0,P|116:227|61:216,1,90,2|10,3:2|0:0,0:0:0:0:
16,210,208082,1,2,3:2:0:0:
32,316,208355,2,0,P|59:321|86:328,1,45,2|10,3:2|0:0,0:0:0:0:
122,352,208627,2,0,P|169:344|227:336,1,90,10|2,0:0|3:2,0:0:0:0:
264,327,209037,1,10,0:0:0:0:
418,376,209446,6,0,P|404:323|417:282,1,90,6|0,3:2|3:0,0:0:0:0:
437,241,209855,2,0,P|442:193|438:147,1,90,6|0,3:2|3:0,0:0:0:0:
398,115,210264,2,0,L|295:129,1,90,6|0,3:2|3:2,0:0:0:0:
258,146,210673,2,0,P|215:131|168:123,1,90,14|0,0:0|3:0,0:0:0:0:
64,109,211218,1,0,3:0:0:0:
6,200,211491,1,0,0:0:0:0:
76,282,211764,1,0,0:0:0:0:
173,234,212037,5,6,3:2:0:0:
256,192,212105,12,0,220764,0:0:0:0:
