osu file format v14

[General]
AudioFilename: audio.mp3
AudioLeadIn: 0
PreviewTime: 177089
Countdown: 0
SampleSet: Soft
StackLeniency: 0.4
Mode: 0
LetterboxInBreaks: 0
EpilepsyWarning: 1
WidescreenStoryboard: 1

[Editor]
Bookmarks: 41387,87205,126942,178219,220764
DistanceSpacing: 1.2
BeatDivisor: 4
GridSize: 32
TimelineZoom: 3.499998

[Metadata]
Title:Kodoku no Kakurenbo
TitleUnicode:孤独ノ隠レンボ
Artist:A-ya (CV: Ogata Megumi)
ArtistUnicode:A弥 (CV: 緒方恵美)
Creator:Nevo
Version:Agawari's Harder
Source:終焉ノ栞プロジェクト
Tags:vocaloid IA cover Shuuen no Shiori aya Hide and Seek of Isolation 終焉-Re.act- bookmark demise project yukiyo frontier -_frontier_- nikakis lukas seolv synderes frostwich kowari agatsu smoke himeringo 150p japanese novelty suzumu Lonely
BeatmapID:2290835
BeatmapSetID:1044564

[Difficulty]
HPDrainRate:4.5
CircleSize:3.7
OverallDifficulty:6.5
ApproachRate:8
SliderMultiplier:1.4
SliderTickRate:1

[Events]
//Background and Video events
0,0,"43464963_p0.png",0,0
Video,-269,"kodoku.flv"
//Break Periods
2,61224,69001
2,87137,93001
2,111405,114389
2,160491,168469
2,175764,177196
//Storyboard Layer 0 (Background)
//Storyboard Layer 1 (Fail)
//Storyboard Layer 2 (Pass)
//Storyboard Layer 3 (Foreground)
//Storyboard Layer 4 (Overlay)
//Storyboard Sound Samples

[TimingPoints]
1024,272.727272727273,4,2,1,60,1,0
1024,-125,4,2,1,60,0,0
9751,-100,4,2,1,80,0,0
17524,-100,4,2,1,70,0,0
17796,-100,4,2,1,70,0,0
18069,-100,4,2,1,70,0,0
19569,-125,4,2,1,70,0,0
19842,-125,4,2,1,70,0,0
25978,-100,4,2,1,70,0,0
28296,-111.111111111111,4,2,1,75,0,0
28569,-111.111111111111,4,2,1,75,0,0
34705,-100,4,2,1,75,0,0
36887,-111.111111111111,4,2,1,75,0,0
45751,-90.9090909090908,4,2,1,90,0,1
53251,-76.9230769230769,4,2,1,90,0,1
54478,-90.9090909090909,4,2,1,90,0,1
56660,-90.9090909090909,4,2,1,85,0,1
61024,-90.9090909090909,4,2,1,80,0,0
69751,-111.111111111111,4,2,1,70,0,0
78478,-111.111111111111,4,2,1,75,0,0
87069,-111.111111111111,4,2,1,65,0,0
93205,-111.111111111111,4,2,1,80,0,0
95933,-90.9090909090908,4,2,1,90,0,1
106842,-111.111111111111,4,2,1,85,0,1
108114,-90.9090909090908,4,2,1,85,0,1
111205,245.901639344262,4,2,1,65,1,0
118335,-100,4,2,1,75,0,0
126942,-90.9090909090909,4,2,1,90,0,0
159401,272.727272727273,4,2,1,80,1,0
169219,-200,4,2,1,60,0,0
177946,-200,4,2,1,80,0,0
178219,272.727272727273,4,2,1,90,1,0
178219,-90.9090909090909,4,2,1,90,0,1
189128,-111.111111111111,4,2,1,85,0,1
190400,-90.9090909090909,4,2,1,85,0,1
194037,272.727272727273,4,2,1,80,1,0
220764,-100,4,2,1,5,0,0

[Colours]
Combo1 : 184,33,33
Combo2 : 192,192,192
Combo3 : 255,83,83
Combo4 : 116,116,116

[HitObjects]
22,21,1024,6,0,L|27:145,1,112,2|2,0:0|0:0,0:0:0:0:
105,268,1569,2,0,L|96:335,2,56,2|2|2,0:0|0:0|0:0,0:0:0:0:
166,219,1978,6,0,P|222:225|286:210,1,112,2|0,0:0|0:0,0:0:0:0:
455,61,2660,2,0,L|445:135,1,56,2|2,0:0|0:0,0:0:0:0:
493,180,2933,2,0,L|503:254,1,56,2|2,0:0|0:0,0:0:0:0:
446,292,3205,6,0,P|386:295|344:341,1,112,2|0,0:0|0:0,0:0:0:0:
277,360,3614,2,0,P|217:357|175:311,1,112,2|0,0:0|0:0,0:0:0:0:
159,246,4024,1,2,0:0:0:0:
276,142,4296,6,0,L|290:19,1,112,2|0,0:0|0:0,0:0:0:0:
211,13,4705,2,0,P|150:15|124:68,1,112,2|0,0:0|0:0,0:0:0:0:
98,128,5114,1,2,0:0:0:0:
230,212,5387,6,0,L|365:225,1,112,2|0,0:0|0:0,0:0:0:0:
404,175,5796,1,2,0:0:0:0:
470,217,5933,2,0,P|501:271|491:334,1,112,2|0,0:0|0:0,0:0:0:0:
433,365,6342,1,2,0:0:0:0:
360,336,6478,6,0,L|281:331,1,56,2|2,0:0|0:0,0:0:0:0:
232,366,6751,2,0,L|176:369,1,56,2|2,0:0|0:0,0:0:0:0:
106,332,7024,2,0,L|27:327,2,56,2|2|2,0:0|0:0|0:0,0:0:0:0:
163,278,7433,1,2,0:0:0:0:
130,207,7569,6,0,P|117:159|145:33,1,168,2|2,0:0|0:0,0:0:0:0:
370,9,8387,2,0,L|382:136,1,112,2|2,0:0|0:0,0:0:0:0:
163,346,9205,2,0,B|245:316|240:375|327:349,1,168,2|0,0:0|0:0,0:0:0:0:
409,364,9751,6,0,L|422:286,1,70,6|0,3:2|0:0,0:0:0:0:
493,252,10024,2,0,L|480:174,1,70,10|0,0:0|0:0,0:0:0:0:
480,99,10296,2,0,P|408:84|344:96,1,140,2|10,3:2|0:0,0:0:0:0:
273,143,10705,6,0,P|219:155|183:155,1,70,2|0,3:2|0:0,0:0:0:0:
137,104,10978,1,2,3:2:0:0:
137,104,11114,1,10,0:0:0:0:
62,144,11251,2,0,P|28:213|46:273,1,140,10|2,0:0|3:2,0:0:0:0:
110,323,11660,1,10,0:0:0:0:
272,366,11933,6,0,L|438:352,1,140,2|10,3:2|0:0,0:0:0:0:
479,304,12342,2,0,P|489:244|455:152,1,140,2|2,0:0|3:2,0:0:0:0:
401,115,12751,1,8,0:0:0:0:
327,154,12887,6,0,B|247:136|263:179|189:165,1,140,2|2,3:2|3:2,0:0:0:0:
115,204,13296,1,10,0:0:0:0:
44,157,13433,2,0,P|43:106|58:68,1,70,0|0,0:0|3:0,0:0:0:0:
107,29,13705,1,2,3:2:0:0:
185,59,13842,2,0,L|266:46,1,70,10|0,0:0|3:0,0:0:0:0:
329,85,14114,6,0,P|388:59|469:100,2,140,6|10|2,3:2|0:0|3:2,0:0:0:0:
185,174,14933,1,10,0:0:0:0:
107,141,15069,6,0,L|87:302,1,140,2|2,3:2|3:2,0:0:0:0:
136,350,15478,1,10,0:0:0:0:
215,322,15614,2,0,L|309:331,1,70,10|0,0:0|3:0,0:0:0:0:
360,365,15887,1,2,3:2:0:0:
436,329,16024,2,0,P|440:282|425:231,1,70,10|0,0:0|3:0,0:0:0:0:
376,201,16296,6,0,P|358:156|389:59,1,140,2|10,3:2|0:0,0:0:0:0:
446,18,16705,2,0,P|488:35|512:65,1,70,2|0,0:0|3:0,0:0:0:0:
503,136,16978,1,2,3:2:0:0:
503,136,17114,1,10,0:0:0:0:
510,220,17251,6,0,L|490:370,2,140,2|2|10,3:2|3:2|3:2,0:0:0:0:
345,182,18069,1,10,3:2:0:0:
256,324,18342,1,10,3:2:0:0:
15,16,19569,6,0,L|21:142,1,112,6|10,3:2|0:0,0:0:0:0:
75,184,19978,1,2,0:0:0:0:
75,184,20114,2,0,L|66:257,1,56,2|2,3:2|3:2,0:0:0:0:
9,292,20387,2,0,L|18:365,1,56,2|10,0:0|0:0,0:0:0:0:
91,368,20660,6,0,L|166:358,1,56,0|2,0:0|3:2,0:0:0:0:
216,324,20933,2,0,L|348:343,1,112,10|8,0:0|0:0,0:0:0:0:
396,376,21342,1,2,3:2:0:0:
481,245,21614,6,0,P|488:200|470:120,1,112,2|0,3:2|3:0,0:0:0:0:
414,86,22024,2,0,L|350:79,1,56,10|0,0:0|0:0,0:0:0:0:
292,122,22296,2,0,L|283:189,2,56,2|2|2,3:2|3:2|0:0,0:0:0:0:
240,62,22705,1,10,0:0:0:0:
172,102,22842,6,0,P|126:104|95:95,1,56,2|2,0:0|3:2,0:0:0:0:
58,154,23114,2,0,L|60:209,1,56,10|2,0:0|3:2,0:0:0:0:
108,271,23387,1,8,3:0:0:0:
48,325,23524,2,0,L|-2:320,2,28,0|8|8,3:0|0:0|0:0,0:0:0:0:
110,372,23796,6,0,L|240:358,1,112,2|0,3:2|3:0,0:0:0:0:
280,308,24205,2,0,P|288:272|284:233,1,56,14|2,0:0|0:0,0:0:0:0:
238,191,24478,2,0,P|230:155|234:116,1,56,2|2,3:2|3:2,0:0:0:0:
275,71,24751,2,0,L|346:66,1,56,2|10,0:0|0:0,0:0:0:0:
386,11,25024,6,0,L|465:22,1,56,2|2,0:0|3:2,0:0:0:0:
490,79,25296,2,0,P|481:140|480:198,1,112,10|8,0:0|0:0,0:0:0:0:
425,247,25705,1,4,3:2:0:0:
288,148,25978,6,0,B|214:133|217:180|135:160,1,140,14|0,0:0|3:0,0:0:0:0:
81,210,26387,2,0,P|74:258|79:283,1,70,8|0,0:0|3:0,0:0:0:0:
136,338,26660,1,10,0:0:0:0:
136,338,26796,1,2,3:2:0:0:
215,309,26933,2,0,L|294:313,1,70,10|0,0:0|3:0,0:0:0:0:
350,364,27205,6,0,P|416:359|459:302,1,140,10|10,0:0|0:0,0:0:0:0:
438,221,27614,2,0,L|451:140,1,70,2|10,3:2|0:0,0:0:0:0:
395,86,27887,1,8,0:0:0:0:
395,86,27955,1,8,0:0:0:0:
395,86,28024,2,0,L|385:31,3,35,8|8|8|8,0:0|0:0|0:0|0:0,0:0:0:0:
359,28,28296,6,0,B|278:21|301:53|220:38,1,125.999996154785,6|10,3:2|0:0,0:0:0:0:
179,101,28705,1,0,0:0:0:0:
220,172,28842,2,0,L|235:253,1,62.9999980773926,2|2,3:2|0:2,0:0:0:0:
179,296,29114,2,0,L|106:309,1,62.9999980773926,10|2,0:0|0:0,0:0:0:0:
47,263,29387,6,0,L|61:189,1,62.9999980773926,2|2,3:2|0:0,0:0:0:0:
14,131,29660,2,0,P|15:69|86:45,1,125.999996154785,10|8,0:0|0:0,0:0:0:0:
144,66,30069,2,0,L|231:58,1,62.9999980773926,2|0,3:2|0:0,0:0:0:0:
277,18,30342,6,0,L|405:35,1,125.999996154785,2|0,3:2|0:0,0:0:0:0:
464,88,30751,2,0,P|460:126|461:174,1,62.9999980773926,10|0,0:0|0:0,0:0:0:0:
407,214,31024,2,0,P|411:252|410:300,2,62.9999980773926,2|2|10,3:2|0:0|0:0,0:0:0:0:
345,159,31433,1,2,0:0:0:0:
276,203,31569,6,0,P|233:202|191:193,1,62.9999980773926,2|2,3:2|0:0,0:0:0:0:
147,149,31842,2,0,P|104:150|62:159,1,62.9999980773926,10|0,0:0|0:0,0:0:0:0:
26,210,32114,1,8,0:0:0:0:
63,283,32251,1,2,3:2:0:0:
201,370,32524,6,0,L|345:359,1,125.999996154785,2|0,3:2|3:0,0:0:0:0:
408,369,32933,2,0,P|416:336|417:297,1,62.9999980773926,10|2,0:0|0:0,0:0:0:0:
360,248,33205,1,2,3:2:0:0:
360,248,33342,1,2,0:0:0:0:
280,267,33478,2,0,L|206:264,1,62.9999980773926,10|2,0:0|0:0,0:0:0:0:
150,215,33751,6,0,P|142:182|141:143,1,62.9999980773926,2|2,3:2|0:0,0:0:0:0:
103,79,34024,2,0,P|157:110|228:103,1,125.999996154785,10|2,0:0|3:2,0:0:0:0:
288,61,34433,1,8,0:0:0:0:
462,12,34705,6,0,L|481:158,1,140,6|0,3:2|3:0,0:0:0:0:
433,220,35114,2,0,L|421:302,1,70,8|0,0:0|3:0,0:0:0:0:
351,335,35387,2,0,L|265:326,1,70,10|2,0:0|3:2,0:0:0:0:
216,273,35660,2,0,L|130:282,1,70,10|0,0:0|3:0,0:0:0:0:
87,219,35933,6,0,P|81:176|83:123,1,70,10|8,0:0|0:0,0:0:0:0:
127,80,36205,1,10,0:0:0:0:
201,120,36342,2,0,L|287:129,1,70,10|8,0:0|0:0,0:0:0:0:
344,87,36614,1,8,0:0:0:0:
214,8,36887,6,0,L|72:-5,1,125.999996154785,6|0,3:2|0:0,0:0:0:0:
17,37,37296,2,0,P|7:79|3:113,1,62.9999980773926,0|0,3:0|3:0,0:0:0:0:
63,156,37569,2,0,P|110:172|130:250,1,125.999996154785,12|2,0:0|0:0,0:0:0:0:
71,294,37978,6,0,L|218:280,1,125.999996154785,2|0,3:2|0:0,0:0:0:0:
264,328,38387,1,0,3:0:0:0:
264,328,38524,1,0,3:0:0:0:
332,371,38660,2,0,P|411:373|439:316,1,125.999996154785,12|2,0:0|0:0,0:0:0:0:
490,279,39069,6,0,L|474:149,1,125.999996154785,2|0,3:2|0:0,0:0:0:0:
415,97,39478,1,2,3:2:0:0:
343,137,39614,1,0,3:0:0:0:
343,137,39683,1,0,3:0:0:0:
343,137,39751,2,0,P|276:141|226:104,1,125.999996154785,14|2,0:0|0:0,0:0:0:0:
192,35,40160,6,0,P|130:28|74:81,1,125.999996154785,2|0,3:2|0:0,0:0:0:0:
42,137,40569,2,0,L|25:208,1,62.9999980773926,0|0,3:0|3:0,0:0:0:0:
85,256,40842,1,14,0:0:0:0:
85,256,40978,1,10,0:0:0:0:
151,211,41114,2,0,L|230:216,1,62.9999980773926,10|10,0:0|0:0,0:0:0:0:
297,217,41387,6,0,B|325:206|325:206|389:242|389:242|415:227,1,125.999996154785,2|0,3:2|3:0,0:0:0:0:
472,169,41796,1,2,3:2:0:0:
428,91,41933,2,0,L|301:105,1,125.999996154785,2|0,3:2|3:0,0:0:0:0:
228,56,42342,1,2,3:2:0:0:
159,126,42478,6,0,P|137:166|160:245,1,125.999996154785,2|0,3:2|3:0,0:0:0:0:
233,282,42887,1,2,3:2:0:0:
168,342,43024,2,0,L|95:334,1,62.9999980773926,10|10,0:0|0:0,0:0:0:0:
17,327,43296,1,10,0:0:0:0:
17,327,43433,2,0,B|21:317|21:317|8:279|8:279|21:252,1,62.9999980773926,10|8,0:0|0:0,0:0:0:0:
80,208,43705,6,0,B|103:249|152:248|152:248|131:227|122:193,1,125.999996154785,6|8,3:2|0:0,0:0:0:0:
189,133,44114,2,0,B|213:92|187:50|187:50|179:79|155:104,1,125.999996154785,6|8,3:2|0:0,0:0:0:0:
63,70,44524,2,0,B|15:69|-7:112|-7:112|21:104|54:113,1,125.999996154785,6|8,3:2|0:0,0:0:0:0:
107,134,44933,5,6,3:2:0:0:
484,350,45751,6,0,P|426:367|359:306,1,154.000004699707,6|8,3:2|0:0,0:0:0:0:
277,267,46160,1,0,0:0:0:0:
277,267,46296,2,0,L|288:187,1,77.0000023498536,2|2,3:2|3:2,0:0:0:0:
358,131,46569,2,0,L|347:51,1,77.0000023498536,10|2,0:0|0:0,0:0:0:0:
262,17,46842,6,0,B|234:1|234:1|143:43|143:43|113:27,1,154.000004699707,2|8,3:2|0:0,0:0:0:0:
39,7,47251,1,2,0:0:0:0:
39,7,47387,2,0,P|29:47|42:89,1,77.0000023498536,2|2,3:2|3:2,0:0:0:0:
76,165,47660,1,10,0:0:0:0:
16,235,47796,6,0,P|74:194|171:219,1,154.000004699707,2|2,0:0|3:2,0:0:0:0:
182,292,48205,1,10,0:0:0:0:
219,110,48478,2,0,L|122:103,1,77.0000023498536,2|0,3:2|3:0,0:0:0:0:
309,71,48751,1,10,0:0:0:0:
250,0,48887,6,0,P|302:49|404:15,1,154.000004699707,2|0,0:0|3:0,0:0:0:0:
473,62,49296,1,8,0:0:0:0:
473,62,49433,1,0,3:0:0:0:
485,157,49569,2,0,L|477:241,1,77.0000023498536,10|0,0:0|3:0,0:0:0:0:
460,324,49842,2,0,P|421:356|352:338,1,115.50000352478,10|0,0:0|0:0,0:0:0:0:
332,308,50114,6,0,B|243:292|243:292|209:335|169:335,1,154.000004699707,6|10,3:2|0:0,0:0:0:0:
103,304,50524,2,0,P|91:255|97:220,1,77.0000023498536,2|0,0:0|3:0,0:0:0:0:
6,201,50796,2,0,P|32:157|61:137,1,77.0000023498536,2|8,3:2|0:0,0:0:0:0:
100,62,51069,6,0,B|138:102|138:102|244:77,1,154.000004699707,2|2,0:0|3:2,0:0:0:0:
307,21,51478,1,10,0:0:0:0:
368,89,51614,2,0,P|339:132|348:173,1,77.0000023498536,2|0,0:0|3:0,0:0:0:0:
420,201,51887,1,2,3:2:0:0:
420,201,52024,1,10,0:0:0:0:
238,315,52296,5,2,3:2:0:0:
318,268,52433,2,0,B|332:263|332:263|395:286,1,77.0000023498536,6|0,3:2|0:0,0:0:0:0:
236,327,52706,5,2,3:2:0:0:
176,249,52842,2,0,B|163:245|163:245|93:264,1,77.0000023498536,6|0,3:2|0:0,0:0:0:0:
235,338,53114,5,2,3:2:0:0:
310,275,53251,2,0,B|302:260|302:260|325:211|325:211|318:183,1,90.9999958343508,6|0,3:2|0:0,0:0:0:0:
235,349,53524,5,0,3:0:0:0:
180,260,53660,2,0,B|188:245|188:245|165:196|165:196|172:168,1,90.9999958343508,10|8,0:0|0:0,0:0:0:0:
208,74,53933,2,0,L|291:58,4,45.4999979171754,10|0|10|0|10,0:0|0:0|0:0|0:0|0:0,0:0:0:0:
116,13,54342,1,10,0:0:0:0:
46,73,54478,6,0,B|85:114|85:114|41:205,1,154.000004699707,6|8,3:2|0:0,0:0:0:0:
78,287,54887,1,2,0:0:0:0:
78,287,55024,2,0,P|124:285|156:265,1,77.0000023498536,2|2,3:2|3:2,0:0:0:0:
210,339,55296,2,0,P|241:305|249:268,1,77.0000023498536,10|2,0:0|3:2,0:0:0:0:
222,187,55569,6,0,B|321:174|283:227|386:214,1,154.000004699707,2|8,3:2|0:0,0:0:0:0:
444,161,55978,1,2,0:0:0:0:
389,87,56114,2,0,L|399:-4,2,77.0000023498536,2|2|10,3:2|3:2|0:0,0:0:0:0:
459,158,56524,1,0,3:0:0:0:
375,197,56660,6,0,B|300:210|273:294|317:356|317:356|356:283|420:285,2,308.000009399414,6|6|8,3:2|3:2|0:0,0:0:0:0:
419,103,57933,6,0,B|398:107|398:107|339:84|339:84|307:95,1,102.666669799805,8|8,0:0|0:0,0:0:0:0:
217,155,58296,6,0,B|230:136|230:136|206:90|206:90|218:66,2,102.666669799805,10|8|8,0:0|0:0|0:0,0:0:0:0:
167,241,58842,6,0,B|150:231|150:231|76:248,1,77.0000023498536,6|0,3:2|0:0,0:0:0:0:
4,266,59114,1,10,0:0:0:0:
24,356,59251,5,6,3:2:0:0:
152,334,59524,5,6,3:2:0:0:
313,302,59796,5,6,3:2:0:0:
496,258,61024,5,6,3:2:0:0:
46,22,69751,6,0,L|50:109,1,62.9999980773926,6|0,3:2|0:0,0:0:0:0:
115,143,70024,2,0,L|111:230,1,62.9999980773926,10|0,0:0|0:0,0:0:0:0:
52,270,70296,1,2,3:2:0:0:
52,270,70433,1,2,3:2:0:0:
127,315,70569,2,0,L|201:299,1,62.9999980773926,10|2,0:0|0:0,0:0:0:0:
254,242,70842,6,0,L|315:255,1,62.9999980773926,2|0,3:2|0:0,0:0:0:0:
382,312,71114,2,0,P|404:246|369:195,1,125.999996154785,10|8,0:0|0:0,0:0:0:0:
298,159,71524,1,2,3:2:0:0:
498,11,71796,6,0,L|490:87,1,62.9999980773926,2|0,3:2|0:0,0:0:0:0:
418,123,72069,1,0,3:0:0:0:
418,123,72205,2,0,L|426:199,1,62.9999980773926,10|2,0:0|0:0,0:0:0:0:
471,260,72478,1,2,3:2:0:0:
471,260,72614,1,2,3:2:0:0:
404,318,72751,2,0,L|330:299,1,62.9999980773926,10|2,0:0|3:2,0:0:0:0:
286,233,73024,6,0,P|255:257|216:263,1,62.9999980773926,2|2,3:2|0:0,0:0:0:0:
186,337,73296,2,0,L|108:322,1,62.9999980773926,10|0,0:0|0:0,0:0:0:0:
39,350,73569,1,8,0:0:0:0:
3,269,73705,1,2,3:2:0:0:
68,129,73978,6,0,P|98:149|115:180,1,62.9999980773926,2|0,3:2|0:0,0:0:0:0:
196,143,74251,1,0,3:0:0:0:
196,143,74387,2,0,P|203:178|193:212,1,62.9999980773926,10|2,0:0|0:2,0:0:0:0:
140,272,74660,1,2,3:2:0:0:
140,272,74796,1,2,0:0:0:0:
223,300,74933,2,0,L|298:287,1,62.9999980773926,10|2,0:0|0:0,0:0:0:0:
354,234,75205,6,0,L|416:244,1,62.9999980773926,2|2,3:2|0:0,0:0:0:0:
488,193,75478,2,0,B|496:164|496:164|487:128,1,62.9999980773926,10|0,0:0|0:0,0:0:0:0:
419,75,75751,1,10,0:0:0:0:
340,114,75887,2,0,B|328:121|328:121|272:105,1,62.9999980773926,2|0,3:2|0:0,0:0:0:0:
207,57,76160,6,0,B|187:88|187:88|205:151|205:151|187:173,1,125.999996154785,14|2,0:0|3:2,0:0:0:0:
124,229,76569,2,0,L|56:212,1,62.9999980773926,10|0,0:0|3:0,0:0:0:0:
162,311,76842,1,10,0:0:0:0:
162,311,76978,1,2,3:2:0:0:
223,250,77114,2,0,L|287:237,1,62.9999980773926,10|0,0:0|3:0,0:0:0:0:
350,177,77387,5,10,0:0:0:0:
380,260,77524,2,0,B|374:312|374:312|385:324,1,62.9999980773926,2|10,3:2|0:0,0:0:0:0:
316,379,77796,1,2,3:2:0:0:
245,325,77933,2,0,L|210:333,3,31.4999990386963,8|8|8|8,0:0|0:0|0:0|0:0,0:0:0:0:
170,338,78205,2,0,L|139:330,3,31.4999990386963,0|0|0|0,3:0|3:0|3:0|3:0,0:0:0:0:
95,323,78478,5,6,3:2:0:0:
13,166,78751,2,0,P|58:127|123:137,1,125.999996154785,10|2,0:0|3:2,0:0:0:0:
172,206,79160,1,2,0:2:0:0:
172,206,79296,2,0,L|236:193,1,62.9999980773926,10|2,0:0|0:0,0:0:0:0:
288,123,79569,6,0,L|349:135,1,62.9999980773926,2|2,3:2|0:0,0:0:0:0:
415,194,79842,2,0,B|448:160|448:160|427:76,1,125.999996154785,10|8,0:0|0:0,0:0:0:0:
396,1,80251,1,2,3:2:0:0:
219,13,80524,6,0,B|144:9|184:51|89:41,1,125.999996154785,2|0,3:2|0:0,0:0:0:0:
13,23,80933,2,0,L|21:95,1,62.9999980773926,10|2,0:0|0:0,0:0:0:0:
86,143,81205,2,0,L|78:215,1,62.9999980773926,2|2,3:2|0:0,0:0:0:0:
29,279,81478,1,10,0:0:0:0:
29,279,81614,1,2,0:0:0:0:
83,348,81751,6,0,P|121:364|154:355,1,62.9999980773926,2|2,3:2|0:0,0:0:0:0:
196,291,82024,2,0,L|220:149,1,125.999996154785,10|8,0:0|0:0,0:0:0:0:
236,80,82433,1,2,3:2:0:0:
403,27,82705,6,0,B|412:66|412:66|382:109|382:109|388:146,1,125.999996154785,2|0,3:2|3:0,0:0:0:0:
445,210,83114,2,0,P|407:233|367:235,1,62.9999980773926,10|2,0:0|0:0,0:0:0:0:
386,324,83387,2,0,P|343:313|314:286,1,62.9999980773926,2|2,3:2|0:0,0:0:0:0:
283,227,83660,1,10,0:0:0:0:
283,227,83796,1,2,3:2:0:0:
202,263,83933,6,0,L|195:194,1,62.9999980773926,2|2,3:2|0:0,0:0:0:0:
180,113,84205,2,0,P|118:107|72:148,1,125.999996154785,10|8,0:0|0:0,0:0:0:0:
70,237,84614,1,2,3:2:0:0:
202,353,84887,6,0,B|222:338|222:338|296:371|296:371|333:358,1,125.999996154785,14|0,0:0|3:0,0:0:0:0:
390,317,85296,2,0,B|441:326|441:326|459:319,1,62.9999980773926,8|0,0:0|3:0,0:0:0:0:
495,244,85569,2,0,B|476:194|476:194|485:173,1,62.9999980773926,10|2,0:0|3:2,0:0:0:0:
421,118,85842,2,0,P|425:79|411:49,1,62.9999980773926,10|0,0:0|3:0,0:0:0:0:
344,7,86114,5,10,0:0:0:0:
277,65,86251,2,0,B|259:59|259:59|234:71|234:71|210:62,2,62.9999980773926,8|10|10,0:0|0:0|0:0,0:0:0:0:
330,135,86660,1,8,0:0:0:0:
275,204,86796,1,8,0:0:0:0:
31,121,93751,5,8,0:0:0:0:
19,27,93887,2,0,P|75:11|102:75,1,125.999996154785,6|8,3:2|0:0,0:0:0:0:
195,98,94296,2,0,P|180:154|111:145,1,125.999996154785,6|8,3:2|0:0,0:0:0:0:
45,214,94705,2,0,P|3:173|45:118,1,125.999996154785,6|8,3:2|0:0,0:0:0:0:
120,154,95114,5,6,3:2:0:0:
157,327,95387,2,0,L|160:287,3,31.4999990386963,2|0|2|0,3:2|0:0|0:0|3:0,0:0:0:0:
189,257,95660,2,0,L|219:263,3,31.4999990386963,2|0|2|0,3:2|3:0|3:2|3:0,0:0:0:0:
242,216,95933,6,0,B|288:197|288:197|348:204|368:255,1,154.000004699707,6|8,3:2|0:0,0:0:0:0:
325,337,96342,1,2,0:0:0:0:
410,371,96478,2,0,P|465:366|490:337,1,77.0000023498536,2|2,3:2|3:2,0:0:0:0:
499,262,96751,2,0,L|486:177,1,77.0000023498536,10|2,0:0|0:0,0:0:0:0:
423,118,97024,6,0,P|365:108|292:165,1,154.000004699707,2|8,3:2|0:0,0:0:0:0:
238,237,97433,1,2,0:0:0:0:
154,197,97569,2,0,P|147:158|157:108,1,77.0000023498536,2|2,3:2|3:2,0:0:0:0:
238,237,97842,2,0,P|245:276|235:326,1,77.0000023498536,10|2,0:0|0:0,0:0:0:0:
164,365,98114,6,0,L|70:356,1,77.0000023498536,2|2,3:2|3:2,0:0:0:0:
16,297,98387,2,0,L|5:168,1,115.50000352478,10|0,0:0|0:0,0:0:0:0:
35,145,98660,2,0,P|39:98|27:58,1,77.0000023498536,2|0,3:2|3:0,0:0:0:0:
107,15,98933,1,10,0:0:0:0:
187,58,99069,6,0,B|265:36|268:82|338:55,1,154.000004699707,2|0,0:0|3:0,0:0:0:0:
423,91,99478,2,0,P|435:153|431:180,1,77.0000023498536,8|0,0:0|3:0,0:0:0:0:
360,223,99751,2,0,P|348:285|352:312,1,77.0000023498536,10|0,0:0|3:0,0:0:0:0:
416,361,100024,2,0,L|508:351,1,77.0000023498536,10|0,0:0|0:0,0:0:0:0:
349,298,100296,6,0,L|186:313,1,154.000004699707,6|10,3:2|0:0,0:0:0:0:
114,357,100705,2,0,P|106:318|111:274,1,77.0000023498536,2|0,0:0|3:0,0:0:0:0:
179,220,100978,2,0,P|187:181|182:137,1,77.0000023498536,2|8,0:0|0:0,0:0:0:0:
206,54,101251,6,0,L|43:45,1,154.000004699707,2|2,0:0|3:2,0:0:0:0:
2,123,101660,1,10,0:0:0:0:
45,204,101796,2,0,P|44:254|36:293,1,77.0000023498536,2|0,0:0|3:0,0:0:0:0:
99,350,102069,1,2,3:2:0:0:
182,311,102205,2,0,L|273:317,1,77.0000023498536,10|0,0:0|0:0,0:0:0:0:
336,366,102478,5,2,3:2:0:0:
417,322,102614,2,0,P|417:260|427:151,1,154.000004699707,6|2,3:2|3:2,0:0:0:0:
510,132,103024,2,0,B|428:142|445:94|361:105,1,154.000004699707,6|2,3:2|3:2,0:0:0:0:
276,141,103433,6,0,P|272:100|284:51,1,77.0000023498536,6|0,3:2|0:0,0:0:0:0:
181,157,103705,1,2,3:2:0:0:
106,101,103842,2,0,L|22:96,1,77.0000023498536,6|0,3:2|0:0,0:0:0:0:
9,186,104114,2,0,L|14:242,3,38.5000011749268,10|0|10|0,0:0|0:0|0:0|0:0,0:0:0:0:
48,254,104387,2,0,L|43:310,3,38.5000011749268,10|8|10|8,0:0|0:0|0:0|0:0,0:0:0:0:
25,335,104660,6,0,B|88:320|88:320|123:329|123:329|206:306,1,154.000004699707,6|8,3:2|0:0,0:0:0:0:
239,248,105069,1,2,3:2:0:0:
192,168,105205,2,0,P|187:127|197:77,1,77.0000023498536,2|2,3:2|3:2,0:0:0:0:
257,26,105478,2,0,L|350:30,1,77.0000023498536,10|2,0:0|3:2,0:0:0:0:
425,11,105751,6,0,P|449:78|436:186,1,154.000004699707,2|8,3:2|0:0,0:0:0:0:
378,224,106160,1,2,3:2:0:0:
463,259,106296,2,0,P|470:314|461:355,1,77.0000023498536,10|0,0:0|3:0,0:0:0:0:
379,365,106569,2,0,L|296:359,1,77.0000023498536,10|2,0:0|3:2,0:0:0:0:
207,346,106842,6,0,B|177:275|74:267|36:322|36:322|31:375,2,251.999992309571,6|6|8,3:2|3:2|0:0,0:0:0:0:
295,275,108114,6,0,B|303:235|303:235|285:204|289:162,1,102.666669799805,8|8,0:0|0:0,0:0:0:0:
186,104,108478,6,0,B|178:64|178:64|196:33|192:-9,2,102.666669799805,2|8|8,3:2|0:0|0:0,0:0:0:0:
86,178,109024,6,0,P|26:184|12:266,1,154.000004699707,6|10,3:2|0:0,0:0:0:0:
104,268,109433,5,6,3:2:0:0:
186,104,109705,5,6,3:2:0:0:
287,257,109978,5,6,3:2:0:0:
104,268,111205,5,2,3:2:0:0:
477,351,115139,5,0,3:0:0:0:
456,251,116123,5,0,3:0:0:0:
435,151,117106,5,0,3:0:0:0:
294,257,117598,1,0,3:0:0:0:
280,83,118090,5,8,0:0:0:0:
204,120,118213,2,0,L|216:171,2,35,8|8|0,0:0|0:0|3:0,0:0:0:0:
127,83,118459,1,8,0:0:0:0:
50,117,118582,2,0,P|32:155|38:202,1,70,0|8,3:0|0:0,0:0:0:0:
84,247,118827,2,0,L|159:256,1,70,8|8,0:0|0:0,0:0:0:0:
222,304,119073,6,0,L|215:385,2,70,4|0|8,3:2|0:0|0:0,0:0:0:0:
293,258,119442,1,0,0:0:0:0:
363,304,119565,2,0,P|406:313|445:298,1,70,0|0,3:0|0:0,0:0:0:0:
500,258,119811,2,0,L|495:175,1,70,8|0,0:0|0:0,0:0:0:0:
441,123,120057,5,0,3:0:0:0:
441,123,120180,2,0,L|355:117,1,70,0|8,0:0|0:0,0:0:0:0:
311,58,120426,1,0,0:0:0:0:
234,92,120549,2,0,P|221:134|230:179,1,70,0|0,3:0|0:0,0:0:0:0:
275,226,120795,2,0,P|288:268|279:313,1,70,8|0,0:0|0:0,0:0:0:0:
221,348,121041,6,0,L|72:337,1,140,0|8,3:0|0:0,0:0:0:0:
2,367,121409,1,0,0:0:0:0:
5,283,121532,2,0,P|3:248|14:207,1,70,0|0,3:0|0:0,0:0:0:0:
50,135,121778,2,0,L|131:133,1,70,8|0,0:0|0:0,0:0:0:0:
202,117,122024,5,0,3:0:0:0:
202,117,122147,2,0,P|210:163|205:198,1,70,0|8,0:0|0:0,0:0:0:0:
241,259,122393,1,0,0:0:0:0:
281,332,122516,2,0,P|327:348|363:340,1,70,0|0,3:0|0:0,0:0:0:0:
425,313,122762,2,0,L|430:234,1,70,8|0,0:0|0:0,0:0:0:0:
492,187,123008,6,0,L|483:36,1,140,4|8,3:2|0:0,0:0:0:0:
404,16,123377,1,0,0:0:0:0:
326,49,123500,2,0,P|313:88|317:130,1,70,0|0,3:0|0:0,0:0:0:0:
319,207,123745,2,0,L|238:198,1,70,8|0,0:0|0:0,0:0:0:0:
183,142,123991,5,0,3:0:0:0:
183,142,124114,2,0,L|101:148,1,70,0|8,0:0|0:0,0:0:0:0:
52,206,124360,1,0,0:0:0:0:
83,283,124483,2,0,L|80:357,1,70,0|0,3:0|0:0,0:0:0:0:
162,370,124729,2,0,L|257:373,1,70,8|0,0:0|0:0,0:0:0:0:
306,332,124975,6,0,L|386:327,2,70,0|0|8,3:0|0:0|0:0,0:0:0:0:
258,261,125344,1,0,0:0:0:0:
313,197,125467,2,0,P|319:151|307:109,1,70,0|0,3:0|0:0,0:0:0:0:
250,72,125713,2,0,L|174:73,1,70,8|0,0:0|0:0,0:0:0:0:
298,0,125959,5,0,3:0:0:0:
298,0,126082,2,0,L|374:1,1,70,8|0,0:0|3:0,0:0:0:0:
443,38,126327,1,8,0:0:0:0:
447,121,126450,2,8,P|455:163|447:198,1,70
380,237,126696,2,0,P|372:279|380:314,1,70,8|8,0:0|0:0,0:0:0:0:
435,377,126942,6,0,L|519:370,2,77.0000023498536,6|2|10,3:2|0:0|0:2,0:0:0:0:
376,305,127311,1,2,3:0:0:0:
311,370,127434,2,0,P|260:374|227:355,1,77.0000023498536,2|2,3:2|0:0,0:0:0:0:
193,281,127680,2,0,B|204:242|204:242|178:199,1,77.0000023498536,10|0,0:0|3:0,0:0:0:0:
207,122,127926,6,0,P|145:126|92:205,1,154.000004699707,2|10,3:2|0:0,0:0:0:0:
1,175,128295,2,0,P|4:232|92:289,1,154.000004699707,2|2,0:0|0:0,0:0:0:0:
135,359,128664,2,0,L|223:348,1,77.0000023498536,10|0,0:0|0:0,0:0:0:0:
291,303,128909,6,0,P|311:347|300:379,2,77.0000023498536,2|2|10,3:2|0:0|0:0,0:0:0:0:
211,254,129278,1,2,0:0:0:0:
284,198,129401,2,0,L|373:203,1,77.0000023498536,2|2,3:2|0:0,0:0:0:0:
401,118,129647,2,0,L|312:113,1,77.0000023498536,10|2,0:0|0:0,0:0:0:0:
261,44,129893,5,2,3:2:0:0:
261,44,130016,1,2,0:0:0:0:
196,110,130139,2,0,B|222:138|222:138|187:218|187:218|220:247,2,154.000004699707,10|2|10,0:0|3:2|0:0,0:0:0:0:
122,52,130754,1,2,0:0:0:0:
44,103,130877,6,0,B|70:195|70:195|52:228|28:245,1,154.000004699707,6|10,3:2|0:0,0:0:0:0:
103,301,131245,1,2,0:0:0:0:
103,301,131368,2,0,P|168:306|187:326,1,77.0000023498536,2|0,3:2|0:0,0:0:0:0:
223,232,131614,2,0,P|265:281|264:309,1,77.0000023498536,10|2,0:0|0:0,0:0:0:0:
323,363,131860,5,2,3:2:0:0:
407,325,131983,2,0,L|400:240,1,77.0000023498536,2|10,0:0|0:0,0:0:0:0:
338,178,132229,2,0,P|356:139|464:124,1,154.000004699707,2|2,0:0|0:0,0:0:0:0:
501,38,132598,2,0,L|419:28,1,77.0000023498536,10|2,0:0|0:0,0:0:0:0:
333,10,132844,6,0,P|301:34|287:77,1,77.0000023498536,2|2,3:2|0:0,0:0:0:0:
323,153,133090,2,0,P|318:113|287:79,1,77.0000023498536,10|0,0:0|0:0,0:0:0:0:
204,73,133336,2,0,P|240:88|285:79,1,77.0000023498536,2|0,3:2|0:0,0:0:0:0:
155,5,133582,2,0,B|136:1|136:1|96:17|96:17|76:12,1,77.0000023498536,10|2,0:0|0:0,0:0:0:0:
11,72,133827,5,8,0:0:0:0:
82,131,133950,2,0,L|64:215,1,77.0000023498536,10|2,0:0|3:2,0:0:0:0:
46,297,134196,1,2,3:2:0:0:
506,334,134811,6,0,L|425:341,1,77.0000023498536,6|2,3:2|3:2,0:0:0:0:
377,263,135057,2,0,L|453:256,1,77.0000023498536,10|2,0:0|0:0,0:0:0:0:
512,174,135303,2,0,P|509:126|409:91,1,154.000004699707,2|10,3:2|0:0,0:0:0:0:
366,160,135672,1,2,0:0:0:0:
286,113,135795,6,0,B|257:98|257:98|175:136|175:136|126:116,1,154.000004699707,2|10,3:2|0:0,0:0:0:0:
78,60,136164,1,2,0:0:0:0:
78,60,136286,2,0,B|116:102|116:102|69:217,1,154.000004699707,2|10,3:2|0:0,0:0:0:0:
42,278,136655,1,0,0:0:0:0:
119,327,136778,5,2,3:2:0:0:
119,327,136901,2,0,P|168:298|176:201,1,154.000004699707,2|2,0:0|0:0,0:0:0:0:
260,160,137270,2,0,L|352:174,1,77.0000023498536,2|2,3:2|3:2,0:0:0:0:
428,184,137516,2,0,L|351:195,1,77.0000023498536,8|2,0:0|0:0,0:0:0:0:
284,259,137762,6,0,B|262:298|262:298|309:350|309:350|282:393,2,154.000004699707,2|10|2,3:2|0:0|3:2,0:0:0:0:
452,180,138500,1,10,0:0:0:0:
326,35,138745,5,10,0:0:0:0:
370,116,138868,2,0,L|355:201,1,77.0000023498536,10|10,0:0|0:0,0:0:0:0:
332,281,139114,1,10,0:0:0:0:
332,281,139237,1,10,0:0:0:0:
159,346,139483,5,10,0:0:0:0:
159,346,139606,1,10,0:0:0:0:
213,271,139729,2,0,L|206:189,1,77.0000023498536,10|10,0:0|0:0,0:0:0:0:
120,157,139975,2,0,L|127:75,1,77.0000023498536,10|10,0:0|0:0,0:0:0:0:
188,10,140221,1,10,0:0:0:0:
321,137,140467,1,10,0:0:0:0:
474,33,140713,5,10,0:0:0:0:
474,33,140836,1,10,0:0:0:0:
389,0,140959,2,0,P|357:21|340:55,1,77.0000023498536,10|10,0:0|0:0,0:0:0:0:
419,111,141204,1,10,0:0:0:0:
419,111,141327,2,0,L|258:94,1,154.000004699707,10|10,0:0|0:0,0:0:0:0:
189,148,141696,5,10,0:0:0:0:
189,148,141819,1,10,0:0:0:0:
244,266,141942,1,10,0:0:0:0:
244,266,142065,1,10,0:0:0:0:
51,363,142434,2,0,L|-9:354,3,38.5000011749268,8|8|10|8,0:0|0:0|0:0|0:0,0:0:0:0:
91,366,142680,6,0,P|101:298|33:243,2,154.000004699707,4|10|0,3:2|0:2|3:2,0:0:0:0:
181,343,143295,1,0,3:2:0:0:
181,343,143418,2,0,L|269:356,1,77.0000023498536,8|0,3:0|3:0,3:0:0:0:
345,323,143664,5,2,3:2:0:0:
298,243,143786,2,0,L|311:162,1,77.0000023498536,2|10,0:0|0:0,0:0:0:0:
269,83,144032,2,0,P|318:43|417:87,1,154.000004699707,2|0,0:0|0:0,0:0:0:0:
493,54,144401,2,0,L|478:156,1,77.0000023498536,8|10,0:0|0:0,0:0:0:0:
497,222,144647,6,0,B|465:207|465:207|380:229|380:229|342:213,1,154.000004699707,6|8,3:2|0:0,0:0:0:0:
260,197,145016,2,0,B|168:212|168:212|146:186,2,115.50000352478,2|0|10,0:0|0:0|0:0,0:0:0:0:
309,117,145508,1,2,3:2:0:0:
251,44,145631,6,2,B|193:38|193:38|168:52,1,77.0000023498536,2|2,3:2|0:0,0:0:0:0:
84,30,145877,2,2,P|73:70|92:113,1,77.0000023498536,10|10,0:0|0:0,0:0:0:0:
165,148,146123,1,2,3:2:0:0:
165,148,146245,1,2,0:0:0:0:
93,205,146368,2,0,L|113:307,1,77.0000023498536,10|2,0:0|0:0,0:0:0:0:
134,372,146614,6,0,B|181:383|207:344|195:341|215:292|270:303,1,154.000004699707,2|0,3:2|0:0,0:0:0:0:
341,355,146983,1,0,0:0:0:0:
341,355,147106,2,0,L|440:372,1,77.0000023498536,0|0,3:0|3:0,3:0:0:0:
461,286,147352,2,0,L|532:277,3,38.5000011749268,10|10|10|10,0:0|0:0|0:0|0:0,0:0:0:0:
420,266,147598,6,0,P|393:187|456:131,1,154.000004699707,2|10,3:2|0:0,0:0:0:0:
502,74,147967,1,2,0:0:0:0:
502,74,148090,2,2,L|426:58,1,77.0000023498536,2|2,3:2|0:0,0:0:0:0:
333,60,148336,2,0,L|409:44,1,77.0000023498536,10|10,0:0|0:0,0:0:0:0:
302,135,148582,6,0,B|246:115|246:115|221:121,1,77.0000023498536,6|0,3:2|0:0,0:0:0:0:
150,170,148827,2,0,P|135:117|153:79,1,77.0000023498536,8|0,0:0|0:0,0:0:0:0:
51,34,149073,2,0,P|56:73|41:106,1,77.0000023498536,0|2,3:0|0:0,0:0:0:0:
0,190,149319,2,0,B|11:203|11:203|-4:252|-4:252|9:280,1,77.0000023498536,8|2,0:0|0:0,0:0:0:0:
59,330,149565,5,10,0:0:0:0:
59,330,149688,1,2,0:0:0:0:
114,255,149811,2,0,L|200:266,1,77.0000023498536,2|8,3:2|0:0,0:0:0:0:
265,210,150057,1,0,3:0:0:0:
265,210,150180,1,2,3:2:0:0:
310,290,150303,2,0,B|289:327|289:327|304:362,1,77.0000023498536,8|8,0:0|0:0,0:0:0:0:
402,262,150549,6,0,P|347:266|312:170,1,154.000004699707,4|0,3:2|3:0,0:0:0:0:
376,127,150918,1,0,3:0:0:0:
376,127,151041,2,0,L|472:141,1,77.0000023498536,8|0,0:0|0:0,0:0:0:0:
306,77,151286,2,0,L|210:91,1,77.0000023498536,8|0,0:0|0:0,0:0:0:0:
213,179,151532,6,0,B|165:189|147:141|158:141|132:81|56:124,1,154.000004699707,0|10,3:0|0:0,3:0:0:0:
0,106,151901,2,0,B|48:116|66:68|55:68|81:8|157:51,1,154.000004699707
213,0,152270,2,0,P|257:-7|298:15,1,77.0000023498536,10|0,0:0|0:0,0:0:0:0:
312,94,152516,6,0,L|326:200,1,77.0000023498536,0|2,3:0|3:2,3:0:0:0:
340,261,152762,2,0,P|390:263|425:241,1,77.0000023498536,8|2,0:0|3:2,0:0:0:0:
332,358,153008,2,0,P|282:356|247:378,1,77.0000023498536,0|2,3:0|3:2,0:0:0:0:
176,324,153254,2,0,L|87:333,1,77.0000023498536,8|0,0:0|3:0,0:0:0:0:
17,286,153500,5,0,3:0:0:0:
92,232,153623,2,0,P|78:198|28:167,1,77.0000023498536,2|8,3:2|0:0,0:0:0:0:
86,89,153868,2,0,P|122:93|174:66,1,77.0000023498536,2|0,0:0|3:0,0:0:0:0:
213,155,154114,2,0,P|190:184|188:242,1,77.0000023498536,2|8,0:0|0:0,0:0:0:0:
251,287,154360,6,0,B|299:297|317:249|306:249|332:189|408:232,1,154.000004699707,2|0,0:0|0:0,0:0:0:0:
450,274,154729,2,0,L|441:367,1,77.0000023498536,8|0,0:0|0:0,0:0:0:0:
505,203,154975,1,2,3:2:0:0:
505,203,155098,2,0,L|497:126,1,77.0000023498536,0|8,0:0|0:0,0:0:0:0:
444,49,155344,1,0,0:0:0:0:
391,124,155467,6,0,L|335:112,1,38.5000011749268,2|2,3:0|0:0,0:0:0:0:
323,80,155590,2,0,L|264:87,3,38.5000011749268,2|2|10|2,0:0|0:0|0:0|0:0,0:0:0:0:
247,54,155836,2,0,B|216:33|216:33|138:68|138:68|103:44,1,154.000004699707,2|2,0:0|0:0,0:0:0:0:
34,0,156204,2,0,P|10:44|11:83,1,77.0000023498536,10|0,0:0|3:0,0:0:0:0:
74,136,156450,6,0,L|167:118,2,77.0000023498536,10|10|10,0:0|0:0|0:0,0:0:0:0:
74,229,156819,2,0,L|-19:211,2,77.0000023498536,8|10|8,0:0|0:0|0:0,0:0:0:0:
86,321,157188,2,0,P|127:361|200:330,1,115.50000352478,10|0,0:0|0:0,0:0:0:0:
210,317,157434,5,10,0:0:0:0:
227,226,157557,2,0,L|235:184,2,38.5000011749268,8|8|8,0:0|0:0|0:0,0:0:0:0:
315,254,157803,2,0,L|323:212,2,38.5000011749268,0|0|0,3:0|3:0|3:0,0:0:0:0:
377,322,158049,2,0,L|434:311,1,38.5000011749268,0|0,3:0|3:0,0:0:0:0:
458,297,158172,2,0,L|508:312,2,38.5000011749268,0|0|0,3:0|3:0|3:0,0:0:0:0:
413,220,158418,5,10,0:0:0:0:
413,220,158541,1,2,0:0:0:0:
483,160,158664,1,10,0:0:0:0:
444,76,158786,1,8,0:0:0:0:
234,13,159032,6,0,L|226:91,1,77.0000023498536,10|8,0:0|0:0,0:0:0:0:
164,159,159278,1,6,3:2:0:0:
440,341,169219,6,0,L|285:325,1,140,2|0,0:0|0:0,0:0:0:0:
217,348,170310,2,0,P|269:332|274:248,1,140,2|0,0:0|0:0,0:0:0:0:
163,207,171401,6,0,L|90:218,1,70,2|0,0:0|0:0,0:0:0:0:
24,148,171946,2,0,L|50:79,1,70,2|0,0:0|0:0,0:0:0:0:
146,61,172491,2,0,L|192:118,1,70,2|0,0:0|0:0,0:0:0:0:
253,196,173037,1,2,0:0:0:0:
253,196,173310,1,2,0:0:0:0:
334,133,173582,6,0,P|365:106|434:109,1,105,2|2,0:0|0:0,0:0:0:0:
488,186,174264,1,2,0:0:0:0:
434,263,174537,2,0,L|363:257,1,70,2|2,0:0|0:0,0:0:0:0:
279,234,174946,2,0,L|221:244,2,52.5,2|2|2,0:0|0:0|0:0,0:0:0:0:
328,166,175491,1,2,0:0:0:0:
263,185,177946,5,2,0:0:0:0:
350,128,178082,1,2,0:0:0:0:
350,128,178151,1,2,0:0:0:0:
350,128,178219,6,0,P|434:144|466:213,1,154.000004699707,6|8,3:2|0:0,0:0:0:0:
448,289,178628,1,0,0:0:0:0:
371,332,178764,2,0,L|281:320,1,77.0000023498536,2|2,3:2|3:2,0:0:0:0:
220,275,179037,2,0,L|143:285,1,77.0000023498536,10|2,0:0|0:0,0:0:0:0:
75,346,179309,6,0,B|105:302|105:302|104:247|50:217,1,154.000004699707,2|8,3:2|0:0,0:0:0:0:
6,139,179719,1,2,0:0:0:0:
71,74,179855,2,0,P|87:30|86:-4,1,77.0000023498536,2|2,3:2|3:2,0:0:0:0:
145,137,180128,1,10,0:0:0:0:
221,86,180264,6,0,P|295:102|332:177,1,154.000004699707,2|2,0:0|3:2,0:0:0:0:
267,233,180673,2,0,P|252:268|256:324,1,77.0000023498536,10|2,0:0|0:0,0:0:0:0:
331,353,180946,2,0,L|497:339,1,154.000004699707,2|10,3:2|0:0,0:0:0:0:
499,248,181355,6,0,B|514:153|514:153|494:126|489:96,1,154.000004699707,2|0,0:0|3:0,0:0:0:0:
432,27,181764,2,0,P|380:31|339:48,1,77.0000023498536,8|0,0:0|3:0,0:0:0:0:
296,109,182037,2,0,L|279:191,1,77.0000023498536,10|0,0:0|3:0,0:0:0:0:
201,266,182309,2,0,L|185:190,1,77.0000023498536,10|0,0:0|0:0,0:0:0:0:
97,160,182582,6,0,P|23:154|-3:69,1,154.000004699707,6|10,3:2|0:0,0:0:0:0:
42,9,182991,2,0,L|131:19,1,77.0000023498536,2|0,0:0|3:0,0:0:0:0:
188,78,183264,2,0,L|264:69,1,77.0000023498536,2|8,3:2|0:0,0:0:0:0:
344,21,183537,6,0,B|381:54|381:54|406:103|359:172,1,154.000004699707,2|2,0:0|3:2,0:0:0:0:
328,236,183946,1,10,0:0:0:0:
245,195,184082,2,0,P|196:183|156:194,1,77.0000023498536,2|0,0:0|3:0,0:0:0:0:
100,248,184355,1,2,3:2:0:0:
117,338,184491,2,0,L|203:332,1,77.0000023498536,10|0,0:0|0:0,0:0:0:0:
277,372,184764,5,2,3:2:0:0:
357,326,184900,2,0,B|437:309|427:352|512:334,1,154.000004699707,6|2,3:2|3:2,0:0:0:0:
496,242,185309,2,0,L|511:145,1,77.0000023498536,6|0,3:2|0:0,0:0:0:0:
442,100,185582,1,2,3:2:0:0:
369,157,185719,6,0,L|204:144,1,154.000004699707,6|0,3:2|3:0,0:0:0:0:
149,80,186128,1,10,0:0:0:0:
65,118,186264,2,0,P|57:188|61:209,1,77.0000023498536,8|10,0:0|0:0,0:0:0:0:
133,247,186537,2,0,L|223:256,1,77.0000023498536,10|10,0:0|0:0,0:0:0:0:
274,320,186809,1,10,0:0:0:0:
195,369,186946,6,0,L|34:374,1,154.000004699707,6|8,3:2|0:0,0:0:0:0:
11,285,187355,1,2,0:0:0:0:
39,197,187491,2,0,P|43:153|37:101,1,77.0000023498536,2|2,3:2|3:2,0:0:0:0:
110,58,187764,2,0,L|210:51,1,77.0000023498536,10|2,0:0|3:2,0:0:0:0:
270,12,188037,6,0,P|334:42|336:127,1,154.000004699707,2|8,3:2|0:0,0:0:0:0:
269,177,188446,1,2,0:0:0:0:
335,240,188582,2,0,L|436:245,2,77.0000023498536,2|2|10,3:2|3:2|0:0,0:0:0:0:
260,294,188991,1,0,3:0:0:0:
295,379,189128,6,0,B|265:322|211:310|165:319|165:319|133:368|82:372,2,251.999992309571,6|6|8,3:2|3:2|0:0,0:0:0:0:
384,294,190400,6,0,B|454:267|428:300|496:268,1,102.666669799805,8|8,0:0|0:0,0:0:0:0:
417,168,190764,6,0,B|347:141|373:174|305:142,2,102.666669799805,10|8|8,0:0|0:0|0:0,0:0:0:0:
457,51,191309,6,0,B|354:78|397:27|290:56,1,154.000004699707,6|10,3:2|0:0,0:0:0:0:
222,95,191719,5,6,3:2:0:0:
330,244,191991,5,6,3:2:0:0:
200,376,192264,5,6,3:2:0:0:
29,366,194037,6,0,P|23:327|31:289,1,70,6|0,3:2|0:0,0:0:0:0:
89,240,194309,2,0,L|165:237,1,70,10|0,0:0|0:0,0:0:0:0:
218,297,194582,2,0,P|296:307|363:295,1,140,2|10,3:2|0:0,0:0:0:0:
421,243,194991,6,0,L|417:166,1,70,2|0,3:2|0:0,0:0:0:0:
469,107,195264,1,2,3:2:0:0:
469,107,195400,1,10,0:0:0:0:
418,39,195537,2,0,P|351:37|329:46,1,70,10|0,0:0|3:0,0:0:0:0:
297,103,195809,1,2,3:2:0:0:
297,103,195946,2,0,P|230:118|205:107,1,70,10|0,0:0|3:0,0:0:0:0:
164,67,196218,6,0,P|188:135|185:220,1,140,2|10,3:2|0:0,0:0:0:0:
245,264,196627,2,0,P|228:324|223:362,1,70,2|0,0:0|3:0,0:0:0:0:
152,371,196900,2,0,L|60:365,1,70,0|10,3:0|0:0,0:0:0:0:
10,322,197173,6,0,L|4:172,1,140,2|2,3:2|3:2,0:0:0:0:
49,110,197582,1,10,0:0:0:0:
124,145,197718,2,0,L|211:138,1,70,2|0,0:0|3:0,0:0:0:0:
259,86,197991,1,2,3:2:0:0:
259,86,198127,2,0,L|266:8,1,70,10|0,0:0|3:0,0:0:0:0:
349,5,198400,6,0,P|399:28|482:4,2,140,6|10|2,3:2|0:0|3:2,0:0:0:0:
418,157,199218,1,10,0:0:0:0:
345,200,199355,6,0,L|331:357,1,140,2|2,3:2|3:2,0:0:0:0:
410,372,199764,1,10,0:0:0:0:
410,372,199900,2,0,P|455:367|483:350,1,70,10|0,0:0|3:0,0:0:0:0:
508,277,200173,1,2,3:2:0:0:
508,277,200309,2,0,L|501:191,1,70,10|0,0:0|3:0,0:0:0:0:
446,144,200582,5,0,3:0:0:0:
446,144,200650,1,0,3:0:0:0:
446,144,200718,2,0,L|290:129,1,140,6|0,3:2|3:0,0:0:0:0:
231,168,201127,2,0,P|201:251|218:297,1,140,6|0,3:2|3:0,0:0:0:0:
161,360,201537,6,0,P|77:365|28:317,1,140,6|0,3:2|3:2,0:0:0:0:
10,251,201946,2,0,L|21:176,1,70,14|8,0:0|0:0,0:0:0:0:
81,125,202218,2,0,L|143:118,3,35,0|0|0|0,3:0|3:0|3:0|3:0,0:0:0:0:
150,96,202491,2,0,L|184:99,3,35,0|0|0|0,3:0|3:0|3:0|3:0,0:0:0:0:
216,128,202764,6,0,L|223:224,1,70,6|0,3:2|0:0,0:0:0:0:
267,268,203037,2,0,L|260:351,1,70,10|0,0:0|0:0,0:0:0:0:
339,366,203309,2,0,P|401:368|462:306,1,140,2|10,3:2|0:0,0:0:0:0:
493,242,203718,6,0,P|486:167|474:86,1,140,2|2,3:2|3:2,0:0:0:0:
411,49,204127,1,10,0:0:0:0:
337,90,204264,2,0,P|331:134|333:175,1,70,10|0,0:0|3:0,0:0:0:0:
357,239,204537,1,2,3:2:0:0:
290,290,204673,2,0,L|208:282,1,70,10|0,0:0|3:0,0:0:0:0:
155,336,204946,6,0,P|79:353|23:312,1,140,2|10,3:2|0:0,0:0:0:0:
6,240,205355,2,0,L|15:153,1,70,2|0,0:0|3:0,0:0:0:0:
72,110,205627,1,0,3:0:0:0:
72,110,205764,1,10,0:0:0:0:
136,163,205900,6,0,B|214:148|188:191|281:171,1,140,2|2,3:2|3:2,0:0:0:0:
340,122,206309,1,10,0:0:0:0:
283,59,206446,2,0,P|291:20|328:0,1,70,2|0,0:0|3:0,0:0:0:0:
397,6,206718,1,2,3:2:0:0:
397,6,206855,2,0,L|486:7,1,70,10|0,0:0|3:0,0:0:0:0:
502,82,207127,6,0,P|492:168|490:240,1,140,6|10,3:2|0:0,0:0:0:0:
377,346,207673,2,0,P|321:366|236:327,1,140,2|10,3:2|0:0,0:0:0:0:
217,261,208082,6,0,L|223:181,1,70,2|0,3:2|0:0,0:0:0:0:
288,138,208355,2,0,L|368:144,1,70,2|10,3:2|0:0,0:0:0:0:
432,104,208627,2,0,P|440:42|380:0,1,140,10|2,0:0|3:2,0:0:0:0:
298,9,209037,2,0,L|218:17,1,70,10|0,0:0|3:0,0:0:0:0:
164,69,209309,5,0,3:0:0:0:
164,69,209377,1,0,3:0:0:0:
164,69,209446,2,0,P|72:60|41:117,1,140,6|0,3:2|3:0,0:0:0:0:
41,174,209855,2,0,L|15:328,1,140,6|0,3:2|3:0,0:0:0:0:
89,356,210264,6,0,L|166:349,1,70,6|0,3:2|0:0,0:0:0:0:
224,296,210537,1,0,3:2:0:0:
189,219,210673,2,0,L|197:131,1,70,14|8,0:0|0:0,0:0:0:0:
253,88,210946,2,0,L|317:80,3,35,0|0|0|0,3:0|3:0|3:0|3:0,0:0:0:0:
323,62,211218,2,0,L|357:66,3,35,0|0|0|0,3:0|3:0|3:0|3:0,0:0:0:0:
393,89,211491,6,8,L|398:139,3,35
433,143,211764,2,8,L|428:193,3,35
454,211,212037,1,6,3:2:0:0:
256,192,212105,12,0,220764,0:0:0:0:
