osu file format v14

[General]
AudioFilename: A-RISE - Shocking Party TV Size.mp3
AudioLeadIn: 0
PreviewTime: 50052
Countdown: 0
SampleSet: Soft
StackLeniency: 0.7
Mode: 0
LetterboxInBreaks: 0
WidescreenStoryboard: 1

[Editor]
Bookmarks: 8140,36376
DistanceSpacing: 0.6
BeatDivisor: 4
GridSize: 4
TimelineZoom: 1.7

[Metadata]
Title:Shocking Party (TV Size)
TitleUnicode:Shocking Party (TVサイズ)
Artist:A-RISE
ArtistUnicode:A-RISE
Creator:KazuhikoRei
Version:Insane
Source:ラブライブ!School idol project
Tags:Love Live アライズ 綺羅ツバサ 統堂英玲奈 優木あんじゅ tsubasa kira erena toudou anju yuuki
BeatmapID:418136
BeatmapSetID:173009

[Difficulty]
HPDrainRate:7
CircleSize:4
OverallDifficulty:8
ApproachRate:9
SliderMultiplier:2
SliderTickRate:1

[Events]
//Background and Video events
Video,-100,"a-rise shocking party.avi"
0,0,"bg.jpg",0,0
//Break Periods
//Storyboard Layer 0 (Background)
//Storyboard Layer 1 (Fail)
//Storyboard Layer 2 (Pass)
//Storyboard Layer 3 (Foreground)
//Storyboard Sound Samples

[TimingPoints]
1082,441.176470588235,4,2,2,20,1,0
1082,-133.333333333333,4,2,2,30,0,0
7699,-66.6666666666667,4,2,1,45,0,0
8140,-100,4,2,1,50,0,0
9023,-66.6666666666667,4,2,1,50,0,0
9684,-100,4,2,1,50,0,0
10126,-66.6666666666667,4,2,1,50,0,0
10346,-100,4,2,1,50,0,0
12552,-66.6666666666667,4,2,1,50,0,0
13214,-100,4,2,1,50,0,0
13655,-66.6666666666667,4,2,1,50,0,0
13876,-100,4,2,1,50,0,0
16081,-66.6666666666667,4,2,1,50,0,0
16743,-100,4,2,1,50,0,0
17184,-66.6666666666667,4,2,1,50,0,0
17405,-100,4,2,1,50,0,0
19611,-66.6666666666667,4,2,1,50,0,0
20273,-100,4,2,4,60,0,0
20714,-66.6666666666667,4,2,4,60,0,0
21155,-50,4,2,4,60,0,0
21596,-100,4,2,0,50,0,0
22258,-100,4,2,1,45,0,0
36376,-133.333333333333,4,2,3,55,0,0
37258,-100,4,2,3,55,0,0
38140,-133.333333333333,4,2,3,55,0,0
40787,-100,4,2,3,55,0,0
42001,-100,4,2,3,5,0,0
42111,-66.6666666666667,4,2,3,55,0,0
42442,-66.6666666666667,4,2,3,5,0,0
42552,-66.6666666666667,4,2,3,55,0,0
43434,-133.333333333333,4,2,3,55,0,0
44317,-100,4,2,3,55,0,0
45199,-133.333333333333,4,2,3,55,0,0
47846,-100,4,2,3,55,0,0
49611,-133.333333333333,4,2,3,55,0,0
50052,-83.3333333333333,4,2,1,55,0,0
50493,-100,4,2,5,50,0,1
55787,-83.3333333333333,4,2,5,50,0,1
56229,-66.6666666666667,4,2,5,50,0,1
56670,-100,4,2,5,50,0,1
64611,-100,4,2,1,50,0,0
65493,-66.6666666666667,4,2,1,50,0,0
66155,-100,4,2,1,50,0,0
66596,-66.6666666666667,4,2,1,50,0,0
66817,-100,4,2,1,50,0,0
69023,-66.6666666666667,4,2,1,50,0,0
69684,-100,4,2,4,60,0,0

[Colours]
Combo1 : 0,128,255
Combo2 : 160,5,240
Combo3 : 80,22,233
Combo4 : 226,29,221

[HitObjects]
18,100,1082,6,0,P|8:153|20:197,1,75.0000028610231
98,240,1523,1,8,0:0:0:0:
98,240,1964,2,0,P|166:204|220:217,1,112.500004291535
232,238,2405,1,8,0:0:0:0:
98,240,2626,6,0,L|101:93,1,112.500004291535
184,39,3067,2,0,L|184:123,1,75.0000028610231,0|8,0:0|0:0,0:0:0:0:
215,252,3508,2,0,L|216:293,1,37.5000014305115
273,173,3729,2,0,L|272:83,1,75.0000028610231
319,251,4170,1,8,0:0:0:0:
319,251,4611,6,0,P|382:251|414:266,1,75.0000028610231
461,320,5052,1,8,0:0:0:0:
481,176,5493,2,0,P|408:135|347:138,1,112.500004291535
339,151,5934,1,8,0:0:0:0:
231,154,6155,6,0,P|227:217|264:272,1,112.500004291535
339,151,6596,2,0,P|316:87|283:66,1,75.0000028610231,0|8,0:0|0:0,0:0:0:0:
139,136,7037,1,0,0:0:0:0:
139,136,7148,1,0,0:0:0:0:
139,136,7258,2,0,L|182:136,1,37.5000014305115
294,202,7479,2,0,L|248:201,1,37.5000014305115
322,118,7699,6,0,P|393:188|294:274,1,225.000008583069,12|0,0:0|0:0,0:0:0:0:
293,290,8140,6,0,B|228:280|228:280|168:296,1,100,2|0,0:0|0:0,0:0:0:0:
20,348,8581,2,0,L|124:348,1,100,2|0,0:0|0:0,0:0:0:0:
256,356,9023,6,0,P|219:290|283:314,1,150.000005722046,2|0,0:0|0:0,0:0:0:0:
339,330,9354,2,0,P|419:330|443:258,1,150.000005722046,2|0,0:0|0:0,0:0:0:0:
416,192,9684,6,0,P|340:156|232:176,1,150,2|0,0:0|0:0,0:0:0:0:
232,164,10126,6,0,P|228:112|268:160,1,150.000005722046,2|0,0:0|0:0,0:0:0:0:
200,284,10567,5,2,0:0:0:0:
200,284,10677,1,0,0:0:0:0:
200,284,10787,1,2,0:0:0:0:
40,152,11008,1,0,0:0:0:0:
12,352,11229,2,0,B|76:344|76:344|112:364|112:364|168:360,1,150,2|0,0:0|0:0,0:0:0:0:
196,372,11670,6,0,L|300:372,1,100,2|0,0:0|0:0,0:0:0:0:
496,288,12111,2,0,L|392:288,1,100,2|0,0:0|0:0,0:0:0:0:
312,200,12552,6,0,P|317:261|232:260,1,150.000005722046,2|0,0:0|0:0,0:0:0:0:
176,240,12883,2,0,P|92:248|54:295,1,150.000005722046,2|0,0:0|0:0,0:0:0:0:
54,296,13214,6,0,L|56:136,1,150,2|0,0:0|0:0,0:0:0:0:
56,116,13655,6,0,P|4:92|60:92,1,150.000005722046,2|0,0:0|0:0,0:0:0:0:
144,200,14096,6,0,L|144:256,1,50,2|0,0:0|0:0,0:0:0:0:
216,148,14317,2,0,L|216:28,1,100,2|0,0:0|0:0,0:0:0:0:
252,224,14758,2,0,P|324:260|400:220,1,150,2|0,0:0|0:0,0:0:0:0:
408,216,15199,6,0,L|408:332,1,100,2|0,0:0|0:0,0:0:0:0:
324,160,15640,2,0,L|324:60,1,100,2|0,0:0|0:0,0:0:0:0:
304,244,16081,6,0,P|352:304|420:284,1,150.000005722046,2|0,0:0|0:0,0:0:0:0:
468,220,16412,2,0,P|436:136|484:108,1,150.000005722046,2|0,0:0|0:0,0:0:0:0:
508,32,16743,6,0,L|348:36,1,150,2|0,0:0|0:0,0:0:0:0:
320,36,17184,6,0,P|356:112|304:144,1,150.000005722046,2|0,0:0|0:0,0:0:0:0:
152,72,17626,2,0,L|152:22,1,50,2|0,0:0|0:0,0:0:0:0:
180,144,17846,1,2,0:0:0:0:
32,60,18067,1,0,0:0:0:0:
40,280,18287,2,0,P|92:220|140:276,1,150,2|0,0:0|0:0,0:0:0:0:
156,288,18729,6,0,P|212:316|260:308,1,100,2|0,0:0|0:0,0:0:0:0:
300,120,19170,2,0,P|244:92|196:100,1,100,2|0,0:0|0:0,0:0:0:0:
228,204,19611,6,0,L|392:252,1,150.000005722046,2|0,0:0|0:0,0:0:0:0:
440,216,19942,2,0,P|384:128|320:120,1,150.000005722046,2|0,0:0|0:0,0:0:0:0:
272,132,20273,6,0,B|192:140|192:140|116:124,1,150,6|0,0:0|0:0,0:0:0:0:
123,125,20714,6,0,P|180:60|272:136,1,225.000008583069,6|0,0:0|0:0,0:0:0:0:
271,130,21155,6,0,P|212:24|128:140,1,300,6|0,0:0|0:0,0:0:0:0:
121,124,21596,5,0,0:0:0:0:
336,20,21817,1,2,0:0:0:0:
280,216,22037,1,0,0:0:0:0:
244,64,22258,6,0,P|269:106|314:125,1,100,2|0,0:0|0:0,0:0:0:0:
460,8,22699,2,0,P|396:64|400:108,1,100,2|0,0:0|0:0,0:0:0:0:
512,196,23140,2,0,P|456:224|392:240,1,100,2|0,0:0|0:0,0:0:0:0:
380,244,23471,2,0,P|319:234|256:236,1,100,2|0,0:0|0:0,0:0:0:0:
240,232,23802,6,0,P|240:164|116:188,1,200,2|2,0:0|0:0,0:0:0:0:
48,240,24464,1,0,0:0:0:0:
31,124,24684,1,2,0:0:0:0:
48,240,24905,2,0,L|60:360,1,100,2|0,0:0|0:0,0:0:0:0:
112,164,25346,2,0,L|104:60,1,100,2|0,0:0|0:0,0:0:0:0:
156,240,25787,6,0,P|208:268|304:236,1,150,2|0,0:0|0:0,0:0:0:0:
320,220,26229,1,2,0:0:0:0:
419,339,26449,1,0,0:0:0:0:
419,339,26670,2,0,L|303:335,1,100,2|0,0:0|0:0,0:0:0:0:
279,343,27001,2,0,L|163:339,1,100,2|0,0:0|0:0,0:0:0:0:
139,347,27331,6,0,P|55:355|71:259,1,200,2|2,0:0|0:0,0:0:0:0:
172,120,27993,2,0,P|163:169|132:207,1,100,0|2,0:0|0:0,0:0:0:0:
0,208,28434,1,2,0:0:0:0:
208,260,28655,5,0,0:0:0:0:
92,136,28876,1,2,0:0:0:0:
91,338,29096,1,0,0:0:0:0:
252,208,29317,6,0,P|300:196|364:216,1,100,2|0,0:0|0:0,0:0:0:0:
420,364,29758,2,0,P|396:308|412:244,1,100,2|0,0:0|0:0,0:0:0:0:
512,144,30199,2,0,P|472:112|420:104,1,100,2|0,0:0|0:0,0:0:0:0:
388,116,30530,2,0,P|336:128|276:124,1,100,2|0,0:0|0:0,0:0:0:0:
257,101,30861,6,0,P|184:78|236:156,1,200,2|2,0:0|0:0,0:0:0:0:
388,116,31523,1,0,0:0:0:0:
330,274,31743,1,2,0:0:0:0:
257,101,31964,5,2,0:0:0:0:
152,276,32184,1,0,0:0:0:0:
352,272,32405,1,2,0:0:0:0:
228,104,32626,1,0,0:0:0:0:
79,316,32846,2,0,B|152:312|152:312|184:320|184:320|237:320,1,150,2|0,0:0|0:0,0:0:0:0:
268,321,33287,6,0,P|344:318|379:328,1,100,2|0,0:0|0:0,0:0:0:0:
512,180,33729,2,0,P|460:188|380:176,1,100,2|0,0:0|0:0,0:0:0:0:
376,168,34059,2,0,P|333:142|284:146,1,100,2|0,0:0|0:0,0:0:0:0:
252,172,34390,6,0,P|160:220|76:188,1,200,2|2,0:0|0:0,0:0:0:0:
156,88,35052,2,0,L|168:204,1,100,0|2,0:0|0:0,0:0:0:0:
76,320,35493,2,0,P|128:348|176:348,1,100,2|0,0:0|0:0,0:0:0:0:
196,344,35824,1,0,0:0:0:0:
224,336,35934,2,0,P|280:328|336:344,1,100,2|0,0:0|0:0,0:0:0:0:
420,384,36376,5,4,0:0:0:0:
500,288,36596,1,0,0:0:0:0:
368,212,36817,2,0,L|368:276,1,37.5000014305115
500,288,37037,2,0,L|500:244,1,37.5000014305115
432,128,37258,6,0,P|468:156|472:112,1,100,8|0,0:0|0:0,0:0:0:0:
460,96,37589,2,0,L|296:96,1,150,8|0,0:0|0:0,0:0:0:0:
144,96,38140,5,4,0:0:0:0:
310,96,38361,1,0,0:0:0:0:
224,16,38581,1,0,0:0:0:0:
228,168,38802,1,0,0:0:0:0:
144,96,39023,2,0,L|144:180,1,75.0000028610231,8|0,0:0|0:0,0:0:0:0:
144,200,39354,2,0,P|76:180|20:212,1,112.500004291535,8|0,0:0|0:0,0:0:0:0:
88,296,39905,6,0,L|168:296,1,75.0000028610231,4|0,0:0|0:0,0:0:0:0:
272,160,40346,2,0,L|234:160,1,37.5000014305115
280,240,40567,2,0,L|340:240,1,37.5000014305115
160,120,40787,6,8,P|136:92|168:44,1,100,8|0,0:0|0:0,0:0:0:0:
204,44,41118,2,0,P|276:60|356:44,1,150,8|0,0:0|0:0,0:0:0:0:
456,28,41670,6,0,L|456:188,1,150,4|0,0:0|0:0,0:0:0:0:
456,178,42111,6,0,P|368:178|420:266,1,225.000008583069,4|0,0:0|0:0,0:0:0:0:
412,266,42552,5,12,0:0:0:0:
210,180,42773,1,0,0:0:0:0:
323,362,42993,1,12,0:0:0:0:
315,124,43214,1,0,0:0:0:0:
412,266,43434,6,0,P|365:255|340:220,1,75.0000028610231,4|0,0:0|0:0,0:0:0:0:
400,72,43876,2,0,L|404:110,1,37.5000014305115
508,112,44096,2,0,L|496:148,1,37.5000014305115
412,266,44317,6,0,L|292:266,1,100,8|0,0:0|0:0,0:0:0:0:
280,266,44648,2,0,P|212:230|144:270,1,150,8|0,0:0|0:0,0:0:0:0:
84,356,45199,5,4,0:0:0:0:
84,356,45420,1,0,0:0:0:0:
12,260,45640,1,0,0:0:0:0:
151,259,45861,1,0,0:0:0:0:
88,164,46081,2,0,L|88:60,1,75.0000028610231,8|0,0:0|0:0,0:0:0:0:
88,60,46412,2,0,P|60:20|88:24,1,112.500004291535,8|0,0:0|0:0,0:0:0:0:
256,116,46964,5,4,0:0:0:0:
364,20,47184,1,0,0:0:0:0:
420,144,47405,2,0,L|420:192,1,37.5000014305115
340,140,47626,2,0,L|340:92,1,37.5000014305115
496,184,47846,6,0,L|496:288,1,100,8|0,0:0|0:0,0:0:0:0:
496,324,48177,2,0,P|416:304|356:348,1,150,8|0,0:0|0:0,0:0:0:0:
362,338,48729,5,4,0:0:0:0:
256,140,48949,1,0,0:0:0:0:
150,338,49170,1,4,0:0:0:0:
256,140,49390,1,0,0:0:0:0:
368,340,49611,2,0,P|312:352|256:328,1,112.500004291535,4|0,0:0|0:0,0:0:0:0:
240,312,50052,6,0,P|180:264|76:288,1,179.999994506836,12|0,0:0|0:0,0:0:0:0:
52,304,50493,6,0,L|52:204,1,100,2|0,0:0|0:0,0:0:0:0:
188,28,50934,2,0,L|188:168,1,100,10|0,0:0|0:0,0:0:0:0:
52,304,51376,2,0,P|32:268|48:208,1,100,2|0,0:0|0:0,0:0:0:0:
188,28,51817,2,0,P|208:64|192:124,1,100,10|0,0:0|0:0,0:0:0:0:
52,304,52258,2,0,B|168:296,1,100,2|0,0:0|0:0,0:0:0:0:
224,336,52589,1,0,0:0:0:0:
224,336,52699,2,0,P|268:320|334:328,1,100,10|0,0:0|0:0,0:0:0:0:
448,276,53140,6,0,L|448:160,1,100,2|0,0:0|0:0,0:0:0:0:
412,204,53471,2,0,L|412:88,1,100,2|0,0:0|0:0,0:0:0:0:
384,72,53802,1,2,0:0:0:0:
184,284,54023,6,0,P|240:240|252:204,1,100,2|0,0:0|0:0,0:0:0:0:
304,56,54464,2,0,P|248:100|236:136,1,100,10|0,0:0|0:0,0:0:0:0:
416,292,54905,2,0,L|316:292,1,100,2|0,0:0|0:0,0:0:0:0:
176,208,55346,2,0,L|76:208,1,100,10|0,0:0|0:0,0:0:0:0:
32,356,55787,6,0,P|96:324|204:344,1,179.999994506836,2|0,0:0|0:0,0:0:0:0:
236,368,56229,6,0,P|293:259|232:192,1,225.000008583069,10|0,0:0|0:0,0:0:0:0:
200,176,56670,6,0,B|188:96|188:96|200:16,2,150,2|2|2,0:0|0:0|0:0,0:0:0:0:
424,344,57552,6,0,L|424:228,1,100,2|0,0:0|0:0,0:0:0:0:
292,56,57993,2,0,L|292:172,1,100,10|0,0:0|0:0,0:0:0:0:
424,344,58434,2,0,P|444:308|428:248,1,100,2|0,0:0|0:0,0:0:0:0:
292,56,58876,2,0,P|272:92|288:152,1,100,10|0,0:0|0:0,0:0:0:0:
424,344,59317,2,0,L|308:344,1,100,2|0,0:0|0:0,0:0:0:0:
248,368,59648,1,0,0:0:0:0:
248,368,59758,2,0,P|192:372|152:356,1,100,10|0,0:0|0:0,0:0:0:0:
72,248,60199,6,0,L|72:132,1,100,2|0,0:0|0:0,0:0:0:0:
108,176,60530,2,0,L|108:60,1,100,2|0,0:0|0:0,0:0:0:0:
136,44,60861,1,2,0:0:0:0:
313,254,61081,6,0,P|272:224|256:172,1,100,2|0,0:0|0:0,0:0:0:0:
380,32,61523,2,0,P|421:62|437:114,1,100,10|0,0:0|0:0,0:0:0:0:
313,254,61964,5,2,0:0:0:0:
244,88,62184,1,0,0:0:0:0:
132,228,62405,1,10,0:0:0:0:
313,254,62626,1,0,0:0:0:0:
244,88,62846,6,0,L|128:88,1,100,2|0,0:0|0:0,0:0:0:0:
32,228,63287,2,0,L|140:228,1,100,10|0,0:0|0:0,0:0:0:0:
313,254,63729,5,2,0:0:0:0:
432,116,63949,1,0,0:0:0:0:
432,116,64059,1,0,0:0:0:0:
432,116,64170,1,10,0:0:0:0:
244,88,64390,1,0,0:0:0:0:
432,116,64611,6,0,P|428:160|376:212,1,100,2|0,0:0|0:0,0:0:0:0:
240,168,65052,2,0,P|168:168|128:200,1,100,2|0,0:0|0:0,0:0:0:0:
24,212,65493,6,0,P|44:282|112:308,1,150.000005722046,2|0,0:0|0:0,0:0:0:0:
180,280,65824,2,0,P|252:264|292:332,1,150.000005722046,2|0,0:0|0:0,0:0:0:0:
288,348,66155,6,0,L|332:200,1,150,2|0,0:0|0:0,0:0:0:0:
340,176,66596,6,0,P|392:155|332:148,1,150.000005722046,2|0,0:0|0:0,0:0:0:0:
216,228,67037,6,0,L|216:284,1,50,2|0,0:0|0:0,0:0:0:0:
168,148,67258,2,0,L|168:44,1,100,2|0,0:0|0:0,0:0:0:0:
76,144,67699,2,0,P|92:204|56:296,1,150,2|0,0:0|0:0,0:0:0:0:
44,320,68140,6,0,L|152:320,1,100,2|0,0:0|0:0,0:0:0:0:
328,344,68581,2,0,P|284:284|300:240,1,100,2|0,0:0|0:0,0:0:0:0:
440,128,69023,6,0,L|288:124,1,150.000005722046,2|0,0:0|0:0,0:0:0:0:
244,124,69354,2,0,P|264:68|276:128,1,150.000005722046,2|0,0:0|0:0,0:0:0:0:
224,272,69684,5,6,0:0:0:0:
208,272,70126,5,6,0:0:0:0:
196,272,70567,5,6,0:0:0:0:
