osu file format v14

[General]
AudioFilename: audio.mp3
AudioLeadIn: 0
PreviewTime: 67763
Countdown: 0
SampleSet: Soft
StackLeniency: 0.7
Mode: 0
LetterboxInBreaks: 0
WidescreenStoryboard: 1

[Editor]
Bookmarks: 167,12474,24782,30936,43243,49397,61705,67859,80167,92474,104782,110936,123243,129397,141705,154013,166320,178628,184782,197090,209397,221705,234013
DistanceSpacing: 0.5
BeatDivisor: 4
GridSize: 32
TimelineZoom: 2.4

[Metadata]
Title:Magic Girl !!
TitleUnicode:Magic Girl !!
Artist:A-One feat. Shihori
ArtistUnicode:A-One feat. Shihori
Creator:lit120
Version:captin's Lunatic
Source:東方紅魔郷 ~ the Embodiment of Scarlet Devil.
Tags:featured artist fa nico パチュリー・ノーレッジ 東方project Team Shanghai Alice 魔法少女達の百年祭 Mahou Shoujo-tachi no Hyakunensai eurobeat ZUN touhou th06 toho vol.3 patchouli knowledge centennial festival for magical girls dj command video game english electronic aone koumakyou -Hakurei- captin1
BeatmapID:4408956
BeatmapSetID:2074627

[Difficulty]
HPDrainRate:5
CircleSize:3.8
OverallDifficulty:7
ApproachRate:8
SliderMultiplier:1.6
SliderTickRate:1

[Events]
//Background and Video events
0,0,"patchouli.jpg",0,0
//Break Periods
2,104982,109417
2,184982,189417
//Storyboard Layer 0 (Background)
//Storyboard Layer 1 (Fail)
//Storyboard Layer 2 (Pass)
//Storyboard Layer 3 (Foreground)
//Storyboard Layer 4 (Overlay)
//Storyboard Sound Samples

[TimingPoints]
167,384.615384615385,4,2,1,50,1,0
167,-133.333333333333,4,2,1,50,0,0
12474,-100,4,2,1,70,0,0
30936,-83.3333333333333,4,2,1,80,0,0
43243,-133.333333333333,4,2,1,60,0,0
49397,-100,4,2,1,70,0,0
67859,-83.3333333333333,4,2,1,80,0,1
92474,-83.3333333333333,4,2,1,80,0,0
104782,-83.3333333333333,4,2,1,60,0,0
110936,-100,4,2,1,70,0,0
129397,-83.3333333333333,4,2,1,80,0,1
154013,-83.3333333333333,4,2,1,80,0,0
158628,-166.666666666667,4,2,1,50,0,0
160167,-83.3333333333333,4,2,1,80,0,0
166320,-100,4,2,1,70,0,0
184782,-133.333333333333,4,2,1,50,0,0
190936,-100,4,2,1,60,0,0
195551,-400,4,2,1,60,0,0
196513,-100,4,2,1,60,0,0
197090,-83.3333333333333,4,2,1,80,0,1
209397,-83.3333333333333,4,2,1,80,0,0
234013,-83.3333333333333,4,2,1,60,0,0

[Colours]
Combo1 : 17,254,176
Combo2 : 173,255,95
Combo3 : 255,88,100
Combo4 : 255,94,55

[HitObjects]
42,93,167,6,0,P|78:88|107:80,1,60.0000022888184,2|0,0:0|0:0,0:0:0:0:
173,109,551,2,0,P|209:114|238:122,1,60.0000022888184,2|0,0:0|0:0,0:0:0:0:
458,22,936,6,0,P|422:17|393:9,1,60.0000022888184,2|0,0:0|0:0,0:0:0:0:
327,38,1320,2,0,P|291:43|262:51,1,60.0000022888184,2|2,0:0|0:0,0:0:0:0:
106,199,1705,6,0,P|142:194|171:186,1,60.0000022888184,2|0,0:0|0:0,0:0:0:0:
237,215,2089,2,0,P|273:220|302:228,1,60.0000022888184,2|0,0:0|0:0,0:0:0:0:
487,292,2474,5,2,0:0:0:0:
348,290,2667,2,0,P|377:282|406:279,1,60.0000022888184,2|2,0:0|0:0,0:0:0:0:
457,218,2955,2,0,P|451:182|440:149,1,60.0000022888184,2|0,0:0|0:0,0:0:0:0:
390,2,3243,6,0,P|395:38|403:67,1,60.0000022888184,2|0,0:0|0:0,0:0:0:0:
374,133,3627,2,0,P|369:169|361:198,1,60.0000022888184,2|0,0:0|0:0,0:0:0:0:
311,357,4013,6,0,P|316:321|324:292,1,60.0000022888184,2|0,0:0|0:0,0:0:0:0:
295,226,4397,2,0,P|290:190|282:161,1,60.0000022888184,2|0,0:0|0:0,0:0:0:0:
226,17,4782,6,0,P|231:53|239:82,1,60.0000022888184,2|0,0:0|0:0,0:0:0:0:
210,148,5166,2,0,P|205:184|197:213,1,60.0000022888184,2|2,0:0|0:0,0:0:0:0:
0,314,5551,5,2,0:0:0:0:
155,274,5743,2,0,L|38:245,1,120.000004577637,2|0,0:0|0:0,0:0:0:0:
112,363,6320,6,0,P|180:353|235:338,1,120.000004577637,2|0,0:0|0:0,0:0:0:0:
474,363,6897,2,0,P|453:277|257:261,1,300.000011444092,2|0,0:0|0:0,0:0:0:0:
323,329,8436,6,0,L|352:123,1,180.000006866455,2|2,0:0|0:0,0:0:0:0:
255,40,9397,1,2,0:0:0:0:
142,134,10936,5,0,3:2:0:0:
360,91,11320,1,0,3:2:0:0:
252,159,11705,2,0,L|260:100,5,40.000001525879,4|0|0|4|0|0,3:2|3:2|3:2|3:2|3:2|3:2,0:0:0:0:
207,226,12474,6,0,L|109:244,1,80,6|0,3:2|0:0,0:0:0:0:
18,303,12859,1,10,3:2:0:0:
45,308,12955,1,2,0:0:0:0:
72,313,13051,1,2,0:0:0:0:
99,319,13147,1,2,0:0:0:0:
126,325,13243,1,2,3:2:0:0:
237,364,13436,2,0,L|223:319,1,40,2|2,0:0|0:0,0:0:0:0:
322,313,13724,2,0,L|336:268,1,40,2|0,0:0|0:0,0:0:0:0:
488,317,14013,6,0,P|446:341|395:330,1,80,2|0,3:2|0:0,0:0:0:0:
359,183,14397,1,10,3:2:0:0:
354,155,14493,1,2,0:0:0:0:
350,127,14590,1,2,0:0:0:0:
346,99,14686,1,2,0:0:0:0:
342,71,14782,1,2,3:2:0:0:
465,22,14974,1,2,0:0:0:0:
465,22,15070,2,0,L|438:142,1,120,2|2,0:0|0:0,0:0:0:0:
246,113,15551,6,0,L|260:197,1,80,2|0,3:2|0:0,0:0:0:0:
128,240,15936,1,10,3:2:0:0:
128,240,16032,1,2,0:0:0:0:
128,240,16128,1,2,0:0:0:0:
128,240,16224,1,2,0:0:0:0:
128,240,16320,1,2,3:2:0:0:
309,292,16513,1,2,0:0:0:0:
309,292,16609,2,0,L|407:318,1,80,2|2,0:0|0:0,0:0:0:0:
409,342,16897,1,2,0:0:0:0:
496,267,17090,6,0,P|504:231|476:187,1,80,2|0,3:2|0:0,0:0:0:0:
356,173,17474,1,10,3:2:0:0:
356,173,17570,1,0,0:0:0:0:
356,173,17667,1,2,0:0:0:0:
356,173,17763,1,0,0:0:0:0:
356,173,17859,2,0,L|343:226,1,40,2|2,3:2|0:0,0:0:0:0:
230,350,18051,2,2,L|217:257,1,80,2|0,0:0|3:0,0:0:0:0:
28,133,18436,1,0,3:0:0:0:
90,52,18628,6,0,L|181:70,1,80,6|0,3:2|0:0,0:0:0:0:
380,81,19013,1,10,3:2:0:0:
352,64,19109,1,2,0:0:0:0:
320,59,19205,1,2,0:0:0:0:
290,72,19301,1,2,0:0:0:0:
271,97,19397,1,2,3:2:0:0:
139,156,19590,2,0,L|191:169,1,40,2|2,0:0|0:0,0:0:0:0:
334,237,19878,2,0,L|282:250,1,40,2|2,0:0|0:0,0:0:0:0:
146,345,20167,6,0,P|104:350|71:323,1,80,2|0,3:2|0:0,0:0:0:0:
9,261,20551,1,10,3:2:0:0:
40,254,20647,1,2,0:0:0:0:
71,247,20743,1,2,0:0:0:0:
102,240,20840,1,2,0:0:0:0:
133,233,20936,1,2,3:2:0:0:
237,344,21128,1,2,0:0:0:0:
237,344,21224,2,0,L|260:211,1,120,2|2,0:0|0:0,0:0:0:0:
443,340,21705,6,0,P|416:365|364:362,1,80,2|0,3:2|0:0,0:0:0:0:
354,167,22090,1,10,3:2:0:0:
385,160,22186,1,2,0:0:0:0:
416,165,22282,1,2,0:0:0:0:
439,186,22378,1,2,0:0:0:0:
452,214,22474,1,2,3:2:0:0:
299,297,22667,1,2,0:0:0:0:
299,297,22763,2,0,L|282:194,1,80,2|2,0:0|0:0,0:0:0:0:
264,190,23051,1,2,0:0:0:0:
246,67,23243,6,0,L|346:93,1,80,2|0,3:2|0:0,0:0:0:0:
165,100,23628,2,0,L|65:74,1,80,10|0,3:2|0:0,0:0:0:0:
383,149,24013,2,0,L|460:128,1,80,2|2,3:2|0:0,0:0:0:0:
187,180,24397,5,10,3:2:0:0:
179,211,24493,1,0,3:2:0:0:
171,242,24590,1,2,3:2:0:0:
163,273,24686,1,0,3:2:0:0:
156,304,24782,1,6,3:2:0:0:
74,362,24974,5,2,0:0:0:0:
39,279,25167,1,10,3:2:0:0:
39,279,25263,1,2,0:0:0:0:
39,279,25359,1,2,0:0:0:0:
39,279,25455,1,2,0:0:0:0:
39,279,25551,1,2,3:2:0:0:
219,367,25743,1,2,0:0:0:0:
219,367,25840,2,0,L|352:338,1,120,2|2,0:0|0:0,0:0:0:0:
366,271,26320,5,2,3:2:0:0:
405,163,26512,1,2,0:0:0:0:
468,258,26705,1,10,3:2:0:0:
468,258,26801,1,2,0:0:0:0:
468,258,26897,1,2,0:0:0:0:
468,258,26993,1,2,0:0:0:0:
468,258,27090,1,2,3:2:0:0:
288,170,27282,1,2,0:0:0:0:
288,170,27378,2,0,L|155:199,1,120,2|2,0:0|0:0,0:0:0:0:
145,120,27859,5,2,3:2:0:0:
106,12,28051,1,2,0:0:0:0:
43,107,28244,1,10,3:2:0:0:
43,107,28340,1,2,0:0:0:0:
43,107,28436,1,2,0:0:0:0:
43,107,28532,1,2,0:0:0:0:
43,107,28628,1,2,3:2:0:0:
281,51,28820,1,2,0:0:0:0:
281,51,28917,2,0,L|260:178,1,120,2|2,0:0|3:2,0:0:0:0:
149,163,29397,5,0,3:2:0:0:
363,221,29782,1,0,3:2:0:0:
250,221,30167,6,0,L|263:161,5,53.3333333333333,4|0|0|4|0|0,3:2|3:2|3:2|3:2|3:2|3:2,0:0:0:0:
279,306,30936,5,6,3:2:0:0:
252,333,31032,1,2,0:0:0:0:
215,344,31128,1,2,0:0:0:0:
177,339,31224,1,2,0:0:0:0:
145,318,31320,2,0,L|36:338,1,95.9999970703126,10|2,3:2|0:0,0:0:0:0:
158,230,31705,1,2,3:2:0:0:
71,215,31897,1,2,0:0:0:0:
71,215,31993,2,0,B|53:194|53:194|77:103,1,95.9999970703126,2|2,0:0|0:0,0:0:0:0:
85,90,32282,1,2,0:0:0:0:
186,15,32474,5,2,3:2:0:0:
193,51,32570,1,2,0:0:0:0:
200,88,32667,1,2,0:0:0:0:
208,124,32763,1,2,0:0:0:0:
216,160,32859,1,10,3:2:0:0:
365,209,33051,1,2,0:0:0:0:
489,117,33243,2,0,P|457:70|307:85,1,191.999994140625,2|10,3:2|3:2,0:0:0:0:
292,132,33820,1,2,0:2:0:0:
383,197,34013,5,2,3:2:0:0:
375,234,34109,1,2,0:0:0:0:
368,271,34205,1,2,0:0:0:0:
361,308,34301,1,2,0:0:0:0:
354,345,34397,1,10,3:2:0:0:
443,378,34590,1,2,0:0:0:0:
502,284,34782,2,0,B|487:275|487:275|410:292,1,95.9999970703126,2|0,3:2|0:0,0:0:0:0:
264,365,35167,1,10,3:2:0:0:
178,343,35359,1,2,0:0:0:0:
92,315,35551,5,2,3:2:0:0:
260,272,35743,1,2,0:0:0:0:
178,232,35936,2,0,L|155:106,1,95.9999970703126,10|2,3:2|0:0,0:0:0:0:
246,100,36320,1,2,3:2:0:0:
256,110,36417,1,8,0:3:0:0:
304,183,36609,1,8,0:3:0:0:
327,178,36705,1,8,3:3:0:0:
350,174,36801,1,8,0:3:0:0:
373,170,36897,1,4,3:3:0:0:
452,129,37090,5,6,3:2:0:0:
467,93,37186,1,2,0:0:0:0:
464,54,37282,1,2,0:0:0:0:
443,22,37378,1,2,0:0:0:0:
409,5,37474,2,0,L|293:32,1,95.9999970703126,10|2,3:2|0:0,0:0:0:0:
139,84,37859,1,2,3:2:0:0:
212,29,38051,1,2,0:0:0:0:
222,38,38147,1,2,0:0:0:0:
59,129,38340,1,2,0:0:0:0:
49,120,38436,1,2,0:0:0:0:
209,144,38628,5,2,3:2:0:0:
230,175,38724,1,2,0:0:0:0:
234,213,38820,1,2,0:0:0:0:
216,247,38917,1,2,0:0:0:0:
183,267,39013,1,10,3:2:0:0:
4,205,39205,1,2,0:0:0:0:
39,291,39397,2,0,L|238:335,1,191.999994140625,2|10,3:2|3:2,0:0:0:0:
318,384,39974,1,2,0:0:0:0:
439,303,40167,5,2,3:2:0:0:
457,269,40263,1,2,0:0:0:0:
454,230,40359,1,2,0:0:0:0:
428,199,40455,1,2,0:0:0:0:
390,192,40551,1,10,3:2:0:0:
337,286,40743,1,2,0:0:0:0:
184,221,40936,1,2,3:2:0:0:
260,167,41128,1,0,0:0:0:0:
260,167,41224,2,0,L|232:42,1,95.9999970703126,2|2,0:0|0:0,0:0:0:0:
269,44,41513,1,2,3:2:0:0:
269,44,41609,1,0,3:2:0:0:
269,44,41705,5,6,3:2:0:0:
337,127,41897,1,2,0:0:0:0:
100,122,42090,5,6,3:2:0:0:
32,39,42282,1,2,0:0:0:0:
161,50,42474,6,0,L|128:238,1,143.999995605469,6|0,3:2|0:0,0:0:0:0:
188,258,42859,1,0,3:2:0:0:
165,265,42955,1,0,3:2:0:0:
142,272,43051,1,0,3:2:0:0:
118,279,43147,1,0,3:2:0:0:
94,286,43243,1,6,3:2:0:0:
22,321,43436,6,0,B|70:330|70:330|80:348|80:348|155:363,2,120.000004577637,2|2|2,0:0|0:0|0:0,0:0:0:0:
283,287,44590,2,0,P|334:284|399:339,1,120.000004577637,2|2,0:0|0:0,0:0:0:0:
477,325,45167,5,2,3:2:0:0:
235,376,45551,1,2,0:0:0:0:
373,213,45936,1,2,0:0:0:0:
299,159,46224,1,0,3:2:0:0:
299,159,46320,1,2,3:2:0:0:
348,83,46513,6,0,L|484:57,2,120.000004577637,2|2|2,0:0|0:0|0:0,0:0:0:0:
210,185,47667,2,0,P|155:193|90:147,1,120.000004577637,2|2,0:0|0:0,0:0:0:0:
26,99,48243,1,2,3:2:0:0:
215,51,48628,5,2,3:2:0:0:
209,37,48724,1,8,3:0:0:0:
111,34,48917,1,8,3:0:0:0:
115,57,49013,1,8,3:0:0:0:
119,80,49109,1,4,3:0:0:0:
123,103,49205,1,4,3:0:0:0:
127,126,49301,1,4,3:0:0:0:
132,157,49397,6,0,L|235:180,1,80,6|2,3:2|0:0,0:0:0:0:
343,139,49782,1,10,3:2:0:0:
343,139,49878,1,2,0:0:0:0:
343,139,49974,1,2,0:0:0:0:
445,223,50167,2,0,P|403:247|350:243,1,80,2|0,3:2|0:0,0:0:0:0:
319,305,50455,2,0,P|277:281|224:285,1,80,2|0,0:0|0:0,0:0:0:0:
214,303,50743,1,2,0:0:0:0:
131,361,50936,5,2,3:2:0:0:
1,273,51128,1,2,0:0:0:0:
80,216,51320,1,10,3:2:0:0:
80,216,51417,1,2,0:0:0:0:
80,216,51513,1,2,0:0:0:0:
155,155,51705,2,0,L|243:171,1,80,2|0,3:2|0:0,0:0:0:0:
113,69,52090,1,10,3:2:0:0:
113,69,52186,1,2,0:0:0:0:
113,69,52282,1,2,0:0:0:0:
302,34,52474,6,0,L|214:50,1,80,2|2,3:2|0:2,0:0:0:0:
299,226,52859,1,10,3:2:0:0:
328,238,52955,1,2,0:0:0:0:
359,237,53051,1,2,0:0:0:0:
387,222,53147,1,2,0:0:0:0:
405,196,53243,2,0,L|385:101,1,80,2|2,3:2|0:0,0:0:0:0:
473,6,53532,2,0,L|453:101,1,80,2|0,0:0|0:0,0:0:0:0:
473,109,53820,1,2,0:0:0:0:
312,148,54013,5,2,3:2:0:0:
352,341,54205,2,0,L|371:254,1,80,2|10,0:0|3:2,0:0:0:0:
263,237,54590,1,2,0:0:0:0:
263,237,54686,1,2,0:0:0:0:
263,237,54782,2,0,L|277:295,3,40,2|2|2|2,3:2|0:0|0:0|0:0,0:0:0:0:
236,347,55167,1,10,3:2:0:0:
197,356,55263,1,2,0:0:0:0:
158,344,55359,1,2,3:2:0:0:
135,311,55455,1,2,3:2:0:0:
135,271,55551,1,2,3:2:0:0:
207,172,55743,6,0,L|189:69,1,80,2|10,0:0|3:2,0:0:0:0:
45,34,56128,1,2,0:0:0:0:
45,34,56224,1,2,0:0:0:0:
45,34,56320,2,0,P|63:73|69:119,1,80,2|0,3:2|0:0,0:0:0:0:
14,169,56609,2,0,L|0:263,1,80,2|0,0:0|0:0,0:0:0:0:
20,273,56897,1,2,0:0:0:0:
116,351,57090,5,2,3:2:0:0:
185,247,57282,1,2,0:0:0:0:
250,311,57474,1,10,3:2:0:0:
273,307,57570,1,2,0:0:0:0:
296,303,57667,1,2,0:0:0:0:
319,299,57763,1,2,0:0:0:0:
342,295,57859,2,0,L|426:281,1,80,2|0,3:2|0:0,0:0:0:0:
358,191,58243,1,10,3:2:0:0:
358,191,58340,1,2,0:0:0:0:
358,191,58436,1,2,0:0:0:0:
512,142,58628,6,0,L|428:128,1,80,2|2,3:2|0:0,0:0:0:0:
316,11,59013,1,10,3:2:0:0:
286,22,59109,1,2,0:0:0:0:
267,47,59205,1,2,0:0:0:0:
262,78,59301,1,2,0:0:0:0:
276,106,59397,2,0,L|254:205,1,80,2|0,3:2|0:0,0:0:0:0:
185,247,59686,2,0,L|170:162,1,80,2|0,0:0|0:0,0:0:0:0:
143,153,59974,1,2,0:0:0:0:
62,85,60167,5,2,3:2:0:0:
196,53,60359,2,0,P|156:16|110:17,1,80,2|10,0:0|3:2,0:0:0:0:
10,174,60743,2,0,L|30:276,1,80,2|0,0:0|3:0,0:0:0:0:
86,361,61128,1,2,0:0:0:0:
117,356,61224,1,2,0:0:0:0:
148,351,61320,1,10,3:2:0:0:
180,346,61417,1,2,3:2:0:0:
211,342,61513,1,2,3:2:0:0:
242,338,61609,1,2,3:2:0:0:
273,334,61705,6,0,L|449:372,1,160,6|10,3:2|3:2,0:0:0:0:
460,342,62186,1,2,0:0:0:0:
455,326,62282,1,2,0:0:0:0:
340,220,62474,2,0,P|290:232|249:260,1,80,2|2,3:2|0:0,0:0:0:0:
181,224,62763,2,0,L|203:140,1,80,2|0,0:0|0:0,0:0:0:0:
183,119,63051,1,2,0:0:0:0:
332,19,63243,6,0,P|387:17|431:128,1,160,2|10,3:2|3:2,0:0:0:0:
374,141,63724,1,2,0:0:0:0:
362,131,63820,2,0,L|272:147,1,80,2|0,0:0|0:0,0:0:0:0:
166,30,64205,1,2,0:0:0:0:
134,27,64301,1,2,0:0:0:0:
103,36,64397,1,10,3:2:0:0:
80,58,64493,1,2,0:0:0:0:
64,86,64590,1,2,0:0:0:0:
62,117,64686,1,2,0:0:0:0:
75,145,64782,1,2,3:2:0:0:
133,220,64974,6,0,L|226:204,1,80,0|8,0:0|3:2,0:0:0:0:
356,331,65359,1,2,0:0:0:0:
210,361,65551,1,0,3:0:0:0:
210,361,65647,1,8,0:3:0:0:
287,268,65840,1,8,0:3:0:0:
292,236,65936,1,10,3:3:0:0:
297,204,66032,1,8,0:3:0:0:
302,172,66128,1,4,0:3:0:0:
307,140,66224,1,4,0:3:0:0:
312,108,66320,1,2,3:2:0:0:
391,20,66609,5,2,0:0:0:0:
215,95,66897,1,2,3:2:0:0:
215,95,66993,1,2,3:2:0:0:
215,95,67090,1,6,3:2:0:0:
463,179,67474,5,0,3:2:0:0:
379,252,67667,1,0,3:2:0:0:
379,252,67763,1,0,3:2:0:0:
379,252,67859,5,6,3:2:0:0:
340,280,67955,1,2,0:0:0:0:
292,279,68051,1,2,0:0:0:0:
249,256,68147,1,2,0:0:0:0:
226,213,68243,1,10,3:2:0:0:
296,158,68436,2,0,L|272:29,1,95.9999970703126,2|0,0:0|3:2,0:0:0:0:
105,19,68820,2,0,L|81:148,1,95.9999970703126,2|10,0:0|3:2,0:0:0:0:
14,159,69205,1,2,0:0:0:0:
161,271,69397,5,2,3:2:0:0:
217,169,69590,1,2,0:0:0:0:
217,169,69686,1,2,0:0:0:0:
217,169,69782,2,0,L|89:194,1,95.9999970703126,10|2,3:2|0:0,0:0:0:0:
15,310,70167,2,0,B|98:329|98:329|106:348|106:348|201:367,1,191.999994140625,2|8,3:2|3:2,0:0:0:0:
430,269,70743,1,0,0:0:0:0:
314,365,70936,5,2,3:2:0:0:
275,335,71032,1,2,0:0:0:0:
267,287,71128,1,2,0:0:0:0:
286,243,71224,1,2,0:0:0:0:
326,218,71320,2,0,L|423:237,1,95.9999970703126,10|2,3:2|0:2,0:0:0:0:
512,296,71705,2,0,L|309:339,1,191.999994140625,2|8,3:2|3:2,0:0:0:0:
184,257,72282,1,0,0:0:0:0:
276,158,72474,5,2,3:2:0:0:
295,136,72570,1,2,0:0:0:0:
302,107,72667,1,2,0:0:0:0:
298,78,72763,1,2,0:0:0:0:
281,54,72859,1,10,3:2:0:0:
257,37,72955,1,2,0:0:0:0:
228,33,73051,1,2,0:0:0:0:
59,64,73243,2,0,L|158:79,1,95.9999970703126,2|0,3:2|0:0,0:0:0:0:
381,162,73628,1,10,3:2:0:0:
426,54,73820,1,0,3:2:0:0:
265,182,74013,5,6,3:2:0:0:
265,182,74109,1,2,0:0:0:0:
265,182,74205,1,2,0:0:0:0:
265,182,74301,1,2,0:0:0:0:
265,182,74397,1,10,3:2:0:0:
201,249,74590,2,0,L|222:368,1,95.9999970703126,2|0,0:0|3:2,0:0:0:0:
310,372,74974,1,2,0:0:0:0:
385,314,75167,1,10,3:2:0:0:
385,314,75263,1,2,0:0:0:0:
385,314,75359,1,2,0:0:0:0:
214,238,75551,5,2,3:2:0:0:
79,343,75743,1,2,0:0:0:0:
43,327,75840,1,2,0:0:0:0:
26,292,75936,1,10,3:2:0:0:
26,253,76032,1,2,0:0:0:0:
47,221,76128,1,2,0:0:0:0:
153,88,76320,2,0,L|119:291,1,191.999994140625,2|8,3:2|3:2,0:0:0:0:
193,334,76897,1,2,0:0:0:0:
318,196,77090,5,2,3:2:0:0:
441,302,77282,1,2,0:0:0:0:
441,302,77378,1,2,0:0:0:0:
441,302,77474,2,0,L|332:279,1,95.9999970703126,10|2,3:2|0:0,0:0:0:0:
293,116,77859,1,2,3:2:0:0:
468,37,78051,1,2,0:0:0:0:
460,84,78147,1,2,0:0:0:0:
452,131,78243,1,10,3:2:0:0:
444,178,78339,1,2,0:0:0:0:
404,205,78436,1,2,0:0:0:0:
274,96,78628,5,2,3:2:0:0:
359,8,78820,2,0,L|377:119,1,95.9999970703126,0|8,0:0|3:2,0:0:0:0:
191,167,79205,1,0,0:0:0:0:
299,349,79397,1,0,3:2:0:0:
344,241,79590,5,8,0:3:0:0:
296,249,79686,1,8,0:3:0:0:
248,257,79782,1,8,3:3:0:0:
200,265,79878,1,8,0:3:0:0:
152,273,79974,1,4,0:3:0:0:
104,281,80070,1,4,0:3:0:0:
56,290,80167,6,0,L|30:369,1,47.9999985351563,6|2,3:2|0:0,0:0:0:0:
130,369,80359,1,2,0:0:0:0:
130,369,80455,1,2,0:0:0:0:
130,369,80551,1,10,3:2:0:0:
182,252,80743,2,0,P|174:199|145:141,1,95.9999970703126,2|0,0:0|3:2,0:0:0:0:
76,21,81128,1,2,0:0:0:0:
34,113,81320,1,10,3:2:0:0:
34,113,81417,1,0,0:0:0:0:
34,113,81513,1,2,0:0:0:0:
229,35,81705,5,2,3:2:0:0:
325,80,81897,1,2,0:0:0:0:
319,108,81993,1,2,0:0:0:0:
313,136,82090,1,10,3:2:0:0:
307,164,82186,1,2,0:0:0:0:
301,192,82282,1,2,0:0:0:0:
428,354,82474,2,0,P|478:310|453:174,1,191.999994140625,2|8,3:2|3:2,0:0:0:0:
396,165,83051,1,0,0:0:0:0:
328,293,83243,5,2,3:2:0:0:
291,323,83340,1,2,0:0:0:0:
243,330,83436,1,2,0:0:0:0:
198,310,83532,1,2,0:0:0:0:
174,268,83628,1,10,3:2:0:0:
65,327,83820,1,2,0:0:0:0:
30,242,84013,2,0,L|80:34,1,191.999994140625,2|8,3:2|3:2,0:0:0:0:
157,17,84590,1,0,0:0:0:0:
321,63,84782,5,2,3:2:0:0:
293,70,84878,1,2,0:0:0:0:
265,77,84974,1,2,0:0:0:0:
236,84,85071,1,2,0:0:0:0:
208,91,85167,1,10,3:2:0:0:
180,98,85263,1,2,0:0:0:0:
152,105,85359,1,2,0:0:0:0:
277,159,85551,2,0,L|387:180,1,95.9999970703126,2|0,3:2|0:0,0:0:0:0:
483,246,85936,1,10,3:2:0:0:
278,323,86128,1,0,3:2:0:0:
360,372,86320,5,6,3:2:0:0:
395,355,86417,1,2,0:0:0:0:
415,322,86513,1,2,0:0:0:0:
414,283,86609,1,2,0:0:0:0:
389,253,86705,1,10,3:2:0:0:
263,304,86897,2,0,L|151:279,1,95.9999970703126,2|0,0:0|3:0,0:0:0:0:
107,355,87282,1,2,0:0:0:0:
32,241,87474,1,8,3:2:0:0:
32,241,87570,1,2,0:0:0:0:
32,241,87667,1,2,0:0:0:0:
199,169,87859,5,2,3:2:0:0:
115,36,88051,1,2,0:0:0:0:
108,64,88147,1,2,0:0:0:0:
101,92,88243,1,10,3:2:0:0:
325,211,88436,1,2,0:0:0:0:
325,211,88532,1,2,0:0:0:0:
325,211,88628,2,0,P|395:225|486:135,1,191.999994140625,2|8,3:2|3:2,0:0:0:0:
333,29,89205,1,0,0:0:0:0:
428,4,89397,6,0,L|402:116,1,95.9999970703126,2|2,3:2|0:0,0:0:0:0:
379,114,89686,1,2,0:0:0:0:
379,114,89782,1,10,3:2:0:0:
151,157,89974,1,2,0:0:0:0:
249,41,90167,1,2,3:2:0:0:
282,143,90359,5,0,3:2:0:0:
276,180,90455,1,0,3:2:0:0:
270,217,90551,1,10,3:2:0:0:
264,254,90647,1,0,3:2:0:0:
258,291,90743,1,2,3:2:0:0:
252,329,90840,1,0,3:2:0:0:
246,366,90936,5,6,3:2:0:0:
424,252,91320,1,6,3:2:0:0:
84,323,91705,1,6,3:2:0:0:
248,242,91897,5,2,0:0:0:0:
195,173,92090,1,0,3:0:0:0:
201,145,92186,1,0,3:0:0:0:
207,117,92282,1,0,3:0:0:0:
214,89,92378,1,0,3:0:0:0:
221,61,92474,6,0,L|294:41,1,47.9999985351563,6|2,3:2|0:0,0:0:0:0:
364,78,92667,1,2,0:0:0:0:
364,78,92763,1,2,0:0:0:0:
364,78,92859,1,10,3:2:0:0:
335,210,93051,1,2,0:0:0:0:
457,285,93243,1,2,3:2:0:0:
512,201,93436,1,2,0:0:0:0:
512,201,93532,2,0,B|485:190|485:190|393:215,1,95.9999970703126,2|2,0:0|0:0,0:0:0:0:
408,228,93820,1,2,0:0:0:0:
334,343,94013,5,2,3:2:0:0:
296,336,94109,1,2,0:0:0:0:
258,329,94205,1,2,0:0:0:0:
220,322,94301,1,2,0:0:0:0:
182,315,94397,1,10,3:2:0:0:
4,285,94590,1,2,0:0:0:0:
58,372,94782,2,0,P|106:352|133:209,1,191.999994140625,2|10,3:2|3:2,0:0:0:0:
42,133,95359,1,2,0:0:0:0:
78,49,95551,5,2,3:2:0:0:
115,57,95647,1,2,0:0:0:0:
152,65,95743,1,2,0:0:0:0:
190,73,95840,1,2,0:0:0:0:
207,107,95936,1,10,3:2:0:0:
252,207,96128,1,2,0:0:0:0:
357,160,96320,2,0,L|338:57,1,95.9999970703126,2|0,3:2|0:0,0:0:0:0:
495,24,96705,1,10,3:2:0:0:
472,110,96897,1,2,0:0:0:0:
447,204,97090,5,2,3:2:0:0:
320,83,97282,1,2,0:0:0:0:
447,204,97474,2,0,L|473:311,1,95.9999970703126,10|2,3:2|0:0,0:0:0:0:
379,366,97859,1,2,3:2:0:0:
363,360,97955,1,8,0:3:0:0:
292,291,98147,1,8,0:3:0:0:
320,285,98243,1,8,3:3:0:0:
348,279,98340,1,4,0:3:0:0:
376,273,98436,1,4,3:3:0:0:
237,357,98628,5,6,3:2:0:0:
200,367,98724,1,2,0:0:0:0:
162,361,98820,1,2,0:0:0:0:
132,335,98917,1,2,0:0:0:0:
121,298,99013,1,10,3:2:0:0:
179,232,99205,1,2,0:0:0:0:
87,115,99397,2,0,L|66:214,1,95.9999970703126,2|2,3:2|0:0,0:0:0:0:
45,225,99686,1,2,0:0:0:0:
222,150,99878,1,2,0:0:0:0:
235,159,99974,1,2,0:0:0:0:
345,243,100167,5,2,3:2:0:0:
338,205,100263,1,2,0:0:0:0:
331,167,100359,1,2,0:0:0:0:
324,129,100455,1,2,0:0:0:0:
318,91,100551,1,10,3:2:0:0:
162,56,100743,1,2,0:0:0:0:
249,244,100936,2,0,L|467:198,1,191.999994140625,2|10,3:2|3:2,0:0:0:0:
487,280,101513,1,2,0:0:0:0:
401,350,101705,5,2,3:2:0:0:
373,358,101801,1,2,0:0:0:0:
344,357,101897,1,2,0:0:0:0:
317,345,101993,1,2,0:0:0:0:
298,322,102090,1,10,3:2:0:0:
203,362,102282,1,0,0:0:0:0:
108,234,102474,1,2,3:2:0:0:
10,330,102667,1,2,0:0:0:0:
10,330,102763,2,0,L|120:311,1,95.9999970703126,2|2,0:0|0:0,0:0:0:0:
206,283,103051,5,2,3:2:0:0:
206,283,103147,1,2,3:2:0:0:
206,283,103243,1,6,3:2:0:0:
114,117,103436,1,2,0:0:0:0:
266,220,103628,5,6,3:2:0:0:
233,38,103820,1,2,0:0:0:0:
366,147,104013,6,0,L|215:120,1,143.999995605469,6|0,3:2|0:0,0:0:0:0:
152,24,104397,1,0,3:2:0:0:
128,30,104493,1,0,3:2:0:0:
104,36,104590,1,0,3:2:0:0:
81,43,104686,1,0,3:2:0:0:
58,50,104782,1,6,3:2:0:0:
151,61,110167,5,2,3:2:0:0:
151,61,110263,1,8,0:3:0:0:
224,102,110455,1,8,3:3:0:0:
221,116,110551,1,8,3:3:0:0:
218,130,110647,1,4,3:3:0:0:
215,144,110743,1,4,3:3:0:0:
212,158,110840,1,4,3:3:0:0:
208,177,110936,6,0,L|227:283,1,80,6|2,3:2|0:0,0:0:0:0:
317,302,111320,1,10,3:2:0:0:
317,302,111417,1,0,0:0:0:0:
317,302,111513,1,0,0:0:0:0:
411,337,111705,2,0,P|450:303|449:261,1,80,2|2,3:2|0:0,0:0:0:0:
391,236,111993,2,0,L|371:148,1,80,2|0,0:0|0:0,0:0:0:0:
345,133,112282,1,2,0:0:0:0:
474,16,112474,5,2,3:2:0:0:
509,146,112667,1,2,0:0:0:0:
432,97,112859,1,10,3:2:0:0:
432,97,112955,1,0,0:0:0:0:
432,97,113051,1,2,0:0:0:0:
317,150,113243,2,0,L|226:127,1,80,2|0,3:2|0:0,0:0:0:0:
104,173,113628,1,10,3:2:0:0:
104,173,113724,1,0,0:0:0:0:
104,173,113820,1,2,0:0:0:0:
136,37,114013,6,0,P|157:92|163:127,1,80,2|2,3:2|0:0,0:0:0:0:
102,295,114397,1,10,3:2:0:0:
70,297,114493,1,0,0:0:0:0:
40,283,114590,1,0,0:0:0:0:
19,258,114686,1,0,0:0:0:0:
13,226,114782,2,0,L|114:197,1,80,2|0,3:2|0:0,0:0:0:0:
178,273,115070,2,0,L|265:295,1,80,2|0,0:0|0:0,0:0:0:0:
269,321,115359,1,2,0:0:0:0:
364,369,115551,5,2,3:2:0:0:
508,269,115743,2,0,L|419:292,1,80,2|10,0:0|3:2,0:0:0:0:
340,239,116128,1,2,0:0:0:0:
340,239,116224,1,0,0:0:0:0:
340,239,116320,2,0,L|357:175,3,40,2|2|2|2,3:2|0:0|0:0|0:0,0:0:0:0:
426,162,116705,1,10,3:2:0:0:
400,143,116801,1,2,0:0:0:0:
382,116,116897,1,2,3:2:0:0:
375,84,116993,1,2,0:0:0:0:
380,52,117090,1,2,3:2:0:0:
492,0,117282,6,0,L|474:88,1,80,2|10,0:0|3:2,0:0:0:0:
289,140,117667,1,2,0:0:0:0:
289,140,117763,1,2,0:0:0:0:
289,140,117859,2,0,P|249:115|200:106,1,80,2|0,3:2|0:0,0:0:0:0:
179,41,118147,2,0,L|99:76,1,80,2|0,0:0|0:0,0:0:0:0:
25,71,118436,1,2,0:0:0:0:
144,161,118628,5,2,3:2:0:0:
0,248,118820,1,2,0:0:0:0:
60,153,119013,1,10,3:2:0:0:
67,184,119109,1,2,0:0:0:0:
74,215,119205,1,2,0:0:0:0:
81,246,119301,1,2,0:0:0:0:
88,277,119397,2,0,L|108:361,1,80,2|2,3:2|0:0,0:0:0:0:
187,240,119782,1,10,3:2:0:0:
187,240,119878,1,2,0:0:0:0:
187,240,119974,1,2,0:0:0:0:
288,352,120167,6,0,P|252:376|196:366,1,80,2|2,3:2|0:0,0:0:0:0:
250,178,120551,1,10,3:2:0:0:
275,166,120647,1,2,0:0:0:0:
302,165,120743,1,2,0:0:0:0:
328,174,120840,1,2,0:0:0:0:
347,193,120936,2,0,L|365:283,1,80,2|2,0:0|0:0,0:0:0:0:
418,339,121224,2,0,P|454:315|510:325,1,80,2|0,0:0|0:0,0:0:0:0:
507,336,121513,1,2,0:0:0:0:
493,153,121705,5,2,3:2:0:0:
429,216,121897,2,0,P|465:240|521:230,1,80,2|10,0:0|3:2,0:0:0:0:
413,75,122282,2,0,L|323:92,1,80,2|0,0:0|0:0,0:0:0:0:
180,133,122667,1,2,0:0:0:0:
149,145,122763,1,2,0:0:0:0:
116,145,122859,1,10,3:2:0:0:
86,132,122955,1,2,3:2:0:0:
63,108,123051,1,2,3:2:0:0:
52,77,123147,1,2,3:2:0:0:
53,44,123243,6,0,B|93:23|93:23|212:50,1,160,6|10,3:2|3:2,0:0:0:0:
238,69,123724,1,2,0:0:0:0:
254,58,123820,1,2,0:0:0:0:
322,178,124013,2,0,L|303:272,1,80,2|0,3:2|0:0,0:0:0:0:
360,309,124301,2,0,B|348:325|348:325|262:348,1,80,2|0,0:0|0:0,0:0:0:0:
281,365,124590,1,2,0:0:0:0:
176,302,124782,6,0,L|146:132,1,160,2|10,3:2|3:2,0:0:0:0:
76,198,125263,1,2,0:0:0:0:
58,211,125359,2,0,L|42:291,1,80,2|0,0:0|0:0,0:0:0:0:
239,187,125743,1,2,0:0:0:0:
245,159,125840,1,2,0:0:0:0:
251,131,125936,1,10,3:2:0:0:
257,103,126032,1,2,0:0:0:0:
264,75,126128,1,2,0:0:0:0:
271,48,126224,1,2,0:0:0:0:
278,21,126320,1,2,3:2:0:0:
179,43,126513,6,0,P|135:42|102:80,1,80,0|8,0:0|3:2,0:0:0:0:
322,178,126897,1,2,0:0:0:0:
492,131,127090,1,0,0:0:0:0:
492,131,127186,1,8,0:3:0:0:
393,84,127378,1,8,0:3:0:0:
399,112,127474,1,8,3:3:0:0:
405,140,127570,1,8,0:3:0:0:
412,168,127666,1,4,0:3:0:0:
419,195,127762,1,4,0:3:0:0:
426,222,127858,1,2,3:2:0:0:
312,365,128147,5,2,0:0:0:0:
512,308,128436,1,2,3:2:0:0:
512,308,128532,1,2,3:2:0:0:
512,308,128628,1,6,3:2:0:0:
333,215,129013,5,0,3:2:0:0:
241,304,129205,1,0,3:2:0:0:
241,304,129301,1,0,3:2:0:0:
241,304,129397,5,6,3:2:0:0:
203,274,129493,1,2,0:0:0:0:
154,270,129590,1,2,0:0:0:0:
113,295,129686,1,2,0:0:0:0:
91,338,129782,1,10,3:2:0:0:
15,242,129974,2,0,L|49:117,1,95.9999970703126,2|0,0:0|3:0,0:0:0:0:
211,69,130359,1,2,0:0:0:0:
94,19,130551,2,0,P|115:87|118:129,1,95.9999970703126,10|2,3:2|0:0,0:0:0:0:
337,208,130936,5,2,3:2:0:0:
273,149,131128,1,2,0:0:0:0:
273,149,131224,1,2,0:0:0:0:
273,149,131320,2,0,L|148:178,1,95.9999970703126,10|2,3:2|0:0,0:0:0:0:
295,29,131705,2,0,P|370:23|459:107,1,191.999994140625,2|8,3:2|3:2,0:0:0:0:
487,175,132282,1,0,0:0:0:0:
419,341,132474,5,2,3:2:0:0:
374,359,132570,1,2,0:0:0:0:
325,361,132667,1,2,0:0:0:0:
284,336,132763,1,2,0:0:0:0:
266,291,132859,2,0,L|299:184,1,95.9999970703126,10|2,3:2|0:0,0:0:0:0:
369,112,133243,2,0,B|385:185|385:185|412:204|412:204|432:292,1,191.999994140625,2|8,3:2|0:0,0:0:0:0:
257,365,133820,1,0,0:0:0:0:
190,274,134013,5,2,3:2:0:0:
162,280,134109,1,2,0:0:0:0:
134,286,134205,1,2,0:0:0:0:
106,293,134301,1,2,0:0:0:0:
78,300,134397,1,10,3:2:0:0:
50,307,134493,1,2,0:0:0:0:
21,314,134590,1,2,0:0:0:0:
136,357,134782,2,0,L|159:247,1,95.9999970703126,2|0,3:2|0:0,0:0:0:0:
264,177,135167,1,10,3:2:0:0:
337,260,135359,1,0,3:2:0:0:
462,140,135551,5,6,3:2:0:0:
462,140,135647,1,2,0:0:0:0:
462,140,135743,1,2,0:0:0:0:
462,140,135840,1,2,0:0:0:0:
462,140,135936,1,10,3:2:0:0:
330,27,136128,2,0,L|347:133,1,95.9999970703126,2|0,0:0|3:2,0:0:0:0:
491,267,136513,1,2,0:0:0:0:
418,327,136705,1,10,3:2:0:0:
418,327,136801,1,2,0:0:0:0:
418,327,136897,1,2,0:0:0:0:
226,278,137090,5,2,3:2:0:0:
280,357,137282,1,2,0:0:0:0:
313,337,137378,1,2,0:0:0:0:
332,304,137474,1,10,3:2:0:0:
331,265,137570,1,2,0:0:0:0:
309,232,137667,1,2,0:0:0:0:
92,297,137859,2,0,L|301:341,1,191.999994140625,2|8,3:2|3:2,0:0:0:0:
407,224,138436,1,0,0:0:0:0:
189,171,138628,5,2,3:2:0:0:
259,246,138820,1,2,0:0:0:0:
259,246,138917,1,2,0:0:0:0:
259,246,139013,2,0,B|284:233|284:233|310:147,1,95.9999970703126,10|2,3:2|0:0,0:0:0:0:
401,11,139397,1,2,3:2:0:0:
463,190,139590,1,2,0:0:0:0:
463,190,139686,1,2,0:0:0:0:
463,190,139782,1,10,3:2:0:0:
370,103,139974,1,2,0:0:0:0:
213,160,140167,6,0,L|88:133,1,95.9999970703126,2|0,3:2|0:0,0:0:0:0:
12,47,140551,1,10,3:2:0:0:
12,47,140647,1,2,0:0:0:0:
12,47,140743,2,0,P|40:18|103:13,1,95.9999970703126,2|0,0:0|3:2,0:0:0:0:
91,114,141128,1,2,0:0:0:0:
99,146,141224,1,2,0:0:0:0:
107,178,141321,1,8,3:3:0:0:
115,210,141417,1,8,0:3:0:0:
123,242,141513,1,4,0:3:0:0:
131,274,141609,1,4,0:3:0:0:
139,306,141705,6,0,L|97:337,1,47.9999985351563,6|2,3:2|0:0,0:0:0:0:
21,305,141897,1,2,0:0:0:0:
21,305,141993,1,2,0:0:0:0:
21,305,142090,1,10,3:2:0:0:
148,215,142282,2,0,L|258:242,1,95.9999970703126,2|0,0:0|3:0,0:0:0:0:
311,307,142667,1,2,0:0:0:0:
419,162,142859,1,10,3:2:0:0:
419,162,142955,1,2,0:0:0:0:
419,162,143051,1,2,0:0:0:0:
472,355,143243,5,2,3:2:0:0:
337,215,143436,1,2,0:0:0:0:
337,215,143532,1,2,0:0:0:0:
337,215,143628,2,0,L|318:98,1,95.9999970703126,10|2,3:2|0:0,0:0:0:0:
478,86,144013,2,0,P|419:23|302:35,1,191.999994140625,2|8,3:2|3:2,0:0:0:0:
229,154,144590,1,0,0:0:0:0:
67,88,144782,5,2,3:2:0:0:
104,80,144878,1,2,0:0:0:0:
141,73,144974,1,2,0:0:0:0:
178,66,145070,1,2,0:0:0:0:
216,59,145167,1,10,3:2:0:0:
391,171,145359,1,2,0:0:0:0:
313,225,145551,2,0,L|101:181,1,191.999994140625,2|8,3:2|3:2,0:0:0:0:
47,242,146128,1,0,0:0:0:0:
196,368,146320,5,2,3:2:0:0:
216,347,146417,1,2,0:0:0:0:
221,318,146513,1,2,0:0:0:0:
210,291,146609,1,2,0:0:0:0:
187,272,146705,1,10,3:2:0:0:
158,271,146801,1,2,0:0:0:0:
133,285,146897,1,2,0:0:0:0:
17,338,147090,2,0,L|115:365,1,95.9999970703126,2|2,3:2|0:0,0:0:0:0:
302,256,147474,1,10,3:2:0:0:
337,352,147667,1,0,3:2:0:0:
236,333,147859,5,6,3:2:0:0:
236,333,147955,1,2,0:0:0:0:
236,333,148051,1,2,0:0:0:0:
236,333,148147,1,2,0:0:0:0:
236,333,148243,1,10,3:2:0:0:
405,271,148436,2,0,L|515:299,1,95.9999970703126,2|0,0:0|0:0,0:0:0:0:
358,192,148820,1,2,0:0:0:0:
488,166,149013,1,10,3:2:0:0:
488,166,149109,1,2,0:0:0:0:
488,166,149205,1,2,0:0:0:0:
281,109,149397,5,2,3:2:0:0:
415,11,149590,1,2,0:0:0:0:
415,11,149686,1,2,0:0:0:0:
415,11,149782,1,10,3:2:0:0:
334,226,149974,1,2,0:0:0:0:
334,226,150070,1,2,0:0:0:0:
334,226,150167,2,0,P|288:268|144:245,1,191.999994140625,2|8,3:2|3:2,0:0:0:0:
88,207,150743,1,0,0:0:0:0:
251,162,150936,5,2,3:2:0:0:
153,131,151128,1,2,0:0:0:0:
55,102,151320,1,10,3:2:0:0:
164,162,151513,5,2,0:0:0:0:
217,50,151705,1,2,3:2:0:0:
347,160,151897,1,0,3:2:0:0:
341,193,151993,1,0,3:2:0:0:
334,226,152090,1,10,3:2:0:0:
328,259,152186,1,0,3:2:0:0:
322,292,152282,1,2,3:2:0:0:
316,325,152378,1,0,3:2:0:0:
310,358,152474,5,6,3:2:0:0:
487,218,152859,1,6,3:2:0:0:
139,300,153243,1,6,3:2:0:0:
309,217,153436,5,2,0:0:0:0:
309,217,153532,1,0,0:0:0:0:
309,217,153628,2,0,L|321:280,1,47.9999985351563,0|0,3:0|3:0,0:0:0:0:
408,358,153820,2,0,L|426:294,1,47.9999985351563,0|0,3:0|3:0,0:0:0:0:
463,143,154013,5,6,3:2:0:0:
445,103,154109,1,2,0:0:0:0:
408,79,154205,1,2,0:0:0:0:
364,79,154301,1,2,0:0:0:0:
328,103,154397,1,10,3:2:0:0:
343,192,154590,1,2,0:0:0:0:
232,215,154782,2,0,B|220:197|220:197|244:109,1,95.9999970703126,2|2,3:2|0:0,0:0:0:0:
259,46,155070,2,0,L|150:71,1,95.9999970703126,2|2,0:0|0:0,0:0:0:0:
142,50,155359,1,2,0:0:0:0:
47,144,155551,5,2,3:2:0:0:
55,186,155647,1,2,0:0:0:0:
64,228,155743,1,2,0:0:0:0:
73,270,155840,1,2,0:0:0:0:
48,305,155936,1,10,3:2:0:0:
186,377,156128,1,2,0:0:0:0:
242,283,156320,2,0,L|22:339,1,191.999994140625,2|10,3:2|3:2,0:0:0:0:
188,208,156897,1,2,0:0:0:0:
301,337,157090,5,2,3:2:0:0:
335,312,157186,1,2,0:0:0:0:
371,288,157282,1,2,0:0:0:0:
353,248,157378,1,2,0:0:0:0:
335,207,157474,1,8,3:2:0:0:
270,141,157667,1,2,0:0:0:0:
436,120,157859,2,0,L|337:90,1,95.9999970703126,2|0,3:2|0:0,0:0:0:0:
421,334,158243,1,10,3:2:0:0:
496,277,158436,1,2,0:0:0:0:
436,215,158628,6,0,L|381:232,2,47.9999985351563,2|2|2,0:0|0:0|0:0,0:0:0:0:
327,290,159205,1,2,0:0:0:0:
254,245,159397,1,2,0:0:0:0:
254,245,159493,2,0,L|191:262,1,47.9999985351563,8|8,0:3|0:3,0:0:0:0:
162,348,159782,1,4,3:3:0:0:
141,342,159878,1,0,3:2:0:0:
120,336,159974,1,0,3:2:0:0:
99,330,160070,1,0,3:2:0:0:
78,324,160167,5,6,3:2:0:0:
51,290,160263,1,2,0:0:0:0:
54,247,160359,1,2,0:0:0:0:
81,213,160455,1,2,0:0:0:0:
123,208,160551,1,10,3:2:0:0:
191,265,160743,1,2,0:0:0:0:
295,153,160936,1,2,3:2:0:0:
221,72,161128,1,2,0:0:0:0:
221,72,161224,2,0,P|191:90|193:151,1,95.9999970703126,2|2,0:0|0:0,0:0:0:0:
209,177,161513,1,2,0:0:0:0:
255,335,161705,5,2,3:2:0:0:
297,325,161801,1,2,0:0:0:0:
339,316,161897,1,2,0:0:0:0:
381,307,161993,1,2,0:0:0:0:
423,298,162090,1,10,3:2:0:0:
398,164,162282,1,2,0:0:0:0:
335,245,162474,2,0,P|391:320|482:344,1,191.999994140625,2|10,3:2|3:2,0:0:0:0:
486,200,163051,1,2,0:0:0:0:
315,117,163243,5,2,3:2:0:0:
282,106,163340,1,2,0:0:0:0:
249,112,163436,1,2,0:0:0:0:
221,130,163532,1,2,0:0:0:0:
209,161,163628,2,0,L|242:263,1,95.9999970703126,10|2,3:2|0:0,0:0:0:0:
323,217,164013,1,2,3:2:0:0:
121,182,164205,1,2,0:0:0:0:
103,188,164301,1,2,0:0:0:0:
185,263,164493,1,2,0:0:0:0:
217,273,164590,1,2,3:2:0:0:
248,284,164686,1,0,3:2:0:0:
279,294,164782,5,6,3:2:0:0:
440,230,164974,1,2,0:0:0:0:
347,376,165167,1,6,3:2:0:0:
336,203,165359,1,2,0:0:0:0:
446,336,165551,2,0,L|286:373,1,143.999995605469,6|0,3:2|0:0,0:0:0:0:
178,345,165936,1,0,3:2:0:0:
154,350,166032,1,0,3:2:0:0:
130,355,166128,1,0,3:2:0:0:
106,360,166224,1,0,3:2:0:0:
82,365,166320,1,6,3:2:0:0:
9,247,166513,6,0,P|52:258|103:280,1,80,2|10,0:0|3:2,0:0:0:0:
170,258,166801,1,2,0:0:0:0:
170,258,166897,1,2,0:0:0:0:
247,335,167090,2,0,P|204:346|153:368,1,80,2|0,3:2|0:0,0:0:0:0:
209,181,167474,2,0,P|219:138|227:89,1,80,8|0,3:2|0:0,0:0:0:0:
303,38,167859,5,2,3:2:0:0:
125,107,168051,1,2,0:0:0:0:
302,144,168243,5,10,3:2:0:0:
225,211,168436,1,2,0:0:0:0:
394,164,168628,6,0,L|356:340,1,160,2|10,3:2|3:2,0:0:0:0:
421,373,169205,1,2,0:0:0:0:
481,223,169397,6,0,P|434:248|390:257,1,80,2|2,3:2|0:0,0:0:0:0:
284,354,169782,1,10,3:2:0:0:
284,354,169878,1,2,0:0:0:0:
284,354,169974,1,2,0:0:0:0:
284,354,170070,1,2,0:0:0:0:
284,354,170167,2,0,P|233:330|142:308,1,120,2|2,3:2|0:0,0:0:0:0:
76,290,170551,2,0,L|100:380,1,80,8|0,3:2|0:0,0:0:0:0:
218,225,170936,5,2,3:2:0:0:
189,77,171128,1,2,0:0:0:0:
66,177,171320,1,10,3:2:0:0:
242,230,171513,2,0,L|220:128,1,80,2|0,0:0|0:0,0:0:0:0:
102,54,171897,1,2,0:0:0:0:
262,12,172090,1,10,3:2:0:0:
289,10,172186,1,2,0:0:0:0:
316,16,172282,1,2,3:2:0:0:
338,32,172378,1,2,0:0:0:0:
351,56,172474,1,2,3:2:0:0:
429,126,172667,6,0,L|337:147,1,80,2|10,0:0|3:2,0:0:0:0:
301,211,172955,1,2,0:0:0:0:
285,202,173051,1,2,0:0:0:0:
434,211,173243,2,0,P|474:222|508:240,1,80,2|0,3:2|0:0,0:0:0:0:
276,302,173628,1,8,3:2:0:0:
387,303,173820,5,2,0:0:0:0:
387,303,173917,1,2,0:0:0:0:
387,303,174013,1,2,3:2:0:0:
208,221,174205,1,2,0:0:0:0:
222,368,174397,1,10,3:2:0:0:
289,307,174590,1,2,0:0:0:0:
213,200,174782,2,0,L|27:245,1,160,2|10,3:2|3:2,0:0:0:0:
18,310,175359,1,2,0:0:0:0:
92,349,175551,6,0,P|133:329|174:292,1,80,2|2,3:2|0:0,0:0:0:0:
305,139,175936,1,10,3:2:0:0:
305,139,176032,1,2,0:0:0:0:
305,139,176128,1,2,0:0:0:0:
305,139,176224,1,2,0:0:0:0:
305,139,176320,2,0,P|255:112|183:102,1,120,2|2,3:2|0:0,0:0:0:0:
63,70,176705,2,0,L|140:40,1,80,8|2,0:0|0:0,0:0:0:0:
292,39,177090,5,2,3:2:0:0:
193,188,177282,2,0,L|98:164,1,80,2|10,0:0|3:2,0:0:0:0:
395,116,177667,2,0,L|485:84,1,80,2|0,0:0|0:0,0:0:0:0:
390,264,178051,1,2,0:0:0:0:
390,264,178147,1,2,0:0:0:0:
390,264,178243,1,10,3:2:0:0:
353,280,178340,1,2,3:2:0:0:
313,276,178436,1,2,3:2:0:0:
279,253,178532,1,2,3:2:0:0:
263,216,178628,6,0,L|306:43,1,160,6|10,3:2|3:2,0:0:0:0:
242,7,179109,1,2,0:0:0:0:
242,7,179205,1,2,0:0:0:0:
133,126,179397,2,0,P|138:176|157:222,1,80,2|2,3:2|0:0,0:0:0:0:
94,272,179686,2,0,L|190:293,1,80,2|0,0:0|0:0,0:0:0:0:
181,314,179974,1,2,0:0:0:0:
309,375,180167,6,0,P|352:337|336:223,1,160,2|8,3:2|3:2,0:0:0:0:
499,176,180743,2,0,P|479:135|444:119,1,80,2|0,0:0|3:0,0:0:0:0:
348,0,181128,1,2,0:0:0:0:
353,27,181224,1,2,0:0:0:0:
358,54,181320,1,10,3:2:0:0:
363,81,181417,1,2,0:0:0:0:
368,108,181513,1,2,0:0:0:0:
373,135,181609,1,2,0:0:0:0:
378,162,181705,6,0,L|204:133,1,160,2|8,3:2|3:2,0:0:0:0:
6,63,182282,1,2,0:0:0:0:
224,33,182474,1,0,0:0:0:0:
217,25,182570,1,8,0:3:0:0:
112,91,182763,1,8,0:3:0:0:
94,112,182859,1,8,3:3:0:0:
96,139,182955,1,8,0:3:0:0:
106,164,183051,1,12,0:3:0:0:
111,191,183147,1,4,0:3:0:0:
100,217,183243,5,2,3:2:0:0:
279,133,183532,1,2,0:0:0:0:
139,362,183820,1,2,3:2:0:0:
139,362,183917,1,2,3:2:0:0:
139,362,184013,2,0,P|93:323|33:304,1,120,6|0,3:2|0:0,0:0:0:0:
192,270,184397,1,0,3:2:0:0:
211,264,184493,1,0,3:2:0:0:
230,258,184590,1,0,3:2:0:0:
249,252,184686,1,0,3:2:0:0:
263,248,184782,1,6,3:2:0:0:
487,345,190167,5,0,3:2:0:0:
472,350,190263,1,8,0:3:0:0:
406,284,190455,1,8,0:3:0:0:
391,280,190551,1,8,3:3:0:0:
376,276,190647,1,8,0:3:0:0:
360,271,190743,1,4,3:3:0:0:
345,267,190840,1,4,3:3:0:0:
329,263,190936,1,6,3:2:0:0:
222,359,191128,6,0,L|318:337,1,80,0|2,0:0|3:2,0:0:0:0:
381,190,191513,2,0,L|285:168,1,80,2|0,0:0|0:0,0:0:0:0:
153,309,191897,1,2,0:0:0:0:
79,295,192090,1,2,3:2:0:0:
6,278,192282,1,2,0:0:0:0:
144,231,192474,6,0,P|176:207|214:198,1,80,2|2,3:2|0:0,0:0:0:0:
103,148,192859,2,0,P|70:124|32:115,1,80,2|2,3:2|0:0,0:0:0:0:
285,257,193243,2,0,P|330:228|310:104,1,160,2|0,3:2|3:2,0:0:0:0:
172,17,193820,5,2,0:0:0:0:
172,17,193917,1,2,0:0:0:0:
172,17,194013,2,0,L|186:112,1,80,2|2,3:2|0:0,0:0:0:0:
346,50,194397,2,0,L|332:145,1,80,2|2,3:2|0:2,0:0:0:0:
121,185,194782,2,0,L|26:171,1,80,2|2,3:2|0:0,0:0:0:0:
379,236,195167,2,0,L|474:222,1,80,2|2,3:2|0:0,0:0:0:0:
256,192,195551,12,2,196513,0:0:0:0:
216,231,196705,6,0,L|229:280,1,40,4|4,0:3|0:3,0:0:0:0:
294,302,196897,2,0,L|283:340,1,40,4|4,0:3|0:3,0:0:0:0:
158,364,197090,5,6,3:2:0:0:
111,374,197186,1,2,0:0:0:0:
65,358,197282,1,2,0:0:0:0:
36,319,197378,1,2,0:0:0:0:
36,271,197474,1,10,3:2:0:0:
157,144,197667,2,0,L|125:257,1,95.9999970703126,2|0,0:0|3:0,0:0:0:0:
22,171,198051,1,2,0:0:0:0:
117,57,198243,1,10,3:2:0:0:
117,57,198340,1,2,0:0:0:0:
117,57,198436,1,2,0:0:0:0:
251,151,198628,6,0,P|299:144|352:123,1,95.9999970703126,2|2,3:2|0:0,0:0:0:0:
449,23,198917,1,2,0:0:0:0:
449,23,199013,2,0,P|426:79|421:143,1,95.9999970703126,10|2,3:2|0:0,0:0:0:0:
437,377,199397,2,0,L|387:174,1,191.999994140625,2|8,3:2|3:2,0:0:0:0:
474,181,199974,1,0,0:0:0:0:
346,332,200167,5,2,3:2:0:0:
304,356,200263,1,2,0:0:0:0:
256,356,200359,1,2,0:0:0:0:
216,329,200455,1,2,0:0:0:0:
198,284,200551,1,10,3:2:0:0:
256,217,200743,1,2,0:0:0:0:
174,121,200936,2,0,B|151:197|151:197|131:204|131:204|101:306,1,191.999994140625,2|8,3:2|3:2,0:0:0:0:
272,235,201513,1,0,0:0:0:0:
310,154,201705,5,2,3:2:0:0:
303,126,201801,1,2,0:0:0:0:
296,98,201897,1,2,0:0:0:0:
289,70,201993,1,2,0:0:0:0:
281,41,202090,1,10,3:2:0:0:
254,28,202186,1,2,0:0:0:0:
227,16,202282,1,2,0:0:0:0:
68,60,202474,2,0,L|166:87,1,95.9999970703126,2|0,3:2|0:0,0:0:0:0:
458,104,202859,1,10,3:2:0:0:
498,26,203051,1,0,3:2:0:0:
387,48,203244,5,6,3:2:0:0:
387,48,203340,1,2,0:0:0:0:
387,48,203436,1,2,0:0:0:0:
387,48,203532,1,0,0:0:0:0:
387,48,203628,1,10,3:2:0:0:
310,154,203820,2,0,L|189:184,1,95.9999970703126,2|0,0:0|3:0,0:0:0:0:
51,234,204205,1,2,0:0:0:0:
10,143,204397,1,10,3:2:0:0:
10,143,204493,1,2,0:0:0:0:
10,143,204590,1,2,0:0:0:0:
191,191,204782,5,2,3:2:0:0:
64,345,204974,1,2,0:0:0:0:
37,334,205070,1,2,0:0:0:0:
9,324,205167,1,10,3:2:0:0:
283,229,205359,1,2,0:0:0:0:
283,229,205455,1,2,0:0:0:0:
283,229,205551,2,0,P|333:261|315:386,1,191.999994140625,2|8,3:2|3:2,0:0:0:0:
200,340,206128,1,0,0:0:0:0:
121,274,206320,6,0,L|102:147,1,95.9999970703126,2|2,3:2|0:0,0:0:0:0:
84,163,206609,1,2,0:0:0:0:
84,163,206705,1,10,3:2:0:0:
250,60,206897,1,2,0:0:0:0:
149,12,207090,1,2,3:2:0:0:
197,151,207282,1,0,3:2:0:0:
234,157,207378,1,0,3:2:0:0:
271,163,207474,1,10,3:2:0:0:
308,169,207570,1,0,3:2:0:0:
346,175,207667,1,2,3:2:0:0:
383,181,207763,1,0,3:2:0:0:
420,187,207859,5,6,3:2:0:0:
331,43,208243,1,6,3:2:0:0:
407,327,208628,1,6,3:2:0:0:
451,165,208820,5,2,3:2:0:0:
451,165,208917,1,0,3:0:0:0:
451,165,209013,2,0,L|378:188,1,47.9999985351563,0|0,3:0|3:0,0:0:0:0:
222,235,209205,1,0,3:0:0:0:
222,235,209301,1,0,3:0:0:0:
222,235,209397,5,6,3:2:0:0:
233,271,209493,1,2,0:0:0:0:
265,291,209590,1,2,0:0:0:0:
303,294,209686,1,2,0:0:0:0:
338,280,209782,2,0,L|317:166,1,95.9999970703126,10|2,3:2|0:0,0:0:0:0:
181,69,210167,1,2,3:2:0:0:
284,21,210359,1,2,0:0:0:0:
284,21,210455,2,0,L|255:134,1,95.9999970703126,2|2,0:0|0:0,0:0:0:0:
236,134,210743,1,2,0:0:0:0:
47,150,210936,5,2,3:2:0:0:
26,117,211032,1,2,0:0:0:0:
27,78,211128,1,2,0:0:0:0:
43,43,211224,1,2,0:0:0:0:
77,27,211320,1,10,3:2:0:0:
181,69,211513,1,2,0:0:0:0:
143,176,211705,2,0,L|117:283,1,95.9999970703126,2|0,3:2|0:0,0:0:0:0:
46,363,212090,2,0,L|20:256,1,95.9999970703126,10|2,3:2|0:0,0:0:0:0:
220,238,212474,5,2,3:2:0:0:
251,215,212570,1,2,0:0:0:0:
289,212,212667,1,2,0:0:0:0:
324,226,212763,1,2,0:0:0:0:
346,257,212859,1,10,3:2:0:0:
317,350,213051,1,2,0:0:0:0:
221,342,213243,2,0,B|202:331|202:331|103:358,1,95.9999970703126,2|2,3:2|0:0,0:0:0:0:
23,269,213628,1,10,3:2:0:0:
120,269,213820,1,2,0:0:0:0:
180,194,214013,5,2,3:2:0:0:
106,151,214205,2,0,B|88:137|88:137|65:50,1,95.9999970703126,2|10,0:0|3:2,0:0:0:0:
154,23,214590,1,2,0:0:0:0:
249,77,214782,1,2,3:2:0:0:
261,70,214878,1,8,0:3:0:0:
335,22,215070,1,8,0:3:0:0:
348,27,215167,1,8,3:3:0:0:
361,32,215263,1,8,0:3:0:0:
374,36,215359,1,4,3:3:0:0:
462,14,215551,5,6,3:2:0:0:
468,51,215647,1,2,0:0:0:0:
475,88,215743,1,2,0:0:0:0:
481,125,215839,1,2,0:0:0:0:
488,163,215936,2,0,P|474:213|466:277,1,95.9999970703126,10|2,3:2|0:0,0:0:0:0:
419,363,216320,1,2,3:2:0:0:
337,287,216513,1,2,0:0:0:0:
343,275,216609,1,2,0:0:0:0:
386,178,216801,1,2,0:0:0:0:
389,193,216897,1,2,0:0:0:0:
416,322,217090,5,2,3:2:0:0:
391,351,217186,1,2,0:0:0:0:
353,360,217282,1,2,0:0:0:0:
315,369,217378,1,2,0:0:0:0:
277,378,217474,1,10,3:2:0:0:
80,343,217667,1,2,0:0:0:0:
171,382,217859,2,0,P|203:339|190:196,1,191.999994140625,2|10,3:2|3:2,0:0:0:0:
106,172,218436,1,2,0:0:0:0:
41,249,218628,5,2,3:2:0:0:
41,249,218724,1,2,0:0:0:0:
41,249,218820,1,2,0:0:0:0:
41,249,218917,1,2,0:0:0:0:
41,249,219013,1,10,3:2:0:0:
139,268,219205,1,2,0:0:0:0:
206,191,219397,2,0,L|170:70,1,95.9999970703126,2|2,3:2|0:0,0:0:0:0:
190,74,219686,1,2,0:0:0:0:
290,68,219878,1,2,0:0:0:0:
299,48,219974,1,2,3:2:0:0:
356,141,220167,5,6,3:2:0:0:
503,31,220359,1,2,0:2:0:0:
465,103,220551,5,6,3:2:0:0:
390,66,220743,1,2,0:0:0:0:
291,188,220936,6,0,L|320:295,1,95.9999970703126,6|0,3:2|0:0,0:0:0:0:
435,368,221320,1,0,3:2:0:0:
435,368,221417,1,0,3:2:0:0:
435,368,221513,1,0,3:2:0:0:
435,368,221609,1,0,3:2:0:0:
435,368,221705,6,0,L|443:313,1,47.9999985351563,6|2,3:2|0:0,0:0:0:0:
481,229,221897,1,2,0:0:0:0:
444,239,221993,1,2,0:0:0:0:
406,249,222090,2,0,P|362:260|310:284,1,95.9999970703126,10|2,3:2|0:0,0:0:0:0:
219,358,222474,1,2,3:2:0:0:
142,313,222667,1,2,0:0:0:0:
142,313,222763,2,0,B|127:291|127:291|157:181,1,95.9999970703126,2|2,0:0|0:0,0:0:0:0:
137,198,223051,1,2,0:0:0:0:
115,111,223243,5,2,3:2:0:0:
150,95,223340,1,2,0:0:0:0:
188,96,223436,1,2,0:0:0:0:
222,112,223532,1,2,0:0:0:0:
241,144,223628,1,10,3:2:0:0:
290,308,223820,1,2,0:0:0:0:
221,232,224013,2,0,L|434:195,1,191.999994140625,2|10,3:2|3:2,0:0:0:0:
493,155,224590,1,2,0:0:0:0:
367,14,224782,5,2,3:2:0:0:
361,42,224878,1,2,0:0:0:0:
356,70,224974,1,2,0:0:0:0:
351,98,225070,1,2,0:0:0:0:
346,126,225167,1,10,3:2:0:0:
396,274,225359,1,2,0:0:0:0:
502,243,225551,2,0,L|475:138,1,95.9999970703126,2|2,3:2|0:0,0:0:0:0:
276,32,225936,1,10,3:2:0:0:
183,57,226128,1,2,0:0:0:0:
91,83,226320,5,2,3:2:0:0:
239,133,226513,1,2,0:0:0:0:
161,158,226705,2,0,B|138:168|138:168|121:243,1,95.9999970703126,10|2,3:2|0:0,0:0:0:0:
32,289,227090,1,2,3:2:0:0:
45,294,227186,1,8,0:3:0:0:
105,364,227378,1,8,0:3:0:0:
119,360,227474,1,8,3:3:0:0:
133,356,227570,1,8,0:3:0:0:
147,352,227667,1,4,3:3:0:0:
217,273,227859,5,6,3:2:0:0:
253,261,227955,1,2,0:0:0:0:
290,268,228051,1,2,0:0:0:0:
317,294,228147,1,2,0:0:0:0:
327,330,228243,1,10,3:2:0:0:
415,369,228436,1,2,0:0:0:0:
485,315,228628,2,0,L|445:184,1,95.9999970703126,2|2,3:2|0:0,0:0:0:0:
433,215,228917,1,2,0:0:0:0:
502,130,229109,1,2,0:0:0:0:
495,113,229205,1,2,0:0:0:0:
437,28,229397,5,2,3:2:0:0:
399,37,229493,1,2,0:0:0:0:
387,74,229590,1,2,0:0:0:0:
375,110,229686,1,2,0:0:0:0:
364,146,229782,1,10,3:2:0:0:
276,228,229974,1,2,0:0:0:0:
160,184,230167,2,0,P|137:118|203:15,1,191.999994140625,2|10,3:2|3:2,0:0:0:0:
275,43,230743,1,2,0:0:0:0:
257,146,230936,5,2,3:2:0:0:
257,146,231032,1,2,0:0:0:0:
257,146,231128,1,2,0:0:0:0:
257,146,231224,1,2,0:0:0:0:
257,146,231320,1,10,3:2:0:0:
56,165,231513,1,2,0:0:0:0:
141,87,231705,1,2,3:2:0:0:
170,202,231897,1,2,0:0:0:0:
170,202,231993,2,0,L|145:311,1,95.9999970703126,2|2,0:0|0:0,0:0:0:0:
162,324,232282,1,2,3:2:0:0:
430,368,232474,5,6,3:2:0:0:
391,271,232667,1,2,0:0:0:0:
234,274,232859,5,6,3:2:0:0:
273,371,233052,1,2,0:2:0:0:
367,272,233243,6,0,L|392:108,1,143.999995605469,6|0,3:2|0:0,0:0:0:0:
313,108,233628,1,0,3:2:0:0:
310,93,233724,1,0,3:2:0:0:
307,78,233820,1,0,3:2:0:0:
304,63,233917,1,0,3:2:0:0:
301,48,234013,1,6,3:2:0:0:
