osu file format v14

[General]
AudioFilename: audio.mp3
AudioLeadIn: 0
PreviewTime: 129397
Countdown: 0
SampleSet: Soft
StackLeniency: 0.7
Mode: 2
LetterboxInBreaks: 0
WidescreenStoryboard: 0

[Editor]
Bookmarks: 10936,12474,29397,30936,43243,67859,92474,104782,129397,154013,166320,184782,190936,209397,221705,234013
DistanceSpacing: 1
BeatDivisor: 4
GridSize: 16
TimelineZoom: 3.099999

[Metadata]
Title:Magic Girl !!
TitleUnicode:Magic Girl !!
Artist:A-One feat. Shihori
ArtistUnicode:A-One feat. Shihori
Creator:Greaper
Version:Overdose
Source:東方紅魔郷 ~ the Embodiment of Scarlet Devil.
Tags:Deif featured artist fa osu! nico 魔法少女達の百年祭 eurobeat toho vol.3 patchouli knowledge centennial festival for magical girls dj command mappers guild Video Game English aone a one
BeatmapID:3356804
BeatmapSetID:1644488

[Difficulty]
HPDrainRate:6
CircleSize:4
OverallDifficulty:9
ApproachRate:9
SliderMultiplier:2.1
SliderTickRate:2

[Events]
//Background and Video events
0,0,"bg.jpg",0,0
//Break Periods
2,184982,190336
//Storyboard Layer 0 (Background)
//Storyboard Layer 1 (Fail)
//Storyboard Layer 2 (Pass)
//Storyboard Layer 3 (Foreground)
//Storyboard Layer 4 (Overlay)
//Storyboard Sound Samples

[TimingPoints]
167,384.615384615385,4,2,11,60,1,0
18051,-40,4,2,11,60,0,0
18243,-100,4,2,11,60,0,0
30936,-90.9090909090909,4,2,11,70,0,0
43243,-100,4,2,11,60,0,0
67859,-83.3333333333333,4,2,11,80,0,1
92474,-90.9090909090909,4,2,11,70,0,0
104782,-100,4,2,11,60,0,0
129397,-83.3333333333333,4,2,11,80,0,1
154013,-90.9090909090909,4,2,11,70,0,0
166320,-100,4,2,11,60,0,0
184782,-100,4,2,11,60,0,0
190936,-100,4,2,11,60,0,0
196320,-100,4,2,11,40,0,0
197090,-83.3333333333333,4,2,11,80,0,1
209397,-90.9090909090909,4,2,11,70,0,0
234013,-100,4,2,11,60,0,0

[Colours]
Combo1 : 134,208,151
Combo2 : 159,123,219
Combo3 : 220,122,122
Combo4 : 200,142,183

[HitObjects]
58,257,167,6,0,L|57:141,1,105,2|0,0:0|0:0,0:0:0:0:
206,219,551,2,0,L|205:103,1,105,2|0,0:0|0:0,0:0:0:0:
342,199,936,2,0,L|341:83,1,105,2|0,0:0|0:0,0:0:0:0:
477,178,1320,2,0,L|480:61,1,105,2|0,0:0|0:0,0:0:0:0:
216,218,1705,6,0,L|215:102,1,105,2|0,0:0|0:0,0:0:0:0:
351,197,2089,2,0,L|354:80,1,105,2|0,0:0|0:0,0:0:0:0:
492,144,2474,1,2,0:0:0:0:
229,75,2667,2,0,L|103:69,1,105,2|0,0:0|0:0,0:0:0:0:
282,32,2955,2,0,L|352:31,1,52.5,2|0,0:0|0:0,0:0:0:0:
68,141,3243,6,0,L|65:252,1,105,2|0,0:0|0:0,0:0:0:0:
213,153,3628,2,0,L|213:263,1,105,2|0,0:0|0:0,0:0:0:0:
362,164,4013,2,0,L|362:274,1,105,2|0,0:0|0:0,0:0:0:0:
213,153,4397,2,0,L|213:263,1,105,2|0,0:0|0:0,0:0:0:0:
465,104,4782,6,0,L|465:214,1,105,2|0,0:0|0:0,0:0:0:0:
317,95,5167,2,0,L|317:200,1,105,2|0,0:0|0:0,0:0:0:0:
168,84,5551,1,2,0:0:0:0:
428,54,5743,2,0,L|197:67,1,210,2|0,0:0|0:0,0:0:0:0:
492,100,6320,6,0,L|493:212,1,105,2|0,0:0|0:0,0:0:0:0:
344,112,6705,2,0,L|345:228,1,105,2|0,0:0|0:0,0:0:0:0:
195,133,7090,2,0,L|196:249,1,105,2|0,0:0|0:0,0:0:0:0:
47,156,7474,2,0,L|44:273,1,105,2|0,0:0|0:0,0:0:0:0:
310,154,7859,6,0,L|311:270,1,105,2|0,0:0|0:0,0:0:0:0:
171,181,8243,2,0,L|168:298,1,105,2|0,0:0|0:0,0:0:0:0:
26,307,8628,1,2,0:0:0:0:
291,313,8820,2,0,L|298:197,1,105,2|0,0:0|0:0,0:0:0:0:
133,194,9109,2,0,L|70:193,1,52.5,2|0,0:0|0:0,0:0:0:0:
348,165,9397,6,0,L|353:45,1,105,2|0,0:0|0:0,0:0:0:0:
204,147,9782,2,0,L|209:27,1,105,2|0,0:0|0:0,0:0:0:0:
59,134,10167,2,0,L|64:14,1,105,2|0,0:0|0:0,0:0:0:0:
210,305,10551,2,0,L|215:185,1,105,2|0,0:0|0:0,0:0:0:0:
489,241,10936,6,0,L|490:188,1,52.5,8|0,3:0|0:0,0:0:0:0:
437,171,11128,1,0,0:0:0:0:
175,156,11320,1,8,3:0:0:0:
228,153,11416,1,0,0:0:0:0:
280,150,11512,1,0,0:0:0:0:
16,112,11705,1,12,0:0:0:0:
116,111,11833,1,8,0:0:0:0:
16,112,11961,1,8,0:0:0:0:
234,80,12090,1,8,0:0:0:0:
134,69,12218,1,8,0:0:0:0:
234,80,12346,1,8,0:0:0:0:
451,81,12474,6,0,L|463:194,1,105,12|2,0:0|0:0,0:0:0:0:
305,169,12859,2,0,L|305:232,1,52.5,8|0,3:0|0:0,0:0:0:0:
358,222,13051,2,0,L|362:278,1,52.5,2|2,0:0|0:0,0:0:0:0:
200,281,13243,2,0,L|90:287,1,105,8|2,3:0|0:0,0:0:0:0:
99,219,13532,1,2,0:0:0:0:
200,193,13628,2,0,L|202:118,1,52.5,8|2,3:0|0:0,0:0:0:0:
150,128,13820,1,2,0:0:0:0:
440,122,14013,6,0,L|447:240,1,105,8|0,3:0|0:0,0:0:0:0:
286,218,14397,2,0,L|227:223,1,52.5,8|0,3:0|0:0,0:0:0:0:
288,271,14590,2,0,L|345:264,1,52.5,2|2,0:0|0:0,0:0:0:0:
165,281,14782,2,0,L|162:173,1,105,8|2,3:0|0:0,0:0:0:0:
214,162,15070,1,2,0:0:0:0:
267,155,15167,2,0,L|323:145,1,52.5,8|2,3:0|0:0,0:0:0:0:
319,84,15359,1,2,0:0:0:0:
29,55,15551,6,0,L|24:168,1,105,8|2,3:0|0:0,0:0:0:0:
174,153,15936,2,0,L|177:211,1,52.5,8|2,3:0|0:0,0:0:0:0:
124,236,16128,2,0,L|64:241,1,52.5,2|2,0:0|0:0,0:0:0:0:
231,261,16320,2,0,L|344:264,1,105,8|2,3:0|0:0,0:0:0:0:
387,264,16609,1,2,0:0:0:0:
331,205,16705,2,0,L|326:140,1,52.5,8|2,3:0|0:0,0:0:0:0:
376,138,16897,1,2,0:0:0:0:
64,104,17090,6,0,L|61:218,1,105,8|2,3:0|0:0,0:0:0:0:
201,210,17474,2,0,L|222:144,1,52.5,8|0,3:0|0:0,0:0:0:0:
198,254,17667,2,0,L|143:256,1,52.5,2|0,0:0|0:0,0:0:0:0:
94,257,17859,1,8,3:0:0:0:
445,314,18051,2,0,L|176:314,1,262.5,10|12,0:0|0:0,0:0:0:0:
288,260,18436,1,8,0:0:0:0:
38,213,18628,6,0,L|34:88,1,105,12|2,0:0|0:0,0:0:0:0:
184,103,19013,2,0,L|186:177,1,52.5,8|0,3:0|0:0,0:0:0:0:
130,156,19205,2,0,L|127:230,1,52.5,2|2,0:0|0:0,0:0:0:0:
286,218,19397,2,0,L|404:227,1,105,8|2,3:0|0:0,0:0:0:0:
445,234,19686,1,2,0:0:0:0:
389,170,19782,2,0,L|389:103,1,52.5,8|2,3:0|0:0,0:0:0:0:
445,111,19974,1,2,0:0:0:0:
136,95,20167,6,0,L|75:100,2,52.5,8|0|2,3:0|0:0|0:0,0:0:0:0:
392,234,20551,2,0,L|394:298,1,52.5,8|0,3:0|0:0,0:0:0:0:
340,279,20743,2,0,L|338:336,1,52.5,2|2,0:0|0:0,0:0:0:0:
497,239,20936,2,0,L|500:179,1,52.5,8|0,3:0|0:0,0:0:0:0:
447,153,21128,1,2,0:0:0:0:
276,130,21320,1,8,3:0:0:0:
329,124,21416,1,2,0:0:0:0:
381,119,21512,1,2,0:0:0:0:
121,162,21705,6,0,L|7:172,1,105,8|2,3:0|0:0,0:0:0:0:
169,198,22090,2,0,L|174:257,1,52.5,8|0,3:0|0:0,0:0:0:0:
121,251,22282,2,0,L|126:310,1,52.5,2|2,0:0|0:0,0:0:0:0:
285,313,22474,2,0,L|163:326,1,105,8|2,3:0|0:0,0:0:0:0:
128,331,22763,1,2,0:0:0:0:
182,141,22859,2,0,L|184:88,1,52.5,8|2,3:0|0:0,0:0:0:0:
130,79,23051,1,2,0:0:0:0:
394,72,23243,6,0,L|458:67,2,52.5,8|0|2,3:0|0:0|0:0,0:0:0:0:
245,102,23628,2,0,L|245:160,1,52.5,8|0,3:0|0:0,0:0:0:0:
405,146,23820,2,0,L|408:206,1,52.5,2|2,0:0|0:0,0:0:0:0:
236,212,24013,2,0,L|117:222,1,105,12|2,3:0|0:0,0:0:0:0:
78,226,24301,1,2,0:0:0:0:
263,271,24397,2,0,L|323:274,1,52.5,10|8,0:0|0:0,0:0:0:0:
101,300,24590,2,0,L|174:297,1,52.5,10|8,0:0|0:0,0:0:0:0:
388,304,24782,6,0,L|503:298,1,105,12|2,0:0|0:0,0:0:0:0:
352,215,25167,2,0,L|348:142,1,52.5,8|0,3:0|0:0,0:0:0:0:
407,165,25359,2,0,L|405:95,1,52.5,2|2,0:0|0:0,0:0:0:0:
245,108,25551,2,0,L|123:122,1,105,8|2,3:0|0:0,0:0:0:0:
39,172,25936,2,0,L|36:231,1,52.5,8|2,3:0|0:0,0:0:0:0:
92,258,26128,2,0,L|144:270,1,52.5,2|2,0:0|0:0,0:0:0:0:
327,240,26320,6,0,L|330:185,1,52.5,8|0,3:0|0:0,0:0:0:0:
277,163,26513,2,0,L|275:101,1,52.5,2|0,0:0|0:0,0:0:0:0:
435,89,26705,2,0,L|488:85,1,52.5,8|2,3:0|0:0,0:0:0:0:
427,50,26897,2,0,L|349:56,1,52.5,2|2,0:0|0:0,0:0:0:0:
196,63,27090,2,0,L|193:173,1,105,8|2,3:0|0:0,0:0:0:0:
257,182,27378,1,2,0:0:0:0:
321,196,27474,2,0,L|324:257,1,52.5,8|0,3:0|0:0,0:0:0:0:
265,260,27667,2,0,L|196:271,1,52.5,2|2,0:0|0:0,0:0:0:0:
394,318,27859,6,0,L|276:330,1,105,8|2,3:0|0:0,0:0:0:0:
445,215,28243,2,0,L|447:159,1,52.5,8|2,3:0|0:0,0:0:0:0:
390,132,28436,2,0,L|336:129,1,52.5,2|2,0:0|0:0,0:0:0:0:
179,111,28628,2,0,L|179:172,1,52.5,8|0,3:0|0:0,0:0:0:0:
243,174,28820,2,0,L|243:235,1,52.5,2|2,0:0|0:0,0:0:0:0:
57,227,29013,2,0,L|114:234,1,52.5,12|0,3:0|0:0,0:0:0:0:
292,258,29205,2,0,L|365:263,1,52.5,8|8,3:0|3:0,0:0:0:0:
132,294,29397,6,0,B|27:294|27:294|28:187,1,210,8|8,3:0|3:0,0:0:0:0:
496,128,30167,1,12,0:0:0:0:
380,119,30295,1,8,0:0:0:0:
265,112,30423,1,8,0:0:0:0:
483,49,30551,1,10,0:0:0:0:
374,45,30679,1,8,0:0:0:0:
483,49,30808,1,8,0:0:0:0:
167,185,30936,6,0,L|109:191,1,57.7500017623902,14|0,0:0|0:0,0:0:0:0:
296,225,31128,2,0,L|354:218,1,57.7500017623902,2|0,0:0|0:0,0:0:0:0:
164,258,31320,2,0,L|281:251,1,115.50000352478,10|0,3:0|0:0,0:0:0:0:
128,277,31705,2,0,L|123:159,1,115.50000352478,10|0,3:0|0:0,0:0:0:0:
276,150,31993,2,0,L|348:143,2,57.7500017623902,2|8|2,0:0|3:0|0:0,0:0:0:0:
218,151,32282,1,2,0:0:0:0:
495,141,32474,6,0,L|436:141,1,57.7500017623902,10|0,3:0|0:0,0:0:0:0:
263,104,32667,2,0,L|325:95,1,57.7500017623902,2|0,0:0|0:0,0:0:0:0:
494,40,32859,2,0,L|379:38,1,115.50000352478,10|0,3:0|0:0,0:0:0:0:
231,143,33243,2,0,L|371:146,1,115.50000352478,10|0,3:0|0:0,0:0:0:0:
187,187,33628,1,10,3:0:0:0:
240,187,33724,1,0,0:0:0:0:
292,187,33820,1,2,0:0:0:0:
16,192,34013,6,0,L|19:125,1,57.7500017623902,10|0,3:0|0:0,0:0:0:0:
204,122,34205,2,0,L|138:122,1,57.7500017623902,2|0,0:0|0:0,0:0:0:0:
310,108,34397,2,0,L|378:103,1,57.7500017623902,10|0,3:0|0:0,0:0:0:0:
308,76,34590,2,0,L|241:80,1,57.7500017623902,2|0,0:0|0:0,0:0:0:0:
420,133,34782,2,0,L|428:255,1,115.50000352478,10|0,3:0|0:0,0:0:0:0:
292,255,35167,1,10,3:0:0:0:
429,290,35359,1,2,0:0:0:0:
160,260,35551,6,0,L|283:263,2,115.50000352478,10|2|10,3:0|0:0|3:0,0:0:0:0:
164,199,36032,1,0,0:0:0:0:
226,188,36128,2,0,L|230:121,1,57.7500017623902,2|0,0:0|0:0,0:0:0:0:
56,172,36320,2,0,L|132:168,1,57.7500017623902,10|8,3:0|3:0,0:0:0:0:
299,112,36513,2,0,L|375:108,1,57.7500017623902,10|8,3:0|3:0,0:0:0:0:
141,117,36705,2,0,L|54:111,1,57.7500017623902,8|8,3:0|3:0,0:0:0:0:
25,45,36897,2,0,L|87:44,1,57.7500017623902,8|8,3:0|3:0,0:0:0:0:
315,42,37090,6,0,L|372:39,1,57.7500017623902,6|0,0:0|0:0,0:0:0:0:
200,35,37282,2,0,L|270:35,1,57.7500017623902,2|0,0:0|0:0,0:0:0:0:
459,85,37474,2,0,L|462:210,1,115.50000352478,10|0,3:0|0:0,0:0:0:0:
183,180,37859,2,0,L|300:194,1,115.50000352478,10|0,3:0|0:0,0:0:0:0:
127,221,38147,2,0,L|65:226,2,57.7500017623902,2|8|2,0:0|3:0|0:0,0:0:0:0:
186,228,38436,1,2,0:0:0:0:
496,160,38628,6,0,L|439:160,1,57.7500017623902,10|0,3:0|0:0,0:0:0:0:
205,99,38820,2,0,L|264:95,1,57.7500017623902,2|0,0:0|0:0,0:0:0:0:
439,60,39013,2,0,L|324:58,1,115.50000352478,10|0,3:0|0:0,0:0:0:0:
189,164,39397,2,0,L|183:290,1,115.50000352478,10|0,3:0|0:0,0:0:0:0:
328,266,39782,1,10,3:0:0:0:
180,304,39974,1,2,0:0:0:0:
464,304,40167,6,0,L|387:310,1,57.7500017623902,10|0,3:0|0:0,0:0:0:0:
252,319,40359,2,0,L|176:330,1,57.7500017623902,2|0,0:0|0:0,0:0:0:0:
382,253,40551,2,0,L|388:136,1,115.50000352478,10|0,3:0|0:0,0:0:0:0:
127,144,40936,2,0,L|246:139,1,115.50000352478,10|0,3:0|0:0,0:0:0:0:
299,134,41224,1,2,0:0:0:0:
125,209,41320,2,0,L|121:266,1,57.7500017623902,8|0,3:0|0:0,0:0:0:0:
333,225,41513,2,0,L|407:219,1,57.7500017623902,2|0,0:0|0:0,0:0:0:0:
48,288,41705,6,0,L|163:273,1,115.50000352478,6|2,0:0|0:0,0:0:0:0:
470,296,42090,2,0,L|356:309,1,115.50000352478,10|2,3:0|0:0,0:0:0:0:
297,317,42378,1,0,0:0:0:0:
97,340,42474,2,0,L|224:328,1,115.50000352478,10|0,3:0|0:0,0:0:0:0:
270,321,42763,1,0,0:0:0:0:
96,208,42859,2,0,L|14:207,1,57.7500017623902,8|8,3:0|3:0,0:0:0:0:
99,154,43051,2,0,L|162:150,1,57.7500017623902,8|8,3:0|3:0,0:0:0:0:
360,201,43243,6,0,L|470:206,2,105,10|2|8,3:0|0:0|3:0,0:0:0:0:
210,195,43820,2,0,L|208:304,1,105,2|8,0:0|3:0,0:0:0:0:
56,216,44205,2,0,L|54:325,1,105,2|8,0:0|3:0,0:0:0:0:
322,335,44590,6,0,P|373:313|309:208,1,210,2|0,0:0|0:0,0:0:0:0:
166,197,45167,2,0,L|161:79,1,105,10|0,3:0|0:0,0:0:0:0:
315,173,45551,2,0,L|310:55,1,105,10|0,3:0|0:0,0:0:0:0:
461,157,45936,2,0,L|463:41,1,105,10|0,3:0|0:0,0:0:0:0:
465,14,46224,1,0,0:0:0:0:
279,30,46320,6,0,L|171:24,2,105,10|2|8,3:0|0:0|3:0,0:0:0:0:
423,73,46897,2,0,L|427:181,1,105,2|8,0:0|3:0,0:0:0:0:
278,108,47282,2,0,L|282:216,1,105,2|8,0:0|3:0,0:0:0:0:
16,224,47667,6,0,L|236:245,1,210,2|0,0:0|0:0,0:0:0:0:
75,175,48243,2,0,L|71:56,1,105,10|0,3:0|0:0,0:0:0:0:
340,201,48628,1,10,3:0:0:0:
393,181,48724,1,8,3:0:0:0:
396,117,48820,1,8,3:0:0:0:
346,91,48916,1,8,3:0:0:0:
133,82,49013,2,0,L|208:78,1,52.5,10|8,3:0|3:0,0:0:0:0:
370,61,49205,2,0,L|445:57,1,52.5,8|8,3:0|3:0,0:0:0:0:
186,184,49397,6,0,L|295:179,1,105,6|2,0:0|0:0,0:0:0:0:
141,214,49782,1,10,3:0:0:0:
132,266,49878,1,0,0:0:0:0:
138,318,49974,1,0,0:0:0:0:
393,330,50167,2,0,L|266:338,1,105,10|0,3:0|0:0,0:0:0:0:
339,276,50455,2,0,L|338:216,1,52.5,2|8,0:0|3:0,0:0:0:0:
190,214,50743,1,2,0:0:0:0:
444,205,50936,6,0,L|447:85,1,105,10|2,3:0|0:0,0:0:0:0:
300,102,51320,2,0,L|299:166,1,52.5,10|0,3:0|0:0,0:0:0:0:
353,153,51513,2,0,L|352:217,1,52.5,2|0,0:0|0:0,0:0:0:0:
192,214,51705,2,0,L|80:221,1,105,10|0,3:0|0:0,0:0:0:0:
35,225,51993,1,0,0:0:0:0:
224,196,52090,2,0,L|225:132,1,52.5,10|0,3:0|0:0,0:0:0:0:
170,131,52282,1,2,0:0:0:0:
442,126,52474,6,0,L|445:235,1,105,10|0,3:0|0:0,0:0:0:0:
307,219,52859,2,0,L|310:276,1,52.5,10|0,3:0|0:0,0:0:0:0:
366,295,53051,2,0,L|422:300,1,52.5
258,312,53243,2,0,L|134:304,1,105,10|0,3:0|0:0,0:0:0:0:
151,243,53532,1,2,0:0:0:0:
208,221,53628,1,8,3:0:0:0:
368,185,53820,1,2,0:0:0:0:
94,171,54013,5,10,3:0:0:0:
233,154,54205,2,0,L|235:43,1,105,2|10,0:0|3:0,0:0:0:0:
182,47,54493,1,0,0:0:0:0:
364,52,54590,2,0,L|304:47,1,52.5,2|0,0:0|0:0,0:0:0:0:
102,51,54782,2,0,L|48:49,1,52.5,8|0,3:0|0:0,0:0:0:0:
101,98,54974,2,0,L|159:101,1,52.5,2|0,0:0|0:0,0:0:0:0:
368,119,55167,2,0,L|425:122,1,52.5,10|0,3:0|0:0,0:0:0:0:
233,162,55359,2,0,L|176:165,1,52.5
418,198,55551,6,0,L|422:308,1,105,10|2,3:0|0:0,0:0:0:0:
265,291,55936,2,0,L|213:291,1,52.5,10|0,3:0|0:0,0:0:0:0:
265,250,56128,2,0,L|317:250,1,52.5
149,203,56320,2,0,L|145:81,1,105,10|0,3:0|0:0,0:0:0:0:
199,101,56609,2,0,L|202:43,1,52.5,2|8,0:0|3:0,0:0:0:0:
64,50,56897,1,2,0:0:0:0:
328,164,57090,6,0,L|451:172,1,105,10|2,3:0|0:0,0:0:0:0:
180,223,57474,2,0,L|188:290,1,52.5,10|0,3:0|0:0,0:0:0:0:
239,292,57667,2,0,L|300:299,1,52.5,2|0,0:0|0:0,0:0:0:0:
133,328,57859,2,0,L|20:320,1,105,10|0,3:0|0:0,0:0:0:0:
32,258,58147,1,0,0:0:0:0:
138,196,58243,2,0,L|195:191,1,52.5,10|0,3:0|0:0,0:0:0:0:
247,157,58436,2,0,L|246:101,1,52.5,2|0,0:0|0:0,0:0:0:0:
59,103,58628,6,0,L|57:39,1,52.5,10|0,3:0|0:0,0:0:0:0:
114,47,58820,1,2,0:0:0:0:
269,187,59013,2,0,L|271:249,1,52.5,10|0,3:0|0:0,0:0:0:0:
216,257,59205,2,0,L|218:319,1,52.5
379,316,59397,2,0,L|484:325,1,105,10|0,3:0|0:0,0:0:0:0:
300,190,59686,2,0,L|299:130,1,52.5,2|8,0:0|3:0,0:0:0:0:
448,120,59974,2,0,L|449:61,1,52.5,2|0,0:0|0:0,0:0:0:0:
236,67,60167,6,0,L|118:59,1,105,10|2,3:0|0:0,0:0:0:0:
279,103,60551,2,0,L|281:166,1,52.5,10|0,3:0|0:0,0:0:0:0:
118,169,60743,2,0,L|52:175,1,52.5,2|0,0:0|0:0,0:0:0:0:
229,185,60936,2,0,L|288:182,1,52.5,8|0,3:0|0:0,0:0:0:0:
335,225,61128,2,0,L|267:227,1,52.5,2|0,0:0|0:0,0:0:0:0:
87,266,61320,2,0,L|32:272,1,52.5,10|0,3:0|0:0,0:0:0:0:
247,278,61513,2,0,L|301:274,1,52.5
35,240,61705,6,0,L|28:126,1,105,10|0,3:0|0:0,0:0:0:0:
186,144,62090,1,8,3:0:0:0:
238,125,62186,1,0,0:0:0:0:
241,76,62282,1,0,0:0:0:0:
191,56,62378,1,0,0:0:0:0:
350,55,62474,2,0,L|468:61,1,105,10|0,3:0|0:0,0:0:0:0:
266,193,62763,1,2,0:0:0:0:
259,246,62859,1,8,3:0:0:0:
262,297,62955,1,0,0:0:0:0:
342,300,63051,2,0,L|346:361,1,52.5,2|0,0:0|0:0,0:0:0:0:
132,325,63243,6,0,L|17:320,1,105,10|0,3:0|0:0,0:0:0:0:
65,299,63532,1,0,0:0:0:0:
116,268,63628,1,8,3:0:0:0:
125,220,63724,1,0,0:0:0:0:
98,176,63820,1,2,0:0:0:0:
39,168,63916,1,0,0:0:0:0:
240,171,64013,2,0,L|242:111,1,52.5,10|0,3:0|0:0,0:0:0:0:
182,97,64205,2,0,L|181:41,1,52.5
365,51,64397,2,0,L|433:46,1,52.5,10|0,3:0|0:0,0:0:0:0:
252,43,64590,2,0,L|180:45,1,52.5
461,99,64782,6,0,L|464:213,1,105,10|0,3:0|0:0,0:0:0:0:
309,201,65167,2,0,L|245:205,1,52.5,8|0,3:0|0:0,0:0:0:0:
91,254,65359,2,0,L|151:258,1,52.5,2|0,0:0|0:0,0:0:0:0:
356,256,65551,2,0,L|356:187,1,52.5,8|0,3:0|0:0,0:0:0:0:
165,190,65743,2,0,L|163:130,1,52.5
403,128,65936,2,0,L|477:121,1,52.5,10|0,3:0|0:0,0:0:0:0:
245,111,66128,2,0,L|178:113,1,52.5
453,65,66320,6,0,L|288:74,1,157.5,14|8,0:0|3:0,0:0:0:0:
454,20,66705,1,8,3:0:0:0:
195,45,66897,2,0,L|118:48,1,52.5,8|0,3:0|0:0,0:0:0:0:
304,113,67090,1,6,0:0:0:0:
327,126,67138,1,0,3:0:0:0:
341,148,67186,1,0,3:0:0:0:
346,174,67234,1,0,3:0:0:0:
339,199,67282,1,0,3:0:0:0:
323,219,67330,1,0,3:0:0:0:
300,231,67378,1,0,3:0:0:0:
89,253,67474,6,0,L|162:259,1,52.5,8|8,3:0|3:0,0:0:0:0:
355,284,67667,2,0,L|409:289,1,52.5,8|8,3:0|3:0,0:0:0:0:
151,204,67859,6,0,L|148:130,1,62.9999980773926,10|0,3:0|0:0,0:0:0:0:
216,146,68051,2,0,L|221:73,1,62.9999980773926
26,72,68243,2,0,L|93:66,1,62.9999980773926,10|0,3:0|0:0,0:0:0:0:
311,58,68436,2,0,L|178:70,1,125.999996154785,2|8,0:0|3:0,0:0:0:0:
345,113,68820,1,2,0:0:0:0:
80,147,69013,2,0,L|14:151,1,62.9999980773926,10|0,3:0|0:0,0:0:0:0:
215,185,69205,2,0,L|281:189,1,62.9999980773926,2|0,0:0|0:0,0:0:0:0:
48,240,69397,6,0,L|209:249,1,125.999996154785,10|0,3:0|0:0,0:0:0:0:
237,253,69686,1,0,0:0:0:0:
32,288,69782,2,0,L|28:154,1,125.999996154785,10|0,3:0|0:0,0:0:0:0:
92,152,70070,1,0,0:0:0:0:
317,138,70167,2,0,L|447:131,1,125.999996154785,10|0,3:0|0:0,0:0:0:0:
379,84,70455,1,0,0:0:0:0:
162,84,70551,2,0,L|161:156,1,62.9999980773926,8|0,3:0|0:0,0:0:0:0:
359,170,70743,1,0,0:0:0:0:
32,176,70936,6,0,L|36:253,1,62.9999980773926,10|0,3:0|0:0,0:0:0:0:
92,264,71128,2,0,L|163:276,1,62.9999980773926,2|0,0:0|0:0,0:0:0:0:
355,276,71320,2,0,L|284:282,1,62.9999980773926,10|0,3:0|0:0,0:0:0:0:
228,318,71513,2,0,L|312:315,1,62.9999980773926,2|0,0:0|0:0,0:0:0:0:
483,225,71705,2,0,L|490:98,1,125.999996154785,10|0,3:0|0:0,0:0:0:0:
427,96,71993,1,0,0:0:0:0:
226,103,72090,2,0,L|144:109,1,62.9999980773926,8|0,3:0|0:0,0:0:0:0:
102,160,72282,2,0,L|100:227,1,62.9999980773926
326,208,72474,6,0,L|398:200,1,62.9999980773926,10|0,3:0|0:0,0:0:0:0:
194,238,72667,2,0,L|191:311,1,62.9999980773926,2|0,0:0|0:0,0:0:0:0:
396,299,72859,2,0,L|290:312,1,62.9999980773926,10|0,3:0|0:0,0:0:0:0:
264,288,73051,2,0,L|262:213,1,62.9999980773926,2|0,0:0|0:0,0:0:0:0:
456,145,73243,1,10,3:0:0:0:
309,157,73436,2,0,L|305:77,1,62.9999980773926
496,80,73628,2,0,L|431:76,1,62.9999980773926,8|0,3:0|0:0,0:0:0:0:
212,73,73820,2,0,L|147:69,1,62.9999980773926
420,185,74013,6,0,L|425:249,1,62.9999980773926,10|0,3:0|0:0,0:0:0:0:
358,276,74205,2,0,L|282:289,1,62.9999980773926
496,288,74397,2,0,L|433:295,1,62.9999980773926,10|0,3:0|0:0,0:0:0:0:
242,327,74590,2,0,L|116:338,1,125.999996154785,2|8,0:0|3:0,0:0:0:0:
296,248,74974,2,0,L|302:179,1,62.9999980773926,2|0,0:0|0:0,0:0:0:0:
105,164,75167,2,0,L|42:162,1,62.9999980773926,10|0,3:0|0:0,0:0:0:0:
261,143,75359,2,0,L|329:146,1,62.9999980773926,2|0,0:0|0:0,0:0:0:0:
70,104,75551,6,0,L|220:104,1,125.999996154785,10|2,3:0|0:0,0:0:0:0:
261,104,75840,1,0,0:0:0:0:
43,176,75936,2,0,L|39:242,1,62.9999980773926,10|0,3:0|0:0,0:0:0:0:
102,250,76128,1,2,0:0:0:0:
415,265,76320,2,0,L|274:274,1,125.999996154785,10|0,3:0|0:0,0:0:0:0:
226,282,76609,1,0,0:0:0:0:
419,169,76705,2,0,L|423:99,1,62.9999980773926,8|0,3:0|0:0,0:0:0:0:
359,101,76897,1,0,0:0:0:0:
33,148,77090,6,0,L|44:7,1,125.999996154785,10|2,3:0|0:0,0:0:0:0:
109,23,77378,1,0,0:0:0:0:
304,162,77474,2,0,L|311:229,1,62.9999980773926,10|0,3:0|0:0,0:0:0:0:
245,218,77667,2,0,L|239:291,1,62.9999980773926,2|0,0:0|0:0,0:0:0:0:
429,305,77859,1,10,3:0:0:0:
157,329,78051,2,0,L|82:335,1,62.9999980773926,2|0,0:0|0:0,0:0:0:0:
314,190,78243,2,0,L|317:116,1,62.9999980773926,10|0,3:0|0:0,0:0:0:0:
253,130,78436,2,0,L|251:63,1,62.9999980773926,2|0,0:0|0:0,0:0:0:0:
492,52,78628,6,0,L|333:47,1,125.999996154785,10|0,3:0|0:0,0:0:0:0:
30,49,79013,2,0,L|95:52,1,62.9999980773926,8|0,3:0|0:0,0:0:0:0:
312,99,79205,2,0,L|383:105,1,62.9999980773926
150,146,79397,2,0,L|228:154,1,62.9999980773926,8|0,3:0|0:0,0:0:0:0:
496,176,79590,1,0,0:0:0:0:
496,207,79638,1,0,0:0:0:0:
495,238,79686,1,0,0:0:0:0:
220,218,79782,2,0,L|293:223,1,62.9999980773926,8|0,3:0|0:0,0:0:0:0:
346,226,79974,2,0,L|349:298,1,62.9999980773926
120,286,80167,6,0,L|121:209,1,62.9999980773926,14|0,0:0|0:0,0:0:0:0:
185,195,80359,2,0,L|191:124,1,62.9999980773926
16,96,80551,2,0,L|90:90,1,62.9999980773926,10|0,3:0|0:0,0:0:0:0:
287,85,80743,2,0,L|143:74,1,125.999996154785,2|8,0:0|3:0,0:0:0:0:
335,101,81128,1,2,0:0:0:0:
48,176,81320,2,0,L|124:179,1,62.9999980773926,10|0,3:0|0:0,0:0:0:0:
333,203,81513,2,0,L|434:211,1,62.9999980773926,2|0,0:0|0:0,0:0:0:0:
142,227,81705,6,0,L|139:160,1,62.9999980773926,10|0,3:0|0:0,0:0:0:0:
333,203,81897,2,0,L|246:195,1,62.9999980773926,2|0,0:0|0:0,0:0:0:0:
20,66,82090,2,0,L|83:69,1,62.9999980773926,10|0,3:0|0:0,0:0:0:0:
273,81,82282,2,0,L|336:86,1,62.9999980773926,2|0,0:0|0:0,0:0:0:0:
85,160,82474,2,0,L|82:285,1,125.999996154785,10|0,3:0|0:0,0:0:0:0:
144,295,82763,1,0,0:0:0:0:
362,292,82859,2,0,L|299:299,1,62.9999980773926,8|0,3:0|0:0,0:0:0:0:
236,311,83051,2,0,L|173:318,1,62.9999980773926
406,202,83243,6,0,L|402:139,1,62.9999980773926,10|0,3:0|0:0,0:0:0:0:
337,127,83436,2,0,L|275:124,1,62.9999980773926,2|0,0:0|0:0,0:0:0:0:
495,63,83628,2,0,L|433:61,1,62.9999980773926,10|0,3:0|0:0,0:0:0:0:
242,59,83820,2,0,L|180:57,1,62.9999980773926,2|0,0:0|0:0,0:0:0:0:
401,126,84013,2,0,L|407:252,1,125.999996154785,10|0,3:0|0:0,0:0:0:0:
342,269,84301,1,0,0:0:0:0:
123,200,84397,2,0,L|61:201,2,62.9999980773926,8|0|0,3:0|0:0|0:0,0:0:0:0:
422,227,84782,6,0,L|427:164,1,62.9999980773926,10|0,3:0|0:0,0:0:0:0:
205,187,84974,2,0,L|268:180,1,62.9999980773926,2|0,0:0|0:0,0:0:0:0:
474,161,85167,2,0,L|478:98,1,62.9999980773926,10|0,3:0|0:0,0:0:0:0:
414,77,85359,2,0,L|352:72,1,62.9999980773926,2|0,0:0|0:0,0:0:0:0:
159,55,85551,2,0,L|159:117,1,62.9999980773926,10|0,3:0|0:0,0:0:0:0:
221,130,85743,2,0,L|284:136,1,62.9999980773926
129,190,85936,1,8,3:0:0:0:
421,233,86128,1,0,0:0:0:0:
70,213,86320,6,0,L|74:150,1,62.9999980773926,10|0,3:0|0:0,0:0:0:0:
139,128,86513,2,0,L|202:125,1,62.9999980773926
15,94,86705,2,0,L|78:90,1,62.9999980773926,10|0,3:0|0:0,0:0:0:0:
314,50,86897,2,0,L|189:57,1,125.999996154785,2|8,0:0|3:0,0:0:0:0:
376,116,87282,2,0,L|379:178,1,62.9999980773926,2|0,0:0|0:0,0:0:0:0:
154,202,87474,2,0,L|217:200,1,62.9999980773926,10|0,3:0|0:0,0:0:0:0:
377,205,87667,1,2,0:0:0:0:
96,268,87859,6,0,L|93:203,1,62.9999980773926,10|0,3:0|0:0,0:0:0:0:
259,142,88051,2,0,L|322:146,1,62.9999980773926,2|0,0:0|0:0,0:0:0:0:
108,141,88243,2,0,L|41:140,1,62.9999980773926,10|0,3:0|0:0,0:0:0:0:
271,106,88436,2,0,L|347:104,1,62.9999980773926,2|0,0:0|0:0,0:0:0:0:
82,36,88628,2,0,L|208:30,1,125.999996154785,10|0,3:0|0:0,0:0:0:0:
211,95,88917,1,0,0:0:0:0:
119,172,89013,2,0,L|110:238,2,62.9999980773926,8|0|0,3:0|0:0|0:0,0:0:0:0:
492,224,89397,6,0,P|494:277|421:315,1,125.999996154785,10|2,3:0|0:0,0:0:0:0:
373,293,89686,1,0,0:0:0:0:
177,261,89782,2,0,L|176:186,1,62.9999980773926,10|0,3:0|0:0,0:0:0:0:
239,203,89974,2,0,L|238:128,1,62.9999980773926,2|0,0:0|0:0,0:0:0:0:
70,140,90167,1,10,3:0:0:0:
347,133,90359,2,0,L|409:132,1,62.9999980773926,8|8,3:0|3:0,0:0:0:0:
204,112,90551,2,0,L|118:113,1,62.9999980773926,10|8,3:0|3:0,0:0:0:0:
428,60,90743,2,0,L|365:61,1,62.9999980773926,10|8,3:0|3:0,0:0:0:0:
78,57,90936,6,0,L|266:55,1,188.999994232178,14|0,0:0|0:0,0:0:0:0:
79,115,91320,2,0,L|17:118,2,62.9999980773926,14|0|0,0:0|0:0|0:0,0:0:0:0:
460,137,91705,2,0,L|397:143,1,62.9999980773926,14|0,0:0|0:0,0:0:0:0:
172,175,91898,1,8,3:0:0:0:
204,176,91946,1,2,0:0:0:0:
235,178,91994,1,8,3:0:0:0:
469,200,92090,2,0,L|470:262,1,62.9999980773926,0|8,0:0|3:0,0:0:0:0:
278,271,92282,2,0,L|216:276,1,62.9999980773926,8|8,3:0|3:0,0:0:0:0:
449,336,92474,6,0,L|447:278,1,57.7500017623902,14|0,0:0|0:0,0:0:0:0:
274,188,92667,2,0,L|217:184,1,57.7500017623902,2|0,0:0|0:0,0:0:0:0:
420,125,92859,2,0,L|305:118,1,115.50000352478,10|0,3:0|0:0,0:0:0:0:
154,188,93243,2,0,L|150:72,1,115.50000352478,10|0,3:0|0:0,0:0:0:0:
325,78,93532,2,0,L|324:20,1,57.7500017623902,2|8,0:0|3:0,0:0:0:0:
264,11,93724,1,2,0:0:0:0:
206,9,93820,1,2,0:0:0:0:
496,224,94013,6,0,L|439:224,1,57.7500017623902,10|0,3:0|0:0,0:0:0:0:
271,214,94205,2,0,L|329:215,1,57.7500017623902,2|0,0:0|0:0,0:0:0:0:
496,144,94397,2,0,L|381:142,1,115.50000352478,10|0,3:0|0:0,0:0:0:0:
214,136,94782,2,0,L|330:138,1,115.50000352478,10|0,3:0|0:0,0:0:0:0:
187,187,95167,2,0,L|303:191,1,115.50000352478,10|2,3:0|0:0,0:0:0:0:
16,304,95551,6,0,L|18:246,1,57.7500017623902,10|0,3:0|0:0,0:0:0:0:
215,214,95743,2,0,L|273:214,1,57.7500017623902,2|0,0:0|0:0,0:0:0:0:
71,183,95936,2,0,L|71:116,1,57.7500017623902,10|0,3:0|0:0,0:0:0:0:
127,90,96128,2,0,L|192:83,1,57.7500017623902,2|0,0:0|0:0,0:0:0:0:
380,84,96320,2,0,L|383:199,1,115.50000352478,10|0,3:0|0:0,0:0:0:0:
232,207,96705,1,10,3:0:0:0:
393,241,96897,1,2,0:0:0:0:
98,266,97090,6,0,L|214:270,2,115.50000352478,10|2|10,3:0|0:0|3:0,0:0:0:0:
95,201,97570,1,0,0:0:0:0:
154,164,97667,2,0,L|214:158,1,57.7500017623902,2|0,0:0|0:0,0:0:0:0:
17,109,97859,2,0,L|74:105,1,57.7500017623902,10|8,3:0|3:0,0:0:0:0:
252,92,98051,2,0,L|313:89,1,57.7500017623902,10|8,3:0|3:0,0:0:0:0:
106,71,98243,2,0,L|179:67,1,57.7500017623902,8|8,3:0|3:0,0:0:0:0:
376,44,98436,2,0,L|434:47,1,57.7500017623902,8|8,3:0|3:0,0:0:0:0:
196,170,98628,6,0,L|193:227,1,57.7500017623902,6|0,0:0|0:0,0:0:0:0:
393,241,98820,2,0,L|335:241,1,57.7500017623902,2|0,0:0|0:0,0:0:0:0:
133,298,99013,2,0,L|247:309,1,115.50000352478,10|0,3:0|0:0,0:0:0:0:
85,204,99397,2,0,L|85:88,1,115.50000352478,10|0,3:0|0:0,0:0:0:0:
264,173,99686,2,0,L|262:115,1,57.7500017623902,2|8,0:0|3:0,0:0:0:0:
203,106,99878,1,2,0:0:0:0:
143,98,99974,1,2,0:0:0:0:
496,160,100167,6,0,L|439:160,1,57.7500017623902,10|0,3:0|0:0,0:0:0:0:
259,126,100359,2,0,L|201:124,1,57.7500017623902,2|0,0:0|0:0,0:0:0:0:
409,66,100551,2,0,L|294:64,1,115.50000352478,10|0,3:0|0:0,0:0:0:0:
121,162,100936,2,0,L|115:277,1,115.50000352478,10|0,3:0|0:0,0:0:0:0:
258,272,101320,1,10,3:0:0:0:
110,310,101513,1,2,0:0:0:0:
464,304,101705,6,0,L|406:308,1,57.7500017623902,10|0,3:0|0:0,0:0:0:0:
232,321,101897,2,0,L|175:329,1,57.7500017623902,2|0,0:0|0:0,0:0:0:0:
382,253,102090,2,0,L|386:137,1,115.50000352478,10|0,3:0|0:0,0:0:0:0:
127,144,102474,2,0,L|242:139,1,115.50000352478,10|0,3:0|0:0,0:0:0:0:
245,74,102763,1,2,0:0:0:0:
68,80,102859,2,0,L|64:137,1,57.7500017623902,8|0,3:0|0:0,0:0:0:0:
239,198,103051,2,0,L|296:193,1,57.7500017623902,2|0,0:0|0:0,0:0:0:0:
16,272,103243,6,0,L|130:260,1,115.50000352478,6|2,0:0|0:0,0:0:0:0:
421,264,103628,2,0,L|307:277,1,115.50000352478,10|2,3:0|0:0,0:0:0:0:
248,290,103917,1,0,0:0:0:0:
464,112,104013,2,0,L|349:101,1,115.50000352478,10|0,3:0|0:0,0:0:0:0:
291,93,104301,1,0,0:0:0:0:
77,91,104397,2,0,L|19:88,1,57.7500017623902,8|8,3:0|3:0,0:0:0:0:
79,150,104590,2,0,L|136:150,1,57.7500017623902,8|8,3:0|3:0,0:0:0:0:
377,268,104782,6,0,L|481:261,2,105,10|2|8,3:0|0:0|3:0,0:0:0:0:
219,197,105359,2,0,L|217:301,1,105,2|8,0:0|3:0,0:0:0:0:
374,134,105743,2,0,L|375:238,1,105,2|8,0:0|3:0,0:0:0:0:
110,340,106128,6,0,L|319:320,1,210,2|0,0:0|0:0,0:0:0:0:
162,290,106705,2,0,L|157:185,1,105,10|0,3:0|0:0,0:0:0:0:
307,279,107090,2,0,L|308:174,1,105,10|0,3:0|0:0,0:0:0:0:
463,289,107475,2,0,L|464:184,1,105,10|0,3:0|0:0,0:0:0:0:
410,173,107763,1,0,0:0:0:0:
223,165,107859,6,0,L|118:159,2,105,10|2|8,3:0|0:0|3:0,0:0:0:0:
378,186,108436,2,0,L|381:290,1,105,2|8,0:0|3:0,0:0:0:0:
225,291,108821,2,0,L|120:295,1,105,2|8,0:0|3:0,0:0:0:0:
403,84,109206,6,0,P|469:152|408:225,1,210,2|0,0:0|0:0,0:0:0:0:
251,224,109782,2,0,L|355:220,1,105,10|0,3:0|0:0,0:0:0:0:
93,266,110167,1,10,3:0:0:0:
41,249,110263,1,8,3:0:0:0:
38,185,110359,1,8,3:0:0:0:
87,156,110455,1,8,3:0:0:0:
302,142,110552,2,0,L|355:144,1,52.5,10|8,3:0|3:0,0:0:0:0:
116,103,110744,2,0,L|168:104,1,52.5,8|8,3:0|3:0,0:0:0:0:
405,251,110936,6,0,L|300:246,1,105,6|2,0:0|0:0,0:0:0:0:
451,215,111320,2,0,L|453:162,1,52.5,10|0,3:0|0:0,0:0:0:0:
389,130,111513,2,0,L|336:128,1,52.5
151,320,111705,2,0,L|255:326,1,105,10|0,3:0|0:0,0:0:0:0:
321,305,111993,2,0,L|321:252,1,52.5,2|8,0:0|3:0,0:0:0:0:
183,238,112281,1,2,0:0:0:0:
478,314,112474,6,0,L|480:209,1,105,10|2,3:0|0:0,0:0:0:0:
323,225,112858,2,0,L|322:277,1,52.5,10|0,3:0|0:0,0:0:0:0:
385,276,113051,2,0,L|384:328,1,52.5,2|0,0:0|0:0,0:0:0:0:
216,308,113243,2,0,L|111:314,1,105,10|0,3:0|0:0,0:0:0:0:
107,245,113531,1,0,0:0:0:0:
269,199,113628,2,0,L|269:146,1,52.5,10|0,3:0|0:0,0:0:0:0:
202,123,113820,1,2,0:0:0:0:
486,126,114012,6,0,L|488:230,1,105,10|0,3:0|0:0,0:0:0:0:
332,211,114397,2,0,L|334:263,1,52.5,10|0,3:0|0:0,0:0:0:0:
390,289,114589,2,0,L|387:236,1,52.5
200,211,114781,2,0,L|95:204,1,105,10|0,3:0|0:0,0:0:0:0:
86,277,115070,1,2,0:0:0:0:
145,310,115166,1,8,3:0:0:0:
303,322,115358,1,2,0:0:0:0:
40,226,115551,5,10,3:0:0:0:
191,249,115743,2,0,L|192:144,1,105,2|10,0:0|3:0,0:0:0:0:
140,133,116031,1,0,0:0:0:0:
332,138,116128,2,0,L|385:142,1,52.5,2|0,0:0|0:0,0:0:0:0:
183,39,116320,2,0,L|181:91,1,52.5,8|0,3:0|0:0,0:0:0:0:
236,84,116512,2,0,L|234:136,1,52.5,2|0,0:0|0:0,0:0:0:0:
46,142,116705,2,0,L|98:144,1,52.5,10|0,3:0|0:0,0:0:0:0:
283,191,116897,2,0,L|336:197,1,52.5
151,197,117089,6,0,L|147:301,1,105,10|2,3:0|0:0,0:0:0:0:
280,320,117474,2,0,L|280:267,1,52.5,10|0,3:0|0:0,0:0:0:0:
227,237,117666,2,0,L|175:228,1,52.5
359,212,117858,2,0,L|362:107,1,105,10|0,3:0|0:0,0:0:0:0:
280,151,118147,1,2,0:0:0:0:
230,116,118243,1,8,3:0:0:0:
236,47,118339,1,0,0:0:0:0:
290,21,118435,1,2,0:0:0:0:
359,23,118532,1,0,0:0:0:0:
178,166,118628,6,0,L|73:172,1,105,10|2,3:0|0:0,0:0:0:0:
338,222,119012,2,0,L|339:274,1,52.5,10|0,3:0|0:0,0:0:0:0:
281,263,119205,2,0,L|275:315,1,52.5,2|0,0:0|0:0,0:0:0:0:
429,251,119397,2,0,L|422:143,1,105,10|0,3:0|0:0,0:0:0:0:
366,129,119685,1,0,0:0:0:0:
206,189,119781,2,0,L|154:179,1,52.5,10|0,3:0|0:0,0:0:0:0:
100,131,119974,2,0,L|98:78,1,52.5,2|0,0:0|0:0,0:0:0:0:
264,87,120166,6,0,L|316:89,2,52.5,10|0|2,3:0|0:0|0:0,0:0:0:0:
104,150,120551,2,0,L|102:202,1,52.5,10|0,3:0|0:0,0:0:0:0:
158,232,120743,2,0,L|210:237,1,52.5
368,208,120935,2,0,L|371:312,1,105,10|0,3:0|0:0,0:0:0:0:
260,283,121224,2,0,L|259:230,1,52.5,2|8,0:0|3:0,0:0:0:0:
328,223,121417,1,0,0:0:0:0:
380,193,121512,2,0,L|380:140,1,52.5,2|0,0:0|0:0,0:0:0:0:
168,210,121705,6,0,L|63:216,1,105,10|2,3:0|0:0,0:0:0:0:
218,164,122089,2,0,L|219:111,1,52.5,10|0,3:0|0:0,0:0:0:0:
63,165,122281,2,0,L|10:169,1,52.5,2|0,0:0|0:0,0:0:0:0:
225,207,122474,2,0,L|277:204,1,52.5,8|0,3:0|0:0,0:0:0:0:
330,249,122666,2,0,L|277:250,1,52.5,2|0,0:0|0:0,0:0:0:0:
89,266,122858,2,0,L|141:266,1,52.5,10|0,3:0|0:0,0:0:0:0:
352,306,123051,2,0,L|299:307,1,52.5
16,304,123243,6,0,L|24:199,1,105,10|0,3:0|0:0,0:0:0:0:
166,168,123628,2,0,L|165:115,1,52.5,8|0,3:0|0:0,0:0:0:0:
111,75,123820,2,0,L|58:72,1,52.5
233,51,124012,2,0,L|337:56,1,105,10|0,3:0|0:0,0:0:0:0:
149,189,124301,1,2,0:0:0:0:
147,243,124397,1,8,3:0:0:0:
200,268,124493,1,0,0:0:0:0:
358,296,124589,2,0,L|410:298,1,52.5,2|0,0:0|0:0,0:0:0:0:
185,323,124781,6,0,L|49:313,1,105,10|0,3:0|0:0,0:0:0:0:
89,261,125070,1,0,0:0:0:0:
191,136,125167,2,0,L|243:138,1,52.5,8|0,3:0|0:0,0:0:0:0:
190,188,125359,2,0,L|137:186,1,52.5,2|0,0:0|0:0,0:0:0:0:
319,296,125551,2,0,L|323:243,1,52.5,10|0,3:0|0:0,0:0:0:0:
270,203,125743,2,0,L|217:196,1,52.5
37,126,125935,2,0,L|89:122,1,52.5,10|0,3:0|0:0,0:0:0:0:
143,115,126128,2,0,L|196:113,1,52.5
405,103,126320,6,0,L|407:207,1,105,10|0,3:0|0:0,0:0:0:0:
354,211,126609,1,0,0:0:0:0:
192,189,126705,2,0,L|187:242,1,52.5,8|0,3:0|0:0,0:0:0:0:
371,258,126897,2,0,L|318:261,1,52.5,2|0,0:0|0:0,0:0:0:0:
128,327,127089,2,0,L|128:274,1,52.5,8|0,3:0|0:0,0:0:0:0:
319,261,127281,2,0,L|320:208,1,52.5
95,135,127474,2,0,L|148:139,1,52.5,10|0,3:0|0:0,0:0:0:0:
358,115,127666,2,0,L|306:113,1,52.5
42,204,127858,6,0,L|199:212,1,157.5,12|8,0:0|3:0,0:0:0:0:
440,225,128243,1,8,3:0:0:0:
460,207,128291,1,0,3:0:0:0:
468,183,128339,1,0,3:0:0:0:
462,157,128387,1,0,3:0:0:0:
444,139,128435,1,8,3:0:0:0:
269,125,128532,1,8,3:0:0:0:
96,138,128628,5,12,0:0:0:0:
73,151,128676,1,0,3:0:0:0:
59,173,128724,1,0,3:0:0:0:
54,199,128772,1,0,3:0:0:0:
61,224,128820,1,0,3:0:0:0:
77,244,128868,1,0,3:0:0:0:
100,256,128916,1,0,3:0:0:0:
360,266,129012,2,0,L|412:268,1,52.5,8|8,3:0|3:0,0:0:0:0:
174,300,129205,2,0,L|226:301,1,52.5,8|8,3:0|3:0,0:0:0:0:
496,192,129397,6,0,L|492:129,1,62.9999980773926,10|0,3:0|0:0,0:0:0:0:
427,113,129590,2,0,L|364:107,1,62.9999980773926
142,154,129782,2,0,L|138:216,1,62.9999980773926,10|0,3:0|0:0,0:0:0:0:
360,96,129974,2,0,L|234:100,1,125.999996154785,2|8,0:0|3:0,0:0:0:0:
397,163,130359,1,2,0:0:0:0:
120,196,130551,2,0,L|182:199,1,62.9999980773926,10|0,3:0|0:0,0:0:0:0:
400,204,130743,2,0,L|337:204,1,62.9999980773926,2|0,0:0|0:0,0:0:0:0:
80,212,130936,6,0,L|73:337,1,125.999996154785,10|0,3:0|0:0,0:0:0:0:
137,351,131224,1,0,0:0:0:0:
363,324,131320,2,0,L|237:318,1,125.999996154785,10|0,3:0|0:0,0:0:0:0:
171,309,131609,1,0,0:0:0:0:
400,291,131705,2,0,L|409:165,1,125.999996154785,10|0,3:0|0:0,0:0:0:0:
343,162,131993,1,0,0:0:0:0:
137,128,132090,2,0,L|74:125,1,62.9999980773926,8|0,3:0|0:0,0:0:0:0:
293,104,132282,2,0,L|355:99,1,62.9999980773926
99,187,132474,6,0,L|95:249,1,62.9999980773926,10|0,3:0|0:0,0:0:0:0:
159,271,132667,2,0,L|221:281,1,62.9999980773926,2|0,0:0|0:0,0:0:0:0:
409,290,132859,2,0,L|471:291,1,62.9999980773926,10|0,3:0|0:0,0:0:0:0:
406,336,133051,2,0,L|344:338,1,62.9999980773926,2|0,0:0|0:0,0:0:0:0:
147,348,133243,2,0,L|272:336,1,125.999996154785,10|0,3:0|0:0,0:0:0:0:
339,276,133532,1,0,0:0:0:0:
139,261,133628,2,0,L|210:251,1,62.9999980773926,8|0,3:0|0:0,0:0:0:0:
264,202,133820,2,0,L|266:139,1,62.9999980773926
72,39,134013,6,0,L|135:41,1,62.9999980773926,10|0,3:0|0:0,0:0:0:0:
335,72,134205,2,0,L|338:134,1,62.9999980773926,2|0,0:0|0:0,0:0:0:0:
145,235,134397,2,0,L|214:229,1,62.9999980773926,10|0,3:0|0:0,0:0:0:0:
271,192,134590,2,0,L|273:129,1,62.9999980773926,2|0,0:0|0:0,0:0:0:0:
82,153,134782,1,10,3:0:0:0:
221,151,134974,2,0,L|225:88,1,62.9999980773926
16,64,135167,2,0,L|79:60,1,62.9999980773926,8|0,3:0|0:0,0:0:0:0:
299,38,135359,2,0,L|362:34,1,62.9999980773926
111,269,135551,6,0,L|115:205,1,62.9999980773926,10|0,3:0|0:0,0:0:0:0:
178,190,135743,2,0,L|241:179,1,62.9999980773926
47,148,135936,2,0,L|110:141,1,62.9999980773926,10|0,3:0|0:0,0:0:0:0:
341,237,136128,2,0,L|215:248,1,125.999996154785,2|8,0:0|3:0,0:0:0:0:
389,239,136513,2,0,L|395:301,1,62.9999980773926,2|0,0:0|0:0,0:0:0:0:
198,323,136705,2,0,L|135:325,1,62.9999980773926,10|0,3:0|0:0,0:0:0:0:
354,344,136897,2,0,L|417:341,1,62.9999980773926,2|0,0:0|0:0,0:0:0:0:
165,49,137090,6,0,L|291:49,1,125.999996154785,10|2,3:0|0:0,0:0:0:0:
358,68,137378,1,0,0:0:0:0:
140,140,137474,2,0,L|78:144,1,62.9999980773926,10|0,3:0|0:0,0:0:0:0:
78,229,137667,1,2,0:0:0:0:
380,251,137859,2,0,L|255:259,1,125.999996154785,10|0,3:0|0:0,0:0:0:0:
248,186,138147,1,0,0:0:0:0:
443,168,138243,2,0,L|447:105,1,62.9999980773926,8|0,3:0|0:0,0:0:0:0:
383,97,138436,1,0,0:0:0:0:
55,104,138628,6,0,L|181:93,1,125.999996154785,10|2,3:0|0:0,0:0:0:0:
245,82,138917,1,0,0:0:0:0:
55,166,139013,2,0,L|49:228,1,62.9999980773926,10|0,3:0|0:0,0:0:0:0:
113,236,139205,2,0,L|176:240,1,62.9999980773926,2|0,0:0|0:0,0:0:0:0:
362,271,139397,1,10,3:0:0:0:
85,331,139590,2,0,L|83:268,1,62.9999980773926,2|0,0:0|0:0,0:0:0:0:
307,216,139782,2,0,L|370:206,1,62.9999980773926,10|0,3:0|0:0,0:0:0:0:
309,143,139974,2,0,L|247:138,1,62.9999980773926,2|0,0:0|0:0,0:0:0:0:
16,48,140167,6,0,L|142:44,1,125.999996154785,10|0,3:0|0:0,0:0:0:0:
458,60,140551,2,0,L|396:62,1,62.9999980773926,8|0,3:0|0:0,0:0:0:0:
176,110,140743,2,0,L|114:115,1,62.9999980773926
362,146,140936,2,0,L|277:152,1,62.9999980773926,8|0,3:0|0:0,0:0:0:0:
49,181,141128,1,0,0:0:0:0:
49,212,141176,1,0,0:0:0:0:
50,243,141224,1,0,0:0:0:0:
288,227,141320,2,0,L|287:289,1,62.9999980773926,8|0,3:0|0:0,0:0:0:0:
223,304,141513,2,0,L|160:310,1,62.9999980773926
416,290,141705,6,0,L|478:283,1,62.9999980773926,14|0,0:0|0:0,0:0:0:0:
410,231,141897,2,0,L|347:229,1,62.9999980773926
151,207,142090,2,0,L|147:144,1,62.9999980773926,10|0,3:0|0:0,0:0:0:0:
338,88,142282,2,0,L|212:78,1,125.999996154785,2|8,0:0|3:0,0:0:0:0:
376,109,142667,1,2,0:0:0:0:
69,140,142859,2,0,L|68:202,1,62.9999980773926,10|0,3:0|0:0,0:0:0:0:
290,298,143051,2,0,L|352:303,1,62.9999980773926,2|0,0:0|0:0,0:0:0:0:
105,329,143243,6,0,L|42:322,1,62.9999980773926,10|0,3:0|0:0,0:0:0:0:
265,258,143436,2,0,L|265:195,1,62.9999980773926,2|0,0:0|0:0,0:0:0:0:
33,79,143628,2,0,L|96:82,1,62.9999980773926,10|0,3:0|0:0,0:0:0:0:
286,94,143820,2,0,L|349:99,1,62.9999980773926,2|0,0:0|0:0,0:0:0:0:
96,149,144013,2,0,L|92:274,1,125.999996154785,10|0,3:0|0:0,0:0:0:0:
155,284,144301,1,0,0:0:0:0:
372,260,144397,2,0,L|309:253,1,62.9999980773926,8|0,3:0|0:0,0:0:0:0:
246,244,144590,2,0,L|183:237,1,62.9999980773926
420,202,144782,6,0,L|357:194,1,62.9999980773926,10|0,3:0|0:0,0:0:0:0:
295,167,144974,2,0,L|291:104,1,62.9999980773926,2|0,0:0|0:0,0:0:0:0:
487,91,145167,2,0,L|425:89,1,62.9999980773926,10|0,3:0|0:0,0:0:0:0:
230,48,145359,2,0,L|292:46,1,62.9999980773926,2|0,0:0|0:0,0:0:0:0:
500,191,145551,2,0,L|492:316,1,125.999996154785,10|0,3:0|0:0,0:0:0:0:
429,319,145840,1,0,0:0:0:0:
207,267,145936,1,8,3:0:0:0:
269,272,146032,1,0,0:0:0:0:
332,277,146128,1,0,0:0:0:0:
33,257,146320,6,0,L|31:319,1,62.9999980773926,10|0,3:0|0:0,0:0:0:0:
222,293,146512,2,0,L|284:299,1,62.9999980773926,2|0,0:0|0:0,0:0:0:0:
58,223,146705,2,0,L|54:160,1,62.9999980773926,10|0,3:0|0:0,0:0:0:0:
118,118,146897,2,0,L|180:113,1,62.9999980773926,2|0,0:0|0:0,0:0:0:0:
411,78,147089,2,0,L|411:140,1,62.9999980773926,10|0,3:0|0:0,0:0:0:0:
342,157,147281,2,0,L|279:163,1,62.9999980773926
118,195,147474,1,8,3:0:0:0:
394,264,147666,1,0,0:0:0:0:
80,339,147859,6,0,L|79:276,1,62.9999980773926,10|0,3:0|0:0,0:0:0:0:
145,254,148051,2,0,L|208:251,1,62.9999980773926
16,220,148243,2,0,L|79:216,1,62.9999980773926,10|0,3:0|0:0,0:0:0:0:
299,115,148435,2,0,L|425:112,1,125.999996154785,2|8,0:0|3:0,0:0:0:0:
132,115,148820,2,0,L|130:177,1,62.9999980773926,2|0,0:0|0:0,0:0:0:0:
354,201,149012,2,0,L|292:199,1,62.9999980773926,10|0,3:0|0:0,0:0:0:0:
132,215,149205,1,2,0:0:0:0:
420,140,149397,6,0,L|416:202,1,62.9999980773926,10|0,3:0|0:0,0:0:0:0:
228,185,149589,2,0,L|223:258,1,62.9999980773926,2|0,0:0|0:0,0:0:0:0:
443,251,149781,2,0,L|375:257,1,62.9999980773926,10|0,3:0|0:0,0:0:0:0:
180,302,149974,2,0,L|99:308,1,62.9999980773926,2|0,0:0|0:0,0:0:0:0:
345,296,150166,2,0,L|219:301,1,125.999996154785,10|0,3:0|0:0,0:0:0:0:
216,365,150455,1,0,0:0:0:0:
414,182,150551,2,0,L|476:176,2,62.9999980773926,8|0|0,3:0|0:0|0:0,0:0:0:0:
44,221,150935,6,0,L|174:228,1,125.999996154785,10|2,3:0|0:0,0:0:0:0:
106,266,151224,1,0,0:0:0:0:
300,256,151320,2,0,L|362:254,1,62.9999980773926,10|0,3:0|0:0,0:0:0:0:
298,219,151512,2,0,L|235:219,1,62.9999980773926,2|0,0:0|0:0,0:0:0:0:
395,181,151705,1,10,3:0:0:0:
79,189,151897,2,0,L|80:126,1,62.9999980773926,8|8,3:0|3:0,0:0:0:0:
276,111,152089,2,0,L|355:107,1,62.9999980773926,10|8,3:0|3:0,0:0:0:0:
80,59,152281,2,0,L|143:60,1,62.9999980773926,10|8,3:0|3:0,0:0:0:0:
430,56,152474,6,0,L|242:54,1,188.999994232178,14|0,0:0|0:0,0:0:0:0:
464,108,152858,2,0,L|467:233,1,125.999996154785,14|0,0:0|0:0,0:0:0:0:
404,243,153146,1,0,0:0:0:0:
150,220,153243,2,0,L|213:226,1,62.9999980773926,14|0,0:0|0:0,0:0:0:0:
439,172,153435,1,8,3:0:0:0:
442,140,153483,1,2,0:0:0:0:
439,108,153531,1,8,3:0:0:0:
183,82,153627,2,0,L|120:83,1,62.9999980773926,0|8,0:0|3:0,0:0:0:0:
342,74,153820,2,0,L|405:68,1,62.9999980773926,8|8,3:0|3:0,0:0:0:0:
169,46,154013,6,0,L|171:104,1,57.7500017623902,14|0,0:0|0:0,0:0:0:0:
345,96,154206,2,0,L|347:178,1,57.7500017623902,2|0,0:0|0:0,0:0:0:0:
115,228,154398,2,0,L|230:235,1,115.50000352478,10|0,3:0|0:0,0:0:0:0:
381,165,154782,2,0,L|249:175,1,115.50000352478,10|0,3:0|0:0,0:0:0:0:
91,273,155071,2,0,L|92:331,1,57.7500017623902,2|8,0:0|3:0,0:0:0:0:
152,340,155263,1,2,0:0:0:0:
210,342,155359,1,2,0:0:0:0:
496,160,155552,6,0,L|439:160,1,57.7500017623902,10|0,3:0|0:0,0:0:0:0:
266,167,155744,2,0,L|324:166,1,57.7500017623902,2|0,0:0|0:0,0:0:0:0:
496,240,155936,2,0,L|381:242,1,115.50000352478,10|0,3:0|0:0,0:0:0:0:
214,248,156321,2,0,L|211:372,1,115.50000352478,10|0,3:0|0:0,0:0:0:0:
364,349,156706,2,0,L|480:345,1,115.50000352478,10|2,3:0|0:0,0:0:0:0:
136,70,157090,6,0,L|212:78,1,57.7500017623902,10|0,3:0|0:0,0:0:0:0:
364,77,157282,2,0,L|371:147,1,57.7500017623902,2|0,0:0|0:0,0:0:0:0:
191,157,157475,2,0,L|191:224,1,57.7500017623902,10|0,3:0|0:0,0:0:0:0:
250,220,157667,2,0,L|253:282,1,57.7500017623902,2|0,0:0|0:0,0:0:0:0:
79,335,157859,2,0,L|222:327,1,115.50000352478,10|0,3:0|0:0,0:0:0:0:
33,282,158244,1,10,3:0:0:0:
194,248,158436,1,2,0:0:0:0:
496,320,158629,6,0,L|380:316,2,115.50000352478,10|2|10,3:0|0:0|3:0,0:0:0:0:
343,273,159205,1,2,0:0:0:0:
61,200,159398,2,0,L|58:141,1,57.7500017623902,10|8,3:0|3:0,0:0:0:0:
232,121,159590,2,0,L|301:118,1,57.7500017623902,10|8,3:0|3:0,0:0:0:0:
86,316,159782,2,0,L|159:320,1,57.7500017623902,8|8,3:0|3:0,0:0:0:0:
376,340,159975,2,0,L|434:337,1,57.7500017623902,8|8,3:0|3:0,0:0:0:0:
203,232,160167,6,0,L|200:175,1,57.7500017623902,6|0,0:0|0:0,0:0:0:0:
400,174,160359,2,0,L|342:174,1,57.7500017623902,2|0,0:0|0:0,0:0:0:0:
136,122,160552,2,0,L|253:120,1,115.50000352478,10|0,3:0|0:0,0:0:0:0:
89,166,160936,2,0,L|89:282,1,115.50000352478,10|0,3:0|0:0,0:0:0:0:
264,211,161225,2,0,L|262:269,1,57.7500017623902,2|8,0:0|3:0,0:0:0:0:
204,277,161417,1,2,0:0:0:0:
146,285,161513,1,2,0:0:0:0:
480,128,161706,6,0,L|423:128,1,57.7500017623902,10|0,3:0|0:0,0:0:0:0:
248,123,161898,2,0,L|247:51,1,57.7500017623902,2|0,0:0|0:0,0:0:0:0:
422,50,162090,2,0,L|340:47,1,57.7500017623902,10|0,3:0|0:0,0:0:0:0:
305,80,162282,2,0,L|301:148,1,57.7500017623902
481,306,162475,2,0,L|487:191,1,115.50000352478,10|0,3:0|0:0,0:0:0:0:
344,196,162859,1,10,3:0:0:0:
492,158,163052,1,2,0:0:0:0:
148,87,163244,6,0,L|206:83,1,57.7500017623902,10|0,3:0|0:0,0:0:0:0:
380,70,163436,2,0,L|437:62,1,57.7500017623902,2|0,0:0|0:0,0:0:0:0:
231,82,163629,2,0,L|227:198,1,115.50000352478,10|0,3:0|0:0,0:0:0:0:
486,191,164013,2,0,L|371:196,1,115.50000352478,10|0,3:0|0:0,0:0:0:0:
308,319,164302,1,2,0:0:0:0:
133,308,164398,2,0,L|136:240,1,57.7500017623902,8|0,3:0|0:0,0:0:0:0:
339,148,164590,2,0,L|282:146,1,57.7500017623902,2|0,0:0|0:0,0:0:0:0:
80,37,164782,6,0,L|194:49,1,115.50000352478,6|2,0:0|0:0,0:0:0:0:
467,67,165167,2,0,L|352:64,1,115.50000352478,10|2,3:0|0:0,0:0:0:0:
16,192,165552,2,0,L|163:200,1,115.50000352478,10|0,3:0|0:0,0:0:0:0:
191,200,165840,1,0,0:0:0:0:
393,270,165936,2,0,L|451:273,1,57.7500017623902,8|8,3:0|3:0,0:0:0:0:
391,211,166129,2,0,L|334:211,1,57.7500017623902,8|8,3:0|3:0,0:0:0:0:
121,276,166320,6,0,L|118:163,1,105,6|2,0:0|0:0,0:0:0:0:
268,172,166705,2,0,L|271:110,1,52.5,10|0,3:0|0:0,0:0:0:0:
217,109,166897,2,0,L|215:50,1,52.5
375,49,167090,2,0,L|515:44,1,105,10|0,3:0|0:0,0:0:0:0:
484,111,167378,1,2,0:0:0:0:
430,130,167474,1,8,3:0:0:0:
322,145,167667,1,2,0:0:0:0:
48,192,167859,6,0,L|180:183,1,105,2|2,0:0|0:0,0:0:0:0:
406,275,168243,2,0,L|410:219,1,52.5,2|0,0:0|0:0,0:0:0:0:
248,217,168436,2,0,L|246:152,1,52.5,2|0,0:0|0:0,0:0:0:0:
418,149,168628,2,0,L|293:141,1,105,2|0,0:0|0:0,0:0:0:0:
260,134,168917,1,0,0:0:0:0:
419,59,169013,2,0,L|487:57,1,52.5,2|0,0:0|0:0,0:0:0:0:
418,22,169205,2,0,L|355:24,1,52.5,2|0,0:0|0:0,0:0:0:0:
180,56,169397,6,0,L|174:164,1,105,10|0,3:0|0:0,0:0:0:0:
343,183,169782,2,0,L|338:258,1,52.5,10|0,3:0|0:0,0:0:0:0:
285,256,169974,2,0,L|228:259,1,52.5
420,283,170167,2,0,L|296:290,1,105,10|0,3:0|0:0,0:0:0:0:
259,305,170455,2,0,L|262:357,1,52.5,2|8,0:0|3:0,0:0:0:0:
369,355,170743,1,2,0:0:0:0:
90,272,170936,6,0,L|201:268,1,105,2|2,0:0|0:0,0:0:0:0:
447,242,171320,2,0,L|444:178,1,52.5,2|0,0:0|0:0,0:0:0:0:
267,166,171513,2,0,L|264:107,1,52.5,2|0,0:0|0:0,0:0:0:0:
318,101,171705,2,0,L|321:42,1,52.5
161,50,171897,2,0,L|100:49,1,52.5,2|0,0:0|0:0,0:0:0:0:
321,275,172090,2,0,L|391:277,1,52.5,2|0,0:0|0:0,0:0:0:0:
319,329,172282,2,0,L|258:328,1,52.5
81,312,172474,6,0,L|76:199,1,105,10|2,3:0|0:0,0:0:0:0:
243,195,172859,2,0,L|245:133,1,52.5,10|0,3:0|0:0,0:0:0:0:
192,128,173051,2,0,L|191:71,1,52.5
351,64,173243,2,0,L|348:178,1,105,10|0,3:0|0:0,0:0:0:0:
296,190,173532,2,0,L|236:195,1,52.5,2|8,0:0|3:0,0:0:0:0:
496,208,173820,2,0,L|428:214,1,52.5,2|2,0:0|0:0,0:0:0:0:
231,252,174013,6,0,L|113:260,1,105,2|2,0:0|0:0,0:0:0:0:
387,244,174397,2,0,L|389:174,1,52.5,2|0,0:0|0:0,0:0:0:0:
335,168,174590,2,0,L|271:162,1,52.5,2|0,0:0|0:0,0:0:0:0:
462,127,174782,2,0,L|348:119,1,105,2|0,0:0|0:0,0:0:0:0:
305,116,175070,1,0,0:0:0:0:
119,114,175167,2,0,L|179:120,1,52.5,2|0,0:0|0:0,0:0:0:0:
224,155,175359,2,0,L|227:214,1,52.5,2|0,0:0|0:0,0:0:0:0:
42,230,175551,6,0,L|35:286,2,52.5,10|0|2,3:0|0:0|0:0,0:0:0:0:
200,324,175936,1,10,3:0:0:0:
243,296,176032,1,0,0:0:0:0:
240,246,176128,1,0,0:0:0:0:
196,222,176224,1,0,0:0:0:0:
25,54,176320,2,0,L|144:51,1,105,10|0,3:0|0:0,0:0:0:0:
77,109,176609,2,0,L|76:166,1,52.5,2|8,0:0|3:0,0:0:0:0:
182,170,176897,1,2,0:0:0:0:
447,212,177090,6,0,L|451:153,1,52.5,10|0,3:0|0:0,0:0:0:0:
397,139,177282,2,0,L|334:133,1,52.5,2|0,0:0|0:0,0:0:0:0:
187,112,177474,2,0,L|113:106,1,52.5,10|0,3:0|0:0,0:0:0:0:
318,181,177667,2,0,L|319:244,1,52.5,2|0,0:0|0:0,0:0:0:0:
267,222,177859,2,0,L|268:285,1,52.5,8|0,3:0|0:0,0:0:0:0:
431,274,178051,2,0,L|368:278,1,52.5,2|0,0:0|0:0,0:0:0:0:
165,310,178243,2,0,L|226:304,1,52.5,10|0,3:0|0:0,0:0:0:0:
417,324,178436,2,0,L|482:320,1,52.5
233,247,178628,6,0,L|90:233,1,105,10|0,3:0|0:0,0:0:0:0:
286,193,179013,2,0,L|285:140,1,52.5,8|0,3:0|0:0,0:0:0:0:
231,100,179205,2,0,L|178:97,1,52.5
341,51,179397,2,0,L|445:56,1,105,10|0,3:0|0:0,0:0:0:0:
257,189,179686,1,2,0:0:0:0:
255,243,179782,1,8,3:0:0:0:
308,268,179878,1,0,0:0:0:0:
467,242,179974,2,0,L|468:312,1,52.5,2|0,0:0|0:0,0:0:0:0:
258,326,180166,6,0,L|122:316,1,105,10|0,3:0|0:0,0:0:0:0:
206,266,180455,1,0,0:0:0:0:
311,143,180552,2,0,L|308:79,1,52.5,8|0,3:0|0:0,0:0:0:0:
255,64,180744,2,0,L|202:62,1,52.5,2|0,0:0|0:0,0:0:0:0:
385,230,180936,2,0,L|460:226,1,52.5,10|0,3:0|0:0,0:0:0:0:
384,195,181128,2,0,L|330:195,1,52.5
147,288,181320,2,0,L|199:284,1,52.5,10|0,3:0|0:0,0:0:0:0:
253,277,181513,2,0,L|257:212,1,52.5
46,60,181705,6,0,L|44:164,1,105,10|0,3:0|0:0,0:0:0:0:
98,168,181994,1,0,0:0:0:0:
257,112,182090,2,0,L|319:117,1,52.5,8|0,3:0|0:0,0:0:0:0:
148,57,182282,2,0,L|83:51,1,52.5,2|0,0:0|0:0,0:0:0:0:
307,321,182474,2,0,L|307:268,1,52.5,8|0,3:0|0:0,0:0:0:0:
123,297,182666,2,0,L|122:244,1,52.5
310,162,182859,2,0,L|386:158,1,52.5,10|0,3:0|0:0,0:0:0:0:
153,157,183051,2,0,L|205:155,1,52.5
464,32,183243,6,0,L|307:40,1,157.5,12|8,0:0|3:0,0:0:0:0:
96,207,183628,1,8,3:0:0:0:
76,189,183676,1,0,3:0:0:0:
68,165,183724,1,0,3:0:0:0:
74,139,183772,1,0,3:0:0:0:
92,121,183820,1,8,3:0:0:0:
267,107,183917,1,8,3:0:0:0:
482,131,184013,5,12,0:0:0:0:
484,157,184061,1,0,3:0:0:0:
477,182,184109,1,0,3:0:0:0:
462,203,184157,1,0,3:0:0:0:
441,219,184205,1,0,3:0:0:0:
416,227,184253,1,0,3:0:0:0:
390,227,184301,1,0,3:0:0:0:
179,253,184397,2,0,L|127:255,1,52.5,8|8,3:0|3:0,0:0:0:0:
365,287,184590,2,0,L|313:288,1,52.5,8|8,3:0|3:0,0:0:0:0:
75,305,184782,5,14,0:0:0:0:
368,272,190936,6,0,L|365:161,1,105,10|0,3:0|0:0,0:0:0:0:
229,156,191320,1,10,3:0:0:0:
482,137,191513,2,0,L|366:134,1,105,2|8,0:0|3:0,0:0:0:0:
247,121,191897,1,2,0:0:0:0:
377,134,192090,2,0,L|379:26,1,105,10|2,3:0|0:0,0:0:0:0:
124,36,192474,6,0,L|242:41,1,105,10|2,3:0|0:0,0:0:0:0:
370,161,192859,2,0,L|486:167,1,105,10|2,3:0|0:0,0:0:0:0:
208,172,193243,2,0,L|206:287,1,105,10|0,3:0|0:0,0:0:0:0:
260,286,193532,1,0,0:0:0:0:
314,275,193628,2,0,L|314:213,1,52.5,8|0,3:0|0:0,0:0:0:0:
261,202,193820,2,0,L|259:145,1,52.5
420,142,194013,6,0,L|422:34,1,105,10|2,3:0|0:0,0:0:0:0:
276,47,194397,2,0,L|166:45,1,105,10|2,3:0|0:0,0:0:0:0:
256,192,194782,12,2,195551,0:0:0:0:
80,299,196320,5,2,3:0:0:0:
53,297,196368,1,0,3:0:0:0:
27,295,196416,1,0,3:0:0:0:
234,254,196513,1,2,3:0:0:0:
260,252,196561,1,0,3:0:0:0:
286,250,196609,1,0,3:0:0:0:
124,223,196705,5,2,3:0:0:0:
115,198,196753,1,0,3:0:0:0:
116,172,196801,1,0,3:0:0:0:
126,147,196849,1,0,3:0:0:0:
144,128,196897,1,0,3:0:0:0:
167,116,196945,1,0,3:0:0:0:
193,114,196993,1,0,3:0:0:0:
416,94,197090,6,0,L|478:101,1,62.9999980773926,14|0,0:0|0:0,0:0:0:0:
410,153,197282,2,0,L|347:155,1,62.9999980773926
151,177,197475,2,0,L|147:240,1,62.9999980773926,10|0,3:0|0:0,0:0:0:0:
338,296,197667,2,0,L|212:306,1,125.999996154785,2|8,0:0|3:0,0:0:0:0:
364,269,198052,1,2,0:0:0:0:
69,244,198244,2,0,L|68:182,1,62.9999980773926,10|0,3:0|0:0,0:0:0:0:
290,86,198436,2,0,L|352:81,1,62.9999980773926,2|0,0:0|0:0,0:0:0:0:
105,55,198628,6,0,L|42:62,1,62.9999980773926,10|0,3:0|0:0,0:0:0:0:
265,126,198821,2,0,L|265:189,1,62.9999980773926,2|0,0:0|0:0,0:0:0:0:
33,305,199013,2,0,L|96:302,1,62.9999980773926,10|0,3:0|0:0,0:0:0:0:
286,290,199205,2,0,L|349:285,1,62.9999980773926,2|0,0:0|0:0,0:0:0:0:
96,235,199398,2,0,L|92:110,1,125.999996154785,10|0,3:0|0:0,0:0:0:0:
155,100,199686,1,0,0:0:0:0:
372,124,199782,2,0,L|309:131,1,62.9999980773926,8|0,3:0|0:0,0:0:0:0:
246,140,199975,2,0,L|183:147,1,62.9999980773926
420,182,200167,6,0,L|357:190,1,62.9999980773926,10|0,3:0|0:0,0:0:0:0:
295,217,200359,2,0,L|291:280,1,62.9999980773926,2|0,0:0|0:0,0:0:0:0:
487,293,200552,2,0,L|425:295,1,62.9999980773926,10|0,3:0|0:0,0:0:0:0:
230,336,200744,2,0,L|292:338,1,62.9999980773926,2|0,0:0|0:0,0:0:0:0:
500,193,200936,2,0,L|492:68,1,125.999996154785,10|0,3:0|0:0,0:0:0:0:
429,65,201225,1,0,0:0:0:0:
207,117,201321,1,8,3:0:0:0:
269,112,201417,1,0,0:0:0:0:
332,107,201513,1,0,0:0:0:0:
33,127,201705,6,0,L|31:65,1,62.9999980773926,10|0,3:0|0:0,0:0:0:0:
222,91,201897,2,0,L|284:85,1,62.9999980773926,2|0,0:0|0:0,0:0:0:0:
58,161,202090,2,0,L|54:224,1,62.9999980773926,10|0,3:0|0:0,0:0:0:0:
118,266,202282,2,0,L|180:271,1,62.9999980773926,2|0,0:0|0:0,0:0:0:0:
411,306,202474,2,0,L|411:244,1,62.9999980773926,10|0,3:0|0:0,0:0:0:0:
342,227,202666,2,0,L|279:221,1,62.9999980773926
438,173,202859,1,8,3:0:0:0:
118,120,203051,1,0,0:0:0:0:
432,45,203244,6,0,L|433:108,1,62.9999980773926,10|0,3:0|0:0,0:0:0:0:
367,130,203436,2,0,L|304:133,1,62.9999980773926
496,164,203628,2,0,L|433:168,1,62.9999980773926,10|0,3:0|0:0,0:0:0:0:
213,269,203820,2,0,L|87:272,1,125.999996154785,2|8,0:0|3:0,0:0:0:0:
380,269,204205,2,0,L|382:207,1,62.9999980773926,2|0,0:0|0:0,0:0:0:0:
158,183,204397,2,0,L|220:185,1,62.9999980773926,10|0,3:0|0:0,0:0:0:0:
380,174,204590,1,2,0:0:0:0:
39,243,204782,6,0,L|43:181,1,62.9999980773926,10|0,3:0|0:0,0:0:0:0:
231,146,204974,2,0,L|305:142,1,62.9999980773926,2|0,0:0|0:0,0:0:0:0:
72,136,205166,2,0,L|140:130,1,62.9999980773926,10|0,3:0|0:0,0:0:0:0:
335,85,205359,2,0,L|416:79,1,62.9999980773926,2|0,0:0|0:0,0:0:0:0:
170,91,205551,2,0,L|296:86,1,125.999996154785,10|0,3:0|0:0,0:0:0:0:
299,22,205840,1,0,0:0:0:0:
101,205,205936,2,0,L|39:211,2,62.9999980773926,8|0|0,3:0|0:0|0:0,0:0:0:0:
465,163,206320,6,0,L|340:176,1,125.999996154785,10|2,3:0|0:0,0:0:0:0:
406,118,206609,1,0,0:0:0:0:
212,128,206705,2,0,L|150:130,1,62.9999980773926,10|0,3:0|0:0,0:0:0:0:
214,165,206897,2,0,L|277:165,1,62.9999980773926,2|0,0:0|0:0,0:0:0:0:
120,201,207090,1,10,3:0:0:0:
442,205,207282,2,0,L|441:268,1,62.9999980773926,8|8,3:0|3:0,0:0:0:0:
236,273,207474,2,0,L|157:277,1,62.9999980773926,10|8,3:0|3:0,0:0:0:0:
432,325,207666,2,0,L|369:324,1,62.9999980773926,10|8,3:0|3:0,0:0:0:0:
82,328,207859,6,0,L|270:330,1,188.999994232178,14|0,0:0|0:0,0:0:0:0:
48,276,208243,2,0,L|45:151,1,125.999996154785,14|0,0:0|0:0,0:0:0:0:
108,141,208531,1,0,0:0:0:0:
362,164,208628,2,0,L|299:158,1,62.9999980773926,14|0,0:0|0:0,0:0:0:0:
73,212,208820,1,8,3:0:0:0:
70,244,208868,1,2,0:0:0:0:
73,276,208916,1,8,3:0:0:0:
329,302,209012,2,0,L|392:301,1,62.9999980773926,0|8,0:0|3:0,0:0:0:0:
170,310,209205,2,0,L|107:316,1,62.9999980773926,8|8,3:0|3:0,0:0:0:0:
343,46,209397,6,0,L|341:104,1,57.7500017623902,14|0,0:0|0:0,0:0:0:0:
167,96,209590,2,0,L|226:99,1,57.7500017623902,2|0,0:0|0:0,0:0:0:0:
452,97,209782,2,0,L|451:240,1,115.50000352478,10|0,3:0|0:0,0:0:0:0:
297,214,210166,2,0,L|429:224,1,115.50000352478,10|0,3:0|0:0,0:0:0:0:
180,353,210455,2,0,L|179:291,1,57.7500017623902,2|8,0:0|3:0,0:0:0:0:
241,288,210647,2,0,L|309:283,1,57.7500017623902,2|2,0:0|0:0,0:0:0:0:
16,96,210936,6,0,L|73:96,1,57.7500017623902,10|0,3:0|0:0,0:0:0:0:
246,103,211128,2,0,L|248:170,1,57.7500017623902,2|0,0:0|0:0,0:0:0:0:
48,175,211320,2,0,L|163:177,1,115.50000352478,10|0,3:0|0:0,0:0:0:0:
481,127,211705,2,0,L|476:251,1,115.50000352478,10|0,3:0|0:0,0:0:0:0:
418,252,211993,1,0,0:0:0:0:
247,275,212090,2,0,L|131:271,1,115.50000352478,10|2,3:0|0:0,0:0:0:0:
432,330,212474,6,0,L|352:332,1,57.7500017623902,10|0,3:0|0:0,0:0:0:0:
170,72,212666,2,0,L|163:142,1,57.7500017623902,2|0,0:0|0:0,0:0:0:0:
337,74,212859,2,0,L|338:150,1,57.7500017623902,10|0,3:0|0:0,0:0:0:0:
280,157,213051,2,0,L|214:163,1,57.7500017623902,2|0,0:0|0:0,0:0:0:0:
47,210,213243,2,0,L|190:202,1,115.50000352478,10|0,3:0|0:0,0:0:0:0:
221,202,213532,1,0,0:0:0:0:
52,80,213628,1,10,3:0:0:0:
209,90,213820,1,2,0:0:0:0:
496,320,214013,6,0,L|380:316,2,115.50000352478,10|2|10,3:0|0:0|3:0,0:0:0:0:
493,249,214493,1,0,0:0:0:0:
433,223,214590,1,2,0:0:0:0:
87,201,214782,2,0,L|84:142,1,57.7500017623902,10|8,3:0|3:0,0:0:0:0:
258,122,214974,2,0,L|327:119,1,57.7500017623902,10|8,3:0|3:0,0:0:0:0:
112,58,215166,2,0,L|185:62,1,57.7500017623902,8|8,3:0|3:0,0:0:0:0:
374,56,215359,1,8,3:0:0:0:
85,341,215551,6,0,L|82:284,1,57.7500017623902,6|0,0:0|0:0,0:0:0:0:
282,283,215743,2,0,L|224:283,1,57.7500017623902,2|0,0:0|0:0,0:0:0:0:
18,231,215936,2,0,L|135:229,1,115.50000352478,10|0,3:0|0:0,0:0:0:0:
416,222,216320,2,0,L|416:106,1,115.50000352478,10|0,3:0|0:0,0:0:0:0:
241,177,216609,2,0,L|243:119,1,57.7500017623902,2|8,0:0|3:0,0:0:0:0:
301,111,216801,1,2,0:0:0:0:
359,103,216897,1,2,0:0:0:0:
18,92,217090,6,0,L|75:92,1,57.7500017623902,10|0,3:0|0:0,0:0:0:0:
251,286,217282,2,0,L|329:288,1,57.7500017623902,2|0,0:0|0:0,0:0:0:0:
106,224,217474,2,0,L|107:311,1,57.7500017623902,10|0,3:0|0:0,0:0:0:0:
167,290,217666,2,0,L|226:291,1,57.7500017623902
47,259,217859,2,0,L|41:144,1,115.50000352478,10|0,3:0|0:0,0:0:0:0:
184,149,218243,1,10,3:0:0:0:
36,111,218436,1,2,0:0:0:0:
329,228,218628,6,0,L|271:224,1,57.7500017623902,10|0,3:0|0:0,0:0:0:0:
97,211,218820,2,0,L|160:216,1,57.7500017623902,2|0,0:0|0:0,0:0:0:0:
329,59,219013,2,0,L|333:175,1,115.50000352478,10|0,3:0|0:0,0:0:0:0:
57,142,219397,2,0,L|172:147,1,115.50000352478,10|0,3:0|0:0,0:0:0:0:
231,155,219686,1,2,0:0:0:0:
27,258,219782,2,0,L|30:190,1,57.7500017623902,8|0,3:0|0:0,0:0:0:0:
200,239,219974,2,0,L|257:237,1,57.7500017623902,2|0,0:0|0:0,0:0:0:0:
487,316,220166,6,0,L|350:320,1,115.50000352478,6|2,0:0|0:0,0:0:0:0:
93,337,220551,2,0,L|208:334,1,115.50000352478,10|2,3:0|0:0,0:0:0:0:
496,192,220936,2,0,L|491:53,1,115.50000352478,10|0,3:0|0:0,0:0:0:0:
205,183,221320,2,0,L|147:186,1,57.7500017623902,8|8,3:0|3:0,0:0:0:0:
85,137,221513,2,0,L|142:133,1,57.7500017623902,8|8,3:0|3:0,0:0:0:0:
343,338,221705,6,0,L|341:280,1,57.7500017623902,14|0,0:0|0:0,0:0:0:0:
167,288,221898,2,0,L|165:206,1,57.7500017623902,2|0,0:0|0:0,0:0:0:0:
397,156,222090,2,0,L|282:149,1,115.50000352478,10|0,3:0|0:0,0:0:0:0:
131,219,222474,2,0,L|263:209,1,115.50000352478,10|0,3:0|0:0,0:0:0:0:
421,111,222763,2,0,L|420:53,1,57.7500017623902,2|8,0:0|3:0,0:0:0:0:
360,44,222955,1,2,0:0:0:0:
302,42,223051,1,2,0:0:0:0:
16,224,223244,6,0,L|73:224,1,57.7500017623902,10|0,3:0|0:0,0:0:0:0:
246,217,223436,2,0,L|188:218,1,57.7500017623902,2|0,0:0|0:0,0:0:0:0:
16,144,223628,2,0,L|131:142,1,115.50000352478,10|0,3:0|0:0,0:0:0:0:
298,136,224013,2,0,L|301:12,1,115.50000352478,10|0,3:0|0:0,0:0:0:0:
148,35,224398,2,0,L|32:39,1,115.50000352478,10|2,3:0|0:0,0:0:0:0:
376,314,224782,6,0,L|300:306,1,57.7500017623902,10|0,3:0|0:0,0:0:0:0:
148,307,224974,2,0,L|141:237,1,57.7500017623902,2|0,0:0|0:0,0:0:0:0:
321,227,225167,2,0,L|321:160,1,57.7500017623902,10|0,3:0|0:0,0:0:0:0:
262,164,225359,2,0,L|259:102,1,57.7500017623902,2|0,0:0|0:0,0:0:0:0:
433,49,225551,2,0,L|290:57,1,115.50000352478,10|0,3:0|0:0,0:0:0:0:
479,102,225936,1,10,3:0:0:0:
318,136,226128,1,2,0:0:0:0:
16,64,226321,6,0,L|132:68,2,115.50000352478,10|2|10,3:0|0:0|3:0,0:0:0:0:
169,111,226897,1,2,0:0:0:0:
451,184,227090,2,0,L|454:243,1,57.7500017623902,10|8,3:0|3:0,0:0:0:0:
280,263,227282,2,0,L|211:266,1,57.7500017623902,10|8,3:0|3:0,0:0:0:0:
426,68,227474,2,0,L|353:64,1,57.7500017623902,8|8,3:0|3:0,0:0:0:0:
136,44,227667,2,0,L|78:47,1,57.7500017623902,8|8,3:0|3:0,0:0:0:0:
309,152,227859,6,0,L|312:209,1,57.7500017623902,6|0,0:0|0:0,0:0:0:0:
112,210,228051,2,0,L|170:210,1,57.7500017623902,2|0,0:0|0:0,0:0:0:0:
376,262,228244,2,0,L|259:264,1,115.50000352478,10|0,3:0|0:0,0:0:0:0:
423,218,228628,2,0,L|423:102,1,115.50000352478,10|0,3:0|0:0,0:0:0:0:
248,173,228917,2,0,L|250:115,1,57.7500017623902,2|8,0:0|3:0,0:0:0:0:
308,107,229109,1,2,0:0:0:0:
366,99,229205,1,2,0:0:0:0:
32,256,229398,6,0,L|89:256,1,57.7500017623902,10|0,3:0|0:0,0:0:0:0:
264,261,229590,2,0,L|265:333,1,57.7500017623902,2|0,0:0|0:0,0:0:0:0:
90,334,229782,2,0,L|172:337,1,57.7500017623902,10|0,3:0|0:0,0:0:0:0:
207,304,229974,2,0,L|211:236,1,57.7500017623902
31,78,230167,2,0,L|25:193,1,115.50000352478,10|0,3:0|0:0,0:0:0:0:
168,188,230551,1,10,3:0:0:0:
20,226,230744,1,2,0:0:0:0:
364,297,230936,6,0,L|306:301,1,57.7500017623902,10|0,3:0|0:0,0:0:0:0:
132,314,231128,2,0,L|75:322,1,57.7500017623902,2|0,0:0|0:0,0:0:0:0:
281,302,231321,2,0,L|285:186,1,115.50000352478,10|0,3:0|0:0,0:0:0:0:
26,193,231705,2,0,L|141:188,1,115.50000352478,10|0,3:0|0:0,0:0:0:0:
204,65,231994,1,2,0:0:0:0:
379,76,232090,2,0,L|376:144,1,57.7500017623902,8|0,3:0|0:0,0:0:0:0:
173,236,232282,2,0,L|230:238,1,57.7500017623902,2|0,0:0|0:0,0:0:0:0:
432,347,232474,6,0,L|318:335,1,115.50000352478,6|2,0:0|0:0,0:0:0:0:
45,317,232859,2,0,L|160:320,1,115.50000352478,10|2,3:0|0:0,0:0:0:0:
496,192,233244,2,0,L|349:184,1,115.50000352478,10|0,3:0|0:0,0:0:0:0:
321,184,233532,1,0,0:0:0:0:
119,114,233628,2,0,L|61:111,1,57.7500017623902,8|8,3:0|3:0,0:0:0:0:
121,173,233821,2,0,L|178:173,1,57.7500017623902,8|8,3:0|3:0,0:0:0:0:
393,271,234013,5,14,0:0:0:0:
345,251,234109,1,2,0:0:0:0:
325,204,234205,1,2,0:0:0:0:
344,156,234301,1,2,0:0:0:0:
390,134,234397,2,0,L|501:124,1,105,2|0,0:0|0:0,0:0:0:0:
304,265,234782,2,0,L|306:143,1,105,2|0,0:0|0:0,0:0:0:0:
359,151,235070,2,0,L|362:37,1,105,2|0,0:0|0:0,0:0:0:0:
309,43,235359,1,2,0:0:0:0:
34,37,235551,5,2,0:0:0:0:
79,61,235647,1,2,0:0:0:0:
97,109,235743,1,2,0:0:0:0:
79,157,235839,1,2,0:0:0:0:
33,181,235935,1,2,0:0:0:0:
85,186,236032,1,2,0:0:0:0:
138,192,236128,1,2,0:0:0:0:
292,206,236320,1,2,0:0:0:0:
82,342,236705,2,0,L|78:224,1,105,2|0,0:0|0:0,0:0:0:0:
342,327,237090,5,2,0:0:0:0:
338,275,237186,1,2,0:0:0:0:
311,230,237282,1,2,0:0:0:0:
266,204,237378,1,2,0:0:0:0:
214,203,237474,1,2,0:0:0:0:
266,197,237570,1,2,0:0:0:0:
319,192,237666,1,2,0:0:0:0:
132,168,237859,2,0,L|122:35,1,105,2|0,0:0|0:0,0:0:0:0:
178,56,238147,2,0,L|308:50,1,105,2|0,0:0|0:0,0:0:0:0:
337,51,238436,5,2,0:0:0:0:
256,192,238628,12,0,239397,0:0:0:0:
