osu file format v14

[General]
AudioFilename: audio.mp3
AudioLeadIn: 0
PreviewTime: 129397
Countdown: 0
SampleSet: Soft
StackLeniency: 0.7
Mode: 2
LetterboxInBreaks: 0
WidescreenStoryboard: 1

[Editor]
Bookmarks: 10936,12474,29397,30936,43243,67859,92474,104782,129397,154013,166320,184782,209397,221705,234013
DistanceSpacing: 1
BeatDivisor: 4
GridSize: 16
TimelineZoom: 1.2

[Metadata]
Title:Magic Girl !!
TitleUnicode:Magic Girl !!
Artist:A-One feat. Shihori
ArtistUnicode:A-One feat. Shihori
Creator:Greaper
Version:Deif's Rain
Source:東方紅魔郷 ~ the Embodiment of Scarlet Devil.
Tags:Deif featured artist fa osu! nico 魔法少女達の百年祭 eurobeat toho vol.3 patchouli knowledge centennial festival for magical girls dj command mappers guild Video Game English aone a one
BeatmapID:3356803
BeatmapSetID:1644488

[Difficulty]
HPDrainRate:5
CircleSize:4
OverallDifficulty:8.6
ApproachRate:8.6
SliderMultiplier:1.9
SliderTickRate:1

[Events]
//Background and Video events
0,0,"bg.jpg",0,0
//Break Periods
2,184982,190277
//Storyboard Layer 0 (Background)
//Storyboard Layer 1 (Fail)
//Storyboard Layer 2 (Pass)
//Storyboard Layer 3 (Foreground)
//Storyboard Layer 4 (Overlay)
//Storyboard Sound Samples

[TimingPoints]
167,384.615384615385,4,2,11,60,1,0
18051,-37.037037037037,4,2,11,60,0,0
18243,-100,4,2,11,60,0,0
30936,-100,4,2,11,70,0,0
43243,-100,4,2,11,60,0,0
67859,-74.0740740740741,4,2,11,80,0,1
91897,-37.037037037037,4,2,11,80,0,1
92090,-74.0740740740741,4,2,11,80,0,1
92474,-100,4,2,11,70,0,0
104782,-100,4,2,11,60,0,0
129397,-74.0740740740741,4,2,11,80,0,1
153436,-37.037037037037,4,2,11,80,0,1
153629,-74.0740740740741,4,2,11,80,0,1
154013,-100,4,2,11,70,0,0
166320,-100,4,2,11,60,0,0
196320,-100,4,2,11,40,0,0
197090,-74.0740740740741,4,2,11,80,0,1
208820,-37.037037037037,4,2,11,80,0,1
209013,-74.0740740740741,4,2,11,80,0,1
209397,-100,4,2,11,70,0,0
234013,-100,4,2,11,60,0,0

[Colours]
Combo1 : 134,208,151
Combo2 : 159,123,219
Combo3 : 220,122,122
Combo4 : 200,142,183

[HitObjects]
384,192,167,6,0,L|288:192,1,95,2|0,0:0|0:0,0:0:0:0:
160,192,551,2,0,L|256:192,1,95,2|0,0:0|0:0,0:0:0:0:
384,192,936,2,0,L|316:124,1,95,2|0,0:0|0:0,0:0:0:0:
192,192,1320,2,0,L|259:124,1,95,2|0,0:0|0:0,0:0:0:0:
384,192,1705,6,0,L|384:96,1,95,2|0,0:0|0:0,0:0:0:0:
256,192,2090,2,0,L|256:96,1,95,2|0,0:0|0:0,0:0:0:0:
384,192,2474,1,2,0:0:0:0:
192,192,2667,1,2,0:0:0:0:
320,192,2859,1,0,0:0:0:0:
384,192,2955,1,2,0:0:0:0:
320,192,3051,1,0,0:0:0:0:
128,192,3243,6,0,L|224:192,1,95,2|0,0:0|0:0,0:0:0:0:
352,192,3628,2,0,L|256:192,1,95,2|0,0:0|0:0,0:0:0:0:
128,192,4013,2,0,L|196:124,1,95,2|0,0:0|0:0,0:0:0:0:
320,192,4397,2,0,L|253:124,1,95,2|0,0:0|0:0,0:0:0:0:
128,192,4782,6,0,L|128:96,1,95,2|0,0:0|0:0,0:0:0:0:
256,192,5167,2,0,L|256:96,1,95,2|0,0:0|0:0,0:0:0:0:
128,192,5551,1,2,0:0:0:0:
320,192,5743,2,0,P|384:160|320:96,1,190,2|0,0:0|0:0,0:0:0:0:
128,96,6320,6,0,L|32:96,1,95,2|0,0:0|0:0,0:0:0:0:
160,96,6705,2,0,L|256:96,1,95,2|0,0:0|0:0,0:0:0:0:
128,96,7090,2,0,L|48:176,1,95,2|0,0:0|0:0,0:0:0:0:
192,96,7474,2,0,L|272:176,1,95,2|0,0:0|0:0,0:0:0:0:
128,96,7859,6,0,L|128:192,1,95,2|0,0:0|0:0,0:0:0:0:
256,96,8243,2,0,L|256:192,1,95,2|0,0:0|0:0,0:0:0:0:
128,192,8628,1,2,0:0:0:0:
320,192,8820,1,2,0:0:0:0:
192,192,9013,1,0,0:0:0:0:
128,192,9109,1,2,0:0:0:0:
192,192,9205,1,0,0:0:0:0:
384,96,9397,6,0,L|480:96,1,95,2|0,0:0|0:0,0:0:0:0:
352,96,9782,2,0,L|256:96,1,95,2|0,0:0|0:0,0:0:0:0:
384,96,10167,2,0,L|464:176,1,95,2|0,0:0|0:0,0:0:0:0:
320,96,10551,2,0,L|240:176,1,95,2|0,0:0|0:0,0:0:0:0:
448,96,10936,5,8,3:0:0:0:
448,96,11032,1,0,0:0:0:0:
448,96,11128,1,0,0:0:0:0:
256,96,11320,1,8,3:0:0:0:
256,96,11417,1,0,0:0:0:0:
256,96,11513,1,0,0:0:0:0:
64,96,11705,1,12,0:0:0:0:
144,96,11833,1,8,0:0:0:0:
64,96,11961,1,8,0:0:0:0:
192,192,12090,1,8,0:0:0:0:
272,192,12218,1,8,0:0:0:0:
192,192,12346,1,8,0:0:0:0:
384,96,12474,6,0,L|288:96,1,95,12|2,0:0|0:0,0:0:0:0:
416,96,12859,2,0,L|416:144,1,47.5,8|0,3:0|0:0,0:0:0:0:
352,96,13051,2,0,L|352:144,1,47.5,2|2,0:0|0:0,0:0:0:0:
448,192,13243,2,0,P|464:208|448:272,1,95,8|2,3:0|0:0,0:0:0:0:
384,272,13532,1,2,0:0:0:0:
288,272,13628,2,0,L|384:272,1,95,8|2,3:0|0:0,0:0:0:0:
128,96,14013,6,0,L|32:96,1,95,8|0,3:0|0:0,0:0:0:0:
160,96,14397,1,8,3:0:0:0:
224,96,14493,1,0,0:0:0:0:
224,160,14590,1,2,0:0:0:0:
160,160,14686,1,2,0:0:0:0:
64,192,14782,2,0,P|48:176|64:112,1,95,8|2,3:0|0:0,0:0:0:0:
128,96,15070,1,2,0:0:0:0:
32,96,15167,2,0,L|32:144,1,47.5,8|2,3:0|0:0,0:0:0:0:
96,192,15359,1,2,0:0:0:0:
352,96,15551,6,0,L|256:96,1,95,8|2,3:0|0:0,0:0:0:0:
384,96,15936,1,8,3:0:0:0:
448,96,16032,1,2,0:0:0:0:
384,96,16128,1,2,0:0:0:0:
320,96,16224,1,2,0:0:0:0:
416,192,16320,2,0,P|432:208|416:272,1,95,8|2,3:0|0:0,0:0:0:0:
352,288,16609,1,2,0:0:0:0:
256,272,16705,2,0,L|352:272,1,95,8|2,3:0|0:0,0:0:0:0:
96,192,17090,6,0,P|80:208|96:272,1,95,8|2,3:0|0:0,0:0:0:0:
224,272,17474,1,8,3:0:0:0:
288,272,17570,1,0,0:0:0:0:
224,272,17667,1,2,0:0:0:0:
160,272,17763,1,0,0:0:0:0:
224,272,17859,1,8,3:0:0:0:
480,192,18051,2,0,L|224:192,1,256.50000097847,10|12,0:0|0:0,0:0:0:0:
384,96,18436,1,8,0:0:0:0:
128,96,18628,6,0,L|224:96,1,95,12|2,0:0|0:0,0:0:0:0:
96,96,19013,2,0,L|96:144,1,47.5,8|0,3:0|0:0,0:0:0:0:
160,96,19205,2,0,L|160:144,1,47.5,2|2,0:0|0:0,0:0:0:0:
64,192,19397,2,0,P|48:208|64:272,1,95,8|2,3:0|0:0,0:0:0:0:
128,272,19686,1,2,0:0:0:0:
224,272,19782,2,0,L|128:272,1,95,8|2,3:0|0:0,0:0:0:0:
384,96,20167,6,0,L|480:96,1,95,8|2,3:0|0:0,0:0:0:0:
352,96,20551,1,8,3:0:0:0:
288,96,20647,1,0,0:0:0:0:
288,160,20743,1,2,0:0:0:0:
352,160,20840,1,2,0:0:0:0:
448,192,20936,2,0,P|464:176|448:112,1,95,8|2,3:0|0:0,0:0:0:0:
384,96,21224,1,2,0:0:0:0:
480,96,21320,2,0,L|480:144,1,47.5,8|2,3:0|0:0,0:0:0:0:
416,192,21513,1,2,0:0:0:0:
160,96,21705,6,0,L|256:96,1,95,8|2,3:0|0:0,0:0:0:0:
128,96,22090,1,8,3:0:0:0:
64,96,22186,1,0,0:0:0:0:
128,96,22282,1,2,0:0:0:0:
192,96,22378,1,2,0:0:0:0:
96,192,22474,2,0,P|80:208|96:272,1,95,8|2,3:0|0:0,0:0:0:0:
160,288,22763,1,2,0:0:0:0:
256,272,22859,2,0,L|160:272,1,95,8|2,3:0|0:0,0:0:0:0:
416,192,23243,6,0,P|432:208|416:272,1,95,8|2,3:0|0:0,0:0:0:0:
288,272,23628,1,8,3:0:0:0:
224,272,23724,1,0,0:0:0:0:
288,272,23820,1,2,0:0:0:0:
352,272,23917,1,2,0:0:0:0:
288,272,24013,1,12,3:0:0:0:
32,192,24205,1,2,0:0:0:0:
96,192,24301,1,2,0:0:0:0:
256,192,24397,1,10,0:0:0:0:
320,192,24493,1,8,0:0:0:0:
320,128,24590,1,10,0:0:0:0:
256,128,24686,1,8,0:0:0:0:
96,128,24782,6,0,L|192:128,1,95,12|2,0:0|0:0,0:0:0:0:
64,128,25167,2,0,L|16:176,2,47.5,8|0|2,3:0|0:0|0:0,0:0:0:0:
128,192,25455,1,2,0:0:0:0:
64,192,25551,1,8,3:0:0:0:
192,192,25743,2,0,L|192:144,1,47.5,2|2,0:0|0:0,0:0:0:0:
128,128,25936,1,8,3:0:0:0:
64,128,26032,1,2,0:0:0:0:
128,128,26128,1,2,0:0:0:0:
384,192,26320,6,0,L|384:144,1,47.5,8|0,3:0|0:0,0:0:0:0:
320,128,26513,1,2,0:0:0:0:
192,192,26705,2,0,L|192:240,1,47.5,8|2,3:0|0:0,0:0:0:0:
256,256,26897,1,2,0:0:0:0:
320,240,26993,2,0,L|320:192,1,47.5,2|8,0:0|3:0,0:0:0:0:
192,192,27282,1,2,0:0:0:0:
256,192,27378,2,0,P|272:176|256:112,1,95,2|0,0:0|0:0,0:0:0:0:
192,112,27667,1,2,0:0:0:0:
257,112,27763,1,2,0:0:0:0:
416,128,27859,6,0,L|320:128,1,95,8|2,3:0|0:0,0:0:0:0:
448,128,28243,1,8,3:0:0:0:
496,128,28340,1,2,0:0:0:0:
448,128,28436,1,2,0:0:0:0:
384,192,28532,1,2,0:0:0:0:
448,192,28628,1,8,3:0:0:0:
320,128,28820,1,2,0:0:0:0:
272,128,28917,1,2,0:0:0:0:
272,192,29013,1,12,3:0:0:0:
320,192,29109,1,0,0:0:0:0:
384,272,29205,1,8,3:0:0:0:
320,336,29301,1,8,3:0:0:0:
160,336,29397,5,8,3:0:0:0:
352,336,29782,1,8,3:0:0:0:
64,96,30167,1,12,0:0:0:0:
144,96,30295,1,8,0:0:0:0:
64,96,30423,1,8,0:0:0:0:
192,192,30551,1,10,0:0:0:0:
112,192,30679,1,8,0:0:0:0:
192,192,30808,1,8,0:0:0:0:
432,96,30936,6,0,L|480:96,1,47.5,14|0,0:0|0:0,0:0:0:0:
320,96,31128,2,0,L|272:96,1,47.5,2|0,0:0|0:0,0:0:0:0:
432,192,31320,2,0,P|448:176|432:112,1,95,10|0,3:0|0:0,0:0:0:0:
176,192,31705,2,0,L|80:192,1,95,10|0,3:0|0:0,0:0:0:0:
176,192,31993,2,0,P|192:176|176:112,1,95,2|2,0:0|0:0,0:0:0:0:
80,112,32282,1,2,0:0:0:0:
336,112,32474,6,0,L|288:112,1,47.5,10|0,3:0|0:0,0:0:0:0:
128,112,32667,2,0,L|80:112,1,47.5,2|0,0:0|0:0,0:0:0:0:
240,192,32859,2,0,L|336:192,1,95,10|0,3:0|0:0,0:0:0:0:
80,192,33243,2,0,P|64:176|80:112,1,95,10|0,3:0|0:0,0:0:0:0:
208,112,33628,1,10,3:0:0:0:
48,112,33820,1,2,0:0:0:0:
304,112,34013,6,0,L|304:160,1,47.5,10|0,3:0|0:0,0:0:0:0:
144,112,34205,2,0,L|144:160,1,47.5,2|0,0:0|0:0,0:0:0:0:
304,112,34397,2,0,P|320:128|304:192,1,95,10|2,3:0|0:0,0:0:0:0:
48,272,34782,2,0,P|32:256|48:192,1,95,10|0,3:0|0:0,0:0:0:0:
176,192,35167,1,10,3:0:0:0:
336,192,35359,1,2,0:0:0:0:
80,96,35551,6,0,L|176:96,2,95,10|2|10,3:0|0:0|3:0,0:0:0:0:
336,96,36128,1,2,0:0:0:0:
80,96,36320,1,10,3:0:0:0:
16,128,36417,1,8,3:0:0:0:
16,192,36513,1,10,3:0:0:0:
80,224,36609,1,8,3:0:0:0:
240,224,36705,1,8,3:0:0:0:
304,224,36801,1,8,3:0:0:0:
240,224,36897,1,8,3:0:0:0:
240,160,36993,1,8,3:0:0:0:
400,96,37090,6,0,L|352:96,1,47.5,6|0,0:0|0:0,0:0:0:0:
192,96,37282,2,0,L|240:96,1,47.5,2|0,0:0|0:0,0:0:0:0:
400,192,37474,2,0,P|416:144|416:96,1,95,10|0,3:0|0:0,0:0:0:0:
160,192,37859,2,0,L|64:192,1,95,10|0,3:0|0:0,0:0:0:0:
160,192,38147,2,0,P|176:176|160:112,1,95,2|2,0:0|0:0,0:0:0:0:
64,112,38436,1,2,0:0:0:0:
320,112,38628,6,0,L|368:112,1,47.5,10|0,3:0|0:0,0:0:0:0:
208,112,38820,2,0,L|256:112,1,47.5,2|0,0:0|0:0,0:0:0:0:
416,192,39013,2,0,L|320:192,1,95,10|0,3:0|0:0,0:0:0:0:
64,192,39397,2,0,P|48:176|64:112,1,95,10|0,3:0|0:0,0:0:0:0:
192,112,39782,1,10,3:0:0:0:
32,112,39974,1,2,0:0:0:0:
288,112,40167,6,0,L|288:160,1,47.5,10|0,3:0|0:0,0:0:0:0:
128,112,40359,2,0,L|128:160,1,47.5,2|0,0:0|0:0,0:0:0:0:
288,112,40551,2,0,P|304:144|304:208,1,95,10|0,3:0|0:0,0:0:0:0:
48,272,40936,2,0,P|32:256|48:192,1,95,10|0,3:0|0:0,0:0:0:0:
144,192,41224,2,0,L|48:192,1,95,2|0,0:0|0:0,0:0:0:0:
144,192,41513,1,2,0:0:0:0:
400,192,41705,5,6,0:0:0:0:
64,192,41897,1,2,0:0:0:0:
320,192,42090,2,0,L|224:192,1,95,10|2,3:0|0:0,0:0:0:0:
480,192,42474,2,0,P|480:144|464:96,1,95,10|0,3:0|0:0,0:0:0:0:
336,112,42859,1,8,3:0:0:0:
336,160,42955,1,8,3:0:0:0:
368,208,43051,1,8,3:0:0:0:
432,208,43147,1,8,3:0:0:0:
256,192,43243,5,10,3:0:0:0:
128,192,43436,2,0,L|128:288,1,95,2|8,0:0|3:0,0:0:0:0:
256,192,43820,2,0,L|256:288,1,95,2|8,0:0|3:0,0:0:0:0:
96,192,44205,2,0,L|96:288,1,95,2|8,0:0|3:0,0:0:0:0:
288,192,44590,1,2,0:0:0:0:
128,80,44782,6,0,L|224:80,1,95,8|0,3:0|0:0,0:0:0:0:
384,80,45167,2,0,L|288:80,1,95,10|0,3:0|0:0,0:0:0:0:
416,80,45551,2,0,L|416:176,1,95,10|0,3:0|0:0,0:0:0:0:
288,192,45936,2,0,L|384:192,1,95,10|0,3:0|0:0,0:0:0:0:
352,192,46224,1,0,0:0:0:0:
256,192,46320,5,10,3:0:0:0:
384,192,46513,2,0,L|384:288,1,95,2|8,0:0|3:0,0:0:0:0:
256,192,46897,2,0,L|256:288,1,95,2|8,0:0|3:0,0:0:0:0:
416,192,47282,2,0,L|416:288,1,95,2|8,0:0|3:0,0:0:0:0:
224,192,47667,1,2,0:0:0:0:
384,80,47859,6,0,L|288:80,1,95,8|0,3:0|0:0,0:0:0:0:
128,80,48243,2,0,L|224:80,1,95,10|0,3:0|0:0,0:0:0:0:
96,80,48628,1,10,3:0:0:0:
192,80,48724,2,0,P|208:96|192:160,1,95,8|8,3:0|3:0,0:0:0:0:
96,160,49013,1,10,3:0:0:0:
32,160,49109,1,8,3:0:0:0:
32,224,49205,1,8,3:0:0:0:
96,224,49301,1,8,3:0:0:0:
256,192,49397,6,0,L|352:192,1,95,6|2,0:0|0:0,0:0:0:0:
224,112,49782,2,0,L|224:160,1,47.5,10|0,3:0|0:0,0:0:0:0:
288,112,49974,2,0,L|288:160,1,47.5
192,112,50167,1,10,3:0:0:0:
320,192,50359,2,0,L|320:240,1,47.5,0|2,0:0|0:0,0:0:0:0:
224,192,50551,1,8,3:0:0:0:
96,192,50743,1,2,0:0:0:0:
352,192,50936,5,10,3:0:0:0:
224,192,51128,1,2,0:0:0:0:
480,192,51320,1,10,3:0:0:0:
352,192,51513,1,2,0:0:0:0:
96,192,51705,2,0,P|80:208|96:272,1,95,10|0,3:0|0:0,0:0:0:0:
160,288,51993,1,0,0:0:0:0:
96,272,52090,1,10,3:0:0:0:
224,272,52282,1,2,0:0:0:0:
480,272,52474,6,0,L|384:272,1,95,10|0,3:0|0:0,0:0:0:0:
256,272,52859,1,10,3:0:0:0:
256,224,52955,1,0,0:0:0:0:
288,176,53051,1,0,0:0:0:0:
352,176,53147,1,0,0:0:0:0:
256,144,53243,1,10,3:0:0:0:
128,96,53436,2,0,L|128:144,1,47.5,0|2,0:0|0:0,0:0:0:0:
224,96,53628,1,8,3:0:0:0:
96,96,53820,1,2,0:0:0:0:
352,192,54013,6,0,L|256:192,2,95,10|2|10,3:0|0:0|3:0,0:0:0:0:
192,144,54590,1,2,0:0:0:0:
192,192,54686,1,0,0:0:0:0:
288,144,54782,1,8,3:0:0:0:
288,192,54878,1,0,0:0:0:0:
256,224,54974,1,2,0:0:0:0:
192,224,55070,1,0,0:0:0:0:
352,160,55167,1,10,3:0:0:0:
416,160,55263,1,0,0:0:0:0:
416,224,55359,1,0,0:0:0:0:
352,224,55455,1,0,0:0:0:0:
192,224,55551,6,0,L|288:224,1,95,10|2,3:0|0:0,0:0:0:0:
160,224,55936,1,10,3:0:0:0:
128,192,56032,1,0,0:0:0:0:
160,160,56128,1,0,0:0:0:0:
224,160,56224,1,0,0:0:0:0:
320,160,56320,1,10,3:0:0:0:
192,96,56513,2,0,L|192:144,1,47.5,0|2,0:0|0:0,0:0:0:0:
288,96,56705,1,8,3:0:0:0:
160,96,56897,1,2,0:0:0:0:
416,192,57090,5,10,3:0:0:0:
288,192,57282,1,2,0:0:0:0:
32,192,57474,1,10,3:0:0:0:
16,144,57570,1,0,0:0:0:0:
32,96,57667,1,2,0:0:0:0:
288,192,57859,2,0,P|304:176|288:112,1,95,10|0,3:0|0:0,0:0:0:0:
224,96,58147,1,0,0:0:0:0:
288,112,58243,1,10,3:0:0:0:
160,112,58436,1,2,0:0:0:0:
416,112,58628,6,0,L|320:112,1,95,10|2,3:0|0:0,0:0:0:0:
192,192,59013,1,10,3:0:0:0:
160,192,59109,1,0,0:0:0:0:
192,192,59205,1,0,0:0:0:0:
256,192,59301,1,0,0:0:0:0:
160,192,59397,1,10,3:0:0:0:
288,96,59590,2,0,L|288:144,1,47.5,0|2,0:0|0:0,0:0:0:0:
192,96,59782,1,8,3:0:0:0:
320,96,59974,1,2,0:0:0:0:
64,192,60167,6,0,L|160:192,2,95,10|2|10,3:0|0:0|3:0,0:0:0:0:
32,144,60647,1,0,0:0:0:0:
64,96,60743,1,2,0:0:0:0:
128,96,60840,1,0,0:0:0:0:
288,96,60936,2,0,L|192:96,1,95,8|2,3:0|0:0,0:0:0:0:
448,192,61320,2,0,L|400:192,1,47.5,10|0,3:0|0:0,0:0:0:0:
240,192,61513,2,0,L|192:192,1,47.5
352,192,61705,6,0,P|368:208|352:272,1,95,10|0,3:0|0:0,0:0:0:0:
224,272,62090,2,0,L|224:224,1,47.5,8|0,3:0|0:0,0:0:0:0:
288,192,62282,1,0,0:0:0:0:
352,192,62378,1,0,0:0:0:0:
256,192,62474,1,10,3:0:0:0:
128,128,62667,1,0,0:0:0:0:
64,128,62763,1,2,0:0:0:0:
160,128,62859,1,8,3:0:0:0:
288,128,63051,1,2,0:0:0:0:
32,192,63243,6,0,L|128:192,1,95,10|0,3:0|0:0,0:0:0:0:
256,272,63628,2,0,L|256:224,1,47.5,8|0,3:0|0:0,0:0:0:0:
96,192,63820,1,2,0:0:0:0:
32,192,63917,1,0,0:0:0:0:
128,192,64013,1,10,3:0:0:0:
256,192,64205,1,0,0:0:0:0:
320,192,64301,1,0,0:0:0:0:
160,160,64397,1,10,3:0:0:0:
96,160,64493,1,0,0:0:0:0:
96,224,64590,1,0,0:0:0:0:
160,224,64686,1,0,0:0:0:0:
320,192,64782,6,0,P|336:208|320:272,1,95,10|0,3:0|0:0,0:0:0:0:
192,192,65167,2,0,L|192:144,1,47.5,8|0,3:0|0:0,0:0:0:0:
256,192,65359,2,0,L|256:144,1,47.5,2|0,0:0|0:0,0:0:0:0:
80,144,65551,1,8,3:0:0:0:
48,176,65647,1,0,0:0:0:0:
80,208,65743,1,0,0:0:0:0:
144,208,65840,1,0,0:0:0:0:
304,208,65936,1,10,3:0:0:0:
368,208,66032,1,0,0:0:0:0:
400,176,66128,1,0,0:0:0:0:
368,144,66224,1,0,0:0:0:0:
208,144,66320,5,14,0:0:0:0:
256,192,66513,12,8,67474,3:0:0:0:
256,192,67667,6,0,L|256:144,1,47.5,8|8,3:0|3:0,0:0:0:0:
96,160,67859,6,0,L|32:160,1,64.1250002446175,10|0,3:0|0:0,0:0:0:0:
32,224,68051,2,0,L|96:224,1,64.1250002446175
256,192,68243,2,0,L|256:128,1,64.1250002446175,10|0,3:0|0:0,0:0:0:0:
96,128,68436,2,0,P|72:144|96:224,1,128.250000489235,2|8,0:0|3:0,0:0:0:0:
224,224,68820,1,2,0:0:0:0:
480,224,69013,2,0,L|480:160,1,64.1250002446175,10|0,3:0|0:0,0:0:0:0:
416,128,69205,1,2,0:0:0:0:
160,128,69397,6,0,L|288:128,1,128.250000489235,10|0,3:0|0:0,0:0:0:0:
32,192,69782,2,0,L|32:128,1,64.1250002446175,10|0,3:0|0:0,0:0:0:0:
96,96,69974,1,0,0:0:0:0:
352,96,70167,2,0,L|224:96,1,128.250000489235,10|0,3:0|0:0,0:0:0:0:
224,96,70455,1,0,0:0:0:0:
320,192,70551,2,0,L|384:192,2,64.1250002446175,8|0|0,3:0|0:0|0:0,0:0:0:0:
64,192,70936,6,0,L|48:128,1,64.1250002446175,10|0,3:0|0:0,0:0:0:0:
208,128,71128,2,0,L|272:128,1,64.1250002446175,2|0,0:0|0:0,0:0:0:0:
112,128,71320,2,0,L|48:128,2,64.1250002446175,10|0|2,3:0|0:0|0:0,0:0:0:0:
368,224,71705,2,0,L|240:224,1,128.250000489235,10|0,3:0|0:0,0:0:0:0:
176,224,71993,1,0,0:0:0:0:
241,192,72090,1,8,3:0:0:0:
241,128,72186,1,0,0:0:0:0:
177,96,72282,1,0,0:0:0:0:
432,96,72474,6,0,L|448:160,1,64.1250002446175,10|0,3:0|0:0,0:0:0:0:
288,96,72667,2,0,L|304:160,1,64.1250002446175,2|0,0:0|0:0,0:0:0:0:
464,96,72859,2,0,L|464:160,1,64.1250002446175,10|0,3:0|0:0,0:0:0:0:
400,192,73051,1,2,0:0:0:0:
144,192,73243,2,0,P|120:176|144:96,1,128.250000489235,10|0,3:0|0:0,0:0:0:0:
272,96,73628,2,0,L|336:96,1,64.1250002446175,8|0,3:0|0:0,0:0:0:0:
272,96,73820,2,0,L|208:96,1,64.1250002446175
368,160,74013,6,0,L|432:160,1,64.1250002446175,10|0,3:0|0:0,0:0:0:0:
432,224,74205,2,0,L|368:224,1,64.1250002446175
208,192,74397,2,0,L|208:128,1,64.1250002446175,10|0,3:0|0:0,0:0:0:0:
368,128,74590,2,0,P|392:144|368:224,1,128.250000489235,2|8,0:0|3:0,0:0:0:0:
240,224,74974,1,2,0:0:0:0:
400,224,75167,2,0,L|400:288,1,64.1250002446175,10|0,3:0|0:0,0:0:0:0:
336,320,75359,1,2,0:0:0:0:
80,192,75551,6,0,L|208:192,1,128.250000489235,10|2,3:0|0:0,0:0:0:0:
464,192,75936,2,0,L|464:128,1,64.1250002446175,10|0,3:0|0:0,0:0:0:0:
400,96,76128,1,2,0:0:0:0:
144,96,76320,2,0,L|272:96,1,128.250000489235,10|0,3:0|0:0,0:0:0:0:
272,96,76609,1,0,0:0:0:0:
112,96,76705,2,0,P|88:112|112:192,1,128.250000489235,8|0,3:0|0:0,0:0:0:0:
368,224,77090,6,0,L|240:224,1,128.250000489235,10|2,3:0|0:0,0:0:0:0:
432,192,77474,2,0,L|304:192,1,128.250000489235,10|2,3:0|0:0,0:0:0:0:
48,192,77859,1,10,3:0:0:0:
368,128,78051,2,0,L|432:128,1,64.1250002446175,2|0,0:0|0:0,0:0:0:0:
240,192,78243,2,0,L|112:192,1,128.250000489235,10|2,3:0|0:0,0:0:0:0:
368,128,78628,6,0,P|392:144|368:224,1,128.250000489235,10|0,3:0|0:0,0:0:0:0:
112,224,79013,2,0,L|112:160,1,64.1250002446175,8|0,3:0|0:0,0:0:0:0:
208,128,79205,2,0,L|272:128,2,64.1250002446175,0|0|8,0:0|0:0|3:0,0:0:0:0:
464,128,79590,2,0,L|464:192,1,64.1250002446175
304,192,79782,2,0,L|240:192,1,64.1250002446175,8|0,3:0|0:0,0:0:0:0:
400,192,79974,2,0,L|400:256,1,64.1250002446175
240,224,80167,6,0,L|176:224,1,64.1250002446175,14|0,0:0|0:0,0:0:0:0:
176,288,80359,2,0,L|240:288,1,64.1250002446175
400,256,80551,2,0,L|400:192,1,64.1250002446175,10|0,3:0|0:0,0:0:0:0:
240,192,80743,2,0,P|216:208|240:288,1,128.250000489235,2|8,0:0|3:0,0:0:0:0:
368,288,81128,1,2,0:0:0:0:
112,192,81320,2,0,L|48:192,2,64.1250002446175,10|0|2,3:0|0:0|0:0,0:0:0:0:
368,192,81705,6,0,L|240:192,1,128.250000489235,10|2,3:0|0:0,0:0:0:0:
496,192,82090,2,0,L|496:128,1,64.1250002446175,10|0,3:0|0:0,0:0:0:0:
432,96,82282,1,2,0:0:0:0:
176,96,82474,2,0,L|304:96,1,128.250000489235,10|0,3:0|0:0,0:0:0:0:
304,96,82763,1,0,0:0:0:0:
208,96,82859,2,0,P|184:112|208:192,1,128.250000489235,8|0,3:0|0:0,0:0:0:0:
464,192,83243,6,0,L|400:192,1,64.1250002446175,10|0,3:0|0:0,0:0:0:0:
240,192,83436,2,0,L|304:192,1,64.1250002446175,2|0,0:0|0:0,0:0:0:0:
464,192,83628,2,0,L|464:128,1,64.1250002446175,10|0,3:0|0:0,0:0:0:0:
400,96,83820,1,2,0:0:0:0:
144,96,84013,2,0,L|272:96,1,128.250000489235,10|0,3:0|0:0,0:0:0:0:
272,96,84301,1,0,0:0:0:0:
176,192,84397,2,0,L|304:192,1,128.250000489235,8|0,3:0|0:0,0:0:0:0:
48,96,84782,6,0,L|32:160,1,64.1250002446175,10|0,3:0|0:0,0:0:0:0:
192,96,84974,2,0,L|208:160,1,64.1250002446175,2|0,0:0|0:0,0:0:0:0:
48,96,85167,2,0,L|48:160,1,64.1250002446175,10|0,3:0|0:0,0:0:0:0:
112,192,85359,1,2,0:0:0:0:
368,192,85551,2,0,P|416:164|416:96,1,128.250000489235,10|0,3:0|0:0,0:0:0:0:
352,96,85840,1,0,0:0:0:0:
160,96,85936,2,0,L|32:96,1,128.250000489235,8|0,3:0|0:0,0:0:0:0:
288,160,86320,6,0,L|352:160,1,64.1250002446175,10|0,3:0|0:0,0:0:0:0:
352,224,86513,2,0,L|288:224,1,64.1250002446175
128,192,86705,2,0,L|128:128,1,64.1250002446175,10|0,3:0|0:0,0:0:0:0:
288,128,86897,2,0,P|312:144|288:224,1,128.250000489235,2|8,0:0|3:0,0:0:0:0:
160,224,87282,1,2,0:0:0:0:
416,192,87474,2,0,L|480:192,2,64.1250002446175,10|0|2,3:0|0:0|0:0,0:0:0:0:
160,192,87859,6,0,L|288:192,1,128.250000489235,10|2,3:0|0:0,0:0:0:0:
288,192,88147,1,0,0:0:0:0:
128,192,88243,2,0,L|64:192,2,64.1250002446175,10|0|2,3:0|0:0|0:0,0:0:0:0:
384,96,88628,2,0,L|256:96,1,128.250000489235,10|0,3:0|0:0,0:0:0:0:
256,96,88917,1,0,0:0:0:0:
416,96,89013,2,0,P|440:112|416:192,1,128.250000489235,8|0,3:0|0:0,0:0:0:0:
160,224,89397,6,0,L|288:224,1,128.250000489235,10|2,3:0|0:0,0:0:0:0:
480,224,89782,2,0,L|352:224,1,128.250000489235,10|2,3:0|0:0,0:0:0:0:
96,192,90167,1,10,3:0:0:0:
416,127,90359,2,0,L|480:128,1,64.1250002446175,8|8,3:0|3:0,0:0:0:0:
320,96,90551,2,0,L|256:96,1,64.1250002446175,10|8,3:0|3:0,0:0:0:0:
416,192,90743,2,0,L|416:128,1,64.1250002446175,10|8,3:0|3:0,0:0:0:0:
256,192,90936,6,0,B|160:192|160:192|256:192,1,192.375000733852,14|0,0:0|0:0,0:0:0:0:
416,192,91320,2,0,L|480:192,2,64.1250002446175,14|0|0,0:0|0:0|0:0,0:0:0:0:
160,192,91705,1,14,0:0:0:0:
416,192,91897,2,0,L|160:192,1,256.50000097847,8|0,3:0|0:0,0:0:0:0:
224,160,92186,1,8,3:0:0:0:
256,112,92282,1,8,3:0:0:0:
240,64,92378,1,8,3:0:0:0:
80,96,92474,6,0,L|32:96,1,47.5,14|0,0:0|0:0,0:0:0:0:
192,96,92667,2,0,L|240:96,1,47.5,2|0,0:0|0:0,0:0:0:0:
80,192,92859,2,0,P|64:176|80:112,1,95,10|0,3:0|0:0,0:0:0:0:
336,192,93243,2,0,L|432:192,1,95,10|0,3:0|0:0,0:0:0:0:
336,192,93532,2,0,P|320:176|336:112,1,95,2|2,0:0|0:0,0:0:0:0:
432,112,93820,1,2,0:0:0:0:
176,112,94013,6,0,L|224:112,1,47.5,10|0,3:0|0:0,0:0:0:0:
384,112,94205,2,0,L|432:112,1,47.5,2|0,0:0|0:0,0:0:0:0:
272,192,94397,2,0,L|176:192,1,95,10|0,3:0|0:0,0:0:0:0:
432,192,94782,2,0,P|448:176|432:112,1,95,10|0,3:0|0:0,0:0:0:0:
304,112,95167,1,10,3:0:0:0:
464,112,95359,1,2,0:0:0:0:
208,112,95551,6,0,L|208:160,1,47.5,10|0,3:0|0:0,0:0:0:0:
368,112,95743,2,0,L|368:160,1,47.5,2|0,0:0|0:0,0:0:0:0:
208,112,95936,2,0,P|192:128|208:192,1,95,10|2,3:0|0:0,0:0:0:0:
464,272,96320,2,0,P|480:256|464:192,1,95,10|0,3:0|0:0,0:0:0:0:
336,192,96705,1,10,3:0:0:0:
176,192,96897,1,2,0:0:0:0:
432,96,97090,6,0,L|336:96,2,95,10|2|10,3:0|0:0|3:0,0:0:0:0:
176,96,97667,1,2,0:0:0:0:
432,96,97859,1,10,3:0:0:0:
496,128,97955,1,8,3:0:0:0:
496,192,98051,1,10,3:0:0:0:
432,224,98147,1,8,3:0:0:0:
272,224,98243,1,8,3:0:0:0:
208,224,98340,1,8,3:0:0:0:
272,224,98436,1,8,3:0:0:0:
272,160,98532,1,8,3:0:0:0:
112,96,98628,6,0,L|160:96,1,47.5,6|0,0:0|0:0,0:0:0:0:
320,96,98820,2,0,L|272:96,1,47.5,2|0,0:0|0:0,0:0:0:0:
112,192,99013,2,0,P|96:144|96:96,1,95,10|0,3:0|0:0,0:0:0:0:
352,192,99397,2,0,L|448:192,1,95,10|0,3:0|0:0,0:0:0:0:
352,192,99686,2,0,P|336:176|352:112,1,95,2|2,0:0|0:0,0:0:0:0:
448,112,99974,1,2,0:0:0:0:
192,112,100167,6,0,L|144:112,1,47.5,10|0,3:0|0:0,0:0:0:0:
304,112,100359,2,0,L|256:112,1,47.5,2|0,0:0|0:0,0:0:0:0:
96,192,100551,2,0,L|192:192,1,95,10|0,3:0|0:0,0:0:0:0:
448,192,100936,2,0,P|464:176|448:112,1,95,10|0,3:0|0:0,0:0:0:0:
320,112,101320,1,10,3:0:0:0:
480,112,101513,1,2,0:0:0:0:
224,112,101705,6,0,L|224:160,1,47.5,10|0,3:0|0:0,0:0:0:0:
384,112,101897,2,0,L|384:160,1,47.5,2|0,0:0|0:0,0:0:0:0:
224,112,102090,2,0,P|208:144|208:208,1,95,10|0,3:0|0:0,0:0:0:0:
464,272,102474,2,0,P|480:256|464:192,1,95,10|0,3:0|0:0,0:0:0:0:
368,192,102763,2,0,L|464:192,1,95,2|0,0:0|0:0,0:0:0:0:
368,192,103051,1,2,0:0:0:0:
112,192,103243,5,6,0:0:0:0:
448,192,103436,1,2,0:0:0:0:
192,192,103628,2,0,L|288:192,1,95,10|2,3:0|0:0,0:0:0:0:
32,192,104013,2,0,P|32:144|48:96,1,95,10|0,3:0|0:0,0:0:0:0:
176,112,104397,1,8,3:0:0:0:
176,160,104493,1,8,3:0:0:0:
144,208,104590,1,8,3:0:0:0:
80,208,104686,1,8,3:0:0:0:
256,192,104782,5,10,3:0:0:0:
384,192,104974,2,0,L|384:288,1,95,2|8,0:0|3:0,0:0:0:0:
256,192,105359,2,0,L|256:288,1,95,2|8,0:0|3:0,0:0:0:0:
96,192,105743,2,0,L|96:288,1,95,2|8,0:0|3:0,0:0:0:0:
288,192,106128,1,2,0:0:0:0:
128,80,106320,6,0,L|224:80,1,95,8|0,3:0|0:0,0:0:0:0:
384,80,106705,2,0,L|288:80,1,95,10|0,3:0|0:0,0:0:0:0:
160,80,107090,2,0,L|160:176,1,95,10|0,3:0|0:0,0:0:0:0:
288,192,107474,2,0,L|384:192,1,95,10|0,3:0|0:0,0:0:0:0:
352,192,107763,1,0,0:0:0:0:
256,192,107859,5,10,3:0:0:0:
128,192,108051,2,0,L|128:288,1,95,2|8,0:0|3:0,0:0:0:0:
256,192,108436,2,0,L|256:288,1,95,2|8,0:0|3:0,0:0:0:0:
416,192,108820,2,0,L|416:288,1,95,2|8,0:0|3:0,0:0:0:0:
224,192,109205,1,2,0:0:0:0:
384,80,109397,6,0,L|288:80,1,95,8|0,3:0|0:0,0:0:0:0:
128,80,109782,2,0,L|224:80,1,95,10|0,3:0|0:0,0:0:0:0:
352,80,110167,1,10,3:0:0:0:
256,80,110263,2,0,P|240:96|256:160,1,95,8|8,3:0|3:0,0:0:0:0:
352,160,110551,1,10,3:0:0:0:
416,160,110647,1,8,3:0:0:0:
464,208,110743,1,8,3:0:0:0:
416,256,110840,1,8,3:0:0:0:
256,192,110936,6,0,L|160:192,1,95,6|2,0:0|0:0,0:0:0:0:
288,112,111320,2,0,L|288:160,1,47.5,10|0,3:0|0:0,0:0:0:0:
224,112,111513,2,0,L|224:160,1,47.5
320,112,111705,1,10,3:0:0:0:
192,192,111897,2,0,L|192:240,1,47.5,0|2,0:0|0:0,0:0:0:0:
288,192,112090,1,8,3:0:0:0:
416,192,112282,1,2,0:0:0:0:
160,192,112474,5,10,3:0:0:0:
288,192,112667,1,2,0:0:0:0:
32,192,112859,2,0,L|32:144,1,47.5,10|0,3:0|0:0,0:0:0:0:
96,144,113051,1,2,0:0:0:0:
352,144,113243,1,10,3:0:0:0:
224,192,113436,1,0,0:0:0:0:
160,192,113532,1,0,0:0:0:0:
224,192,113628,1,10,3:0:0:0:
384,272,113820,1,2,0:0:0:0:
128,176,114013,6,0,L|128:272,1,95,10|0,3:0|0:0,0:0:0:0:
256,272,114397,1,10,3:0:0:0:
256,224,114493,1,0,0:0:0:0:
224,176,114590,1,0,0:0:0:0:
160,176,114686,1,0,0:0:0:0:
256,144,114782,1,10,3:0:0:0:
384,96,114974,2,0,L|384:144,1,47.5,0|2,0:0|0:0,0:0:0:0:
288,96,115167,1,8,3:0:0:0:
416,96,115359,1,2,0:0:0:0:
160,192,115551,6,0,L|256:192,2,95,10|2|10,3:0|0:0|3:0,0:0:0:0:
416,192,116128,2,0,L|432:144,1,47.5,2|0,0:0|0:0,0:0:0:0:
336,160,116320,2,0,L|304:124,1,47.5,8|0,3:0|0:0,0:0:0:0:
304,112,116513,1,2,0:0:0:0:
352,112,116609,1,0,0:0:0:0:
192,192,116705,1,10,3:0:0:0:
128,192,116801,1,0,0:0:0:0:
192,192,116897,1,0,0:0:0:0:
256,192,116993,1,0,0:0:0:0:
416,224,117090,6,0,L|320:224,1,95,10|2,3:0|0:0,0:0:0:0:
448,224,117474,1,10,3:0:0:0:
480,192,117570,1,0,0:0:0:0:
448,160,117667,1,0,0:0:0:0:
384,160,117763,1,0,0:0:0:0:
288,160,117859,1,10,3:0:0:0:
416,96,118051,2,0,L|416:144,1,47.5,0|2,0:0|0:0,0:0:0:0:
320,96,118243,1,8,3:0:0:0:
448,96,118436,1,2,0:0:0:0:
192,192,118628,5,10,3:0:0:0:
64,192,118820,1,2,0:0:0:0:
320,192,119013,1,10,3:0:0:0:
384,192,119109,1,0,0:0:0:0:
320,192,119205,1,2,0:0:0:0:
64,192,119397,1,10,3:0:0:0:
192,112,119590,2,0,L|192:176,1,47.5
96,112,119782,1,10,3:0:0:0:
352,112,119974,1,2,0:0:0:0:
96,112,120167,6,0,L|192:112,1,95,10|2,3:0|0:0,0:0:0:0:
320,192,120551,1,10,3:0:0:0:
352,192,120647,1,0,0:0:0:0:
320,192,120743,1,0,0:0:0:0:
256,192,120840,1,0,0:0:0:0:
352,192,120936,1,10,3:0:0:0:
224,96,121128,2,0,L|224:144,1,47.5,0|2,0:0|0:0,0:0:0:0:
320,96,121320,1,8,3:0:0:0:
192,96,121513,1,2,0:0:0:0:
448,192,121705,6,0,L|352:192,2,95,10|2|10,3:0|0:0|3:0,0:0:0:0:
480,144,122186,1,0,0:0:0:0:
448,96,122282,1,2,0:0:0:0:
384,96,122378,1,0,0:0:0:0:
224,96,122474,2,0,L|320:96,1,95,8|2,3:0|0:0,0:0:0:0:
64,192,122859,2,0,L|112:192,1,47.5,10|0,3:0|0:0,0:0:0:0:
272,192,123051,2,0,L|320:192,1,47.5
160,192,123243,6,0,P|144:208|160:272,1,95,10|0,3:0|0:0,0:0:0:0:
288,272,123628,2,0,L|288:224,1,47.5,8|0,3:0|0:0,0:0:0:0:
224,192,123820,1,0,0:0:0:0:
160,192,123917,1,0,0:0:0:0:
256,192,124013,1,10,3:0:0:0:
384,128,124205,1,0,0:0:0:0:
448,128,124301,1,2,0:0:0:0:
352,128,124397,1,8,3:0:0:0:
224,128,124590,1,2,0:0:0:0:
480,192,124782,6,0,L|384:192,1,95,10|0,3:0|0:0,0:0:0:0:
256,272,125167,2,0,L|256:224,1,47.5,8|0,3:0|0:0,0:0:0:0:
416,192,125359,1,2,0:0:0:0:
480,192,125455,1,0,0:0:0:0:
384,192,125551,1,10,3:0:0:0:
256,192,125743,1,0,0:0:0:0:
192,192,125840,1,0,0:0:0:0:
352,160,125936,1,10,3:0:0:0:
416,160,126032,1,0,0:0:0:0:
416,224,126128,1,0,0:0:0:0:
352,224,126224,1,0,0:0:0:0:
192,192,126320,6,0,P|176:208|192:272,1,95,10|0,3:0|0:0,0:0:0:0:
320,192,126705,2,0,L|320:144,1,47.5,8|0,3:0|0:0,0:0:0:0:
256,192,126897,2,0,L|256:144,1,47.5,2|0,0:0|0:0,0:0:0:0:
432,144,127090,1,8,3:0:0:0:
464,176,127186,1,0,0:0:0:0:
432,208,127282,1,0,0:0:0:0:
368,208,127378,1,0,0:0:0:0:
208,208,127474,1,10,3:0:0:0:
144,208,127570,1,0,0:0:0:0:
112,176,127667,1,0,0:0:0:0:
144,144,127763,1,0,0:0:0:0:
304,144,127859,5,12,0:0:0:0:
256,192,128051,12,8,129013,3:0:0:0:
256,192,129205,6,0,L|256:144,1,47.5,8|8,3:0|3:0,0:0:0:0:
416,160,129397,6,0,L|480:160,1,64.1250002446175,10|0,3:0|0:0,0:0:0:0:
480,224,129590,2,0,L|416:224,1,64.1250002446175
256,192,129782,2,0,L|256:128,1,64.1250002446175,10|0,3:0|0:0,0:0:0:0:
416,128,129974,2,0,P|440:144|416:224,1,128.250000489235,2|8,0:0|3:0,0:0:0:0:
288,224,130359,1,2,0:0:0:0:
32,224,130551,2,0,L|32:160,1,64.1250002446175,10|0,3:0|0:0,0:0:0:0:
96,128,130743,1,2,0:0:0:0:
352,128,130936,6,0,L|224:128,1,128.250000489235,10|0,3:0|0:0,0:0:0:0:
480,192,131320,2,0,L|480:128,1,64.1250002446175,10|0,3:0|0:0,0:0:0:0:
416,96,131513,1,0,0:0:0:0:
160,96,131705,2,0,L|288:96,1,128.250000489235,10|0,3:0|0:0,0:0:0:0:
288,96,131993,1,0,0:0:0:0:
192,192,132090,2,0,L|128:192,2,64.1250002446175,8|0|0,3:0|0:0|0:0,0:0:0:0:
448,192,132474,6,0,L|464:128,1,64.1250002446175,10|0,3:0|0:0,0:0:0:0:
304,128,132667,2,0,L|240:128,1,64.1250002446175,2|0,0:0|0:0,0:0:0:0:
400,128,132859,2,0,L|464:128,2,64.1250002446175,10|0|2,3:0|0:0|0:0,0:0:0:0:
144,224,133243,2,0,L|272:224,1,128.250000489235,10|0,3:0|0:0,0:0:0:0:
336,224,133532,1,0,0:0:0:0:
271,192,133628,1,8,3:0:0:0:
271,128,133724,1,0,0:0:0:0:
335,96,133820,1,0,0:0:0:0:
80,96,134013,6,0,L|64:160,1,64.1250002446175,10|0,3:0|0:0,0:0:0:0:
224,96,134205,2,0,L|208:160,1,64.1250002446175,2|0,0:0|0:0,0:0:0:0:
48,96,134397,2,0,L|48:160,1,64.1250002446175,10|0,3:0|0:0,0:0:0:0:
112,192,134590,1,2,0:0:0:0:
368,192,134782,2,0,P|392:176|368:96,1,128.250000489235,10|0,3:0|0:0,0:0:0:0:
240,96,135167,2,0,L|176:96,1,64.1250002446175,8|0,3:0|0:0,0:0:0:0:
240,96,135359,2,0,L|304:96,1,64.1250002446175
144,160,135551,6,0,L|80:160,1,64.1250002446175,10|0,3:0|0:0,0:0:0:0:
80,224,135743,2,0,L|144:224,1,64.1250002446175
304,192,135936,2,0,L|304:128,1,64.1250002446175,10|0,3:0|0:0,0:0:0:0:
144,128,136128,2,0,P|120:144|144:224,1,128.250000489235,2|8,0:0|3:0,0:0:0:0:
272,224,136513,1,2,0:0:0:0:
112,224,136705,2,0,L|112:288,1,64.1250002446175,10|0,3:0|0:0,0:0:0:0:
176,320,136897,1,2,0:0:0:0:
432,192,137090,6,0,L|304:192,1,128.250000489235,10|2,3:0|0:0,0:0:0:0:
48,192,137474,2,0,L|48:128,1,64.1250002446175,10|0,3:0|0:0,0:0:0:0:
112,96,137667,1,2,0:0:0:0:
368,96,137859,2,0,L|240:96,1,128.250000489235,10|0,3:0|0:0,0:0:0:0:
240,96,138147,1,0,0:0:0:0:
400,96,138243,2,0,P|424:112|400:192,1,128.250000489235,8|0,3:0|0:0,0:0:0:0:
144,224,138628,6,0,L|272:224,1,128.250000489235,10|2,3:0|0:0,0:0:0:0:
80,192,139013,2,0,L|208:192,1,128.250000489235,10|2,3:0|0:0,0:0:0:0:
464,192,139397,1,10,3:0:0:0:
144,128,139590,2,0,L|80:128,1,64.1250002446175,2|0,0:0|0:0,0:0:0:0:
272,192,139782,2,0,L|400:192,1,128.250000489235,10|2,3:0|0:0,0:0:0:0:
144,128,140167,6,0,P|120:144|144:224,1,128.250000489235,10|0,3:0|0:0,0:0:0:0:
400,224,140551,2,0,L|400:160,1,64.1250002446175,8|0,3:0|0:0,0:0:0:0:
304,128,140743,2,0,L|240:128,2,64.1250002446175,0|0|8,0:0|0:0|3:0,0:0:0:0:
48,128,141128,2,0,L|48:192,1,64.1250002446175
208,192,141320,2,0,L|272:192,1,64.1250002446175,8|0,3:0|0:0,0:0:0:0:
112,192,141513,2,0,L|112:256,1,64.1250002446175
272,224,141705,6,0,L|336:224,1,64.1250002446175,14|0,0:0|0:0,0:0:0:0:
336,288,141897,2,0,L|272:288,1,64.1250002446175
112,256,142090,2,0,L|112:192,1,64.1250002446175,10|0,3:0|0:0,0:0:0:0:
272,192,142282,2,0,P|296:208|272:288,1,128.250000489235,2|8,0:0|3:0,0:0:0:0:
144,288,142667,1,2,0:0:0:0:
400,192,142859,2,0,L|464:192,2,64.1250002446175,10|0|2,3:0|0:0|0:0,0:0:0:0:
144,192,143243,6,0,L|272:192,1,128.250000489235,10|2,3:0|0:0,0:0:0:0:
16,192,143628,2,0,L|16:128,1,64.1250002446175,10|0,3:0|0:0,0:0:0:0:
80,96,143820,1,2,0:0:0:0:
336,96,144013,2,0,L|208:96,1,128.250000489235,10|0,3:0|0:0,0:0:0:0:
208,96,144301,1,0,0:0:0:0:
304,96,144397,2,0,P|328:112|304:192,1,128.250000489235,8|0,3:0|0:0,0:0:0:0:
48,192,144782,6,0,L|112:192,1,64.1250002446175,10|0,3:0|0:0,0:0:0:0:
272,192,144974,2,0,L|208:192,1,64.1250002446175,2|0,0:0|0:0,0:0:0:0:
48,192,145167,2,0,L|48:128,1,64.1250002446175,10|0,3:0|0:0,0:0:0:0:
112,96,145359,1,2,0:0:0:0:
368,96,145551,2,0,L|240:96,1,128.250000489235,10|0,3:0|0:0,0:0:0:0:
240,96,145840,1,0,0:0:0:0:
336,192,145936,2,0,L|208:192,1,128.250000489235,8|0,3:0|0:0,0:0:0:0:
464,96,146320,6,0,L|480:160,1,64.1250002446175,10|0,3:0|0:0,0:0:0:0:
320,96,146513,2,0,L|304:160,1,64.1250002446175,2|0,0:0|0:0,0:0:0:0:
464,96,146705,2,0,L|464:160,1,64.1250002446175,10|0,3:0|0:0,0:0:0:0:
400,192,146897,1,2,0:0:0:0:
144,192,147090,2,0,P|96:164|96:96,1,128.250000489235,10|0,3:0|0:0,0:0:0:0:
160,96,147378,1,0,0:0:0:0:
352,96,147474,2,0,L|480:96,1,128.250000489235,8|0,3:0|0:0,0:0:0:0:
224,160,147859,6,0,L|160:160,1,64.1250002446175,10|0,3:0|0:0,0:0:0:0:
160,224,148051,2,0,L|224:224,1,64.1250002446175
384,192,148243,2,0,L|384:128,1,64.1250002446175,10|0,3:0|0:0,0:0:0:0:
224,128,148436,2,0,P|200:144|224:224,1,128.250000489235,2|8,0:0|3:0,0:0:0:0:
352,224,148820,1,2,0:0:0:0:
96,192,149013,2,0,L|32:192,2,64.1250002446175,10|0|2,3:0|0:0|0:0,0:0:0:0:
352,192,149397,6,0,L|224:192,1,128.250000489235,10|2,3:0|0:0,0:0:0:0:
224,192,149686,1,0,0:0:0:0:
384,192,149782,2,0,L|448:192,2,64.1250002446175,10|0|2,3:0|0:0|0:0,0:0:0:0:
128,96,150167,2,0,L|256:96,1,128.250000489235,10|0,3:0|0:0,0:0:0:0:
256,96,150455,1,0,0:0:0:0:
96,96,150551,2,0,P|72:112|96:192,1,128.250000489235,8|0,3:0|0:0,0:0:0:0:
352,224,150936,6,0,L|224:224,1,128.250000489235,10|2,3:0|0:0,0:0:0:0:
32,224,151320,2,0,L|160:224,1,128.250000489235,10|2,3:0|0:0,0:0:0:0:
416,192,151705,1,10,3:0:0:0:
96,127,151897,2,0,L|32:128,1,64.1250002446175,8|8,3:0|3:0,0:0:0:0:
192,96,152090,2,0,L|256:96,1,64.1250002446175,10|8,3:0|3:0,0:0:0:0:
96,192,152282,2,0,L|96:128,1,64.1250002446175,10|8,3:0|3:0,0:0:0:0:
256,192,152474,6,0,B|352:192|352:192|256:192,1,192.375000733852,14|0,0:0|0:0,0:0:0:0:
96,192,152859,2,0,L|32:192,2,64.1250002446175,14|0|0,0:0|0:0|0:0,0:0:0:0:
352,192,153243,1,14,0:0:0:0:
96,192,153436,2,0,L|352:192,1,256.50000097847,8|0,3:0|0:0,0:0:0:0:
416,192,153724,1,8,3:0:0:0:
416,128,153820,1,8,3:0:0:0:
352,128,153917,1,8,3:0:0:0:
176,128,154013,6,0,L|176:176,1,47.5,14|0,0:0|0:0,0:0:0:0:
352,128,154205,2,0,L|352:176,1,47.5,2|0,0:0|0:0,0:0:0:0:
176,128,154397,2,0,P|160:144|176:208,1,95,10|0,3:0|0:0,0:0:0:0:
432,192,154782,2,0,P|448:208|432:272,1,95,10|0,3:0|0:0,0:0:0:0:
336,192,155070,2,0,P|320:208|336:272,1,95,2|2,0:0|0:0,0:0:0:0:
432,192,155359,1,2,0:0:0:0:
176,128,155551,6,0,L|176:176,1,47.5,10|0,3:0|0:0,0:0:0:0:
352,128,155743,2,0,L|352:176,1,47.5,2|0,0:0|0:0,0:0:0:0:
176,128,155936,2,0,L|80:128,1,95,10|0,3:0|0:0,0:0:0:0:
336,192,156320,2,0,P|364:168|368:112,1,95,10|0,3:0|0:0,0:0:0:0:
304,112,156609,1,0,0:0:0:0:
240,112,156705,1,10,3:0:0:0:
80,112,156897,1,2,0:0:0:0:
336,128,157090,6,0,L|336:176,1,47.5,10|0,3:0|0:0,0:0:0:0:
160,128,157282,2,0,L|160:176,1,47.5,2|0,0:0|0:0,0:0:0:0:
336,128,157474,2,0,P|352:144|336:208,1,95,10|2,3:0|0:0,0:0:0:0:
80,192,157859,2,0,P|64:208|80:272,1,95,10|0,3:0|0:0,0:0:0:0:
144,272,158147,1,0,0:0:0:0:
80,272,158243,1,10,3:0:0:0:
240,272,158436,1,2,0:0:0:0:
80,192,158628,6,0,L|64:96,2,95,10|2|10,3:0|0:0|3:0,0:0:0:0:
208,192,159205,2,0,L|224:96,1,95,2|10,0:0|3:0,0:0:0:0:
160,64,159493,1,8,3:0:0:0:
96,64,159590,1,10,3:0:0:0:
160,64,159686,1,8,3:0:0:0:
320,64,159782,1,8,3:0:0:0:
384,64,159878,1,8,3:0:0:0:
384,128,159974,1,8,3:0:0:0:
320,128,160070,1,8,3:0:0:0:
160,128,160167,6,0,L|112:128,1,47.5,6|0,0:0|0:0,0:0:0:0:
272,192,160359,2,0,L|319:192,1,47.5,2|0,0:0|0:0,0:0:0:0:
160,128,160551,2,0,P|144:144|160:208,1,95,10|0,3:0|0:0,0:0:0:0:
416,192,160936,2,0,P|432:208|416:272,1,95,10|0,3:0|0:0,0:0:0:0:
320,192,161224,2,0,L|416:192,1,95,2|2,0:0|0:0,0:0:0:0:
320,192,161513,1,2,0:0:0:0:
64,80,161705,6,0,L|112:80,1,47.5,10|0,3:0|0:0,0:0:0:0:
272,80,161897,2,0,L|320:80,1,47.5,2|0,0:0|0:0,0:0:0:0:
160,192,162090,2,0,L|64:192,1,95,10|0,3:0|0:0,0:0:0:0:
320,192,162474,2,0,P|336:208|320:272,1,95,10|0,3:0|0:0,0:0:0:0:
192,272,162859,1,10,3:0:0:0:
352,272,163051,1,2,0:0:0:0:
96,192,163243,6,0,L|144:192,1,47.5,10|0,3:0|0:0,0:0:0:0:
304,192,163436,2,0,L|256:192,1,47.5,2|0,0:0|0:0,0:0:0:0:
96,192,163628,2,0,P|80:176|96:112,1,95,10|0,3:0|0:0,0:0:0:0:
351,192,164013,2,0,P|384:224|384:272,1,95,10|0,3:0|0:0,0:0:0:0:
288,128,164301,2,0,P|272:144|288:208,1,95,2|0,0:0|0:0,0:0:0:0:
384,128,164590,1,2,0:0:0:0:
128,192,164782,5,6,0:0:0:0:
480,192,164974,1,2,0:0:0:0:
224,192,165167,2,0,L|320:192,1,95,10|2,3:0|0:0,0:0:0:0:
64,192,165551,2,0,P|48:176|64:112,1,95,10|0,3:0|0:0,0:0:0:0:
192,112,165936,1,8,3:0:0:0:
192,160,166032,1,8,3:0:0:0:
160,208,166128,1,8,3:0:0:0:
96,208,166224,1,8,3:0:0:0:
272,192,166320,6,0,L|384:192,1,95,6|2,0:0|0:0,0:0:0:0:
240,192,166705,1,10,3:0:0:0:
192,192,166801,1,0,0:0:0:0:
192,144,166897,1,0,0:0:0:0:
240,144,166993,1,0,0:0:0:0:
336,144,167090,2,0,P|352:160|336:224,1,95,10|0,3:0|0:0,0:0:0:0:
240,224,167378,2,0,L|240:176,1,47.5,2|8,0:0|3:0,0:0:0:0:
368,176,167667,1,2,0:0:0:0:
112,192,167859,5,2,0:0:0:0:
240,192,168051,1,2,0:0:0:0:
496,192,168243,1,2,0:0:0:0:
368,192,168436,1,2,0:0:0:0:
112,192,168628,2,0,P|96:160|96:96,1,95,2|0,0:0|0:0,0:0:0:0:
160,96,168917,1,0,0:0:0:0:
256,96,169013,2,0,L|160:96,1,95,2|2,0:0|0:0,0:0:0:0:
416,192,169397,6,0,L|304:192,1,95,10|0,3:0|0:0,0:0:0:0:
448,192,169782,1,10,3:0:0:0:
496,192,169878,1,0,0:0:0:0:
496,144,169974,1,0,0:0:0:0:
448,144,170070,1,0,0:0:0:0:
352,144,170167,2,0,P|336:160|352:224,1,95,10|0,3:0|0:0,0:0:0:0:
448,224,170455,2,0,L|448:176,1,47.5,2|8,0:0|3:0,0:0:0:0:
320,176,170743,1,2,0:0:0:0:
64,192,170936,5,2,0:0:0:0:
192,192,171128,1,2,0:0:0:0:
64,192,171320,1,2,0:0:0:0:
320,192,171513,2,0,L|320:144,1,47.5,2|0,0:0|0:0,0:0:0:0:
160,144,171705,1,0,0:0:0:0:
128,192,171801,1,0,0:0:0:0:
160,240,171897,1,2,0:0:0:0:
224,240,171993,1,0,0:0:0:0:
384,240,172090,1,2,0:0:0:0:
448,240,172186,1,0,0:0:0:0:
480,192,172282,1,0,0:0:0:0:
448,144,172378,1,0,0:0:0:0:
288,144,172474,6,0,L|192:144,1,95,10|2,3:0|0:0,0:0:0:0:
336,144,172859,1,10,3:0:0:0:
384,144,172955,1,0,0:0:0:0:
384,96,173051,1,0,0:0:0:0:
336,96,173147,1,0,0:0:0:0:
240,96,173243,2,0,P|224:112|240:176,1,95,10|0,3:0|0:0,0:0:0:0:
336,176,173532,2,0,L|336:128,1,47.5,2|8,0:0|3:0,0:0:0:0:
208,128,173820,1,2,0:0:0:0:
128,128,173917,1,2,0:0:0:0:
208,128,174013,5,2,0:0:0:0:
464,128,174205,1,2,0:0:0:0:
208,128,174397,1,2,0:0:0:0:
144,144,174494,2,0,L|144:192,1,47.5,2|0,0:0|0:0,0:0:0:0:
400,192,174782,2,0,P|432:160|432:112,1,95,2|0,0:0|0:0,0:0:0:0:
368,96,175070,1,0,0:0:0:0:
272,96,175167,2,0,L|368:96,1,95,2|2,0:0|0:0,0:0:0:0:
112,192,175551,6,0,L|224:192,1,95,10|2,3:0|0:0,0:0:0:0:
80,192,175936,1,10,3:0:0:0:
32,192,176032,1,0,0:0:0:0:
32,144,176128,1,0,0:0:0:0:
80,144,176224,1,0,0:0:0:0:
176,144,176320,2,0,P|192:160|176:224,1,95,10|0,3:0|0:0,0:0:0:0:
80,224,176609,2,0,L|80:176,1,47.5,2|8,0:0|3:0,0:0:0:0:
208,176,176897,1,2,0:0:0:0:
464,192,177090,6,0,L|368:192,2,95,10|2|10,3:0|0:0|3:0,0:0:0:0:
496,144,177570,1,0,0:0:0:0:
464,96,177667,1,2,0:0:0:0:
400,96,177763,1,0,0:0:0:0:
240,96,177859,2,0,L|336:96,1,95,8|2,3:0|0:0,0:0:0:0:
80,192,178243,2,0,L|128:192,1,47.5,10|0,3:0|0:0,0:0:0:0:
288,192,178436,2,0,L|336:192,1,47.5
176,192,178628,6,0,P|160:208|176:272,1,95,10|0,3:0|0:0,0:0:0:0:
304,272,179013,1,8,3:0:0:0:
368,272,179109,1,0,0:0:0:0:
368,192,179205,1,0,0:0:0:0:
304,192,179301,1,0,0:0:0:0:
208,192,179397,1,10,3:0:0:0:
336,128,179590,1,0,0:0:0:0:
400,128,179686,1,2,0:0:0:0:
304,128,179782,1,8,3:0:0:0:
176,128,179974,1,2,0:0:0:0:
432,192,180167,6,0,L|336:192,1,95,10|0,3:0|0:0,0:0:0:0:
208,272,180551,1,8,3:0:0:0:
144,272,180647,1,0,0:0:0:0:
144,192,180743,1,2,0:0:0:0:
208,192,180840,1,0,0:0:0:0:
304,192,180936,1,10,3:0:0:0:
176,192,181128,1,0,0:0:0:0:
112,192,181224,1,0,0:0:0:0:
272,160,181320,1,10,3:0:0:0:
336,160,181417,1,0,0:0:0:0:
336,224,181513,1,0,0:0:0:0:
272,224,181609,1,0,0:0:0:0:
112,192,181705,6,0,P|96:208|112:272,1,95,10|0,3:0|0:0,0:0:0:0:
240,192,182090,2,0,L|240:144,1,47.5,8|0,3:0|0:0,0:0:0:0:
176,192,182282,2,0,L|176:144,1,47.5,2|0,0:0|0:0,0:0:0:0:
336,192,182474,1,8,3:0:0:0:
400,192,182570,1,0,0:0:0:0:
464,192,182667,1,0,0:0:0:0:
400,192,182763,1,0,0:0:0:0:
240,80,182859,1,10,3:0:0:0:
176,80,182955,1,0,0:0:0:0:
240,80,183051,1,0,0:0:0:0:
304,80,183147,1,0,0:0:0:0:
464,80,183243,5,12,0:0:0:0:
256,192,183436,12,8,184397,3:0:0:0:
256,192,184782,5,14,0:0:0:0:
144,192,190936,6,0,L|128:96,1,95,10|0,3:0|0:0,0:0:0:0:
256,96,191320,1,10,3:0:0:0:
96,192,191513,2,0,L|80:96,1,95,2|8,0:0|3:0,0:0:0:0:
208,96,191897,1,2,0:0:0:0:
368,96,192090,2,0,L|272:96,1,95,10|2,3:0|0:0,0:0:0:0:
432,192,192474,5,10,3:0:0:0:
304,192,192667,1,2,0:0:0:0:
144,192,192859,1,10,3:0:0:0:
304,192,193051,1,2,0:0:0:0:
112,192,193243,2,0,L|96:96,1,95,10|0,3:0|0:0,0:0:0:0:
224,192,193628,2,0,L|240:96,1,95,8|0,3:0|0:0,0:0:0:0:
192,64,193917,1,0,0:0:0:0:
96,192,194013,5,10,3:0:0:0:
224,192,194205,1,2,0:0:0:0:
352,192,194397,1,10,3:0:0:0:
224,192,194590,1,2,0:0:0:0:
416,192,194782,1,10,3:0:0:0:
224,192,194974,1,2,0:0:0:0:
384,192,195167,2,0,L|384:144,1,47.5,10|0,3:0|0:0,0:0:0:0:
320,128,195359,1,2,0:0:0:0:
64,128,195551,5,2,0:0:0:0:
256,192,195743,12,0,196897,3:0:0:0:
416,192,197090,6,0,L|480:192,1,64.1250002446175,14|0,0:0|0:0,0:0:0:0:
320,192,197282,2,0,L|256:192,1,64.1250002446175
416,192,197474,2,0,L|416:128,1,64.1250002446175,10|0,3:0|0:0,0:0:0:0:
256,128,197667,2,0,L|128:128,1,128.250000489235,2|8,0:0|3:0,0:0:0:0:
288,128,198051,1,2,0:0:0:0:
32,192,198243,2,0,L|32:128,1,64.1250002446175,10|0,3:0|0:0,0:0:0:0:
96,96,198436,1,2,0:0:0:0:
416,96,198628,5,10,3:0:0:0:
160,96,198820,2,0,L|160:160,1,64.1250002446175,2|0,0:0|0:0,0:0:0:0:
320,192,199013,2,0,L|384:192,2,64.1250002446175,10|0|2,3:0|0:0|0:0,0:0:0:0:
64,192,199397,2,0,L|192:192,1,128.250000489235,10|0,3:0|0:0,0:0:0:0:
32,192,199782,2,0,L|32:256,1,64.1250002446175,8|0,3:0|0:0,0:0:0:0:
96,288,199974,1,0,0:0:0:0:
352,288,200167,6,0,L|416:288,1,64.1250002446175,10|0,3:0|0:0,0:0:0:0:
256,192,200359,2,0,L|320:192,1,64.1250002446175,2|0,0:0|0:0,0:0:0:0:
480,192,200551,2,0,L|480:128,1,64.1250002446175,10|0,3:0|0:0,0:0:0:0:
416,80,200743,1,2,0:0:0:0:
160,80,200936,2,0,L|288:80,1,128.250000489235,10|0,3:0|0:0,0:0:0:0:
288,80,201224,1,0,0:0:0:0:
192,128,201320,2,0,L|320:128,1,128.250000489235,8|0,3:0|0:0,0:0:0:0:
64,224,201705,6,0,L|48:288,1,64.1250002446175,10|0,3:0|0:0,0:0:0:0:
208,224,201897,2,0,L|192:288,1,64.1250002446175,2|0,0:0|0:0,0:0:0:0:
32,192,202090,2,0,L|32:128,1,64.1250002446175,10|0,3:0|0:0,0:0:0:0:
96,80,202282,1,2,0:0:0:0:
352,80,202474,2,0,L|224:80,1,128.250000489235,10|0,3:0|0:0,0:0:0:0:
224,80,202763,1,0,0:0:0:0:
320,128,202859,1,8,3:0:0:0:
384,128,202955,1,0,0:0:0:0:
384,192,203051,1,0,0:0:0:0:
320,192,203147,1,0,0:0:0:0:
160,192,203243,6,0,L|96:192,1,64.1250002446175,10|0,3:0|0:0,0:0:0:0:
256,192,203436,2,0,L|320:192,1,64.1250002446175
160,192,203628,2,0,L|160:128,1,64.1250002446175,10|0,3:0|0:0,0:0:0:0:
320,128,203820,2,0,P|344:144|320:224,1,128.250000489235,2|8,0:0|3:0,0:0:0:0:
160,128,204205,1,2,0:0:0:0:
416,192,204397,2,0,L|480:192,2,64.1250002446175,10|0|2,3:0|0:0|0:0,0:0:0:0:
96,192,204782,5,10,3:0:0:0:
352,192,204974,2,0,L|352:128,1,64.1250002446175,2|0,0:0|0:0,0:0:0:0:
192,128,205167,1,10,3:0:0:0:
128,128,205263,2,0,L|128:192,1,64.1250002446175,0|2,0:0|0:0,0:0:0:0:
448,128,205551,1,10,3:0:0:0:
192,128,205743,2,0,L|192:192,1,64.1250002446175
352,256,205936,2,0,P|376:240|352:160,1,128.250000489235,8|0,3:0|0:0,0:0:0:0:
96,160,206320,6,0,L|224:160,1,128.250000489235,10|2,3:0|0:0,0:0:0:0:
64,192,206705,2,0,L|64:256,1,64.1250002446175,10|0,3:0|0:0,0:0:0:0:
128,288,206897,1,2,0:0:0:0:
384,288,207090,1,10,3:0:0:0:
64,192,207282,2,0,L|64:128,1,64.1250002446175,8|8,3:0|3:0,0:0:0:0:
224,128,207474,2,0,L|288:128,1,64.1250002446175,10|8,3:0|3:0,0:0:0:0:
128,192,207667,2,0,L|128:128,1,64.1250002446175,10|8,3:0|3:0,0:0:0:0:
288,192,207859,6,0,L|480:192,1,192.375000733852,14|0,0:0|0:0,0:0:0:0:
320,192,208243,2,0,L|320:128,1,64.1250002446175,14|0,0:0|0:0,0:0:0:0:
384,112,208436,1,0,0:0:0:0:
128,112,208628,1,14,0:0:0:0:
384,112,208820,2,0,L|128:112,1,256.50000097847,8|0,3:0|0:0,0:0:0:0:
64,112,209109,1,8,3:0:0:0:
128,112,209205,1,8,3:0:0:0:
192,112,209301,1,8,3:0:0:0:
352,192,209397,6,0,L|400:192,1,47.5,14|0,0:0|0:0,0:0:0:0:
240,192,209590,2,0,L|192:192,1,47.5,2|0,0:0|0:0,0:0:0:0:
352,192,209782,2,0,L|448:192,1,95,10|0,3:0|0:0,0:0:0:0:
192,192,210167,2,0,P|176:208|192:272,1,95,10|0,3:0|0:0,0:0:0:0:
288,272,210455,2,0,L|192:272,1,95,2|2,0:0|0:0,0:0:0:0:
288,192,210743,1,2,0:0:0:0:
32,192,210936,6,0,L|80:192,1,47.5,10|0,3:0|0:0,0:0:0:0:
240,192,211128,2,0,L|288:192,1,47.5,2|0,0:0|0:0,0:0:0:0:
128,192,211320,2,0,L|32:192,1,95,10|0,3:0|0:0,0:0:0:0:
287,192,211705,2,0,P|303:176|287:112,1,95,10|0,3:0|0:0,0:0:0:0:
224,96,211993,1,0,0:0:0:0:
288,80,212090,1,10,3:0:0:0:
448,80,212282,1,2,0:0:0:0:
192,192,212474,6,0,L|240:192,1,47.5,10|0,3:0|0:0,0:0:0:0:
400,192,212667,2,0,L|352:192,1,47.5,2|0,0:0|0:0,0:0:0:0:
192,192,212859,2,0,L|96:192,1,95,10|2,3:0|0:0,0:0:0:0:
352,192,213243,2,0,P|384:160|384:112,1,95,10|0,3:0|0:0,0:0:0:0:
320,80,213532,1,0,0:0:0:0:
256,80,213628,1,10,3:0:0:0:
416,80,213820,1,2,0:0:0:0:
160,192,214013,6,0,L|256:192,2,95,10|2|10,3:0|0:0|3:0,0:0:0:0:
160,192,214493,1,0,0:0:0:0:
256,192,214590,2,0,L|256:144,1,47.5,2|0,0:0|0:0,0:0:0:0:
96,144,214782,1,10,3:0:0:0:
48,144,214878,1,8,3:0:0:0:
48,192,214974,1,10,3:0:0:0:
96,192,215070,1,8,3:0:0:0:
256,144,215167,1,8,3:0:0:0:
320,144,215263,1,8,3:0:0:0:
256,144,215359,1,8,3:0:0:0:
192,144,215455,1,8,3:0:0:0:
352,192,215551,6,0,L|400:192,1,47.5,6|0,0:0|0:0,0:0:0:0:
240,192,215743,2,0,L|192:192,1,47.5,2|0,0:0|0:0,0:0:0:0:
352,192,215936,2,0,L|448:192,1,95,10|0,3:0|0:0,0:0:0:0:
192,192,216320,2,0,L|96:192,1,95,10|0,3:0|0:0,0:0:0:0:
192,192,216609,2,0,P|208:208|192:272,1,95,2|2,0:0|0:0,0:0:0:0:
96,272,216897,1,2,0:0:0:0:
352,192,217090,6,0,L|304:192,1,47.5,10|0,3:0|0:0,0:0:0:0:
144,192,217282,2,0,L|96:192,1,47.5,2|0,0:0|0:0,0:0:0:0:
256,192,217474,2,0,L|352:192,1,95,10|0,3:0|0:0,0:0:0:0:
96,64,217859,2,0,L|192:64,1,95,10|0,3:0|0:0,0:0:0:0:
256,80,218147,1,0,0:0:0:0:
192,96,218243,1,10,3:0:0:0:
32,96,218436,1,2,0:0:0:0:
288,192,218628,6,0,L|240:192,1,47.5,10|0,3:0|0:0,0:0:0:0:
80,192,218820,2,0,L|128:192,1,47.5,2|0,0:0|0:0,0:0:0:0:
288,192,219013,2,0,L|384:192,1,95,10|0,3:0|0:0,0:0:0:0:
128,192,219397,2,0,P|106:231|128:271,1,95,10|0,3:0|0:0,0:0:0:0:
223,271,219686,2,0,L|128:271,1,95,2|0,0:0|0:0,0:0:0:0:
224,192,219974,1,2,0:0:0:0:
480,192,220167,5,6,0:0:0:0:
176,192,220359,1,2,0:0:0:0:
432,192,220551,2,0,L|336:192,1,95,10|2,3:0|0:0,0:0:0:0:
32,192,220936,2,0,L|128:192,1,95,10|0,3:0|0:0,0:0:0:0:
384,192,221320,1,8,3:0:0:0:
416,256,221417,1,8,3:0:0:0:
384,320,221513,1,8,3:0:0:0:
320,320,221609,1,8,3:0:0:0:
160,192,221705,6,0,L|112:192,1,47.5,14|0,0:0|0:0,0:0:0:0:
272,192,221897,2,0,L|320:192,1,47.5,2|0,0:0|0:0,0:0:0:0:
160,192,222090,2,0,L|64:192,1,95,10|0,3:0|0:0,0:0:0:0:
320,192,222474,2,0,P|336:208|320:272,1,95,10|0,3:0|0:0,0:0:0:0:
224,272,222763,2,0,L|320:272,1,95,2|2,0:0|0:0,0:0:0:0:
224,192,223051,1,2,0:0:0:0:
480,192,223243,6,0,L|432:192,1,47.5,10|0,3:0|0:0,0:0:0:0:
272,192,223436,2,0,L|224:192,1,47.5,2|0,0:0|0:0,0:0:0:0:
384,192,223628,2,0,L|480:192,1,95,10|0,3:0|0:0,0:0:0:0:
225,192,224013,2,0,P|209:176|225:112,1,95,10|0,3:0|0:0,0:0:0:0:
288,96,224301,1,0,0:0:0:0:
224,80,224397,1,10,3:0:0:0:
64,80,224590,1,2,0:0:0:0:
320,192,224782,6,0,L|272:192,1,47.5,10|0,3:0|0:0,0:0:0:0:
112,192,224974,2,0,L|160:192,1,47.5,2|0,0:0|0:0,0:0:0:0:
320,192,225167,2,0,L|416:192,1,95,10|2,3:0|0:0,0:0:0:0:
160,192,225551,2,0,P|128:160|128:112,1,95,10|0,3:0|0:0,0:0:0:0:
192,80,225840,1,0,0:0:0:0:
256,80,225936,1,10,3:0:0:0:
96,80,226128,1,2,0:0:0:0:
352,192,226320,6,0,L|256:192,2,95,10|2|10,3:0|0:0|3:0,0:0:0:0:
352,192,226801,1,0,0:0:0:0:
256,192,226897,2,0,L|256:144,1,47.5,2|0,0:0|0:0,0:0:0:0:
416,144,227090,1,10,3:0:0:0:
464,144,227186,1,8,3:0:0:0:
464,192,227282,1,10,3:0:0:0:
416,192,227378,1,8,3:0:0:0:
256,144,227474,1,8,3:0:0:0:
192,144,227570,1,8,3:0:0:0:
256,144,227667,1,8,3:0:0:0:
320,144,227763,1,8,3:0:0:0:
160,192,227859,6,0,L|112:192,1,47.5,6|0,0:0|0:0,0:0:0:0:
272,192,228051,2,0,L|320:192,1,47.5,2|0,0:0|0:0,0:0:0:0:
160,192,228243,2,0,L|64:192,1,95,10|0,3:0|0:0,0:0:0:0:
320,192,228628,2,0,L|416:192,1,95,10|0,3:0|0:0,0:0:0:0:
320,192,228917,2,0,P|304:208|320:272,1,95,2|2,0:0|0:0,0:0:0:0:
416,272,229205,1,2,0:0:0:0:
160,192,229397,6,0,L|208:192,1,47.5,10|0,3:0|0:0,0:0:0:0:
368,192,229590,2,0,L|416:192,1,47.5,2|0,0:0|0:0,0:0:0:0:
256,192,229782,2,0,L|160:192,1,95,10|0,3:0|0:0,0:0:0:0:
416,64,230167,2,0,L|320:64,1,95,10|0,3:0|0:0,0:0:0:0:
256,80,230455,1,0,0:0:0:0:
320,96,230551,1,10,3:0:0:0:
480,96,230743,1,2,0:0:0:0:
224,192,230936,6,0,L|272:192,1,47.5,10|0,3:0|0:0,0:0:0:0:
432,192,231128,2,0,L|384:192,1,47.5,2|0,0:0|0:0,0:0:0:0:
224,192,231320,2,0,L|128:192,1,95,10|0,3:0|0:0,0:0:0:0:
384,192,231705,2,0,P|406:231|384:271,1,95,10|0,3:0|0:0,0:0:0:0:
289,271,231993,2,0,L|384:271,1,95,2|0,0:0|0:0,0:0:0:0:
288,192,232282,1,2,0:0:0:0:
32,192,232474,5,6,0:0:0:0:
336,192,232667,1,2,0:0:0:0:
80,192,232859,2,0,L|176:192,1,95,10|2,3:0|0:0,0:0:0:0:
480,192,233243,2,0,L|384:192,1,95,10|0,3:0|0:0,0:0:0:0:
128,192,233628,2,0,L|80:192,1,47.5,8|8,3:0|3:0,0:0:0:0:
240,192,233820,2,0,L|288:192,1,47.5,8|8,3:0|3:0,0:0:0:0:
128,192,234013,5,14,0:0:0:0:
