osu file format v14

[General]
AudioFilename: audio.mp3
AudioLeadIn: 0
PreviewTime: 67732
Countdown: 0
SampleSet: Normal
StackLeniency: 0.7
Mode: 1
LetterboxInBreaks: 0
WidescreenStoryboard: 1

[Editor]
DistanceSpacing: 1
BeatDivisor: 4
GridSize: 4
TimelineZoom: 1

[Metadata]
Title:Magic Girl !!
TitleUnicode:Magic Girl !!
Artist:A-One feat. Shihori
ArtistUnicode:A-One feat. Shihori
Creator:Chromoxx
Version:Muzukashii
Source:東方紅魔郷 ~ the Embodiment of Scarlet Devil.
Tags:featured artist fa osu! nico 魔法少女達の百年祭 eurobeat touhou toho vol.3 patchouli knowledge centennial festival for magical girls dj command mappers guild mpg video game english electronic aone koumakyou
BeatmapID:3485456
BeatmapSetID:1704340

[Difficulty]
HPDrainRate:6
CircleSize:5
OverallDifficulty:5
ApproachRate:5
SliderMultiplier:1.4
SliderTickRate:1

[Events]
//Background and Video events
0,0,"magic girl.jpg",0,100
//Break Periods
//Storyboard Layer 0 (Background)
//Storyboard Layer 1 (Fail)
//Storyboard Layer 2 (Pass)
//Storyboard Layer 3 (Foreground)
//Storyboard Layer 4 (Overlay)
//Storyboard Sound Samples

[TimingPoints]
40,384.615384615385,4,1,0,90,1,0
67732,-100,4,1,0,90,0,1
92347,-100,4,1,0,90,0,0
129270,-100,4,1,0,90,0,1
153886,-100,4,1,0,90,0,0
196963,-100,4,1,0,90,0,1
209270,-100,4,1,0,90,0,0

[HitObjects]
375,290,40,5,8,0:0:0:0:
252,173,2540,1,8,0:0:0:0:
252,173,2828,1,8,0:0:0:0:
252,173,3116,1,8,0:0:0:0:
237,189,5616,1,8,0:0:0:0:
237,189,6193,1,8,0:0:0:0:
237,194,8693,1,8,0:0:0:0:
237,194,8982,1,8,0:0:0:0:
237,194,9270,1,8,0:0:0:0:
194,237,10809,1,0,0:0:0:0:
194,237,11193,1,0,0:0:0:0:
194,237,11578,1,0,0:0:0:0:
289,128,12347,1,8,0:0:0:0:
306,257,12732,1,0,0:0:0:0:
211,290,13116,1,8,0:0:0:0:
306,257,13309,1,8,0:0:0:0:
219,118,13501,1,0,0:0:0:0:
219,118,13693,1,0,0:0:0:0:
219,118,13886,1,8,0:0:0:0:
253,285,14270,1,0,0:0:0:0:
253,285,14655,1,8,0:0:0:0:
253,285,14847,1,0,0:0:0:0:
253,285,15040,1,8,0:0:0:0:
253,285,15232,1,8,0:0:0:0:
253,285,15424,1,0,0:0:0:0:
209,202,15809,1,8,0:0:0:0:
209,202,16193,1,0,0:0:0:0:
229,178,16386,1,0,0:0:0:0:
229,178,16578,1,8,0:0:0:0:
229,178,16770,1,8,0:0:0:0:
229,178,16963,1,0,0:0:0:0:
229,178,17347,1,8,0:0:0:0:
229,178,17732,1,0,0:0:0:0:
412,282,17924,1,12,0:0:0:0:
289,128,18501,1,12,0:0:0:0:
306,257,18886,1,0,0:0:0:0:
211,290,19270,1,8,0:0:0:0:
306,257,19463,1,8,0:0:0:0:
219,118,19655,1,0,0:0:0:0:
219,118,19847,1,0,0:0:0:0:
219,118,20040,1,8,0:0:0:0:
253,285,20424,1,0,0:0:0:0:
253,285,20809,1,8,0:0:0:0:
253,285,21001,1,0,0:0:0:0:
253,285,21193,1,8,0:0:0:0:
253,285,21386,1,8,0:0:0:0:
253,285,21578,1,0,0:0:0:0:
209,202,21963,1,8,0:0:0:0:
209,202,22347,1,0,0:0:0:0:
229,178,22540,1,0,0:0:0:0:
229,178,22732,1,8,0:0:0:0:
229,178,22924,1,8,0:0:0:0:
229,178,23116,1,0,0:0:0:0:
229,178,23501,1,8,0:0:0:0:
229,178,23886,1,0,0:0:0:0:
163,232,24655,1,0,0:0:0:0:
319,256,25040,1,8,0:0:0:0:
268,220,25232,1,8,0:0:0:0:
268,220,25424,1,0,0:0:0:0:
229,194,25616,1,0,0:0:0:0:
229,194,25809,1,8,0:0:0:0:
187,256,26001,1,0,0:0:0:0:
187,256,26193,1,8,0:0:0:0:
241,216,26578,1,0,0:0:0:0:
241,216,26770,1,0,0:0:0:0:
241,216,26963,1,8,0:0:0:0:
241,216,27155,1,8,0:0:0:0:
241,216,27347,1,0,0:0:0:0:
241,216,27540,1,8,0:0:0:0:
241,216,27732,1,0,0:0:0:0:
286,264,28116,1,8,0:0:0:0:
285,279,28309,1,8,0:0:0:0:
285,279,28501,1,0,0:0:0:0:
285,279,28693,1,0,0:0:0:0:
285,279,28886,1,8,0:0:0:0:
212,205,29078,1,0,0:0:0:0:
212,205,29174,1,0,0:0:0:0:
198,192,29270,1,0,0:0:0:0:
281,181,29655,1,0,0:0:0:0:
281,187,30040,1,0,0:0:0:0:
372,185,30809,1,8,0:0:0:0:
372,185,30905,1,8,0:0:0:0:
372,185,31001,1,8,0:0:0:0:
288,229,31193,1,0,0:0:0:0:
8,205,31386,1,0,0:0:0:0:
221,165,31578,1,8,0:0:0:0:
221,165,31866,1,8,0:0:0:0:
279,146,32155,1,8,0:0:0:0:
279,146,32347,1,0,0:0:0:0:
279,146,32443,1,0,0:0:0:0:
218,172,32540,1,0,0:0:0:0:
218,172,32732,1,8,0:0:0:0:
218,172,32924,1,8,0:0:0:0:
218,172,33116,1,0,0:0:0:0:
298,210,33501,1,0,0:0:0:0:
224,233,33693,1,0,0:0:0:0:
265,266,33886,1,8,0:0:0:0:
265,266,33982,1,8,0:0:0:0:
181,221,34078,1,8,0:0:0:0:
181,221,34270,1,0,0:0:0:0:
159,211,34463,1,0,0:0:0:0:
159,211,34655,1,8,0:0:0:0:
221,232,35040,1,0,0:0:0:0:
200,148,35232,1,0,0:0:0:0:
146,136,35424,1,8,0:0:0:0:
320,303,35616,1,8,0:0:0:0:
320,303,35809,1,0,0:0:0:0:
320,303,36001,1,0,0:0:0:0:
320,303,36193,1,8,0:0:0:0:
224,209,36963,1,0,0:0:0:0:
176,184,37059,1,0,0:0:0:0:
170,215,37155,1,0,0:0:0:0:
170,215,37347,1,8,0:0:0:0:
170,215,37540,1,8,0:0:0:0:
170,215,37732,1,0,0:0:0:0:
262,253,38020,1,0,0:0:0:0:
262,253,38309,1,0,0:0:0:0:
262,253,38501,1,8,0:0:0:0:
262,253,38597,1,8,0:0:0:0:
214,223,38693,1,8,0:0:0:0:
214,223,38886,1,0,0:0:0:0:
214,223,39078,1,0,0:0:0:0:
214,223,39270,1,8,0:0:0:0:
184,239,39655,1,8,0:0:0:0:
184,239,39847,1,8,0:0:0:0:
231,244,40040,1,0,0:0:0:0:
150,207,40136,1,0,0:0:0:0:
165,261,40232,1,0,0:0:0:0:
153,212,40424,1,8,0:0:0:0:
273,221,40616,1,8,0:0:0:0:
273,221,40809,1,0,0:0:0:0:
237,243,41097,1,0,0:0:0:0:
226,203,41386,1,0,0:0:0:0:
252,245,41578,1,12,0:0:0:0:
252,245,41963,1,12,0:0:0:0:
252,245,42347,1,12,0:0:0:0:
376,214,43116,1,0,0:0:0:0:
376,214,43501,1,0,0:0:0:0:
376,214,43886,1,0,0:0:0:0:
325,223,44270,1,0,0:0:0:0:
325,223,44655,1,0,0:0:0:0:
325,223,45040,1,0,0:0:0:0:
325,223,45424,1,0,0:0:0:0:
325,223,45809,1,0,0:0:0:0:
325,223,46193,1,8,0:0:0:0:
325,223,46578,1,8,0:0:0:0:
325,223,46963,1,8,0:0:0:0:
325,223,47347,1,8,0:0:0:0:
325,223,47732,1,8,0:0:0:0:
325,223,48116,1,8,0:0:0:0:
325,223,48501,1,8,0:0:0:0:
250,195,48886,1,8,0:0:0:0:
250,195,48982,1,8,0:0:0:0:
155,178,49078,1,8,0:0:0:0:
155,178,49270,1,0,0:0:0:0:
215,224,49655,1,8,0:0:0:0:
215,224,50040,1,0,0:0:0:0:
215,224,50328,1,8,0:0:0:0:
215,224,50616,1,8,0:0:0:0:
215,224,50809,1,0,0:0:0:0:
215,224,51001,1,0,0:0:0:0:
215,224,51193,1,8,0:0:0:0:
215,224,51386,1,0,0:0:0:0:
215,224,51578,1,8,0:0:0:0:
220,195,51963,1,0,0:0:0:0:
296,233,52155,1,0,0:0:0:0:
298,181,52347,1,8,0:0:0:0:
298,181,52732,1,0,0:0:0:0:
181,198,53116,1,8,0:0:0:0:
181,198,53405,1,0,0:0:0:0:
153,130,53693,1,0,0:0:0:0:
153,130,53886,1,8,0:0:0:0:
214,243,54078,1,0,0:0:0:0:
214,243,54270,1,0,0:0:0:0:
214,243,54463,1,8,0:0:0:0:
215,216,55040,1,8,0:0:0:0:
155,178,55424,1,0,0:0:0:0:
215,224,55809,1,8,0:0:0:0:
215,224,56193,1,0,0:0:0:0:
215,224,56482,1,8,0:0:0:0:
215,224,56770,1,8,0:0:0:0:
215,224,56963,1,0,0:0:0:0:
215,224,57155,1,0,0:0:0:0:
215,224,57347,1,8,0:0:0:0:
215,224,57540,1,0,0:0:0:0:
215,224,57732,1,8,0:0:0:0:
220,195,58116,1,0,0:0:0:0:
296,233,58309,1,0,0:0:0:0:
298,181,58501,1,8,0:0:0:0:
298,181,58886,1,0,0:0:0:0:
181,198,59270,1,8,0:0:0:0:
181,198,59559,1,0,0:0:0:0:
153,130,59847,1,0,0:0:0:0:
153,130,60040,1,8,0:0:0:0:
214,243,60232,1,0,0:0:0:0:
214,243,60424,1,0,0:0:0:0:
214,243,60616,1,8,0:0:0:0:
215,216,61193,1,8,0:0:0:0:
298,216,61578,1,4,0:0:0:0:
291,253,61963,1,8,0:0:0:0:
291,253,62155,1,8,0:0:0:0:
291,253,62347,1,0,0:0:0:0:
291,253,62540,1,0,0:0:0:0:
291,253,62732,1,8,0:0:0:0:
291,253,62924,1,8,0:0:0:0:
291,253,63116,1,0,0:0:0:0:
257,163,63501,1,8,0:0:0:0:
257,163,63693,1,0,0:0:0:0:
257,163,63886,1,8,0:0:0:0:
257,163,64078,1,8,0:0:0:0:
257,163,64270,1,0,0:0:0:0:
257,163,64463,1,0,0:0:0:0:
257,163,64655,1,8,0:0:0:0:
235,201,65040,1,0,0:0:0:0:
235,201,65232,1,8,0:0:0:0:
201,195,65424,1,0,0:0:0:0:
201,195,65520,1,0,0:0:0:0:
138,168,65616,1,0,0:0:0:0:
138,168,65809,1,8,0:0:0:0:
138,168,65905,1,8,0:0:0:0:
197,119,66001,1,8,0:0:0:0:
300,234,66193,1,0,0:0:0:0:
277,212,67732,1,4,0:0:0:0:
362,219,68116,1,0,0:0:0:0:
362,219,68309,1,8,0:0:0:0:
362,219,68693,1,0,0:0:0:0:
362,219,68886,1,8,0:0:0:0:
362,219,69078,1,8,0:0:0:0:
265,166,69270,1,0,0:0:0:0:
265,166,69463,1,0,0:0:0:0:
265,166,69655,1,8,0:0:0:0:
265,166,69847,1,8,0:0:0:0:
265,166,70040,1,0,0:0:0:0:
200,189,70424,1,8,0:0:0:0:
214,191,70809,1,0,0:0:0:0:
268,255,71001,1,8,0:0:0:0:
295,326,71193,1,0,0:0:0:0:
295,326,71386,1,0,0:0:0:0:
295,326,71578,1,8,0:0:0:0:
295,326,71963,1,0,0:0:0:0:
244,291,72347,1,8,0:0:0:0:
148,199,72540,1,0,0:0:0:0:
148,199,72732,1,8,0:0:0:0:
148,199,72924,1,8,0:0:0:0:
148,199,73116,1,0,0:0:0:0:
209,195,73886,1,12,0:0:0:0:
289,279,74270,1,8,0:0:0:0:
289,279,74463,1,0,0:0:0:0:
250,206,74847,1,8,0:0:0:0:
250,206,75040,1,0,0:0:0:0:
250,206,75232,1,0,0:0:0:0:
250,206,75424,1,8,0:0:0:0:
250,206,75616,1,8,0:0:0:0:
250,206,75809,1,0,0:0:0:0:
250,206,76001,1,0,0:0:0:0:
250,206,76193,1,8,0:0:0:0:
274,198,76578,1,0,0:0:0:0:
292,188,76963,1,8,0:0:0:0:
292,188,77155,1,8,0:0:0:0:
292,188,77347,1,0,0:0:0:0:
292,188,77540,1,8,0:0:0:0:
292,188,77732,1,0,0:0:0:0:
292,188,77924,1,0,0:0:0:0:
292,188,78116,1,8,0:0:0:0:
292,188,78309,1,8,0:0:0:0:
108,188,78501,2,4,L|151:191,8,35
277,212,80040,1,4,0:0:0:0:
362,219,80424,1,0,0:0:0:0:
362,219,80616,1,8,0:0:0:0:
362,219,81001,1,0,0:0:0:0:
362,219,81193,1,8,0:0:0:0:
362,219,81386,1,8,0:0:0:0:
265,166,81578,1,0,0:0:0:0:
265,166,81770,1,0,0:0:0:0:
265,166,81963,1,8,0:0:0:0:
265,166,82155,1,8,0:0:0:0:
265,166,82347,1,0,0:0:0:0:
200,189,82732,1,8,0:0:0:0:
214,191,83116,1,0,0:0:0:0:
268,255,83309,1,8,0:0:0:0:
295,326,83501,1,0,0:0:0:0:
295,326,83693,1,0,0:0:0:0:
295,326,83886,1,8,0:0:0:0:
295,326,84270,1,0,0:0:0:0:
244,291,84655,1,8,0:0:0:0:
148,199,84847,1,0,0:0:0:0:
148,199,85040,1,8,0:0:0:0:
148,199,85232,1,8,0:0:0:0:
148,199,85424,1,0,0:0:0:0:
209,195,86193,1,12,0:0:0:0:
289,279,86578,1,8,0:0:0:0:
289,279,86770,1,0,0:0:0:0:
250,206,87155,1,8,0:0:0:0:
250,206,87347,1,0,0:0:0:0:
250,206,87540,1,0,0:0:0:0:
250,206,87732,1,8,0:0:0:0:
250,206,87924,1,8,0:0:0:0:
250,206,88116,1,0,0:0:0:0:
250,206,88309,1,0,0:0:0:0:
250,206,88501,1,8,0:0:0:0:
274,198,88886,1,0,0:0:0:0:
292,188,89270,1,8,0:0:0:0:
292,188,89463,1,8,0:0:0:0:
292,188,89655,1,0,0:0:0:0:
292,188,89847,1,8,0:0:0:0:
292,188,90040,1,0,0:0:0:0:
292,188,90232,1,0,0:0:0:0:
292,188,90424,1,8,0:0:0:0:
292,188,90616,1,8,0:0:0:0:
292,188,90809,1,4,0:0:0:0:
231,239,91193,1,4,0:0:0:0:
231,239,91578,1,4,0:0:0:0:
372,185,92347,1,8,0:0:0:0:
372,185,92443,1,8,0:0:0:0:
372,185,92540,1,8,0:0:0:0:
288,229,92732,1,0,0:0:0:0:
8,205,92924,1,0,0:0:0:0:
221,165,93116,1,8,0:0:0:0:
221,165,93405,1,8,0:0:0:0:
279,146,93693,1,8,0:0:0:0:
279,146,93886,1,0,0:0:0:0:
279,146,93982,1,0,0:0:0:0:
218,172,94078,1,0,0:0:0:0:
218,172,94270,1,8,0:0:0:0:
218,172,94463,1,8,0:0:0:0:
218,172,94655,1,0,0:0:0:0:
298,210,95040,1,0,0:0:0:0:
224,233,95232,1,0,0:0:0:0:
265,266,95424,1,8,0:0:0:0:
265,266,95520,1,8,0:0:0:0:
181,221,95616,1,8,0:0:0:0:
181,221,95809,1,0,0:0:0:0:
159,211,96001,1,0,0:0:0:0:
159,211,96193,1,8,0:0:0:0:
221,232,96578,1,0,0:0:0:0:
200,148,96770,1,0,0:0:0:0:
146,136,96963,1,8,0:0:0:0:
320,303,97155,1,8,0:0:0:0:
320,303,97347,1,0,0:0:0:0:
320,303,97540,1,0,0:0:0:0:
320,303,97732,1,8,0:0:0:0:
224,209,98501,1,0,0:0:0:0:
176,184,98597,1,0,0:0:0:0:
170,215,98693,1,0,0:0:0:0:
170,215,98886,1,8,0:0:0:0:
170,215,99078,1,8,0:0:0:0:
170,215,99270,1,0,0:0:0:0:
262,253,99559,1,0,0:0:0:0:
262,253,99847,1,0,0:0:0:0:
262,253,100040,1,8,0:0:0:0:
262,253,100136,1,8,0:0:0:0:
214,223,100232,1,8,0:0:0:0:
214,223,100424,1,0,0:0:0:0:
214,223,100616,1,0,0:0:0:0:
214,223,100809,1,8,0:0:0:0:
184,239,101193,1,8,0:0:0:0:
184,239,101386,1,8,0:0:0:0:
231,244,101578,1,0,0:0:0:0:
150,207,101674,1,0,0:0:0:0:
165,261,101770,1,0,0:0:0:0:
153,212,101963,1,8,0:0:0:0:
273,221,102155,1,8,0:0:0:0:
273,221,102347,1,0,0:0:0:0:
237,243,102636,1,0,0:0:0:0:
226,203,102924,1,0,0:0:0:0:
252,245,103116,1,12,0:0:0:0:
252,245,103501,1,12,0:0:0:0:
252,245,103886,1,12,0:0:0:0:
376,214,104655,1,0,0:0:0:0:
376,214,105040,1,0,0:0:0:0:
376,214,105424,1,0,0:0:0:0:
325,223,105809,1,0,0:0:0:0:
325,223,106193,1,0,0:0:0:0:
325,223,106578,1,0,0:0:0:0:
325,223,106963,1,0,0:0:0:0:
325,223,107347,1,0,0:0:0:0:
325,223,107732,1,8,0:0:0:0:
325,223,108116,1,8,0:0:0:0:
325,223,108501,1,8,0:0:0:0:
325,223,108886,1,8,0:0:0:0:
325,223,109270,1,8,0:0:0:0:
325,223,109655,1,8,0:0:0:0:
325,223,110040,1,8,0:0:0:0:
250,195,110424,1,8,0:0:0:0:
250,195,110520,1,8,0:0:0:0:
155,178,110616,1,8,0:0:0:0:
155,178,110809,1,0,0:0:0:0:
215,224,111193,1,8,0:0:0:0:
215,224,111578,1,0,0:0:0:0:
215,224,111866,1,8,0:0:0:0:
215,224,112155,1,8,0:0:0:0:
215,224,112347,1,0,0:0:0:0:
215,224,112540,1,0,0:0:0:0:
215,224,112732,1,8,0:0:0:0:
215,224,112924,1,0,0:0:0:0:
215,224,113116,1,8,0:0:0:0:
220,195,113501,1,0,0:0:0:0:
296,233,113693,1,0,0:0:0:0:
298,181,113886,1,8,0:0:0:0:
298,181,114270,1,0,0:0:0:0:
181,198,114655,1,8,0:0:0:0:
181,198,114943,1,0,0:0:0:0:
153,130,115232,1,0,0:0:0:0:
153,130,115424,1,8,0:0:0:0:
214,243,115616,1,0,0:0:0:0:
214,243,115809,1,0,0:0:0:0:
214,243,116001,1,8,0:0:0:0:
215,216,116578,1,8,0:0:0:0:
155,178,116963,1,0,0:0:0:0:
215,224,117347,1,8,0:0:0:0:
215,224,117732,1,0,0:0:0:0:
215,224,118020,1,8,0:0:0:0:
215,224,118309,1,8,0:0:0:0:
215,224,118501,1,0,0:0:0:0:
215,224,118693,1,0,0:0:0:0:
215,224,118886,1,8,0:0:0:0:
215,224,119078,1,0,0:0:0:0:
215,224,119270,1,8,0:0:0:0:
220,195,119655,1,0,0:0:0:0:
296,233,119847,1,0,0:0:0:0:
298,181,120040,1,8,0:0:0:0:
298,181,120424,1,0,0:0:0:0:
181,198,120809,1,8,0:0:0:0:
181,198,121097,1,0,0:0:0:0:
153,130,121386,1,0,0:0:0:0:
153,130,121578,1,8,0:0:0:0:
214,243,121770,1,0,0:0:0:0:
214,243,121963,1,0,0:0:0:0:
214,243,122155,1,8,0:0:0:0:
215,216,122732,1,8,0:0:0:0:
298,216,123116,1,4,0:0:0:0:
291,253,123501,1,8,0:0:0:0:
291,253,123693,1,8,0:0:0:0:
291,253,123886,1,0,0:0:0:0:
291,253,124078,1,0,0:0:0:0:
291,253,124270,1,8,0:0:0:0:
291,253,124463,1,8,0:0:0:0:
291,253,124655,1,0,0:0:0:0:
257,163,125040,1,8,0:0:0:0:
257,163,125232,1,0,0:0:0:0:
257,163,125424,1,8,0:0:0:0:
257,163,125616,1,8,0:0:0:0:
257,163,125809,1,0,0:0:0:0:
257,163,126001,1,0,0:0:0:0:
257,163,126193,1,8,0:0:0:0:
235,201,126578,1,0,0:0:0:0:
235,201,126770,1,8,0:0:0:0:
201,195,126963,1,0,0:0:0:0:
201,195,127059,1,0,0:0:0:0:
138,168,127155,1,0,0:0:0:0:
138,168,127347,1,8,0:0:0:0:
138,168,127443,1,8,0:0:0:0:
197,119,127540,1,8,0:0:0:0:
300,234,127732,1,0,0:0:0:0:
277,212,129270,1,4,0:0:0:0:
362,219,129655,1,0,0:0:0:0:
362,219,129847,1,8,0:0:0:0:
362,219,130232,1,0,0:0:0:0:
362,219,130424,1,8,0:0:0:0:
362,219,130616,1,8,0:0:0:0:
265,166,130809,1,0,0:0:0:0:
265,166,131001,1,0,0:0:0:0:
265,166,131193,1,8,0:0:0:0:
265,166,131386,1,8,0:0:0:0:
265,166,131578,1,0,0:0:0:0:
200,189,131963,1,8,0:0:0:0:
214,191,132347,1,0,0:0:0:0:
268,255,132540,1,8,0:0:0:0:
295,326,132732,1,0,0:0:0:0:
295,326,132924,1,0,0:0:0:0:
295,326,133116,1,8,0:0:0:0:
295,326,133501,1,0,0:0:0:0:
244,291,133886,1,8,0:0:0:0:
148,199,134078,1,0,0:0:0:0:
148,199,134270,1,8,0:0:0:0:
148,199,134463,1,8,0:0:0:0:
148,199,134655,1,0,0:0:0:0:
209,195,135424,1,12,0:0:0:0:
289,279,135809,1,8,0:0:0:0:
289,279,136001,1,0,0:0:0:0:
250,206,136386,1,8,0:0:0:0:
250,206,136578,1,0,0:0:0:0:
250,206,136770,1,0,0:0:0:0:
250,206,136963,1,8,0:0:0:0:
250,206,137155,1,8,0:0:0:0:
250,206,137347,1,0,0:0:0:0:
250,206,137540,1,0,0:0:0:0:
250,206,137732,1,8,0:0:0:0:
274,198,138116,1,0,0:0:0:0:
292,188,138501,1,8,0:0:0:0:
292,188,138693,1,8,0:0:0:0:
292,188,138886,1,0,0:0:0:0:
292,188,139078,1,8,0:0:0:0:
292,188,139270,1,0,0:0:0:0:
292,188,139463,1,0,0:0:0:0:
292,188,139655,1,8,0:0:0:0:
292,188,139847,1,8,0:0:0:0:
108,188,140040,2,4,L|151:191,8,35
277,212,141578,1,4,0:0:0:0:
362,219,141963,1,0,0:0:0:0:
362,219,142155,1,8,0:0:0:0:
362,219,142540,1,0,0:0:0:0:
362,219,142732,1,8,0:0:0:0:
362,219,142924,1,8,0:0:0:0:
265,166,143116,1,0,0:0:0:0:
265,166,143309,1,0,0:0:0:0:
265,166,143501,1,8,0:0:0:0:
265,166,143693,1,8,0:0:0:0:
265,166,143886,1,0,0:0:0:0:
200,189,144270,1,8,0:0:0:0:
214,191,144655,1,0,0:0:0:0:
268,255,144847,1,8,0:0:0:0:
295,326,145040,1,0,0:0:0:0:
295,326,145232,1,0,0:0:0:0:
295,326,145424,1,8,0:0:0:0:
295,326,145809,1,0,0:0:0:0:
244,291,146193,1,8,0:0:0:0:
148,199,146386,1,0,0:0:0:0:
148,199,146578,1,8,0:0:0:0:
148,199,146770,1,8,0:0:0:0:
148,199,146963,1,0,0:0:0:0:
209,195,147732,1,12,0:0:0:0:
289,279,148116,1,8,0:0:0:0:
289,279,148309,1,0,0:0:0:0:
250,206,148693,1,8,0:0:0:0:
250,206,148886,1,0,0:0:0:0:
250,206,149078,1,0,0:0:0:0:
250,206,149270,1,8,0:0:0:0:
250,206,149463,1,8,0:0:0:0:
250,206,149655,1,0,0:0:0:0:
250,206,149847,1,0,0:0:0:0:
250,206,150040,1,8,0:0:0:0:
274,198,150424,1,0,0:0:0:0:
292,188,150809,1,8,0:0:0:0:
292,188,151001,1,8,0:0:0:0:
292,188,151193,1,0,0:0:0:0:
292,188,151386,1,8,0:0:0:0:
292,188,151578,1,0,0:0:0:0:
292,188,151770,1,0,0:0:0:0:
292,188,151963,1,8,0:0:0:0:
292,188,152155,1,8,0:0:0:0:
292,188,152347,1,4,0:0:0:0:
231,239,152732,1,4,0:0:0:0:
231,239,153116,1,4,0:0:0:0:
372,185,153886,1,8,0:0:0:0:
372,185,153982,1,8,0:0:0:0:
372,185,154078,1,8,0:0:0:0:
288,229,154270,1,0,0:0:0:0:
8,205,154463,1,0,0:0:0:0:
221,165,154655,1,8,0:0:0:0:
221,165,154943,1,8,0:0:0:0:
279,146,155232,1,8,0:0:0:0:
279,146,155424,1,0,0:0:0:0:
279,146,155520,1,0,0:0:0:0:
218,172,155616,1,0,0:0:0:0:
218,172,155809,1,8,0:0:0:0:
218,172,156001,1,8,0:0:0:0:
218,172,156193,1,0,0:0:0:0:
298,210,156578,1,0,0:0:0:0:
224,233,156770,1,0,0:0:0:0:
265,266,156963,1,8,0:0:0:0:
265,266,157059,1,8,0:0:0:0:
181,221,157155,1,8,0:0:0:0:
181,221,157347,1,0,0:0:0:0:
159,211,157540,1,0,0:0:0:0:
159,211,157732,1,8,0:0:0:0:
221,232,158116,1,0,0:0:0:0:
200,148,158309,1,0,0:0:0:0:
256,192,158501,12,0,159270,0:0:0:0:
224,209,160040,5,0,0:0:0:0:
176,184,160136,1,0,0:0:0:0:
170,215,160232,1,0,0:0:0:0:
170,215,160424,1,8,0:0:0:0:
170,215,160616,1,8,0:0:0:0:
170,215,160809,1,0,0:0:0:0:
262,253,161097,1,0,0:0:0:0:
262,253,161386,1,0,0:0:0:0:
262,253,161578,1,8,0:0:0:0:
262,253,161674,1,8,0:0:0:0:
214,223,161770,1,8,0:0:0:0:
214,223,161963,1,0,0:0:0:0:
214,223,162155,1,0,0:0:0:0:
214,223,162347,1,8,0:0:0:0:
184,239,162732,1,8,0:0:0:0:
184,239,162924,1,8,0:0:0:0:
231,244,163116,1,0,0:0:0:0:
150,207,163213,1,0,0:0:0:0:
165,261,163309,1,0,0:0:0:0:
153,212,163501,1,8,0:0:0:0:
273,221,163693,1,8,0:0:0:0:
273,221,163886,1,0,0:0:0:0:
237,243,164174,1,0,0:0:0:0:
226,203,164463,1,0,0:0:0:0:
252,245,164655,1,12,0:0:0:0:
252,245,165040,1,12,0:0:0:0:
252,245,165424,1,12,0:0:0:0:
243,259,166193,1,0,0:0:0:0:
243,259,166386,1,0,0:0:0:0:
165,262,166578,1,8,0:0:0:0:
165,262,166963,1,0,0:0:0:0:
201,254,167251,1,8,0:0:0:0:
201,254,167732,1,4,0:0:0:0:
318,189,167924,1,4,0:0:0:0:
318,189,168116,1,12,0:0:0:0:
318,189,168309,1,4,0:0:0:0:
318,189,168501,1,12,0:0:0:0:
205,221,169270,1,8,0:0:0:0:
205,221,169463,1,8,0:0:0:0:
205,221,169655,1,0,0:0:0:0:
226,241,170040,1,8,0:0:0:0:
226,241,170328,1,8,0:0:0:0:
326,240,170809,1,4,0:0:0:0:
297,259,171001,1,4,0:0:0:0:
297,259,171193,1,12,0:0:0:0:
297,259,171386,1,12,0:0:0:0:
237,281,171770,1,4,0:0:0:0:
300,241,171963,1,12,0:0:0:0:
279,283,172347,1,0,0:0:0:0:
279,283,172540,1,0,0:0:0:0:
279,283,172732,1,8,0:0:0:0:
279,283,173116,1,0,0:0:0:0:
279,283,173405,1,8,0:0:0:0:
314,265,173886,1,4,0:0:0:0:
301,274,174078,1,4,0:0:0:0:
301,274,174270,1,12,0:0:0:0:
301,274,174463,1,4,0:0:0:0:
301,274,174655,1,12,0:0:0:0:
173,236,175424,1,8,0:0:0:0:
173,236,175616,1,8,0:0:0:0:
173,236,175809,1,0,0:0:0:0:
173,236,176193,1,8,0:0:0:0:
173,236,176482,1,8,0:0:0:0:
204,235,176963,1,0,0:0:0:0:
204,235,177155,1,0,0:0:0:0:
161,226,177347,1,8,0:0:0:0:
161,226,177540,1,8,0:0:0:0:
249,230,178116,1,8,0:0:0:0:
298,216,178501,1,4,0:0:0:0:
291,253,178886,1,8,0:0:0:0:
291,253,179078,1,8,0:0:0:0:
291,253,179270,1,0,0:0:0:0:
291,253,179463,1,0,0:0:0:0:
291,253,179655,1,8,0:0:0:0:
291,253,179847,1,8,0:0:0:0:
291,253,180040,1,0,0:0:0:0:
257,163,180424,1,8,0:0:0:0:
257,163,180616,1,0,0:0:0:0:
257,163,180809,1,8,0:0:0:0:
257,163,181001,1,8,0:0:0:0:
257,163,181193,1,0,0:0:0:0:
257,163,181386,1,0,0:0:0:0:
257,163,181578,1,8,0:0:0:0:
235,201,181963,1,0,0:0:0:0:
235,201,182155,1,8,0:0:0:0:
201,195,182347,1,0,0:0:0:0:
201,195,182443,1,0,0:0:0:0:
138,168,182540,1,0,0:0:0:0:
138,168,182732,1,8,0:0:0:0:
138,168,182828,1,8,0:0:0:0:
197,119,182924,1,8,0:0:0:0:
300,234,183116,1,0,0:0:0:0:
228,258,184655,1,0,0:0:0:0:
228,258,185040,1,0,0:0:0:0:
228,258,185424,1,0,0:0:0:0:
228,258,185809,1,0,0:0:0:0:
228,258,186193,1,8,0:0:0:0:
228,258,186578,1,8,0:0:0:0:
228,258,186963,1,8,0:0:0:0:
228,258,187347,1,8,0:0:0:0:
228,258,187732,1,0,0:0:0:0:
228,258,188116,1,8,0:0:0:0:
228,258,188501,1,0,0:0:0:0:
228,258,189270,1,8,0:0:0:0:
228,258,189655,1,0,0:0:0:0:
228,258,190040,1,8,0:0:0:0:
261,240,190424,1,8,0:0:0:0:
190,227,190520,1,8,0:0:0:0:
157,210,190616,1,8,0:0:0:0:
185,233,190809,1,0,0:0:0:0:
185,233,191193,1,8,0:0:0:0:
185,233,191578,1,0,0:0:0:0:
185,233,191770,1,0,0:0:0:0:
185,233,191963,1,8,0:0:0:0:
185,233,192347,1,0,0:0:0:0:
185,233,192540,1,0,0:0:0:0:
185,233,192732,1,8,0:0:0:0:
185,233,192924,1,8,0:0:0:0:
185,233,193116,1,0,0:0:0:0:
185,233,193501,1,8,0:0:0:0:
185,233,193886,1,0,0:0:0:0:
292,289,194078,1,0,0:0:0:0:
292,289,194270,1,8,0:0:0:0:
208,235,194463,1,8,0:0:0:0:
208,235,194655,1,0,0:0:0:0:
230,216,194847,1,8,0:0:0:0:
230,216,195040,1,0,0:0:0:0:
256,192,195424,12,8,196193,0:0:0:0:
277,212,196963,5,4,0:0:0:0:
362,219,197347,1,0,0:0:0:0:
362,219,197540,1,8,0:0:0:0:
362,219,197924,1,0,0:0:0:0:
362,219,198116,1,8,0:0:0:0:
362,219,198309,1,8,0:0:0:0:
265,166,198501,1,0,0:0:0:0:
265,166,198693,1,0,0:0:0:0:
265,166,198886,1,8,0:0:0:0:
265,166,199078,1,8,0:0:0:0:
265,166,199270,1,0,0:0:0:0:
200,189,199655,1,8,0:0:0:0:
214,191,200040,1,0,0:0:0:0:
268,255,200232,1,8,0:0:0:0:
295,326,200424,1,0,0:0:0:0:
295,326,200616,1,0,0:0:0:0:
295,326,200809,1,8,0:0:0:0:
295,326,201193,1,0,0:0:0:0:
244,291,201578,1,8,0:0:0:0:
148,199,201770,1,0,0:0:0:0:
148,199,201963,1,8,0:0:0:0:
148,199,202155,1,8,0:0:0:0:
148,199,202347,1,0,0:0:0:0:
209,195,203116,1,12,0:0:0:0:
289,279,203501,1,8,0:0:0:0:
289,279,203693,1,0,0:0:0:0:
250,206,204078,1,8,0:0:0:0:
250,206,204270,1,0,0:0:0:0:
250,206,204463,1,0,0:0:0:0:
250,206,204655,1,8,0:0:0:0:
250,206,204847,1,8,0:0:0:0:
250,206,205040,1,0,0:0:0:0:
250,206,205232,1,0,0:0:0:0:
250,206,205424,1,8,0:0:0:0:
274,198,205809,1,0,0:0:0:0:
292,188,206193,1,8,0:0:0:0:
292,188,206386,1,8,0:0:0:0:
292,188,206578,1,0,0:0:0:0:
292,188,206770,1,8,0:0:0:0:
292,188,206963,1,0,0:0:0:0:
292,188,207155,1,0,0:0:0:0:
292,188,207347,1,8,0:0:0:0:
292,188,207540,1,8,0:0:0:0:
292,188,207732,1,4,0:0:0:0:
231,239,208116,1,4,0:0:0:0:
231,239,208501,1,4,0:0:0:0:
372,185,209270,1,8,0:0:0:0:
372,185,209366,1,8,0:0:0:0:
372,185,209463,1,8,0:0:0:0:
288,229,209655,1,0,0:0:0:0:
8,205,209847,1,0,0:0:0:0:
221,165,210040,1,8,0:0:0:0:
221,165,210328,1,8,0:0:0:0:
279,146,210616,1,8,0:0:0:0:
279,146,210809,1,0,0:0:0:0:
279,146,210905,1,0,0:0:0:0:
218,172,211001,1,0,0:0:0:0:
218,172,211193,1,8,0:0:0:0:
218,172,211386,1,8,0:0:0:0:
218,172,211578,1,0,0:0:0:0:
298,210,211963,1,0,0:0:0:0:
224,233,212155,1,0,0:0:0:0:
265,266,212347,1,8,0:0:0:0:
265,266,212443,1,8,0:0:0:0:
181,221,212540,1,8,0:0:0:0:
181,221,212732,1,0,0:0:0:0:
159,211,212924,1,0,0:0:0:0:
159,211,213116,1,8,0:0:0:0:
221,232,213501,1,0,0:0:0:0:
200,148,213693,1,0,0:0:0:0:
146,136,213886,1,8,0:0:0:0:
320,303,214078,1,8,0:0:0:0:
320,303,214270,1,0,0:0:0:0:
320,303,214463,1,0,0:0:0:0:
320,303,214655,1,8,0:0:0:0:
224,209,215424,1,0,0:0:0:0:
176,184,215520,1,0,0:0:0:0:
170,215,215616,1,0,0:0:0:0:
170,215,215809,1,8,0:0:0:0:
170,215,216001,1,8,0:0:0:0:
170,215,216193,1,0,0:0:0:0:
262,253,216482,1,0,0:0:0:0:
262,253,216770,1,0,0:0:0:0:
262,253,216963,1,8,0:0:0:0:
262,253,217059,1,8,0:0:0:0:
214,223,217155,1,8,0:0:0:0:
214,223,217347,1,0,0:0:0:0:
214,223,217540,1,0,0:0:0:0:
214,223,217732,1,8,0:0:0:0:
184,239,218116,1,8,0:0:0:0:
184,239,218309,1,8,0:0:0:0:
231,244,218501,1,0,0:0:0:0:
150,207,218597,1,0,0:0:0:0:
165,261,218693,1,0,0:0:0:0:
153,212,218886,1,8,0:0:0:0:
273,221,219078,1,8,0:0:0:0:
273,221,219270,1,0,0:0:0:0:
237,243,219559,1,0,0:0:0:0:
226,203,219847,1,0,0:0:0:0:
252,245,220040,1,12,0:0:0:0:
252,245,220424,1,12,0:0:0:0:
252,245,220809,1,12,0:0:0:0:
372,185,221578,1,8,0:0:0:0:
372,185,221674,1,8,0:0:0:0:
372,185,221770,1,8,0:0:0:0:
288,229,221963,1,0,0:0:0:0:
8,205,222155,1,0,0:0:0:0:
221,165,222347,1,8,0:0:0:0:
221,165,222636,1,8,0:0:0:0:
279,146,222924,1,8,0:0:0:0:
279,146,223116,1,0,0:0:0:0:
279,146,223213,1,0,0:0:0:0:
218,172,223309,1,0,0:0:0:0:
218,172,223501,1,8,0:0:0:0:
218,172,223693,1,8,0:0:0:0:
218,172,223886,1,0,0:0:0:0:
298,210,224270,1,0,0:0:0:0:
224,233,224463,1,0,0:0:0:0:
265,266,224655,1,8,0:0:0:0:
265,266,224751,1,8,0:0:0:0:
181,221,224847,1,8,0:0:0:0:
181,221,225040,1,0,0:0:0:0:
159,211,225232,1,0,0:0:0:0:
159,211,225424,1,8,0:0:0:0:
221,232,225809,1,0,0:0:0:0:
200,148,226001,1,0,0:0:0:0:
146,136,226193,1,8,0:0:0:0:
320,303,226386,1,8,0:0:0:0:
320,303,226578,1,0,0:0:0:0:
320,303,226770,1,0,0:0:0:0:
320,303,226963,1,8,0:0:0:0:
224,209,227732,1,0,0:0:0:0:
176,184,227828,1,0,0:0:0:0:
170,215,227924,1,0,0:0:0:0:
170,215,228116,1,8,0:0:0:0:
170,215,228309,1,8,0:0:0:0:
170,215,228501,1,0,0:0:0:0:
262,253,228790,1,0,0:0:0:0:
262,253,229078,1,0,0:0:0:0:
262,253,229270,1,8,0:0:0:0:
262,253,229366,1,8,0:0:0:0:
214,223,229463,1,8,0:0:0:0:
214,223,229655,1,0,0:0:0:0:
214,223,229847,1,0,0:0:0:0:
214,223,230040,1,8,0:0:0:0:
184,239,230424,1,8,0:0:0:0:
184,239,230616,1,8,0:0:0:0:
231,244,230809,1,0,0:0:0:0:
150,207,230905,1,0,0:0:0:0:
165,261,231001,1,0,0:0:0:0:
153,212,231193,1,8,0:0:0:0:
273,221,231386,1,8,0:0:0:0:
273,221,231578,1,0,0:0:0:0:
237,243,231866,1,0,0:0:0:0:
226,203,232155,1,0,0:0:0:0:
252,245,232347,1,12,0:0:0:0:
252,245,232732,1,12,0:0:0:0:
252,245,233116,1,12,0:0:0:0:
202,262,233501,1,0,0:0:0:0:
202,262,233693,1,0,0:0:0:0:
202,262,233790,1,0,0:0:0:0:
155,237,233886,1,0,0:0:0:0:
