osu file format v14

[General]
AudioFilename: audio.mp3
AudioLeadIn: 0
PreviewTime: 69468
Countdown: 0
SampleSet: Normal
StackLeniency: 0.7
Mode: 2
LetterboxInBreaks: 0
WidescreenStoryboard: 0

[Editor]
Bookmarks: 23286,34923,58195,69832,93104,104741,128014,139650,162923,174559,186195,197832,221104
DistanceSpacing: 1.2
BeatDivisor: 4
GridSize: 16
TimelineZoom: 1.499999

[Metadata]
Title:DAY BREAKER
TitleUnicode:DAY BREAKER
Artist:A-One feat. Shihori
ArtistUnicode:A-One feat. Shihori
Creator:Deif
Version:Scarlet Meister
Source:東方紅魔郷 ~ the Embodiment of Scarlet Devil.
Tags:Greaper ZiRoX Featured Artist Mappers' Guild 東方Project Touhou Koumakyou Team Shanghai Alice ZUN ELEMENTAS TOHO EUROBEAT VOL. 3 Septette for the Dead Princess 亡き王女の為のセプテット Remilia レミリア・スカーレット Reitaisai 8 Video Game English
BeatmapID:3073238
BeatmapSetID:1499636

[Difficulty]
HPDrainRate:6
CircleSize:5
OverallDifficulty:9.3
ApproachRate:9.3
SliderMultiplier:2.2
SliderTickRate:1

[Events]
//Background and Video events
0,0,"BG.jpg",0,0
//Break Periods
2,174759,182732
//Storyboard Layer 0 (Background)
//Storyboard Layer 1 (Fail)
//Storyboard Layer 2 (Pass)
//Storyboard Layer 3 (Foreground)
//Storyboard Layer 4 (Overlay)
//Storyboard Sound Samples

[TimingPoints]
14,363.636363636364,4,1,0,20,1,0
9104,-100,4,1,0,25,0,0
9468,-100,4,1,0,30,0,0
9832,-100,4,1,0,35,0,0
10195,-100,4,1,0,40,0,0
10559,-100,4,1,0,45,0,0
10923,-100,4,1,0,50,0,0
11650,-100,4,2,0,60,0,0
11923,-100,4,2,0,45,0,0
12195,-100,4,2,0,60,0,0
12468,-100,4,2,0,45,0,0
12923,-100,4,2,0,75,0,0
13104,-100,4,2,0,60,0,0
13377,-100,4,2,0,45,0,0
13650,-100,4,2,0,60,0,0
13923,-100,4,2,0,45,0,0
14195,-100,4,2,0,75,0,0
14377,-100,4,2,0,45,0,0
14559,-100,4,2,0,60,0,0
14832,-100,4,2,0,45,0,0
15104,-100,4,2,0,60,0,0
15377,-100,4,2,0,45,0,0
15832,-100,4,2,0,75,0,0
16013,-100,4,2,0,60,0,0
16286,-100,4,2,0,45,0,0
16559,-100,4,2,0,60,0,0
16832,-100,4,2,0,45,0,0
17104,-100,4,2,0,75,0,0
17286,-100,4,2,0,45,0,0
17468,-100,4,2,0,60,0,0
17741,-100,4,2,0,45,0,0
18013,-100,4,2,0,60,0,0
18286,-100,4,2,0,45,0,0
18741,-100,4,2,0,75,0,0
18922,-100,4,2,0,60,0,0
19195,-100,4,2,0,45,0,0
19468,-100,4,2,0,60,0,0
19741,-100,4,2,0,45,0,0
20013,-100,4,2,0,75,0,0
20195,-100,4,2,0,45,0,0
20377,-100,4,2,0,60,0,0
20468,-100,4,3,0,60,0,0
20650,-100,4,2,0,45,0,0
20741,-100,4,3,0,60,0,0
20922,-100,4,2,0,60,0,0
21014,-100,4,3,0,60,0,0
21195,-100,4,2,0,45,0,0
21286,-100,4,3,0,60,0,0
21468,-100,4,2,0,75,0,0
21559,-100,4,3,0,60,0,0
21650,-100,4,2,0,75,0,0
21832,-100,4,1,0,35,0,0
22377,-100,4,2,0,75,0,0
22559,-100,4,1,0,35,0,0
22741,-100,4,2,0,45,0,0
22923,-35.7142857142857,4,3,0,80,0,0
23104,-35.7142857142857,4,3,0,40,0,0
23286,-100,4,1,1,60,0,0
23559,-100,4,1,1,45,0,0
23831,-100,4,1,1,60,0,0
24104,-100,4,1,1,45,0,0
24559,-100,4,1,1,75,0,0
24740,-100,4,1,1,60,0,0
25013,-100,4,1,1,45,0,0
25286,-100,4,1,1,60,0,0
25559,-100,4,1,1,45,0,0
25831,-100,4,1,1,75,0,0
26013,-100,4,1,1,45,0,0
26195,-100,4,1,1,60,0,0
26468,-100,4,1,1,45,0,0
26740,-100,4,1,1,60,0,0
27013,-100,4,1,1,45,0,0
27468,-100,4,1,1,75,0,0
27649,-100,4,1,1,60,0,0
27922,-100,4,1,1,45,0,0
28195,-100,4,1,1,60,0,0
28468,-100,4,1,1,45,0,0
28650,-100,4,2,0,45,0,0
28740,-100,4,1,1,75,0,0
28832,-100,4,2,0,75,0,0
28922,-100,4,1,1,45,0,0
29014,-100,4,2,0,45,0,0
29104,-100,4,1,1,60,0,0
29377,-100,4,1,1,45,0,0
29649,-100,4,1,1,60,0,0
29922,-100,4,1,1,45,0,0
30377,-100,4,1,1,75,0,0
30558,-100,4,1,1,60,0,0
30831,-100,4,1,1,45,0,0
31104,-100,4,1,1,60,0,0
31377,-100,4,1,1,45,0,0
31649,-100,4,1,1,75,0,0
31831,-100,4,1,1,45,0,0
32013,-100,4,1,1,60,0,0
32286,-100,4,1,1,45,0,0
32558,-100,4,1,1,60,0,0
32831,-100,4,1,1,45,0,0
33286,-100,4,1,1,75,0,0
33467,-100,4,1,1,60,0,0
33740,-100,4,1,1,45,0,0
34013,-100,4,1,1,60,0,0
34286,-100,4,1,1,45,0,0
34468,-100,4,2,0,45,0,0
34558,-100,4,1,1,75,0,0
34650,-100,4,2,0,75,0,0
34740,-100,4,1,1,45,0,0
34832,-100,4,2,0,45,0,0
34923,-100,4,1,1,60,0,0
35650,-100,4,3,0,60,0,0
35832,-100,4,1,1,60,0,0
36377,-100,4,3,0,60,0,0
36559,-100,4,1,1,60,0,0
37104,-100,4,3,0,60,0,0
37286,-100,4,1,1,60,0,0
37832,-100,4,3,0,60,0,0
38014,-100,4,1,1,60,0,0
38559,-100,4,3,0,60,0,0
38741,-100,4,1,1,60,0,0
39286,-100,4,3,0,60,0,0
39468,-100,4,1,1,60,0,0
40014,-100,4,3,0,60,0,0
40196,-100,4,1,1,60,0,0
40559,-100,4,2,0,75,0,0
40741,-100,4,3,0,60,0,0
41104,-100,4,1,1,60,0,0
41468,-100,4,3,0,60,0,0
41650,-100,4,1,1,60,0,0
42014,-100,4,2,0,75,0,0
42196,-100,4,3,0,60,0,0
42559,-100,4,1,1,60,0,0
42923,-100,4,3,0,60,0,0
43105,-100,4,1,1,60,0,0
43469,-100,4,2,0,75,0,0
43650,-100,4,3,0,60,0,0
43832,-100,4,1,1,60,0,0
44377,-100,4,3,0,60,0,0
44559,-100,4,1,1,60,0,0
44923,-100,4,2,0,45,0,0
45104,-100,4,3,0,60,0,0
45286,-100,4,1,1,60,0,0
45650,-100,4,1,1,75,0,0
45832,-100,4,3,0,60,0,0
46014,-100,4,1,1,60,0,0
46104,-100,4,1,1,75,0,0
46195,-100,4,3,0,60,0,0
46285,-100,4,1,1,75,0,0
46377,-100,4,1,1,60,0,0
46467,-100,4,1,1,75,0,0
46559,-100,4,1,1,60,0,0
47286,-100,4,3,0,60,0,0
47468,-100,4,1,1,60,0,0
48013,-100,4,3,0,60,0,0
48195,-100,4,1,1,60,0,0
48740,-100,4,3,0,60,0,0
48922,-100,4,1,1,60,0,0
49468,-100,4,3,0,60,0,0
49650,-100,4,1,1,60,0,0
50195,-100,4,3,0,60,0,0
50377,-100,4,1,1,60,0,0
50922,-100,4,3,0,60,0,0
51104,-100,4,1,1,60,0,0
51650,-100,4,3,0,60,0,0
51832,-100,4,1,1,60,0,0
52195,-100,4,2,0,75,0,0
52377,-100,4,3,0,60,0,0
52740,-100,4,1,1,60,0,0
53104,-100,4,3,0,60,0,0
53286,-100,4,1,1,60,0,0
53650,-100,4,2,0,75,0,0
53832,-100,4,3,0,60,0,0
54195,-100,4,1,1,60,0,0
54559,-100,4,3,0,60,0,0
54741,-100,4,1,1,60,0,0
55105,-100,4,2,0,75,0,0
55286,-100,4,3,0,60,0,0
55468,-100,4,1,1,60,0,0
56013,-100,4,3,0,60,0,0
56195,-100,4,1,1,60,0,0
57286,-66.6666666666667,4,1,1,75,0,0
57650,-100,4,1,1,75,0,0
57741,-100,4,1,1,75,0,0
57832,-100,4,3,0,60,0,0
57922,-100,4,1,1,75,0,0
58014,-100,4,1,1,60,0,0
58104,-100,4,1,1,75,0,0
58195,-100,4,1,1,60,0,0
58559,-100,4,3,0,60,0,0
58741,-100,4,1,1,60,0,0
59195,-38.4615384615385,4,1,1,75,0,0
59377,-100,4,1,1,45,0,0
59650,-100,4,1,1,60,0,0
60014,-100,4,3,0,60,0,0
60196,-100,4,1,1,60,0,0
60650,-31.25,4,1,1,75,0,0
60832,-100,4,1,1,45,0,0
61104,-100,4,1,1,60,0,0
61650,-100,4,1,1,45,0,0
61832,-100,4,1,1,60,0,0
62377,-100,4,1,1,45,0,0
62559,-100,4,1,1,60,0,0
62923,-100,4,3,0,60,0,0
63105,-100,4,1,1,60,0,0
63468,-100,4,3,0,60,0,0
63650,-100,4,1,1,60,0,0
64014,-100,4,1,1,60,0,0
64378,-100,4,3,0,60,0,0
64560,-100,4,1,1,60,0,0
65014,-100,4,1,1,75,0,0
65286,-100,4,3,0,60,0,0
65468,-100,4,1,1,60,0,0
65832,-100,4,3,0,60,0,0
66014,-100,4,1,1,60,0,0
66468,-100,4,1,1,75,0,0
66740,-100,4,3,0,60,0,0
66922,-100,4,1,1,60,0,0
67741,-100,4,3,0,75,0,0
67923,-100,4,1,1,60,0,0
68014,-100,4,3,0,75,0,0
68196,-100,4,1,1,60,0,0
68286,-100,4,3,0,75,0,0
68377,-100,4,1,1,75,0,0
68559,-100,4,1,1,60,0,0
68741,-100,4,3,0,60,0,0
69468,-100,4,2,0,45,0,0
69650,-100,4,2,0,75,0,0
69832,-80,4,1,2,65,0,1
70195,-80,4,3,0,70,0,1
70377,-80,4,1,2,65,0,1
70559,-80,4,2,0,80,0,1
70741,-80,4,1,2,65,0,1
70923,-80,4,3,0,70,0,1
71105,-80,4,1,2,65,0,1
71650,-80,4,3,0,70,0,1
71832,-80,4,1,2,65,0,1
72014,-80,4,2,0,80,0,1
72195,-80,4,1,2,65,0,1
72377,-80,4,3,0,70,0,1
72559,-80,4,1,2,65,0,1
73104,-80,4,3,0,70,0,1
73286,-80,4,1,2,65,0,1
73468,-80,4,2,0,80,0,1
73650,-80,4,1,2,65,0,1
73741,-80,4,1,1,65,0,1
73832,-80,4,3,0,70,0,1
74014,-80,4,1,1,65,0,1
74104,-80,4,1,2,65,0,1
74559,-80,4,3,0,70,0,1
74741,-80,4,1,2,65,0,1
74923,-80,4,2,0,80,0,1
75104,-80,4,1,2,65,0,1
75286,-80,4,3,0,70,0,1
75468,-80,4,1,2,65,0,1
76013,-80,4,3,0,70,0,1
76195,-80,4,1,2,65,0,1
76377,-80,4,2,0,80,0,1
76559,-80,4,1,2,65,0,1
76741,-80,4,3,0,70,0,1
76923,-80,4,1,2,65,0,1
77468,-80,4,3,0,70,0,1
77650,-80,4,1,2,65,0,1
77832,-80,4,2,0,80,0,1
78013,-80,4,1,2,65,0,1
78195,-80,4,3,0,70,0,1
78377,-80,4,1,2,65,0,1
78740,-80,4,3,0,70,0,1
78922,-80,4,1,2,65,0,1
79104,-80,4,2,0,80,0,1
79286,-80,4,1,2,65,0,1
79468,-80,4,3,0,70,0,1
79650,-80,4,1,2,65,0,1
80195,-80,4,3,0,70,0,1
80377,-80,4,1,2,65,0,1
80559,-80,4,2,0,80,0,1
80740,-80,4,1,2,65,0,1
80922,-80,4,3,0,70,0,1
81104,-80,4,1,2,65,0,1
81468,-80,4,1,2,65,0,1
81831,-80,4,3,0,70,0,1
82013,-80,4,1,2,65,0,1
82195,-80,4,2,0,80,0,1
82377,-80,4,1,2,65,0,1
82559,-80,4,3,0,70,0,1
82741,-80,4,1,2,65,0,1
83286,-80,4,3,0,70,0,1
83468,-80,4,1,2,65,0,1
83650,-80,4,2,0,80,0,1
83831,-80,4,1,2,65,0,1
84013,-80,4,3,0,70,0,1
84195,-80,4,1,2,65,0,1
84740,-80,4,3,0,70,0,1
84922,-80,4,1,2,65,0,1
85104,-80,4,2,0,80,0,1
85286,-80,4,1,2,65,0,1
85377,-80,4,1,1,65,0,1
85468,-80,4,3,0,70,0,1
85650,-80,4,1,1,65,0,1
85740,-80,4,1,2,65,0,1
86195,-80,4,3,0,70,0,1
86377,-80,4,1,2,65,0,1
86559,-80,4,2,0,80,0,1
86740,-80,4,1,2,65,0,1
86922,-80,4,3,0,70,0,1
87104,-80,4,1,2,65,0,1
87649,-80,4,3,0,70,0,1
87831,-80,4,1,2,65,0,1
88013,-80,4,2,0,80,0,1
88195,-80,4,1,2,65,0,1
88377,-80,4,3,0,70,0,1
88559,-80,4,1,2,65,0,1
89104,-80,4,3,0,70,0,1
89286,-80,4,1,2,65,0,1
89468,-80,4,2,0,80,0,1
89649,-80,4,1,2,65,0,1
89831,-80,4,3,0,70,0,1
90013,-80,4,1,2,65,0,1
90559,-80,4,1,1,65,0,1
90923,-80,4,1,2,65,0,1
91468,-80,4,1,1,65,0,1
91832,-80,4,1,2,65,0,1
92741,-80,4,3,2,70,0,1
92923,-80,4,1,2,65,0,1
93104,-100,4,1,1,60,0,0
93377,-100,4,1,1,45,0,0
93649,-100,4,1,1,60,0,0
93922,-100,4,1,1,45,0,0
94377,-100,4,1,1,75,0,0
94558,-100,4,1,1,60,0,0
94831,-100,4,1,1,45,0,0
95104,-100,4,1,1,60,0,0
95377,-100,4,1,1,45,0,0
95649,-100,4,1,1,75,0,0
95831,-100,4,1,1,45,0,0
96013,-100,4,1,1,60,0,0
96286,-100,4,1,1,45,0,0
96558,-100,4,1,1,60,0,0
96831,-100,4,1,1,45,0,0
97286,-100,4,1,1,75,0,0
97467,-100,4,1,1,60,0,0
97740,-100,4,1,1,45,0,0
98013,-100,4,1,1,60,0,0
98286,-100,4,1,1,45,0,0
98468,-100,4,2,0,45,0,0
98558,-100,4,1,1,75,0,0
98650,-100,4,2,0,75,0,0
98740,-100,4,1,1,45,0,0
98832,-100,4,2,0,45,0,0
98922,-100,4,1,1,60,0,0
99195,-100,4,1,1,45,0,0
99467,-100,4,1,1,60,0,0
99740,-100,4,1,1,45,0,0
100195,-100,4,1,1,75,0,0
100376,-100,4,1,1,60,0,0
100649,-100,4,1,1,45,0,0
100922,-100,4,1,1,60,0,0
101195,-100,4,1,1,45,0,0
101467,-100,4,1,1,75,0,0
101649,-100,4,1,1,45,0,0
101831,-100,4,1,1,60,0,0
102104,-100,4,1,1,45,0,0
102376,-100,4,1,1,60,0,0
102649,-100,4,1,1,45,0,0
103104,-100,4,1,1,75,0,0
103285,-100,4,1,1,60,0,0
103558,-100,4,1,1,45,0,0
103831,-100,4,1,1,60,0,0
104104,-100,4,1,1,45,0,0
104286,-100,4,2,0,45,0,0
104376,-100,4,1,1,75,0,0
104468,-100,4,2,0,75,0,0
104558,-100,4,1,1,45,0,0
104650,-100,4,2,0,45,0,0
104741,-100,4,1,1,60,0,0
105468,-100,4,3,0,60,0,0
105650,-100,4,1,1,60,0,0
106195,-100,4,3,0,60,0,0
106377,-100,4,1,1,60,0,0
106922,-100,4,3,0,60,0,0
107104,-100,4,1,1,60,0,0
107650,-100,4,3,0,60,0,0
107832,-100,4,1,1,60,0,0
108377,-100,4,3,0,60,0,0
108559,-100,4,1,1,60,0,0
109104,-100,4,3,0,60,0,0
109286,-100,4,1,1,60,0,0
109832,-100,4,3,0,60,0,0
110014,-100,4,1,1,60,0,0
110377,-100,4,2,0,75,0,0
110559,-100,4,3,0,60,0,0
110922,-100,4,1,1,60,0,0
111286,-100,4,3,0,60,0,0
111468,-100,4,1,1,60,0,0
111832,-100,4,2,0,75,0,0
112014,-100,4,3,0,60,0,0
112377,-100,4,1,1,60,0,0
112741,-100,4,3,0,60,0,0
112923,-100,4,1,1,60,0,0
113287,-100,4,2,0,75,0,0
113468,-100,4,3,0,60,0,0
113650,-100,4,1,1,60,0,0
114195,-100,4,3,0,60,0,0
114377,-100,4,1,1,60,0,0
114741,-100,4,2,0,45,0,0
114922,-100,4,3,0,60,0,0
115104,-100,4,1,1,60,0,0
115468,-100,4,1,1,75,0,0
115650,-100,4,3,0,60,0,0
115832,-100,4,1,1,60,0,0
115922,-100,4,1,1,75,0,0
116013,-100,4,3,0,60,0,0
116103,-100,4,1,1,75,0,0
116195,-100,4,1,1,60,0,0
116285,-100,4,1,1,75,0,0
116377,-100,4,1,1,60,0,0
117104,-100,4,3,0,60,0,0
117286,-100,4,1,1,60,0,0
117831,-100,4,3,0,60,0,0
118013,-100,4,1,1,60,0,0
118558,-100,4,3,0,60,0,0
118740,-100,4,1,1,60,0,0
119286,-100,4,3,0,60,0,0
119468,-100,4,1,1,60,0,0
120013,-100,4,3,0,60,0,0
120195,-100,4,1,1,60,0,0
120740,-100,4,3,0,60,0,0
120922,-100,4,1,1,60,0,0
121468,-100,4,3,0,60,0,0
121650,-100,4,1,1,60,0,0
122013,-100,4,2,0,75,0,0
122195,-100,4,3,0,60,0,0
122558,-100,4,1,1,60,0,0
122922,-100,4,3,0,60,0,0
123104,-100,4,1,1,60,0,0
123468,-100,4,2,0,75,0,0
123650,-100,4,3,0,60,0,0
124013,-100,4,1,1,60,0,0
124377,-100,4,3,0,60,0,0
124559,-100,4,1,1,60,0,0
124923,-100,4,2,0,75,0,0
125104,-100,4,3,0,60,0,0
125286,-100,4,1,1,60,0,0
125831,-100,4,3,0,60,0,0
126013,-100,4,1,1,60,0,0
127104,-66.6666666666667,4,1,1,75,0,0
127468,-100,4,1,1,75,0,0
127559,-100,4,1,1,75,0,0
127650,-100,4,3,0,60,0,0
127740,-100,4,1,1,75,0,0
127832,-100,4,1,1,60,0,0
127922,-100,4,1,1,75,0,0
128014,-100,4,1,1,60,0,0
128378,-100,4,3,0,60,0,0
128560,-100,4,1,1,60,0,0
129014,-38.4615384615385,4,1,1,75,0,0
129196,-100,4,1,1,45,0,0
129469,-100,4,1,1,60,0,0
129833,-100,4,3,0,60,0,0
130015,-100,4,1,1,60,0,0
130468,-31.25,4,1,1,75,0,0
130650,-100,4,1,1,45,0,0
130923,-100,4,1,1,60,0,0
131469,-100,4,1,1,45,0,0
131651,-100,4,1,1,60,0,0
132196,-100,4,1,1,45,0,0
132378,-100,4,1,1,60,0,0
132742,-100,4,3,0,60,0,0
132924,-100,4,1,1,60,0,0
133287,-100,4,3,0,60,0,0
133469,-100,4,1,1,60,0,0
133833,-100,4,1,1,60,0,0
134197,-100,4,3,0,60,0,0
134379,-100,4,1,1,60,0,0
134833,-100,4,1,1,75,0,0
135105,-100,4,3,0,60,0,0
135287,-100,4,1,1,60,0,0
135651,-100,4,3,0,60,0,0
135833,-100,4,1,1,60,0,0
136287,-100,4,1,1,75,0,0
136559,-100,4,3,0,60,0,0
136741,-100,4,1,1,60,0,0
137560,-100,4,3,0,75,0,0
137742,-100,4,1,1,60,0,0
137833,-100,4,3,0,75,0,0
138015,-100,4,1,1,60,0,0
138105,-100,4,3,0,75,0,0
138196,-100,4,1,1,75,0,0
138378,-100,4,1,1,60,0,0
138560,-100,4,3,0,60,0,0
139287,-100,4,2,0,45,0,0
139469,-100,4,2,0,75,0,0
139650,-80,4,1,2,65,0,1
140013,-80,4,3,0,70,0,1
140195,-80,4,1,2,65,0,1
140377,-80,4,2,0,80,0,1
140559,-80,4,1,2,65,0,1
140741,-80,4,3,0,70,0,1
140923,-80,4,1,2,65,0,1
141468,-80,4,3,0,70,0,1
141650,-80,4,1,2,65,0,1
141832,-80,4,2,0,80,0,1
142013,-80,4,1,2,65,0,1
142195,-80,4,3,0,70,0,1
142377,-80,4,1,2,65,0,1
142922,-80,4,3,0,70,0,1
143104,-80,4,1,2,65,0,1
143286,-80,4,2,0,80,0,1
143468,-80,4,1,2,65,0,1
143559,-80,4,1,1,65,0,1
143650,-80,4,3,0,70,0,1
143832,-80,4,1,1,65,0,1
143922,-80,4,1,2,65,0,1
144377,-80,4,3,0,70,0,1
144559,-80,4,1,2,65,0,1
144741,-80,4,2,0,80,0,1
144922,-80,4,1,2,65,0,1
145104,-80,4,3,0,70,0,1
145286,-80,4,1,2,65,0,1
145831,-80,4,3,0,70,0,1
146013,-80,4,1,2,65,0,1
146195,-80,4,2,0,80,0,1
146377,-80,4,1,2,65,0,1
146559,-80,4,3,0,70,0,1
146741,-80,4,1,2,65,0,1
147286,-80,4,3,0,70,0,1
147468,-80,4,1,2,65,0,1
147650,-80,4,2,0,80,0,1
147831,-80,4,1,2,65,0,1
148013,-80,4,3,0,70,0,1
148195,-80,4,1,2,65,0,1
148558,-80,4,3,0,70,0,1
148740,-80,4,1,2,65,0,1
148922,-80,4,2,0,80,0,1
149104,-80,4,1,2,65,0,1
149286,-80,4,3,0,70,0,1
149468,-80,4,1,2,65,0,1
150013,-80,4,3,0,70,0,1
150195,-80,4,1,2,65,0,1
150377,-80,4,2,0,80,0,1
150558,-80,4,1,2,65,0,1
150740,-80,4,3,0,70,0,1
150922,-80,4,1,2,65,0,1
151286,-80,4,1,2,65,0,1
151649,-80,4,3,0,70,0,1
151831,-80,4,1,2,65,0,1
152013,-80,4,2,0,80,0,1
152195,-80,4,1,2,65,0,1
152377,-80,4,3,0,70,0,1
152559,-80,4,1,2,65,0,1
153104,-80,4,3,0,70,0,1
153286,-80,4,1,2,65,0,1
153468,-80,4,2,0,80,0,1
153649,-80,4,1,2,65,0,1
153831,-80,4,3,0,70,0,1
154013,-80,4,1,2,65,0,1
154558,-80,4,3,0,70,0,1
154740,-80,4,1,2,65,0,1
154922,-80,4,2,0,80,0,1
155104,-80,4,1,2,65,0,1
155195,-80,4,1,1,65,0,1
155286,-80,4,3,0,70,0,1
155468,-80,4,1,1,65,0,1
155558,-80,4,1,2,65,0,1
156013,-80,4,3,0,70,0,1
156195,-80,4,1,2,65,0,1
156377,-80,4,2,0,80,0,1
156558,-80,4,1,2,65,0,1
156740,-80,4,3,0,70,0,1
156922,-80,4,1,2,65,0,1
157467,-80,4,3,0,70,0,1
157649,-80,4,1,2,65,0,1
157831,-80,4,2,0,80,0,1
158013,-80,4,1,2,65,0,1
158195,-80,4,3,0,70,0,1
158377,-80,4,1,2,65,0,1
158922,-80,4,3,0,70,0,1
159104,-80,4,1,2,65,0,1
159286,-80,4,2,0,80,0,1
159467,-80,4,1,2,65,0,1
159649,-80,4,3,0,70,0,1
159831,-80,4,1,2,65,0,1
160377,-80,4,1,1,65,0,1
160741,-80,4,1,2,65,0,1
161286,-80,4,1,1,65,0,1
161650,-80,4,1,2,65,0,1
162559,-80,4,3,2,70,0,1
162741,-80,4,1,2,65,0,1
162923,-100,4,1,1,60,0,0
163196,-100,4,1,1,45,0,0
163468,-100,4,1,1,60,0,0
163741,-100,4,1,1,45,0,0
164196,-100,4,1,1,75,0,0
164377,-100,4,1,1,60,0,0
164650,-100,4,1,1,45,0,0
164923,-100,4,1,1,60,0,0
165196,-100,4,1,1,45,0,0
165468,-100,4,1,1,75,0,0
165650,-100,4,1,1,45,0,0
165832,-100,4,1,1,60,0,0
166105,-100,4,1,1,45,0,0
166377,-100,4,1,1,60,0,0
166650,-100,4,1,1,45,0,0
167105,-100,4,1,1,75,0,0
167286,-100,4,1,1,60,0,0
167559,-100,4,1,1,45,0,0
167832,-100,4,1,1,60,0,0
168105,-100,4,1,1,45,0,0
168287,-100,4,2,0,45,0,0
168377,-100,4,1,1,75,0,0
168469,-100,4,2,0,75,0,0
168559,-100,4,1,1,45,0,0
168651,-100,4,2,0,45,0,0
168741,-100,4,1,1,60,0,0
169014,-100,4,1,1,45,0,0
169286,-100,4,1,1,60,0,0
169559,-100,4,1,1,45,0,0
170014,-100,4,1,1,75,0,0
170195,-100,4,1,1,60,0,0
170468,-100,4,1,1,45,0,0
170741,-100,4,1,1,60,0,0
171014,-100,4,1,1,45,0,0
171286,-100,4,1,1,75,0,0
171468,-100,4,1,1,45,0,0
171650,-100,4,1,1,60,0,0
171923,-100,4,1,1,45,0,0
172195,-100,4,1,1,60,0,0
172468,-100,4,1,1,45,0,0
172923,-100,4,1,1,75,0,0
173104,-100,4,1,1,60,0,0
173377,-100,4,1,1,45,0,0
173650,-100,4,1,1,60,0,0
173923,-100,4,1,1,45,0,0
174105,-100,4,2,0,45,0,0
174195,-100,4,1,1,75,0,0
174287,-100,4,2,0,75,0,0
174377,-100,4,1,1,45,0,0
174469,-100,4,2,0,45,0,0
174560,-100,4,1,1,60,0,0
183286,-100,4,3,0,60,0,0
186195,-100,4,1,1,60,0,0
186559,-100,4,3,0,60,0,0
186741,-100,4,1,1,60,0,0
187195,-38.4615384615385,4,1,1,75,0,0
187377,-100,4,1,1,45,0,0
187650,-100,4,1,1,60,0,0
188014,-100,4,3,0,60,0,0
188196,-100,4,1,1,60,0,0
188650,-31.25,4,1,1,75,0,0
188832,-100,4,1,1,45,0,0
189104,-100,4,1,1,60,0,0
189650,-100,4,1,1,45,0,0
189832,-100,4,1,1,60,0,0
190377,-100,4,1,1,45,0,0
190559,-100,4,1,1,60,0,0
190923,-100,4,3,0,60,0,0
191105,-100,4,1,1,60,0,0
191468,-100,4,3,0,60,0,0
191650,-100,4,1,1,60,0,0
192014,-100,4,1,1,60,0,0
192378,-100,4,3,0,60,0,0
192560,-100,4,1,1,60,0,0
193014,-100,4,1,1,75,0,0
193286,-100,4,3,0,60,0,0
193468,-100,4,1,1,60,0,0
193832,-100,4,3,0,60,0,0
194014,-100,4,1,1,60,0,0
194468,-100,4,1,1,75,0,0
194740,-100,4,3,0,60,0,0
194922,-100,4,1,1,60,0,0
195741,-100,4,3,0,75,0,0
195923,-100,4,1,1,60,0,0
196014,-100,4,3,0,75,0,0
196196,-100,4,1,1,60,0,0
196286,-100,4,3,0,75,0,0
196377,-100,4,1,1,75,0,0
196559,-100,4,1,1,60,0,0
196741,-100,4,3,0,60,0,0
197468,-100,4,2,0,45,0,0
197650,-100,4,2,0,75,0,0
197832,-80,4,1,2,65,0,1
198195,-80,4,3,0,70,0,1
198377,-80,4,1,2,65,0,1
198559,-80,4,2,0,80,0,1
198741,-80,4,1,2,65,0,1
198923,-80,4,3,0,70,0,1
199105,-80,4,1,2,65,0,1
199650,-80,4,3,0,70,0,1
199832,-80,4,1,2,65,0,1
200014,-80,4,2,0,80,0,1
200195,-80,4,1,2,65,0,1
200377,-80,4,3,0,70,0,1
200559,-80,4,1,2,65,0,1
201104,-80,4,3,0,70,0,1
201286,-80,4,1,2,65,0,1
201468,-80,4,2,0,80,0,1
201650,-80,4,1,2,65,0,1
201741,-80,4,1,1,65,0,1
201832,-80,4,3,0,70,0,1
202014,-80,4,1,1,65,0,1
202104,-80,4,1,2,65,0,1
202559,-80,4,3,0,70,0,1
202741,-80,4,1,2,65,0,1
202923,-80,4,2,0,80,0,1
203104,-80,4,1,2,65,0,1
203286,-80,4,3,0,70,0,1
203468,-80,4,1,2,65,0,1
204013,-80,4,3,0,70,0,1
204195,-80,4,1,2,65,0,1
204377,-80,4,2,0,80,0,1
204559,-80,4,1,2,65,0,1
204741,-80,4,3,0,70,0,1
204923,-80,4,1,2,65,0,1
205468,-80,4,3,0,70,0,1
205650,-80,4,1,2,65,0,1
205832,-80,4,2,0,80,0,1
206013,-80,4,1,2,65,0,1
206195,-80,4,3,0,70,0,1
206377,-80,4,1,2,65,0,1
206740,-80,4,3,0,70,0,1
206922,-80,4,1,2,65,0,1
207104,-80,4,2,0,80,0,1
207286,-80,4,1,2,65,0,1
207468,-80,4,3,0,70,0,1
207650,-80,4,1,2,65,0,1
208195,-80,4,3,0,70,0,1
208377,-80,4,1,2,65,0,1
208559,-80,4,2,0,80,0,1
208740,-80,4,1,2,65,0,1
208922,-80,4,3,0,70,0,1
209104,-80,4,1,2,65,0,1
209468,-80,4,1,2,65,0,1
209831,-80,4,3,0,70,0,1
210013,-80,4,1,2,65,0,1
210195,-80,4,2,0,80,0,1
210377,-80,4,1,2,65,0,1
210559,-80,4,3,0,70,0,1
210741,-80,4,1,2,65,0,1
211286,-80,4,3,0,70,0,1
211468,-80,4,1,2,65,0,1
211650,-80,4,2,0,80,0,1
211831,-80,4,1,2,65,0,1
212013,-80,4,3,0,70,0,1
212195,-80,4,1,2,65,0,1
212740,-80,4,3,0,70,0,1
212922,-80,4,1,2,65,0,1
213104,-80,4,2,0,80,0,1
213286,-80,4,1,2,65,0,1
213377,-80,4,1,1,65,0,1
213468,-80,4,3,0,70,0,1
213650,-80,4,1,1,65,0,1
213740,-80,4,1,2,65,0,1
214195,-80,4,3,0,70,0,1
214377,-80,4,1,2,65,0,1
214559,-80,4,2,0,80,0,1
214740,-80,4,1,2,65,0,1
214922,-80,4,3,0,70,0,1
215104,-80,4,1,2,65,0,1
215649,-80,4,3,0,70,0,1
215831,-80,4,1,2,65,0,1
216013,-80,4,2,0,80,0,1
216195,-80,4,1,2,65,0,1
216377,-80,4,3,0,70,0,1
216559,-80,4,1,2,65,0,1
217104,-80,4,3,0,70,0,1
217286,-80,4,1,2,65,0,1
217468,-80,4,2,0,80,0,1
217649,-80,4,1,2,65,0,1
217831,-80,4,3,0,70,0,1
218013,-80,4,1,2,65,0,1
218559,-80,4,1,1,65,0,1
218923,-80,4,1,2,65,0,1
219468,-80,4,1,1,65,0,1
219650,-62.5,4,1,0,50,0,1
219832,-62.5,4,1,2,65,0,1
220741,-62.5,4,3,2,70,0,1
220923,-62.5,4,1,2,65,0,1
221104,-100,4,1,1,60,0,0

[Colours]
Combo1 : 128,128,192
Combo2 : 255,128,192

[HitObjects]
256,192,8741,12,0,11286,0:0:0:0:
96,272,11650,6,0,L|240:192,3,165,6|2|2|2,0:0|0:0|0:0|0:0,0:0:0:0:
96,192,12741,1,2,0:0:0:0:
240,192,12923,1,2,0:0:0:0:
432,192,13104,5,2,0:0:0:0:
456,144,13195,1,0,0:0:0:0:
432,96,13286,1,0,0:0:0:0:
352,192,13377,1,2,0:0:0:0:
328,144,13468,1,0,0:0:0:0:
352,96,13559,1,0,0:0:0:0:
432,192,13650,1,2,0:0:0:0:
456,144,13741,1,0,0:0:0:0:
432,96,13832,1,0,0:0:0:0:
352,192,13923,1,2,0:0:0:0:
328,144,14014,1,0,0:0:0:0:
352,96,14104,1,0,0:0:0:0:
432,96,14195,1,2,0:0:0:0:
272,96,14377,1,2,0:0:0:0:
80,272,14559,6,0,L|224:192,3,165,2|2|2|2,0:0|0:0|0:0|0:0,0:0:0:0:
80,192,15650,1,2,0:0:0:0:
224,192,15832,1,2,0:0:0:0:
416,192,16014,5,2,0:0:0:0:
464,144,16104,1,0,0:0:0:0:
448,80,16195,1,0,0:0:0:0:
368,192,16286,1,2,0:0:0:0:
320,144,16377,1,0,0:0:0:0:
336,80,16468,1,0,0:0:0:0:
416,192,16559,1,2,0:0:0:0:
464,144,16650,1,0,0:0:0:0:
448,80,16741,1,0,0:0:0:0:
368,192,16832,1,2,0:0:0:0:
320,144,16923,1,0,0:0:0:0:
336,80,17014,1,0,0:0:0:0:
416,192,17104,1,2,0:0:0:0:
256,192,17286,1,2,0:0:0:0:
64,192,17468,5,2,0:0:0:0:
48,144,17559,1,0,0:0:0:0:
80,96,17650,1,0,0:0:0:0:
160,96,17741,1,2,0:0:0:0:
112,96,17832,1,0,0:0:0:0:
64,96,17923,1,0,0:0:0:0:
144,96,18014,1,2,0:0:0:0:
176,144,18104,1,0,0:0:0:0:
160,192,18195,1,0,0:0:0:0:
80,192,18286,1,2,0:0:0:0:
128,192,18377,1,0,0:0:0:0:
176,192,18468,1,0,0:0:0:0:
256,192,18559,2,0,L|256:128,1,55,2|0,0:0|0:0,0:0:0:0:
336,192,18741,2,0,L|336:128,1,55,2|0,0:0|0:0,0:0:0:0:
416,192,18923,5,2,0:0:0:0:
448,144,19014,1,0,0:0:0:0:
432,96,19104,1,0,0:0:0:0:
352,96,19195,1,2,0:0:0:0:
400,96,19286,1,0,0:0:0:0:
448,96,19377,1,0,0:0:0:0:
368,96,19468,1,2,0:0:0:0:
352,144,19559,1,0,0:0:0:0:
384,192,19650,1,0,0:0:0:0:
464,192,19741,1,2,0:0:0:0:
416,192,19832,1,0,0:0:0:0:
368,192,19923,1,0,0:0:0:0:
288,192,20014,2,0,L|288:128,1,55,2|0,0:0|0:0,0:0:0:0:
368,192,20195,2,0,L|368:128,1,55,2|0,0:0|0:0,0:0:0:0:
288,48,20377,6,0,L|240:80,1,55,2|0,0:0|0:0,0:0:0:0:
296,80,20559,2,0,L|248:112,1,55,0|2,0:0|0:0,0:0:0:0:
304,112,20741,2,0,L|256:144,1,55,0|0,0:0|0:0,0:0:0:0:
312,144,20923,2,0,L|264:176,1,55,2|0,0:0|0:0,0:0:0:0:
320,176,21104,2,0,L|272:208,1,55,0|2,0:0|0:0,0:0:0:0:
328,208,21286,2,0,L|280:240,1,55,0|0,0:0|0:0,0:0:0:0:
336,240,21468,2,0,L|288:272,1,55,2|0,0:0|0:0,0:0:0:0:
96,240,21650,1,6,0:0:0:0:
416,240,21832,5,2,0:0:0:0:
496,192,22014,1,0,0:0:0:0:
416,144,22195,1,0,0:0:0:0:
336,144,22286,1,0,0:0:0:0:
96,144,22377,1,6,0:0:0:0:
256,192,22559,1,0,0:0:0:0:
96,240,22741,1,4,0:0:0:0:
488,192,22923,2,0,L|24:192,1,461.999985900879,10|0,0:0|0:0,0:0:0:0:
208,64,23286,5,14,0:0:0:0:
288,64,23377,2,0,P|304:80|288:160,1,110,0|2,0:0|0:0,0:0:0:0:
208,160,23650,2,0,L|320:160,1,110,0|10,0:0|0:0,0:0:0:0:
240,208,23923,2,0,L|352:208,1,110,0|2,0:0|0:0,0:0:0:0:
272,256,24195,1,0,0:0:0:0:
464,192,24377,1,10,0:0:0:0:
144,192,24559,1,10,0:0:0:0:
416,64,24741,5,10,0:0:0:0:
336,64,24832,2,0,P|320:80|336:160,1,110,0|2,0:0|0:0,0:0:0:0:
416,160,25104,2,0,L|304:160,1,110,0|10,0:0|0:0,0:0:0:0:
384,208,25377,2,0,L|272:208,1,110,0|2,0:0|0:0,0:0:0:0:
352,256,25650,1,0,0:0:0:0:
32,192,25832,1,10,0:0:0:0:
304,128,26014,1,10,0:0:0:0:
32,80,26195,5,10,0:0:0:0:
112,80,26286,2,0,P|128:96|112:176,1,110,0|2,0:0|0:0,0:0:0:0:
32,192,26559,2,0,L|144:192,1,110,0|10,0:0|0:0,0:0:0:0:
222,80,26832,2,0,L|110:80,1,110,0|2,0:0|0:0,0:0:0:0:
192,48,27104,1,0,0:0:0:0:
384,48,27286,1,10,0:0:0:0:
64,192,27468,1,10,0:0:0:0:
336,80,27650,5,10,0:0:0:0:
256,80,27741,2,0,P|240:96|256:176,1,110,0|2,0:0|0:0,0:0:0:0:
336,192,28014,2,0,L|224:192,1,110,0|10,0:0|0:0,0:0:0:0:
146,80,28286,2,0,L|258:80,1,110,0|2,0:0|0:0,0:0:0:0:
176,48,28559,1,8,0:0:0:0:
176,112,28650,1,2,0:0:0:0:
328,192,28741,1,10,0:0:0:0:
248,192,28832,1,2,0:0:0:0:
400,192,28923,1,10,0:0:0:0:
480,192,29014,1,2,0:0:0:0:
304,64,29104,5,14,0:0:0:0:
224,64,29195,2,0,P|208:80|224:160,1,110,0|2,0:0|0:0,0:0:0:0:
304,160,29468,2,0,L|192:160,1,110,0|10,0:0|0:0,0:0:0:0:
272,208,29741,2,0,L|160:208,1,110,0|2,0:0|0:0,0:0:0:0:
240,256,30014,1,0,0:0:0:0:
48,192,30195,1,10,0:0:0:0:
368,192,30377,1,10,0:0:0:0:
96,64,30559,5,10,0:0:0:0:
176,64,30650,2,0,P|192:80|176:160,1,110,0|2,0:0|0:0,0:0:0:0:
96,160,30923,2,0,L|208:160,1,110,0|10,0:0|0:0,0:0:0:0:
128,208,31195,2,0,L|240:208,1,110,0|2,0:0|0:0,0:0:0:0:
160,256,31468,1,0,0:0:0:0:
480,192,31650,1,10,0:0:0:0:
208,128,31832,1,10,0:0:0:0:
480,80,32014,5,10,0:0:0:0:
400,80,32104,2,0,P|384:96|400:176,1,110,0|2,0:0|0:0,0:0:0:0:
480,192,32377,2,0,L|368:192,1,110,0|10,0:0|0:0,0:0:0:0:
290,80,32650,2,0,L|402:80,1,110,0|2,0:0|0:0,0:0:0:0:
320,48,32923,1,0,0:0:0:0:
128,48,33104,1,10,0:0:0:0:
448,192,33286,1,10,0:0:0:0:
176,80,33468,5,10,0:0:0:0:
256,80,33559,2,0,P|272:96|256:176,1,110,0|2,0:0|0:0,0:0:0:0:
176,192,33832,1,8,0:0:0:0:
448,80,34014,1,14,0:0:0:0:
368,80,34104,2,0,P|352:96|368:176,1,110,0|2,0:0|0:0,0:0:0:0:
448,192,34377,1,8,0:0:0:0:
176,192,34559,1,10,0:0:0:0:
96,192,34650,1,2,0:0:0:0:
272,80,34741,1,10,0:0:0:0:
192,80,34832,1,2,0:0:0:0:
368,192,34923,6,0,L|384:80,1,110,6|0,0:0|0:0,0:0:0:0:
112,32,35286,1,8,0:0:0:0:
256,80,35468,2,0,L|144:80,1,110,0|8,0:0|0:0,0:0:0:0:
288,80,35832,2,0,P|304:144|304:192,1,110,0|8,0:0|0:0,0:0:0:0:
32,192,36195,1,0,0:0:0:0:
176,192,36377,6,0,L|192:80,1,110,8|0,0:0|0:0,0:0:0:0:
32,192,36741,2,0,L|48:80,1,110,8|0,0:0|0:0,0:0:0:0:
208,80,37104,2,0,L|208:144,1,55,8|0,0:0|0:0,0:0:0:0:
128,160,37286,1,0,0:0:0:0:
272,192,37468,2,0,L|144:192,1,110,8|0,0:0|0:0,0:0:0:0:
432,192,37832,6,0,L|448:80,1,110,8|0,0:0|0:0,0:0:0:0:
176,80,38195,1,8,0:0:0:0:
320,80,38377,2,0,L|208:80,1,110,0|8,0:0|0:0,0:0:0:0:
208,80,38650,1,0,0:0:0:0:
432,288,38741,2,0,L|320:288,1,110,0|8,0:0|0:0,0:0:0:0:
48,192,39104,1,0,0:0:0:0:
320,192,39286,6,0,L|432:192,1,110,8|0,0:0|0:0,0:0:0:0:
272,192,39650,2,0,L|256:80,1,110,8|0,0:0|0:0,0:0:0:0:
336,80,39923,1,0,0:0:0:0:
256,83,40014,1,8,0:0:0:0:
176,80,40104,1,0,0:0:0:0:
336,192,40195,1,0,0:0:0:0:
256,192,40286,1,0,0:0:0:0:
80,192,40377,1,8,0:0:0:0:
416,192,40559,1,2,0:0:0:0:
144,192,40741,6,0,L|256:192,2,110,8|8|8,0:0|0:0|0:0,0:0:0:0:
480,192,41286,2,0,P|496:176|480:96,1,110,6|8,0:0|0:0,0:0:0:0:
320,96,41650,1,0,0:0:0:0:
480,96,41832,1,8,0:0:0:0:
160,96,42014,1,2,0:0:0:0:
432,192,42195,6,0,L|320:192,2,110,8|8|8,0:0|0:0|0:0,0:0:0:0:
96,192,42741,1,12,0:0:0:0:
72,144,42832,1,0,0:0:0:0:
96,96,42923,1,8,0:0:0:0:
256,96,43104,1,0,0:0:0:0:
96,96,43286,1,8,0:0:0:0:
256,96,43468,1,2,0:0:0:0:
416,96,43650,5,8,0:0:0:0:
480,96,43741,1,0,0:0:0:0:
480,160,43832,1,0,0:0:0:0:
416,160,43923,1,0,0:0:0:0:
320,192,44014,1,8,0:0:0:0:
384,192,44104,1,0,0:0:0:0:
288,96,44195,1,0,0:0:0:0:
224,96,44286,1,0,0:0:0:0:
224,160,44377,1,8,0:0:0:0:
288,160,44468,1,0,0:0:0:0:
384,64,44559,1,0,0:0:0:0:
320,64,44650,1,0,0:0:0:0:
416,96,44741,1,8,0:0:0:0:
256,192,44923,1,8,0:0:0:0:
336,192,45014,1,8,0:0:0:0:
160,192,45104,6,0,L|144:80,1,110,8|0,0:0|0:0,0:0:0:0:
304,80,45468,1,8,0:0:0:0:
144,80,45650,1,0,0:0:0:0:
224,80,45741,1,0,0:0:0:0:
144,80,45832,1,8,0:0:0:0:
224,80,45923,1,0,0:0:0:0:
48,80,46014,2,0,L|48:144,1,55,0|0,0:0|0:0,0:0:0:0:
224,192,46195,1,8,0:0:0:0:
304,192,46286,1,0,0:0:0:0:
128,256,46377,1,8,0:0:0:0:
208,256,46468,1,0,0:0:0:0:
32,192,46559,6,0,L|16:80,1,110,6|0,0:0|0:0,0:0:0:0:
288,32,46923,1,8,0:0:0:0:
144,80,47104,2,0,L|256:80,1,110,0|8,0:0|0:0,0:0:0:0:
112,80,47468,2,0,P|96:96|112:176,1,110,0|8,0:0|0:0,0:0:0:0:
384,192,47832,1,0,0:0:0:0:
112,192,48014,5,10,0:0:0:0:
288,192,48195,1,2,0:0:0:0:
16,192,48377,1,8,0:0:0:0:
192,192,48559,1,2,0:0:0:0:
272,192,48650,1,0,0:0:0:0:
464,80,48741,2,0,L|464:144,1,55,8|0,0:0|0:0,0:0:0:0:
384,160,48923,1,0,0:0:0:0:
240,192,49104,2,0,L|368:192,1,110,8|0,0:0|0:0,0:0:0:0:
80,192,49468,6,0,L|64:80,1,110,8|0,0:0|0:0,0:0:0:0:
336,80,49832,1,8,0:0:0:0:
192,80,50014,2,0,L|304:80,1,110,0|8,0:0|0:0,0:0:0:0:
304,80,50286,1,0,0:0:0:0:
80,288,50377,2,0,L|192:288,1,110,0|8,0:0|0:0,0:0:0:0:
464,192,50741,1,0,0:0:0:0:
192,192,50923,5,8,0:0:0:0:
368,192,51104,1,2,0:0:0:0:
96,80,51286,1,8,0:0:0:0:
272,80,51468,1,2,0:0:0:0:
352,83,51559,1,0,0:0:0:0:
272,160,51650,1,8,0:0:0:0:
352,160,51741,1,0,0:0:0:0:
176,192,51832,1,0,0:0:0:0:
256,192,51923,1,0,0:0:0:0:
432,192,52014,1,8,0:0:0:0:
96,192,52195,1,2,0:0:0:0:
368,192,52377,6,0,L|256:192,2,110,8|8|8,0:0|0:0|0:0,0:0:0:0:
32,192,52923,2,0,P|16:176|32:96,1,110,6|8,0:0|0:0,0:0:0:0:
192,96,53286,1,0,0:0:0:0:
32,96,53468,1,8,0:0:0:0:
352,96,53650,1,2,0:0:0:0:
80,192,53832,6,0,L|192:192,2,110,8|8|8,0:0|0:0|0:0,0:0:0:0:
416,192,54377,1,12,0:0:0:0:
440,144,54468,1,0,0:0:0:0:
416,96,54559,1,8,0:0:0:0:
256,96,54741,1,0,0:0:0:0:
416,96,54923,1,8,0:0:0:0:
256,96,55104,1,2,0:0:0:0:
96,96,55286,5,8,0:0:0:0:
70,105,55332,1,0,0:0:0:0:
52,125,55377,1,0,0:0:0:0:
45,152,55423,1,0,0:0:0:0:
52,178,55468,1,0,0:0:0:0:
70,198,55514,1,0,0:0:0:0:
96,208,55559,1,0,0:0:0:0:
192,224,55650,2,0,L|192:160,1,55,8|0,0:0|0:0,0:0:0:0:
96,224,55832,1,0,0:0:0:0:
16,224,55923,1,0,0:0:0:0:
16,144,56014,1,8,0:0:0:0:
96,144,56104,1,0,0:0:0:0:
192,144,56195,1,0,0:0:0:0:
272,144,56286,1,0,0:0:0:0:
192,144,56377,1,8,0:0:0:0:
272,144,56468,1,0,0:0:0:0:
448,192,56559,5,12,0:0:0:0:
160,192,56923,2,0,L|144:80,1,110,8|0,0:0|0:0,0:0:0:0:
480,80,57286,2,0,L|320:32,2,165.000006294251,12|0|8,0:0|0:0|0:0,0:0:0:0:
480,80,57741,1,0,0:0:0:0:
304,192,57832,1,8,0:0:0:0:
304,112,57923,1,0,0:0:0:0:
480,192,58014,1,8,0:0:0:0:
400,192,58104,1,0,0:0:0:0:
192,192,58195,6,0,L|80:192,1,110,14|0,0:0|0:0,0:0:0:0:
240,144,58559,2,0,L|128:144,1,110,8|0,0:0|0:0,0:0:0:0:
288,192,58923,2,0,P|304:144|304:80,1,110,8|0,0:0|0:0,0:0:0:0:
128,96,59195,2,0,L|416:96,1,285.99998690796,10|0,0:0|0:0,0:0:0:0:
414,96,59468,1,8,0:0:0:0:
160,288,59650,6,0,L|272:288,1,110,8|0,0:0|0:0,0:0:0:0:
112,240,60014,2,0,L|224:240,1,110,8|0,0:0|0:0,0:0:0:0:
144,192,60286,1,0,0:0:0:0:
224,192,60377,2,0,P|240:144|240:80,1,110,8|0,0:0|0:0,0:0:0:0:
32,96,60650,2,0,L|384:96,1,352,10|0,0:0|0:0,0:0:0:0:
384,96,60923,1,8,0:0:0:0:
128,192,61104,6,0,L|240:192,1,110,10|0,0:0|0:0,0:0:0:0:
144,192,61377,1,2,0:0:0:0:
80,192,61468,2,0,P|80:144|128:96,1,110,0|8,0:0|0:0,0:0:0:0:
384,192,61832,2,0,L|272:192,1,110,10|0,0:0|0:0,0:0:0:0:
368,192,62104,1,2,0:0:0:0:
432,192,62195,2,0,P|432:144|384:96,1,110,0|8,0:0|0:0,0:0:0:0:
128,192,62559,6,0,L|112:80,1,110,10|0,0:0|0:0,0:0:0:0:
272,80,62923,1,8,0:0:0:0:
112,80,63104,2,0,L|112:112,1,27.5,0|0,0:0|0:0,0:0:0:0:
160,80,63195,2,0,L|160:112,1,27.5,0|0,0:0|0:0,0:0:0:0:
112,80,63286,1,8,0:0:0:0:
272,80,63468,2,0,L|272:144,1,55,8|8,0:0|0:0,0:0:0:0:
192,192,63650,1,8,0:0:0:0:
352,192,63832,1,8,0:0:0:0:
80,288,64014,6,0,L|192:288,1,110,12|0,0:0|0:0,0:0:0:0:
352,192,64377,2,0,L|240:192,1,110,8|0,0:0|0:0,0:0:0:0:
80,96,64741,2,0,P|64:112|80:192,1,110,8|0,0:0|0:0,0:0:0:0:
256,192,65014,2,0,L|256:128,1,55,10|0,0:0|0:0,0:0:0:0:
96,96,65286,1,8,0:0:0:0:
176,96,65377,1,8,0:0:0:0:
352,288,65468,6,0,L|240:288,1,110,8|0,0:0|0:0,0:0:0:0:
80,192,65832,2,0,L|192:192,1,110,8|0,0:0|0:0,0:0:0:0:
272,192,66104,1,0,0:0:0:0:
352,96,66195,2,0,P|368:112|352:192,1,110,8|0,0:0|0:0,0:0:0:0:
128,192,66468,2,0,L|128:128,1,55,10|0,0:0|0:0,0:0:0:0:
208,96,66650,1,0,0:0:0:0:
128,96,66741,1,8,0:0:0:0:
208,96,66832,1,8,0:0:0:0:
400,96,66923,6,0,L|400:160,1,55,10|0,0:0|0:0,0:0:0:0:
336,192,67104,1,0,0:0:0:0:
240,96,67195,2,0,L|240:160,1,55,10|0,0:0|0:0,0:0:0:0:
304,192,67377,1,0,0:0:0:0:
400,96,67468,1,10,0:0:0:0:
336,96,67559,1,0,0:0:0:0:
144,192,67650,1,0,0:0:0:0:
64,192,67741,1,0,0:0:0:0:
256,320,67832,1,0,0:0:0:0:
176,320,67923,1,10,0:0:0:0:
256,320,68014,1,0,0:0:0:0:
256,256,68104,1,0,0:0:0:0:
64,192,68195,1,10,0:0:0:0:
144,192,68286,1,0,0:0:0:0:
368,192,68377,5,14,0:0:0:0:
64,192,68559,2,0,P|48:112|64:96,1,110,8|2,0:0|0:0,0:0:0:0:
128,96,68832,1,2,0:0:0:0:
304,96,68923,1,6,0:0:0:0:
336,160,69014,1,0,0:0:0:0:
304,224,69104,1,0,0:0:0:0:
48,224,69286,1,8,0:0:0:0:
128,224,69377,1,8,0:0:0:0:
48,224,69468,2,0,P|32:144|48:128,1,110,10|2,0:0|0:0,0:0:0:0:
384,224,69832,6,0,L|240:224,2,137.5,12|0|8,0:0|0:0|0:0,0:0:0:0:
208,112,70377,1,2,0:0:0:0:
480,112,70559,2,0,P|496:144|480:240,1,137.5,2|0,0:0|0:0,0:0:0:0:
304,112,70832,2,0,L|384:112,1,68.75,0|8,0:0|0:0,0:0:0:0:
80,112,71104,1,2,0:0:0:0:
256,192,71286,6,0,L|112:192,2,137.5,8|0|8,0:0|0:0|0:0,0:0:0:0:
80,272,71832,2,0,L|160:272,1,68.75,2|0,0:0|0:0,0:0:0:0:
320,272,72014,1,2,0:0:0:0:
148,112,72195,2,0,L|80:112,1,68.75,8|0,0:0|0:0,0:0:0:0:
256,192,72377,2,0,L|256:112,1,68.75,8|0,0:0|0:0,0:0:0:0:
79,112,72559,2,0,L|148:112,1,68.75,2|0,0:0|0:0,0:0:0:0:
320,192,72741,6,0,L|176:192,2,137.5,8|0|8,0:0|0:0|0:0,0:0:0:0:
144,80,73286,1,2,0:0:0:0:
416,80,73468,2,0,P|432:112|416:208,1,137.5,2|0,0:0|0:0,0:0:0:0:
160,208,73741,2,0,L|80:208,1,68.75,2|8,0:0|0:0,0:0:0:0:
368,80,74014,1,10,0:0:0:0:
192,80,74104,1,0,0:0:0:0:
16,80,74195,6,0,L|160:80,2,137.5,8|0|8,0:0|0:0|0:0,0:0:0:0:
192,80,74741,2,0,L|192:160,1,68.75,2|0,0:0|0:0,0:0:0:0:
16,192,74923,1,2,0:0:0:0:
192,256,75104,2,0,L|112:256,1,68.75,8|0,0:0|0:0,0:0:0:0:
288,192,75286,1,8,0:0:0:0:
112,192,75468,1,2,0:0:0:0:
384,192,75650,6,0,L|240:192,2,137.5,8|0|8,0:0|0:0|0:0,0:0:0:0:
208,96,76195,1,2,0:0:0:0:
480,96,76377,2,0,P|496:128|480:224,1,137.5,2|0,0:0|0:0,0:0:0:0:
304,96,76650,2,0,L|384:96,1,68.75,0|8,0:0|0:0,0:0:0:0:
80,96,76923,1,2,0:0:0:0:
256,96,77104,5,8,0:0:0:0:
320,128,77195,1,0,0:0:0:0:
320,176,77286,1,0,0:0:0:0:
256,208,77377,1,0,0:0:0:0:
80,208,77468,1,8,0:0:0:0:
240,208,77650,2,0,L|256:128,1,68.75,2|0,0:0|0:0,0:0:0:0:
80,144,77832,1,2,0:0:0:0:
240,80,78014,2,0,L|160:80,2,68.75,8|0|8,0:0|0:0|0:0,0:0:0:0:
80,80,78377,1,2,0:0:0:0:
400,80,78559,5,8,0:0:0:0:
240,80,78741,1,8,0:0:0:0:
80,80,78923,1,2,0:0:0:0:
400,192,79104,2,0,L|256:192,1,137.5,2|0,0:0|0:0,0:0:0:0:
432,112,79468,2,0,L|288:112,1,137.5,8|2,0:0|0:0,0:0:0:0:
432,192,79832,1,8,0:0:0:0:
176,192,80014,5,0,0:0:0:0:
336,112,80195,2,0,L|336:192,1,68.75,8|0,0:0|0:0,0:0:0:0:
272,240,80377,1,2,0:0:0:0:
448,240,80559,1,2,0:0:0:0:
376,240,80650,1,0,0:0:0:0:
448,240,80741,1,8,0:0:0:0:
376,240,80832,1,0,0:0:0:0:
304,240,80923,1,8,0:0:0:0:
128,192,81104,1,2,0:0:0:0:
304,192,81195,1,0,0:0:0:0:
480,192,81286,1,10,0:0:0:0:
304,192,81377,1,0,0:0:0:0:
128,224,81468,6,0,L|272:224,2,137.5,12|0|8,0:0|0:0|0:0,0:0:0:0:
304,112,82014,1,2,0:0:0:0:
32,112,82195,2,0,P|16:144|32:240,1,137.5,2|0,0:0|0:0,0:0:0:0:
208,112,82468,2,0,L|128:112,1,68.75,0|8,0:0|0:0,0:0:0:0:
432,112,82741,1,2,0:0:0:0:
256,192,82923,6,0,L|400:192,2,137.5,8|0|8,0:0|0:0|0:0,0:0:0:0:
432,272,83468,2,0,L|352:272,1,68.75,2|0,0:0|0:0,0:0:0:0:
192,272,83650,2,0,L|192:192,1,68.75,2|0,0:0|0:0,0:0:0:0:
364,112,83832,2,0,L|432:112,1,68.75,8|0,0:0|0:0,0:0:0:0:
256,192,84014,1,8,0:0:0:0:
432,192,84195,1,2,0:0:0:0:
160,192,84377,6,0,L|304:192,2,137.5,8|0|8,0:0|0:0|0:0,0:0:0:0:
336,80,84923,1,2,0:0:0:0:
64,80,85104,2,0,P|48:112|64:208,1,137.5,2|0,0:0|0:0,0:0:0:0:
320,208,85377,2,0,L|400:208,1,68.75,2|8,0:0|0:0,0:0:0:0:
112,80,85650,1,10,0:0:0:0:
288,80,85741,1,0,0:0:0:0:
464,80,85832,6,0,L|320:80,2,137.5,8|0|8,0:0|0:0|0:0,0:0:0:0:
288,80,86377,2,0,L|304:160,1,68.75,2|0,0:0|0:0,0:0:0:0:
480,192,86559,2,0,L|496:112,1,68.75,2|0,0:0|0:0,0:0:0:0:
320,256,86741,2,0,L|400:256,1,68.75,8|0,0:0|0:0,0:0:0:0:
224,192,86923,1,8,0:0:0:0:
400,192,87104,1,2,0:0:0:0:
128,192,87286,6,0,L|272:192,2,137.5,8|0|8,0:0|0:0|0:0,0:0:0:0:
304,96,87832,1,2,0:0:0:0:
32,96,88014,2,0,P|16:128|32:224,1,137.5,2|0,0:0|0:0,0:0:0:0:
208,96,88286,2,0,L|128:96,1,68.75,0|8,0:0|0:0,0:0:0:0:
432,96,88559,1,2,0:0:0:0:
288,96,88741,5,8,0:0:0:0:
224,128,88832,1,0,0:0:0:0:
288,176,88923,1,0,0:0:0:0:
224,208,89014,1,0,0:0:0:0:
48,208,89104,2,0,L|48:128,1,68.75,8|0,0:0|0:0,0:0:0:0:
224,208,89286,2,0,L|304:208,1,68.75,2|0,0:0|0:0,0:0:0:0:
128,144,89468,2,0,L|128:64,1,68.75,2|0,0:0|0:0,0:0:0:0:
208,48,89650,1,8,0:0:0:0:
32,48,89832,1,8,0:0:0:0:
208,48,90014,1,2,0:0:0:0:
480,48,90195,5,8,0:0:0:0:
304,48,90377,1,0,0:0:0:0:
32,48,90559,1,4,0:0:0:0:
352,48,90741,2,0,P|368:80|352:176,1,137.5,10|0,0:0|0:0,0:0:0:0:
176,192,91104,1,8,0:0:0:0:
448,192,91286,1,2,0:0:0:0:
96,192,91468,1,2,0:0:0:0:
448,192,91650,5,4,0:0:0:0:
283,80,91832,2,0,L|352:80,1,68.75,10|0,0:0|0:0,0:0:0:0:
187,192,92104,2,0,L|256:192,1,68.75,10|0,0:0|0:0,0:0:0:0:
79,80,92377,2,0,P|45:137|80:192,1,137.5,10|0,0:0|0:0,0:0:0:0:
432,80,92741,1,8,0:0:0:0:
256,80,92832,1,0,0:0:0:0:
79,80,92923,1,8,0:0:0:0:
448,192,93104,5,0,0:0:0:0:
368,192,93195,2,0,P|352:176|368:96,1,110,0|2,0:0|0:0,0:0:0:0:
448,192,93468,2,0,P|464:176|448:96,1,110,0|10,0:0|0:0,0:0:0:0:
368,96,93741,2,0,L|256:96,1,110,0|2,0:0|0:0,0:0:0:0:
336,96,94014,1,0,0:0:0:0:
144,96,94195,1,10,0:0:0:0:
464,192,94377,1,10,0:0:0:0:
192,192,94559,5,10,0:0:0:0:
272,192,94650,2,0,P|288:176|272:96,1,110,0|2,0:0|0:0,0:0:0:0:
192,192,94923,2,0,P|176:176|192:96,1,110,0|10,0:0|0:0,0:0:0:0:
272,96,95195,2,0,L|160:96,1,110,0|2,0:0|0:0,0:0:0:0:
80,96,95468,1,0,0:0:0:0:
400,192,95650,1,10,0:0:0:0:
128,192,95832,1,10,0:0:0:0:
400,192,96014,5,10,0:0:0:0:
320,192,96104,2,0,L|208:192,1,110,0|2,0:0|0:0,0:0:0:0:
288,192,96377,2,0,P|304:176|288:96,1,110,0|10,0:0|0:0,0:0:0:0:
210,96,96650,2,0,L|320:96,1,110,0|2,0:0|0:0,0:0:0:0:
240,96,96923,1,0,0:0:0:0:
48,192,97104,1,10,0:0:0:0:
368,192,97286,1,10,0:0:0:0:
96,192,97468,5,10,0:0:0:0:
176,192,97559,2,0,L|288:192,1,110,0|2,0:0|0:0,0:0:0:0:
208,192,97832,2,0,P|192:176|208:96,1,110,0|10,0:0|0:0,0:0:0:0:
286,96,98104,2,0,L|176:96,1,110,0|2,0:0|0:0,0:0:0:0:
96,96,98377,1,8,0:0:0:0:
176,96,98468,1,2,0:0:0:0:
320,96,98559,1,10,0:0:0:0:
320,192,98650,1,2,0:0:0:0:
176,192,98741,1,10,0:0:0:0:
256,192,98832,1,2,0:0:0:0:
64,192,98923,5,14,0:0:0:0:
144,192,99014,2,0,P|160:176|144:96,1,110,0|2,0:0|0:0,0:0:0:0:
64,192,99286,2,0,P|48:176|64:96,1,110,0|10,0:0|0:0,0:0:0:0:
144,96,99559,2,0,L|256:96,1,110,0|2,0:0|0:0,0:0:0:0:
176,96,99832,1,0,0:0:0:0:
368,96,100014,1,10,0:0:0:0:
48,192,100195,1,10,0:0:0:0:
320,192,100377,5,10,0:0:0:0:
240,192,100468,2,0,P|224:176|240:96,1,110,0|2,0:0|0:0,0:0:0:0:
320,192,100741,2,0,P|336:176|320:96,1,110,0|10,0:0|0:0,0:0:0:0:
240,96,101014,2,0,L|352:96,1,110,0|2,0:0|0:0,0:0:0:0:
432,96,101286,1,0,0:0:0:0:
112,192,101468,1,10,0:0:0:0:
384,192,101650,1,10,0:0:0:0:
112,192,101832,5,10,0:0:0:0:
192,192,101923,2,0,L|304:192,1,110,0|2,0:0|0:0,0:0:0:0:
224,192,102195,2,0,P|208:176|224:96,1,110,0|10,0:0|0:0,0:0:0:0:
302,96,102468,2,0,L|192:96,1,110,0|2,0:0|0:0,0:0:0:0:
272,96,102741,1,0,0:0:0:0:
464,192,102923,1,10,0:0:0:0:
144,192,103104,1,10,0:0:0:0:
416,192,103286,5,10,0:0:0:0:
336,192,103377,2,0,P|320:176|336:96,1,110,0|2,0:0|0:0,0:0:0:0:
416,96,103650,1,8,0:0:0:0:
144,192,103832,1,14,0:0:0:0:
224,192,103923,2,0,P|240:176|224:96,1,110,0|2,0:0|0:0,0:0:0:0:
144,96,104195,1,8,0:0:0:0:
416,96,104377,1,10,0:0:0:0:
336,96,104468,1,2,0:0:0:0:
160,192,104559,1,10,0:0:0:0:
240,192,104650,1,2,0:0:0:0:
64,96,104741,6,0,L|48:208,1,110,6|0,0:0|0:0,0:0:0:0:
320,208,105104,1,8,0:0:0:0:
176,208,105286,2,0,L|288:208,1,110,0|8,0:0|0:0,0:0:0:0:
144,208,105650,2,0,L|128:96,1,110,0|8,0:0|0:0,0:0:0:0:
400,96,106014,1,0,0:0:0:0:
256,96,106195,6,0,L|240:208,1,110,8|0,0:0|0:0,0:0:0:0:
384,208,106559,1,8,0:0:0:0:
240,208,106741,2,0,L|240:144,1,55,0|0,0:0|0:0,0:0:0:0:
320,96,106923,1,8,0:0:0:0:
240,96,107014,1,0,0:0:0:0:
320,96,107104,1,0,0:0:0:0:
464,96,107286,2,0,L|352:96,1,110,8|0,0:0|0:0,0:0:0:0:
80,288,107650,6,0,L|64:176,1,110,8|0,0:0|0:0,0:0:0:0:
336,176,108014,1,8,0:0:0:0:
194,176,108195,2,0,L|304:176,1,110,0|8,0:0|0:0,0:0:0:0:
304,176,108468,1,0,0:0:0:0:
80,208,108559,2,0,L|192:208,1,110,0|8,0:0|0:0,0:0:0:0:
464,288,108923,1,0,0:0:0:0:
320,288,109104,6,0,L|336:176,1,110,8|0,0:0|0:0,0:0:0:0:
176,288,109468,2,0,L|160:176,1,110,8|0,0:0|0:0,0:0:0:0:
160,179,109741,1,0,0:0:0:0:
240,256,109832,1,8,0:0:0:0:
160,256,109923,1,0,0:0:0:0:
336,288,110014,1,0,0:0:0:0:
256,288,110104,1,0,0:0:0:0:
80,288,110195,1,8,0:0:0:0:
416,192,110377,1,2,0:0:0:0:
144,192,110559,6,0,L|256:192,2,110,8|8|8,0:0|0:0|0:0,0:0:0:0:
480,192,111104,2,0,L|480:80,1,110,6|8,0:0|0:0,0:0:0:0:
320,48,111468,1,0,0:0:0:0:
48,48,111650,1,8,0:0:0:0:
384,192,111832,1,2,0:0:0:0:
112,192,112014,6,0,L|224:192,2,110,8|8|8,0:0|0:0|0:0,0:0:0:0:
448,192,112559,1,12,0:0:0:0:
480,144,112650,1,0,0:0:0:0:
448,96,112741,1,8,0:0:0:0:
288,96,112923,1,0,0:0:0:0:
448,96,113104,1,8,0:0:0:0:
288,96,113286,1,2,0:0:0:0:
128,96,113468,5,8,0:0:0:0:
64,96,113559,1,0,0:0:0:0:
64,160,113650,1,0,0:0:0:0:
128,160,113741,1,0,0:0:0:0:
240,192,113832,1,8,0:0:0:0:
64,224,114014,1,0,0:0:0:0:
128,224,114104,1,0,0:0:0:0:
240,192,114195,1,8,0:0:0:0:
64,192,114377,1,0,0:0:0:0:
336,192,114559,1,8,0:0:0:0:
176,192,114741,2,0,L|176:128,1,55,8|8,0:0|0:0,0:0:0:0:
368,192,114923,6,0,P|384:176|368:96,1,110,8|0,0:0|0:0,0:0:0:0:
208,96,115286,1,8,0:0:0:0:
480,96,115468,1,0,0:0:0:0:
400,96,115559,1,0,0:0:0:0:
320,96,115650,1,8,0:0:0:0:
400,96,115741,1,0,0:0:0:0:
320,96,115832,1,0,0:0:0:0:
400,96,115923,1,0,0:0:0:0:
224,192,116014,1,8,0:0:0:0:
144,192,116104,1,0,0:0:0:0:
320,192,116195,1,8,0:0:0:0:
240,192,116286,1,0,0:0:0:0:
416,96,116377,6,0,L|432:208,1,110,6|0,0:0|0:0,0:0:0:0:
160,208,116741,1,8,0:0:0:0:
304,208,116923,2,0,L|192:208,1,110,0|8,0:0|0:0,0:0:0:0:
336,208,117286,2,0,P|352:192|336:112,1,110,0|8,0:0|0:0,0:0:0:0:
64,112,117650,1,0,0:0:0:0:
336,64,117832,6,0,L|224:64,1,110,10|2,0:0|0:0,0:0:0:0:
496,112,118195,1,8,0:0:0:0:
224,192,118377,2,0,L|160:192,1,55,2|0,0:0|0:0,0:0:0:0:
352,128,118559,1,8,0:0:0:0:
208,192,118741,1,0,0:0:0:0:
64,128,118923,2,0,L|176:128,1,110,8|0,0:0|0:0,0:0:0:0:
432,96,119286,6,0,L|448:208,1,110,8|0,0:0|0:0,0:0:0:0:
176,208,119650,1,8,0:0:0:0:
318,208,119832,2,0,L|208:208,1,110,0|8,0:0|0:0,0:0:0:0:
208,208,120104,1,0,0:0:0:0:
432,176,120195,2,0,L|320:176,1,110,0|8,0:0|0:0,0:0:0:0:
48,96,120559,1,0,0:0:0:0:
192,96,120741,6,0,L|176:208,1,110,8|2,0:0|0:0,0:0:0:0:
336,96,121104,2,0,L|352:208,1,110,8|2,0:0|0:0,0:0:0:0:
351,204,121377,1,0,0:0:0:0:
176,208,121468,1,8,0:0:0:0:
96,208,121559,1,0,0:0:0:0:
256,176,121650,1,0,0:0:0:0:
256,96,121741,1,0,0:0:0:0:
80,96,121832,1,8,0:0:0:0:
416,192,122014,1,2,0:0:0:0:
144,192,122195,6,0,L|256:192,2,110,8|8|8,0:0|0:0|0:0,0:0:0:0:
480,192,122741,2,0,P|496:176|480:96,1,110,6|8,0:0|0:0,0:0:0:0:
320,96,123104,1,0,0:0:0:0:
480,96,123286,1,8,0:0:0:0:
160,96,123468,1,2,0:0:0:0:
432,192,123650,6,0,L|320:192,2,110,8|8|8,0:0|0:0|0:0,0:0:0:0:
96,192,124195,1,12,0:0:0:0:
72,144,124286,1,0,0:0:0:0:
96,96,124377,1,8,0:0:0:0:
256,96,124559,1,0,0:0:0:0:
96,96,124741,1,8,0:0:0:0:
256,96,124923,1,2,0:0:0:0:
416,96,125104,5,8,0:0:0:0:
442,105,125150,1,0,0:0:0:0:
460,125,125195,1,0,0:0:0:0:
467,152,125241,1,0,0:0:0:0:
460,178,125286,1,0,0:0:0:0:
442,198,125332,1,0,0:0:0:0:
416,208,125377,1,0,0:0:0:0:
320,224,125468,2,0,L|320:160,1,55,8|0,0:0|0:0,0:0:0:0:
416,224,125650,1,0,0:0:0:0:
496,224,125741,1,0,0:0:0:0:
496,144,125832,1,8,0:0:0:0:
416,144,125923,1,0,0:0:0:0:
320,144,126014,1,0,0:0:0:0:
240,144,126104,1,0,0:0:0:0:
320,144,126195,1,8,0:0:0:0:
240,144,126286,1,0,0:0:0:0:
64,192,126377,5,12,0:0:0:0:
352,192,126741,2,0,L|368:80,1,110,8|0,0:0|0:0,0:0:0:0:
32,80,127104,2,0,L|192:32,2,165.000006294251,12|0|8,0:0|0:0|0:0,0:0:0:0:
32,80,127559,1,0,0:0:0:0:
208,112,127650,1,8,0:0:0:0:
208,192,127741,1,0,0:0:0:0:
32,192,127832,1,8,0:0:0:0:
112,192,127923,1,0,0:0:0:0:
320,192,128014,6,0,L|432:192,1,110,14|0,0:0|0:0,0:0:0:0:
272,144,128377,2,0,L|384:144,1,110,8|0,0:0|0:0,0:0:0:0:
224,192,128741,2,0,P|208:144|208:80,1,110,8|0,0:0|0:0,0:0:0:0:
384,96,129014,2,0,L|96:96,1,285.99998690796,10|0,0:0|0:0,0:0:0:0:
98,96,129286,1,8,0:0:0:0:
352,288,129468,6,0,L|240:288,1,110,8|0,0:0|0:0,0:0:0:0:
400,240,129832,2,0,L|288:240,1,110,8|0,0:0|0:0,0:0:0:0:
368,192,130104,1,0,0:0:0:0:
288,192,130195,2,0,P|272:144|272:80,1,110,8|0,0:0|0:0,0:0:0:0:
480,96,130468,2,0,L|128:96,1,352,10|0,0:0|0:0,0:0:0:0:
128,96,130741,1,8,0:0:0:0:
384,192,130923,6,0,L|272:192,1,110,10|0,0:0|0:0,0:0:0:0:
368,192,131195,1,2,0:0:0:0:
432,192,131286,2,0,P|432:144|384:96,1,110,0|8,0:0|0:0,0:0:0:0:
128,192,131650,2,0,L|240:192,1,110,10|0,0:0|0:0,0:0:0:0:
144,192,131923,1,2,0:0:0:0:
80,192,132014,2,0,P|80:144|128:96,1,110,0|8,0:0|0:0,0:0:0:0:
384,192,132377,6,0,L|400:80,1,110,10|0,0:0|0:0,0:0:0:0:
240,80,132741,1,8,0:0:0:0:
400,80,132923,2,0,L|400:112,1,27.5,0|0,0:0|0:0,0:0:0:0:
352,80,133014,2,0,L|352:112,1,27.5,0|0,0:0|0:0,0:0:0:0:
400,80,133104,1,8,0:0:0:0:
240,80,133286,2,0,L|240:144,1,55,8|8,0:0|0:0,0:0:0:0:
320,192,133468,1,8,0:0:0:0:
160,192,133650,1,8,0:0:0:0:
432,288,133832,6,0,L|320:288,1,110,12|0,0:0|0:0,0:0:0:0:
160,192,134195,2,0,L|272:192,1,110,8|0,0:0|0:0,0:0:0:0:
432,96,134559,2,0,P|448:112|432:192,1,110,8|0,0:0|0:0,0:0:0:0:
256,192,134832,2,0,L|256:128,1,55,10|0,0:0|0:0,0:0:0:0:
416,96,135104,1,8,0:0:0:0:
336,96,135195,1,8,0:0:0:0:
160,288,135286,6,0,L|272:288,1,110,8|0,0:0|0:0,0:0:0:0:
432,192,135650,2,0,L|320:192,1,110,8|0,0:0|0:0,0:0:0:0:
240,192,135923,1,0,0:0:0:0:
160,96,136014,2,0,P|144:112|160:192,1,110,8|0,0:0|0:0,0:0:0:0:
384,192,136286,2,0,L|384:128,1,55,10|0,0:0|0:0,0:0:0:0:
304,96,136468,1,0,0:0:0:0:
384,96,136559,1,8,0:0:0:0:
304,96,136650,1,8,0:0:0:0:
112,96,136741,6,0,L|112:160,1,55,10|0,0:0|0:0,0:0:0:0:
176,192,136923,1,0,0:0:0:0:
272,96,137014,2,0,L|272:160,1,55,10|0,0:0|0:0,0:0:0:0:
208,192,137195,1,0,0:0:0:0:
112,96,137286,1,10,0:0:0:0:
176,96,137377,1,0,0:0:0:0:
368,192,137468,1,0,0:0:0:0:
448,192,137559,1,0,0:0:0:0:
256,320,137650,1,0,0:0:0:0:
336,320,137741,1,10,0:0:0:0:
256,320,137832,1,0,0:0:0:0:
256,256,137923,1,0,0:0:0:0:
448,192,138014,1,10,0:0:0:0:
368,192,138104,1,0,0:0:0:0:
144,192,138195,5,14,0:0:0:0:
448,192,138377,2,0,P|464:112|448:96,1,110,8|2,0:0|0:0,0:0:0:0:
384,96,138650,1,2,0:0:0:0:
208,96,138741,1,6,0:0:0:0:
176,160,138832,1,0,0:0:0:0:
208,224,138923,1,0,0:0:0:0:
464,224,139104,1,8,0:0:0:0:
384,224,139195,1,8,0:0:0:0:
464,224,139286,2,0,P|480:144|464:128,1,110,10|2,0:0|0:0,0:0:0:0:
128,224,139650,6,0,L|272:224,2,137.5,12|0|8,0:0|0:0|0:0,0:0:0:0:
304,192,140195,1,2,0:0:0:0:
32,192,140377,2,0,P|32:128|64:64,1,137.5,2|0,0:0|0:0,0:0:0:0:
240,64,140650,2,0,L|320:64,1,68.75,0|8,0:0|0:0,0:0:0:0:
16,64,140923,1,2,0:0:0:0:
192,192,141104,6,0,L|48:192,2,137.5,8|0|8,0:0|0:0|0:0,0:0:0:0:
368,192,141650,2,0,L|368:112,1,68.75,2|0,0:0|0:0,0:0:0:0:
192,96,141832,1,2,0:0:0:0:
368,96,142014,2,0,L|448:96,1,68.75,8|0,0:0|0:0,0:0:0:0:
264,224,142195,2,0,L|264:144,1,68.75,8|0,0:0|0:0,0:0:0:0:
436,288,142377,2,0,L|368:288,1,68.75,2|0,0:0|0:0,0:0:0:0:
192,224,142559,6,0,L|336:224,2,137.5,8|0|8,0:0|0:0|0:0,0:0:0:0:
368,192,143104,1,2,0:0:0:0:
96,192,143286,2,0,P|96:128|160:80,1,137.5,2|0,0:0|0:0,0:0:0:0:
400,80,143559,2,0,L|320:80,1,68.75,2|8,0:0|0:0,0:0:0:0:
64,192,143832,1,10,0:0:0:0:
240,192,143923,1,0,0:0:0:0:
416,192,144014,6,0,L|272:192,2,137.5,8|0|8,0:0|0:0|0:0,0:0:0:0:
240,192,144559,2,0,L|240:112,1,68.75,2|0,0:0|0:0,0:0:0:0:
416,96,144741,1,2,0:0:0:0:
240,96,144923,2,0,L|320:96,1,68.75,8|0,0:0|0:0,0:0:0:0:
480,96,145104,1,8,0:0:0:0:
304,96,145286,1,2,0:0:0:0:
32,96,145468,6,0,L|176:96,2,137.5,8|0|8,0:0|0:0|0:0,0:0:0:0:
208,96,146014,1,2,0:0:0:0:
480,192,146195,2,0,P|480:128|448:64,1,137.5,2|0,0:0|0:0,0:0:0:0:
272,64,146468,2,0,L|192:64,1,68.75,0|8,0:0|0:0,0:0:0:0:
496,64,146741,1,2,0:0:0:0:
144,96,146923,5,8,0:0:0:0:
80,128,147014,1,0,0:0:0:0:
80,176,147104,1,0,0:0:0:0:
144,208,147195,1,0,0:0:0:0:
320,192,147286,1,8,0:0:0:0:
160,192,147468,2,0,L|144:112,1,68.75,2|0,0:0|0:0,0:0:0:0:
320,128,147650,1,2,0:0:0:0:
144,128,147832,1,8,0:0:0:0:
208,128,147923,1,0,0:0:0:0:
272,128,148014,1,8,0:0:0:0:
96,128,148195,1,2,0:0:0:0:
416,192,148377,5,8,0:0:0:0:
256,192,148559,1,8,0:0:0:0:
416,192,148741,1,2,0:0:0:0:
112,192,148923,2,0,L|256:192,1,137.5,2|0,0:0|0:0,0:0:0:0:
80,112,149286,2,0,L|224:112,1,137.5,8|2,0:0|0:0,0:0:0:0:
80,192,149650,1,8,0:0:0:0:
336,192,149832,5,0,0:0:0:0:
176,96,150014,2,0,L|256:96,1,68.75,8|0,0:0|0:0,0:0:0:0:
416,96,150195,1,2,0:0:0:0:
256,96,150377,2,0,L|256:176,1,68.75,2|0,0:0|0:0,0:0:0:0:
336,192,150559,1,8,0:0:0:0:
256,192,150650,1,0,0:0:0:0:
336,192,150741,1,8,0:0:0:0:
64,192,150923,1,2,0:0:0:0:
224,192,151014,1,0,0:0:0:0:
384,192,151104,1,10,0:0:0:0:
224,224,151195,1,0,0:0:0:0:
384,224,151286,6,0,L|240:224,2,137.5,12|0|8,0:0|0:0|0:0,0:0:0:0:
208,192,151832,1,2,0:0:0:0:
480,192,152014,2,0,P|480:128|448:64,1,137.5,2|0,0:0|0:0,0:0:0:0:
272,64,152286,2,0,L|192:64,1,68.75,0|8,0:0|0:0,0:0:0:0:
496,64,152559,1,2,0:0:0:0:
320,192,152741,6,0,L|464:192,2,137.5,8|0|8,0:0|0:0|0:0,0:0:0:0:
144,192,153286,2,0,L|144:112,1,68.75,2|0,0:0|0:0,0:0:0:0:
320,96,153468,1,2,0:0:0:0:
144,96,153650,2,0,L|64:96,1,68.75,8|0,0:0|0:0,0:0:0:0:
248,224,153832,2,0,L|248:144,1,68.75,8|0,0:0|0:0,0:0:0:0:
76,288,154014,2,0,L|144:288,1,68.75,2|0,0:0|0:0,0:0:0:0:
320,224,154195,6,0,L|176:224,2,137.5,8|0|8,0:0|0:0|0:0,0:0:0:0:
144,192,154741,1,2,0:0:0:0:
416,192,154923,2,0,P|416:128|352:80,1,137.5,2|0,0:0|0:0,0:0:0:0:
112,80,155195,2,0,L|192:80,1,68.75,2|8,0:0|0:0,0:0:0:0:
448,192,155468,1,10,0:0:0:0:
272,192,155559,1,0,0:0:0:0:
96,192,155650,6,0,L|240:192,2,137.5,8|0|8,0:0|0:0|0:0,0:0:0:0:
272,192,156195,2,0,L|352:192,1,68.75,2|0,0:0|0:0,0:0:0:0:
160,192,156377,2,0,L|80:192,1,68.75,2|0,0:0|0:0,0:0:0:0:
272,96,156559,2,0,L|192:96,1,68.75,8|0,0:0|0:0,0:0:0:0:
32,96,156741,1,8,0:0:0:0:
208,96,156923,1,2,0:0:0:0:
480,96,157104,6,0,L|336:96,2,137.5,8|0|8,0:0|0:0|0:0,0:0:0:0:
304,96,157650,1,2,0:0:0:0:
32,192,157832,2,0,P|32:128|64:64,1,137.5,2|0,0:0|0:0,0:0:0:0:
240,64,158104,2,0,L|320:64,1,68.75,0|8,0:0|0:0,0:0:0:0:
16,64,158377,1,2,0:0:0:0:
176,64,158559,5,8,0:0:0:0:
256,64,158650,1,0,0:0:0:0:
256,144,158741,1,0,0:0:0:0:
176,144,158832,1,0,0:0:0:0:
352,192,158923,2,0,L|272:192,1,68.75,8|0,0:0|0:0,0:0:0:0:
112,192,159104,2,0,L|32:192,1,68.75,2|0,0:0|0:0,0:0:0:0:
224,192,159286,2,0,L|224:272,1,68.75,2|0,0:0|0:0,0:0:0:0:
43,272,159468,2,0,L|112:272,1,68.75,8|0,0:0|0:0,0:0:0:0:
288,192,159650,1,8,0:0:0:0:
112,192,159832,1,2,0:0:0:0:
400,192,160014,5,8,0:0:0:0:
224,192,160195,1,0,0:0:0:0:
496,192,160377,1,4,0:0:0:0:
176,48,160559,2,0,P|160:80|176:176,1,137.5,10|0,0:0|0:0,0:0:0:0:
352,192,160923,1,8,0:0:0:0:
80,192,161104,1,2,0:0:0:0:
432,192,161286,1,2,0:0:0:0:
80,192,161468,5,4,0:0:0:0:
244,64,161650,2,0,L|176:64,1,68.75,10|0,0:0|0:0,0:0:0:0:
341,192,161923,2,0,L|272:192,1,68.75,10|0,0:0|0:0,0:0:0:0:
448,64,162195,2,0,P|464:96|448:192,1,137.5,10|0,0:0|0:0,0:0:0:0:
64,192,162559,1,8,0:0:0:0:
224,128,162650,1,0,0:0:0:0:
64,64,162741,1,8,0:0:0:0:
304,64,162923,5,14,0:0:0:0:
224,64,163014,2,0,P|208:80|224:160,1,110,0|2,0:0|0:0,0:0:0:0:
304,160,163286,2,0,L|192:160,1,110,0|10,0:0|0:0,0:0:0:0:
272,208,163559,2,0,L|160:208,1,110,0|2,0:0|0:0,0:0:0:0:
240,256,163832,1,0,0:0:0:0:
48,192,164014,1,10,0:0:0:0:
368,192,164195,1,10,0:0:0:0:
96,64,164377,5,10,0:0:0:0:
176,64,164468,2,0,P|192:80|176:160,1,110,0|2,0:0|0:0,0:0:0:0:
96,160,164741,2,0,L|208:160,1,110,0|10,0:0|0:0,0:0:0:0:
128,208,165014,2,0,L|240:208,1,110,0|2,0:0|0:0,0:0:0:0:
160,256,165286,1,0,0:0:0:0:
480,192,165468,1,10,0:0:0:0:
208,128,165650,1,10,0:0:0:0:
480,80,165832,5,10,0:0:0:0:
400,80,165923,2,0,P|384:96|400:176,1,110,0|2,0:0|0:0,0:0:0:0:
480,192,166195,2,0,L|368:192,1,110,0|10,0:0|0:0,0:0:0:0:
290,80,166468,2,0,L|402:80,1,110,0|2,0:0|0:0,0:0:0:0:
320,48,166741,1,0,0:0:0:0:
128,48,166923,1,10,0:0:0:0:
448,192,167104,1,10,0:0:0:0:
176,80,167286,5,10,0:0:0:0:
256,80,167377,2,0,P|272:96|256:176,1,110,0|2,0:0|0:0,0:0:0:0:
176,192,167650,2,0,L|288:192,1,110,0|10,0:0|0:0,0:0:0:0:
366,80,167923,2,0,L|254:80,1,110,0|2,0:0|0:0,0:0:0:0:
336,48,168195,1,8,0:0:0:0:
336,112,168286,1,2,0:0:0:0:
184,192,168377,1,10,0:0:0:0:
264,192,168468,1,2,0:0:0:0:
112,192,168559,1,10,0:0:0:0:
32,192,168650,1,2,0:0:0:0:
208,64,168741,5,14,0:0:0:0:
288,64,168832,2,0,P|304:80|288:160,1,110,0|2,0:0|0:0,0:0:0:0:
208,160,169104,2,0,L|320:160,1,110,0|10,0:0|0:0,0:0:0:0:
240,208,169377,2,0,L|352:208,1,110,0|2,0:0|0:0,0:0:0:0:
272,256,169650,1,0,0:0:0:0:
464,192,169832,1,10,0:0:0:0:
144,192,170014,1,10,0:0:0:0:
416,64,170195,5,10,0:0:0:0:
336,64,170286,2,0,P|320:80|336:160,1,110,0|2,0:0|0:0,0:0:0:0:
416,160,170559,2,0,L|304:160,1,110,0|10,0:0|0:0,0:0:0:0:
384,208,170832,2,0,L|272:208,1,110,0|2,0:0|0:0,0:0:0:0:
352,256,171104,1,0,0:0:0:0:
32,192,171286,1,10,0:0:0:0:
304,128,171468,1,10,0:0:0:0:
32,80,171650,5,10,0:0:0:0:
112,80,171741,2,0,P|128:96|112:176,1,110,0|2,0:0|0:0,0:0:0:0:
32,192,172014,2,0,L|144:192,1,110,0|10,0:0|0:0,0:0:0:0:
222,80,172286,2,0,L|110:80,1,110,0|2,0:0|0:0,0:0:0:0:
192,48,172559,1,0,0:0:0:0:
384,48,172741,1,10,0:0:0:0:
64,192,172923,1,10,0:0:0:0:
336,80,173104,5,10,0:0:0:0:
256,80,173195,2,0,P|240:96|256:176,1,110,0|2,0:0|0:0,0:0:0:0:
336,192,173468,1,8,0:0:0:0:
64,80,173650,1,14,0:0:0:0:
144,80,173741,2,0,P|160:96|144:176,1,110,0|2,0:0|0:0,0:0:0:0:
64,192,174014,1,8,0:0:0:0:
336,192,174195,1,10,0:0:0:0:
416,192,174286,1,2,0:0:0:0:
240,80,174377,1,10,0:0:0:0:
320,80,174468,1,2,0:0:0:0:
144,192,174559,5,6,0:0:0:0:
256,192,183286,12,8,185468,0:0:0:0:
288,192,185650,5,0,0:0:0:0:
224,192,185741,1,0,0:0:0:0:
288,192,185832,2,0,P|320:144|288:112,1,110,8|0,0:0|0:0,0:0:0:0:
224,112,186104,1,0,0:0:0:0:
368,64,186195,6,0,L|256:64,1,110,14|0,0:0|0:0,0:0:0:0:
96,192,186559,2,0,L|208:192,1,110,8|0,0:0|0:0,0:0:0:0:
368,64,186923,2,0,P|392:112|368:160,1,110,8|0,0:0|0:0,0:0:0:0:
192,192,187195,2,0,L|478:192,1,285.99998690796,10|0,0:0|0:0,0:0:0:0:
478,192,187468,1,8,0:0:0:0:
224,64,187650,6,0,L|336:64,1,110,8|0,0:0|0:0,0:0:0:0:
176,192,188014,2,0,L|64:192,1,110,8|0,0:0|0:0,0:0:0:0:
224,64,188377,2,0,P|248:112|224:160,1,110,8|0,0:0|0:0,0:0:0:0:
16,192,188650,2,0,L|368:192,1,352,10|0,0:0|0:0,0:0:0:0:
368,192,188923,1,8,0:0:0:0:
112,64,189104,6,0,L|224:64,1,110,10|0,0:0|0:0,0:0:0:0:
112,112,189377,1,2,0:0:0:0:
48,144,189468,2,0,L|158:144,1,110,0|8,0:0|0:0,0:0:0:0:
400,64,189832,2,0,L|288:64,1,110,10|0,0:0|0:0,0:0:0:0:
400,112,190104,1,2,0:0:0:0:
464,144,190195,2,0,L|354:144,1,110,0|8,0:0|0:0,0:0:0:0:
96,192,190559,5,10,0:0:0:0:
256,192,190741,2,0,L|256:128,1,55,0|0,0:0|0:0,0:0:0:0:
176,128,190923,1,8,0:0:0:0:
336,192,191104,1,0,0:0:0:0:
384,192,191150,1,0,0:0:0:0:
408,240,191195,1,0,0:0:0:0:
384,288,191241,1,0,0:0:0:0:
336,288,191286,1,8,0:0:0:0:
176,192,191468,1,8,0:0:0:0:
256,192,191559,1,8,0:0:0:0:
176,192,191650,1,8,0:0:0:0:
336,192,191832,1,8,0:0:0:0:
64,80,192014,6,0,L|176:80,1,110,12|0,0:0|0:0,0:0:0:0:
336,80,192377,2,0,L|224:80,1,110,8|0,0:0|0:0,0:0:0:0:
64,80,192741,2,0,P|40:128|64:176,1,110,8|0,0:0|0:0,0:0:0:0:
240,192,193014,2,0,L|304:192,1,55,10|0,0:0|0:0,0:0:0:0:
128,80,193286,1,8,0:0:0:0:
208,80,193377,1,8,0:0:0:0:
384,192,193468,6,0,L|272:192,1,110,8|0,0:0|0:0,0:0:0:0:
114,192,193832,2,0,L|224:192,1,110,8|0,0:0|0:0,0:0:0:0:
144,192,194104,1,0,0:0:0:0:
223,96,194195,2,0,P|247:144|224:192,1,110,8|0,0:0|0:0,0:0:0:0:
48,64,194468,1,10,0:0:0:0:
128,64,194559,1,0,0:0:0:0:
176,128,194650,1,0,0:0:0:0:
128,192,194741,1,8,0:0:0:0:
48,192,194832,1,8,0:0:0:0:
224,192,194923,6,0,L|224:256,1,55,10|0,0:0|0:0,0:0:0:0:
160,272,195104,1,0,0:0:0:0:
336,192,195195,1,10,0:0:0:0:
400,217,195286,2,0,L|400:272,1,55,0|0,0:0|0:0,0:0:0:0:
224,336,195468,1,10,0:0:0:0:
160,336,195559,1,0,0:0:0:0:
336,192,195650,1,0,0:0:0:0:
336,112,195741,1,0,0:0:0:0:
144,192,195832,1,0,0:0:0:0:
64,192,195923,1,10,0:0:0:0:
256,192,196014,1,0,0:0:0:0:
336,192,196104,1,0,0:0:0:0:
144,112,196195,1,10,0:0:0:0:
224,112,196286,1,0,0:0:0:0:
448,192,196377,5,14,0:0:0:0:
144,192,196559,2,0,P|128:112|144:96,1,110,8|2,0:0|0:0,0:0:0:0:
224,96,196832,1,2,0:0:0:0:
48,64,196923,1,6,0:0:0:0:
112,64,197014,1,0,0:0:0:0:
288,192,197104,1,0,0:0:0:0:
224,192,197195,1,0,0:0:0:0:
48,192,197286,1,8,0:0:0:0:
128,192,197377,1,8,0:0:0:0:
48,192,197468,2,0,P|32:272|48:288,1,110,10|2,0:0|0:0,0:0:0:0:
384,192,197832,6,0,L|240:192,2,137.5,12|0|8,0:0|0:0|0:0,0:0:0:0:
208,192,198377,1,2,0:0:0:0:
480,192,198559,2,0,P|496:128|448:80,1,137.5,2|0,0:0|0:0,0:0:0:0:
304,80,198832,2,0,L|384:80,1,68.75,0|8,0:0|0:0,0:0:0:0:
96,80,199104,1,2,0:0:0:0:
272,192,199286,6,0,L|128:192,2,137.5,8|0|8,0:0|0:0|0:0,0:0:0:0:
96,192,199832,2,0,L|16:192,1,68.75,2|0,0:0|0:0,0:0:0:0:
208,80,200014,1,2,0:0:0:0:
32,80,200195,2,0,L|32:160,1,68.75,8|0,0:0|0:0,0:0:0:0:
208,192,200377,2,0,L|288:192,1,68.75,8|0,0:0|0:0,0:0:0:0:
91,80,200559,2,0,L|160:80,1,68.75,2|0,0:0|0:0,0:0:0:0:
336,192,200741,6,0,L|192:192,2,137.5,8|0|8,0:0|0:0|0:0,0:0:0:0:
160,192,201286,1,2,0:0:0:0:
432,192,201468,2,0,P|432:136|368:96,1,137.5,2|0,0:0|0:0,0:0:0:0:
128,96,201741,2,0,L|208:96,1,68.75,2|8,0:0|0:0,0:0:0:0:
480,96,202014,1,10,0:0:0:0:
304,96,202104,1,0,0:0:0:0:
128,192,202195,6,0,L|272:192,2,137.5,8|0|8,0:0|0:0|0:0,0:0:0:0:
304,192,202741,2,0,L|224:192,1,68.75,2|0,0:0|0:0,0:0:0:0:
384,112,202923,1,2,0:0:0:0:
240,112,203104,2,0,L|308:112,1,68.75,8|0,0:0|0:0,0:0:0:0:
160,48,203286,1,8,0:0:0:0:
304,48,203468,1,2,0:0:0:0:
32,192,203650,6,0,L|170:192,2,137.5,8|0|8,0:0|0:0|0:0,0:0:0:0:
192,192,204195,1,2,0:0:0:0:
480,192,204377,2,0,P|496:128|448:80,1,137.5,2|0,0:0|0:0,0:0:0:0:
304,80,204650,2,0,L|384:80,1,68.75,0|8,0:0|0:0,0:0:0:0:
96,80,204923,1,2,0:0:0:0:
272,192,205104,6,0,L|128:192,2,137.5,8|0|8,0:0|0:0|0:0,0:0:0:0:
100,192,205650,2,0,L|32:192,1,68.75,2|0,0:0|0:0,0:0:0:0:
208,80,205832,1,2,0:0:0:0:
32,80,206014,2,0,L|100:80,1,68.75,8|0,0:0|0:0,0:0:0:0:
272,80,206195,1,8,0:0:0:0:
100,80,206377,1,2,0:0:0:0:
368,192,206559,6,0,L|224:192,2,137.5,8|8|2,0:0|0:0|0:0,0:0:0:0:
192,192,207104,2,0,L|192:112,1,68.75,2|0,0:0|0:0,0:0:0:0:
368,128,207286,1,0,0:0:0:0:
200,128,207468,2,0,L|152:80,1,68.75,8|0,0:0|0:0,0:0:0:0:
328,80,207650,1,2,0:0:0:0:
160,192,207832,2,0,L|80:192,1,68.75,8|0,0:0|0:0,0:0:0:0:
272,112,208014,5,0,0:0:0:0:
352,112,208104,1,0,0:0:0:0:
272,112,208195,1,8,0:0:0:0:
192,112,208286,1,0,0:0:0:0:
368,112,208377,1,2,0:0:0:0:
448,112,208468,1,0,0:0:0:0:
448,192,208559,1,2,0:0:0:0:
368,192,208650,1,0,0:0:0:0:
192,192,208741,1,8,0:0:0:0:
112,192,208832,1,0,0:0:0:0:
192,112,208923,1,8,0:0:0:0:
112,112,209014,1,0,0:0:0:0:
288,64,209104,1,2,0:0:0:0:
208,64,209195,1,0,0:0:0:0:
384,112,209286,1,10,0:0:0:0:
304,112,209377,1,0,0:0:0:0:
128,192,209468,6,0,L|272:192,2,137.5,12|0|8,0:0|0:0|0:0,0:0:0:0:
304,192,210014,1,2,0:0:0:0:
32,192,210195,2,0,P|16:128|64:80,1,137.5,2|0,0:0|0:0,0:0:0:0:
208,80,210468,2,0,L|128:80,1,68.75,0|8,0:0|0:0,0:0:0:0:
416,80,210741,1,2,0:0:0:0:
240,192,210923,6,0,L|384:192,2,137.5,8|0|8,0:0|0:0|0:0,0:0:0:0:
416,192,211468,2,0,L|496:192,1,68.75,2|0,0:0|0:0,0:0:0:0:
304,80,211650,1,2,0:0:0:0:
480,80,211832,2,0,L|480:160,1,68.75,8|0,0:0|0:0,0:0:0:0:
304,192,212014,2,0,L|224:192,1,68.75,8|0,0:0|0:0,0:0:0:0:
421,80,212195,2,0,L|352:80,1,68.75,2|0,0:0|0:0,0:0:0:0:
176,192,212377,6,0,L|320:192,2,137.5,8|0|8,0:0|0:0|0:0,0:0:0:0:
352,192,212923,1,2,0:0:0:0:
80,192,213104,2,0,P|80:136|144:96,1,137.5,2|0,0:0|0:0,0:0:0:0:
384,96,213377,2,0,L|304:96,1,68.75,2|8,0:0|0:0,0:0:0:0:
32,96,213650,1,10,0:0:0:0:
208,96,213741,1,0,0:0:0:0:
384,192,213832,6,0,L|240:192,2,137.5,8|0|8,0:0|0:0|0:0,0:0:0:0:
208,192,214377,2,0,L|288:192,1,68.75,2|0,0:0|0:0,0:0:0:0:
112,112,214559,2,0,L|112:192,1,68.75,2|0,0:0|0:0,0:0:0:0:
272,112,214741,2,0,L|204:112,1,68.75,8|0,0:0|0:0,0:0:0:0:
384,48,214923,1,8,0:0:0:0:
208,48,215104,1,2,0:0:0:0:
480,192,215286,6,0,L|342:192,2,137.5,8|0|8,0:0|0:0|0:0,0:0:0:0:
320,192,215832,1,2,0:0:0:0:
32,192,216014,2,0,P|16:128|64:80,1,137.5,2|0,0:0|0:0,0:0:0:0:
208,80,216286,2,0,L|128:80,1,68.75,0|8,0:0|0:0,0:0:0:0:
416,80,216559,1,2,0:0:0:0:
240,192,216741,5,8,0:0:0:0:
160,192,216832,1,0,0:0:0:0:
160,112,216923,1,0,0:0:0:0:
240,112,217014,1,0,0:0:0:0:
416,112,217104,2,0,L|416:192,1,68.75,8|0,0:0|0:0,0:0:0:0:
240,192,217286,2,0,L|320:192,1,68.75,2|0,0:0|0:0,0:0:0:0:
128,80,217468,2,0,L|128:160,1,68.75,2|0,0:0|0:0,0:0:0:0:
308,80,217650,2,0,L|384:80,1,68.75,8|0,0:0|0:0,0:0:0:0:
208,80,217832,1,8,0:0:0:0:
376,80,218014,1,2,0:0:0:0:
112,192,218195,5,8,0:0:0:0:
288,192,218377,1,0,0:0:0:0:
16,192,218559,1,4,0:0:0:0:
336,48,218741,2,0,P|352:80|336:176,1,137.5,10|0,0:0|0:0,0:0:0:0:
160,192,219104,1,8,0:0:0:0:
432,192,219286,1,2,0:0:0:0:
80,192,219468,1,2,0:0:0:0:
432,192,219650,6,0,L|256:192,1,176,4|10,0:0|0:0,0:0:0:0:
80,192,219923,2,0,L|256:192,1,176,0|10,0:0|0:0,0:0:0:0:
432,192,220195,2,0,L|256:192,2,176,0|10|0,0:0|0:0|0:0,0:0:0:0:
80,192,220741,1,8,0:0:0:0:
256,192,220832,1,0,0:0:0:0:
80,192,220923,1,8,0:0:0:0:
432,192,221104,5,14,0:0:0:0:
