osu file format v14

[General]
AudioFilename: audio.mp3
AudioLeadIn: 0
PreviewTime: 81532
Countdown: 0
SampleSet: Soft
StackLeniency: 0.7
Mode: 2
LetterboxInBreaks: 0
WidescreenStoryboard: 1

[Editor]
Bookmarks: 23441,35078,58350,81623,104896,116532,139805,163078,186350,209623,221259,232896
DistanceSpacing: 1.6
BeatDivisor: 4
GridSize: 4
TimelineZoom: 2.1

[Metadata]
Title:Bloody Night
TitleUnicode:Bloody Night
Artist:A-One feat. Shihori
ArtistUnicode:A-One feat. Shihori
Creator:ZiRoX
Version:Salad
Source:東方妖々夢 ~ Perfect Cherry Blossom.
Tags:Deif GIGACHAD Dako Featured Artist FA Mappers' Guild MG 東方Project Touhou Youyoumu Team Shanghai Alice ZUN TOHO EUROBEAT VOL. 4 アリス・マーガトロイド Alice Margatroid ブクレシュティの人形師 The Doll Maker of Bucuresti Video Game English
BeatmapID:3159752
BeatmapSetID:1543564

[Difficulty]
HPDrainRate:4
CircleSize:3
OverallDifficulty:7
ApproachRate:7
SliderMultiplier:1.5
SliderTickRate:1

[Events]
//Background and Video events
0,0,"bg_bloodynight.png",0,0
//Break Periods
2,105096,115450
//Storyboard Layer 0 (Background)
//Storyboard Layer 1 (Fail)
//Storyboard Layer 2 (Pass)
//Storyboard Layer 3 (Foreground)
//Storyboard Layer 4 (Overlay)
//Storyboard Sound Samples

[TimingPoints]
169,363.636363636364,4,2,1,85,1,0
11805,-100,4,1,1,75,0,0
12169,-100,4,2,1,90,0,0
12350,-100,4,1,1,75,0,0
12532,-100,4,2,1,90,0,0
12896,-100,4,1,1,65,0,0
13259,-100,4,1,1,75,0,0
13532,-100,4,2,1,90,0,0
13805,-100,4,1,1,75,0,0
13987,-100,4,2,1,90,0,0
14350,-100,4,1,1,65,0,0
14714,-100,4,1,1,75,0,0
15078,-100,4,2,1,90,0,0
15259,-100,4,1,1,75,0,0
15441,-100,4,2,1,90,0,0
15805,-100,4,1,1,65,0,0
16169,-100,4,1,1,75,0,0
16441,-100,4,2,1,90,0,0
16714,-100,4,1,1,75,0,0
16896,-100,4,2,1,90,0,0
17259,-100,4,1,1,65,0,0
17623,-100,4,1,1,75,0,0
17805,-100,4,2,1,90,0,0
17987,-100,4,1,1,65,0,0
18169,-100,4,2,1,90,0,0
18714,-100,4,1,1,65,0,0
18805,-100,4,2,1,90,0,0
19441,-100,4,1,1,65,0,0
19623,-100,4,2,1,90,0,0
20169,-100,4,1,1,65,0,0
20259,-100,4,2,1,90,0,0
20896,-100,4,1,1,65,0,0
21078,-100,4,2,1,90,0,0
21259,-100,4,1,1,65,0,0
21350,-100,4,2,1,90,0,0
21623,-100,4,1,1,65,0,0
21714,-100,4,2,1,90,0,0
23441,-100,4,1,1,85,0,0
23532,-100,4,2,1,90,0,0
26350,-100,4,1,1,85,0,0
27714,-100,4,2,1,90,0,0
27805,-100,4,1,1,75,0,0
27896,-100,4,2,1,90,0,0
28169,-100,4,2,1,90,0,0
29259,-100,4,1,1,85,0,0
29350,-100,4,2,1,90,0,0
32169,-100,4,1,1,85,0,0
33532,-100,4,2,1,90,0,0
33623,-100,4,1,1,85,0,0
33714,-100,4,2,1,90,0,0
35441,-100,4,1,1,65,0,0
35623,-100,4,2,1,90,0,0
36169,-100,4,1,1,65,0,0
36350,-100,4,2,1,90,0,0
36896,-100,4,1,1,65,0,0
37078,-100,4,2,1,90,0,0
37623,-100,4,1,1,65,0,0
37805,-100,4,2,1,90,0,0
38350,-100,4,1,1,65,0,0
38532,-100,4,2,1,90,0,0
39078,-100,4,1,1,65,0,0
39259,-100,4,2,1,90,0,0
39805,-100,4,1,1,65,0,0
39987,-100,4,2,1,90,0,0
40532,-100,4,1,1,65,0,0
40714,-100,4,2,1,90,0,0
41259,-100,4,1,1,65,0,0
41441,-100,4,2,1,90,0,0
41987,-100,4,1,1,65,0,0
42169,-100,4,2,1,90,0,0
42714,-100,4,1,1,65,0,0
42896,-100,4,2,1,90,0,0
43441,-100,4,1,1,65,0,0
43623,-100,4,2,1,90,0,0
44350,-100,4,2,1,85,0,0
46532,-100,4,2,1,90,0,0
47078,-100,4,1,1,65,0,0
47259,-100,4,2,1,90,0,0
48532,-100,4,1,1,65,0,0
48714,-100,4,2,1,90,0,0
49259,-100,4,1,1,65,0,0
49441,-100,4,2,1,90,0,0
49987,-100,4,1,1,65,0,0
50169,-100,4,2,1,90,0,0
51441,-100,4,1,1,65,0,0
51623,-100,4,2,1,90,0,0
52169,-100,4,1,1,65,0,0
52350,-100,4,2,1,90,0,0
52896,-100,4,1,1,65,0,0
53078,-100,4,2,1,90,0,0
58714,-100,4,1,1,75,0,0
58805,-100,4,2,1,90,0,0
59441,-100,4,1,1,75,0,0
59502,-100,4,2,1,90,0,0
60169,-100,4,1,1,75,0,0
60259,-100,4,2,1,90,0,0
60896,-100,4,1,1,75,0,0
61078,-100,4,2,1,90,0,0
61623,-100,4,1,1,75,0,0
61805,-100,4,2,1,90,0,0
62350,-100,4,1,1,75,0,0
62532,-100,4,2,1,90,0,0
63078,-100,4,1,1,75,0,0
63441,-100,4,2,1,90,0,0
63623,-100,4,1,1,75,0,0
64169,-100,4,2,1,90,0,0
64532,-100,4,1,1,75,0,0
64623,-100,4,2,1,90,0,0
65259,-100,4,1,1,75,0,0
65350,-100,4,2,1,90,0,0
65987,-100,4,1,1,75,0,0
66169,-100,4,2,1,90,0,0
66714,-100,4,1,1,75,0,0
66896,-100,4,2,1,90,0,0
70351,-100,4,1,1,75,0,0
70442,-100,4,2,1,90,0,0
71078,-100,4,1,1,75,0,0
71139,-100,4,2,1,90,0,0
71806,-100,4,1,1,75,0,0
71896,-100,4,2,1,90,0,0
72533,-100,4,1,1,75,0,0
72715,-100,4,2,1,90,0,0
73260,-100,4,1,1,75,0,0
73442,-100,4,2,1,90,0,0
73987,-100,4,1,1,75,0,0
74169,-100,4,2,1,90,0,0
74715,-100,4,1,1,75,0,0
75078,-100,4,2,1,90,0,0
75260,-100,4,1,1,75,0,0
75805,-100,4,2,1,90,0,0
76169,-100,4,1,1,75,0,0
76350,-100,4,2,1,90,0,0
76896,-100,4,1,1,75,0,0
77259,-100,4,2,1,90,0,0
77623,-100,4,1,1,75,0,0
77805,-100,4,2,1,90,0,0
78350,-100,4,1,1,75,0,0
78532,-100,4,2,1,90,0,0
80896,-100,4,2,1,80,0,0
81623,-100,4,2,1,100,0,1
81987,-100,4,1,1,80,0,1
82169,-100,4,2,1,100,0,1
82714,-100,4,1,1,80,0,1
83078,-100,4,2,1,100,0,1
83441,-100,4,1,1,80,0,1
83532,-100,4,2,1,100,0,1
84169,-100,4,1,1,80,0,1
84214,-100,4,2,1,100,0,1
84896,-100,4,1,1,80,0,1
84941,-100,4,2,1,100,0,1
85623,-100,4,1,1,80,0,1
85668,-100,4,2,1,100,0,1
86350,-100,4,1,1,80,0,1
86396,-100,4,2,1,100,0,1
87078,-100,4,1,1,80,0,1
87123,-100,4,2,1,100,0,1
87805,-100,4,1,1,80,0,1
87896,-100,4,2,1,100,0,1
88532,-100,4,1,1,80,0,1
88623,-100,4,2,1,100,0,1
89987,-100,4,1,1,80,0,1
90169,-100,4,2,1,100,0,1
90714,-100,4,1,1,80,0,1
90759,-100,4,2,1,100,0,1
91442,-100,4,1,1,80,0,1
91487,-100,4,2,1,100,0,1
92169,-100,4,1,1,80,0,1
92259,-100,4,2,1,100,0,1
92896,-100,4,1,1,80,0,1
92941,-100,4,2,1,100,0,1
93623,-100,4,1,1,80,0,1
93805,-100,4,2,1,100,0,1
94350,-100,4,1,1,80,0,1
94714,-100,4,2,1,100,0,1
95077,-100,4,1,1,80,0,1
95168,-100,4,2,1,100,0,1
95805,-100,4,1,1,80,0,1
95850,-100,4,2,1,100,0,1
96532,-100,4,1,1,80,0,1
96577,-100,4,2,1,100,0,1
97259,-100,4,1,1,80,0,1
97304,-100,4,2,1,100,0,1
97986,-100,4,1,1,80,0,1
98032,-100,4,2,1,100,0,1
98714,-100,4,1,1,80,0,1
98759,-100,4,2,1,100,0,1
99441,-100,4,1,1,80,0,1
99532,-100,4,2,1,100,0,1
100168,-100,4,1,1,80,0,1
100259,-100,4,2,1,100,0,1
101623,-100,4,1,1,80,0,1
101805,-100,4,2,1,100,0,1
102350,-100,4,1,1,80,0,1
102395,-100,4,2,1,100,0,1
103078,-100,4,1,1,80,0,1
103123,-100,4,2,1,100,0,1
103805,-100,4,1,1,80,0,1
103895,-100,4,2,1,100,0,1
104532,-100,4,1,1,80,0,1
104896,-100,4,1,1,75,0,0
104987,-100,4,2,1,90,0,0
107805,-100,4,1,1,50,0,0
109169,-100,4,2,1,90,0,0
109260,-100,4,1,1,75,0,0
109351,-100,4,2,1,90,0,0
110714,-100,4,1,1,75,0,0
110805,-100,4,2,1,90,0,0
113624,-100,4,1,1,50,0,0
114987,-100,4,2,1,90,0,0
115078,-100,4,1,1,75,0,0
115169,-100,4,2,1,90,0,0
116895,-100,4,1,1,65,0,0
117077,-100,4,2,1,90,0,0
117623,-100,4,1,1,65,0,0
117804,-100,4,2,1,90,0,0
118350,-100,4,1,1,65,0,0
118532,-100,4,2,1,90,0,0
119077,-100,4,1,1,65,0,0
119259,-100,4,2,1,90,0,0
119804,-100,4,1,1,65,0,0
119986,-100,4,2,1,90,0,0
120532,-100,4,1,1,65,0,0
120713,-100,4,2,1,90,0,0
121259,-100,4,1,1,65,0,0
121441,-100,4,2,1,90,0,0
121986,-100,4,1,1,65,0,0
122168,-100,4,2,1,90,0,0
122713,-100,4,1,1,65,0,0
122895,-100,4,2,1,90,0,0
123441,-100,4,1,1,65,0,0
123623,-100,4,2,1,90,0,0
124168,-100,4,1,1,65,0,0
124350,-100,4,2,1,90,0,0
124895,-100,4,1,1,65,0,0
125077,-100,4,2,1,90,0,0
125804,-100,4,2,1,65,0,0
127986,-100,4,2,1,90,0,0
128532,-100,4,1,1,65,0,0
128713,-100,4,2,1,90,0,0
129986,-100,4,1,1,65,0,0
130168,-100,4,2,1,90,0,0
130713,-100,4,1,1,65,0,0
130895,-100,4,2,1,90,0,0
131441,-100,4,1,1,65,0,0
131623,-100,4,2,1,90,0,0
132895,-100,4,1,1,65,0,0
133077,-100,4,2,1,90,0,0
133623,-100,4,1,1,65,0,0
133804,-100,4,2,1,90,0,0
134350,-100,4,1,1,65,0,0
134532,-100,4,2,1,90,0,0
139896,-100,4,1,1,75,0,0
139987,-100,4,2,1,90,0,0
140169,-100,4,1,1,75,0,0
140260,-100,4,2,1,90,0,0
140896,-100,4,1,1,75,0,0
140957,-100,4,2,1,90,0,0
141624,-100,4,1,1,75,0,0
141714,-100,4,2,1,90,0,0
142351,-100,4,1,1,75,0,0
142533,-100,4,2,1,90,0,0
142805,-100,4,1,1,75,0,0
143260,-100,4,2,1,90,0,0
143805,-100,4,1,1,75,0,0
143987,-100,4,2,1,90,0,0
144260,-100,4,1,1,75,0,0
144351,-100,4,2,1,90,0,0
144533,-100,4,1,1,75,0,0
144896,-100,4,2,1,90,0,0
145078,-100,4,1,1,75,0,0
145351,-100,4,2,1,90,0,0
145714,-100,4,1,1,75,0,0
145805,-100,4,2,1,90,0,0
145987,-100,4,1,1,75,0,0
146078,-100,4,2,1,90,0,0
146714,-100,4,1,1,75,0,0
146805,-100,4,2,1,90,0,0
147442,-100,4,1,1,75,0,0
147624,-100,4,2,1,90,0,0
148169,-100,4,1,1,75,0,0
148351,-100,4,2,1,90,0,0
148624,-100,4,1,1,75,0,0
149987,-100,4,2,1,90,0,0
150078,-100,4,1,1,75,0,0
150169,-100,4,2,1,90,0,0
151806,-100,4,1,1,75,0,0
151897,-100,4,2,1,90,0,0
152533,-100,4,1,1,75,0,0
152594,-100,4,2,1,90,0,0
153261,-100,4,1,1,75,0,0
153351,-100,4,2,1,90,0,0
153988,-100,4,1,1,75,0,0
154170,-100,4,2,1,90,0,0
154715,-100,4,1,1,75,0,0
154897,-100,4,2,1,90,0,0
155442,-100,4,1,1,75,0,0
155624,-100,4,2,1,90,0,0
156170,-100,4,1,1,75,0,0
156533,-100,4,2,1,90,0,0
156715,-100,4,1,1,75,0,0
157260,-100,4,2,1,90,0,0
157624,-100,4,1,1,75,0,0
157805,-100,4,2,1,90,0,0
158351,-100,4,1,1,75,0,0
158714,-100,4,2,1,90,0,0
159078,-100,4,1,1,75,0,0
159260,-100,4,2,1,90,0,0
159805,-100,4,1,1,75,0,0
159987,-100,4,2,1,90,0,0
162351,-100,4,2,1,80,0,0
163078,-100,4,2,1,100,0,1
163442,-100,4,1,1,80,0,1
163624,-100,4,2,1,100,0,1
164169,-100,4,1,1,80,0,1
164533,-100,4,2,1,100,0,1
164896,-100,4,1,1,80,0,1
164987,-100,4,2,1,100,0,1
165624,-100,4,1,1,80,0,1
165669,-100,4,2,1,100,0,1
166351,-100,4,1,1,80,0,1
166396,-100,4,2,1,100,0,1
167078,-100,4,1,1,80,0,1
167123,-100,4,2,1,100,0,1
167805,-100,4,1,1,80,0,1
167851,-100,4,2,1,100,0,1
168533,-100,4,1,1,80,0,1
168578,-100,4,2,1,100,0,1
169260,-100,4,1,1,80,0,1
169351,-100,4,2,1,100,0,1
169987,-100,4,1,1,80,0,1
170078,-100,4,2,1,100,0,1
171442,-100,4,1,1,80,0,1
171624,-100,4,2,1,100,0,1
172169,-100,4,1,1,80,0,1
172214,-100,4,2,1,100,0,1
172897,-100,4,1,1,80,0,1
172942,-100,4,2,1,100,0,1
173624,-100,4,1,1,80,0,1
173714,-100,4,2,1,100,0,1
174351,-100,4,1,1,80,0,1
174396,-100,4,2,1,100,0,1
175078,-100,4,1,1,80,0,1
175260,-100,4,2,1,100,0,1
175805,-100,4,1,1,80,0,1
176169,-100,4,2,1,100,0,1
176532,-100,4,1,1,80,0,1
176623,-100,4,2,1,100,0,1
177260,-100,4,1,1,80,0,1
177305,-100,4,2,1,100,0,1
177987,-100,4,1,1,80,0,1
178032,-100,4,2,1,100,0,1
178714,-100,4,1,1,80,0,1
178759,-100,4,2,1,100,0,1
179441,-100,4,1,1,80,0,1
179487,-100,4,2,1,100,0,1
180169,-100,4,1,1,80,0,1
180214,-100,4,2,1,100,0,1
180896,-100,4,1,1,80,0,1
180987,-100,4,2,1,100,0,1
181623,-100,4,1,1,80,0,1
181714,-100,4,2,1,100,0,1
183078,-100,4,1,1,80,0,1
183260,-100,4,2,1,100,0,1
183805,-100,4,1,1,80,0,1
183850,-100,4,2,1,100,0,1
184533,-100,4,1,1,80,0,1
184578,-100,4,2,1,100,0,1
185260,-100,4,1,1,80,0,1
185350,-100,4,2,1,100,0,1
185987,-100,4,1,1,80,0,1
186350,-100,4,2,1,90,0,0
186714,-100,4,1,1,75,0,0
186896,-100,4,2,1,90,0,0
187441,-100,4,1,1,75,0,0
187623,-100,4,2,1,90,0,0
188169,-100,4,1,1,75,0,0
188259,-100,4,2,1,90,0,0
188896,-100,4,1,1,75,0,0
188986,-100,4,2,1,90,0,0
189623,-100,4,1,1,75,0,0
189669,-100,4,2,1,90,0,0
190350,-100,4,1,1,75,0,0
190396,-100,4,2,1,90,0,0
191078,-100,4,1,1,75,0,0
191169,-100,4,2,1,90,0,0
191805,-100,4,1,1,75,0,0
191851,-100,4,2,1,90,0,0
192532,-100,4,1,1,75,0,0
192623,-100,4,2,1,90,0,0
193259,-100,4,1,1,75,0,0
193350,-100,4,2,1,90,0,0
193987,-100,4,1,1,75,0,0
194078,-100,4,2,1,90,0,0
194714,-100,4,1,1,75,0,0
194805,-100,4,2,1,75,0,0
195441,-100,4,1,1,75,0,0
195487,-100,4,2,1,90,0,0
196169,-100,4,1,1,75,0,0
196215,-100,4,2,1,90,0,0
196896,-100,4,1,1,75,0,0
196987,-100,4,2,1,90,0,0
197623,-100,4,1,1,75,0,0
197669,-100,4,2,1,90,0,0
198350,-100,4,1,1,75,0,0
198441,-100,4,2,1,90,0,0
199078,-100,4,1,1,75,0,0
199259,-100,4,2,1,90,0,0
199805,-100,4,1,1,75,0,0
199896,-100,4,2,1,90,0,0
200532,-100,4,1,1,75,0,0
200623,-100,4,2,1,90,0,0
201259,-100,4,1,1,75,0,0
201305,-100,4,2,1,90,0,0
201987,-100,4,1,1,75,0,0
202033,-100,4,2,1,90,0,0
202714,-100,4,1,1,75,0,0
202805,-100,4,2,1,90,0,0
203441,-100,4,1,1,75,0,0
203487,-100,4,2,1,90,0,0
204169,-100,4,1,1,75,0,0
204259,-100,4,2,1,90,0,0
204896,-100,4,1,1,75,0,0
204986,-100,4,2,1,90,0,0
205623,-100,4,1,1,75,0,0
205713,-100,4,2,1,90,0,0
206350,-100,4,1,1,75,0,0
206532,-100,4,2,1,90,0,0
207078,-100,4,1,1,75,0,0
207123,-100,4,2,1,90,0,0
207805,-100,4,1,1,75,0,0
207850,-100,4,2,1,90,0,0
209623,-100,4,2,1,70,0,0
214714,-100,4,2,1,90,0,0
215441,-100,4,2,1,70,0,0
220896,-100,4,2,1,100,0,0
221259,-100,4,2,1,100,0,1
221623,-100,4,1,1,80,0,1
221805,-100,4,2,1,100,0,1
222350,-100,4,1,1,80,0,1
222714,-100,4,2,1,100,0,1
223077,-100,4,1,1,80,0,1
223168,-100,4,2,1,100,0,1
223805,-100,4,1,1,80,0,1
223850,-100,4,2,1,100,0,1
224532,-100,4,1,1,80,0,1
224577,-100,4,2,1,100,0,1
225259,-100,4,1,1,80,0,1
225304,-100,4,2,1,100,0,1
225986,-100,4,1,1,80,0,1
226032,-100,4,2,1,100,0,1
226714,-100,4,1,1,80,0,1
226759,-100,4,2,1,100,0,1
227441,-100,4,1,1,80,0,1
227532,-100,4,2,1,100,0,1
228168,-100,4,1,1,80,0,1
228259,-100,4,2,1,100,0,1
229623,-100,4,1,1,80,0,1
229805,-100,4,2,1,100,0,1
230350,-100,4,1,1,80,0,1
230395,-100,4,2,1,100,0,1
231078,-100,4,1,1,80,0,1
231123,-100,4,2,1,100,0,1
231805,-100,4,1,1,80,0,1
231895,-100,4,2,1,100,0,1
232532,-100,4,1,1,80,0,1
232896,-100,4,1,1,75,0,0
232987,-100,4,2,1,90,0,0
235805,-100,4,1,1,65,0,0
237169,-100,4,2,1,90,0,0
237260,-100,4,1,1,75,0,0
237351,-100,4,2,1,90,0,0
238714,-100,4,1,1,75,0,0
238805,-100,4,2,1,90,0,0
241624,-100,4,1,1,50,0,0
242987,-100,4,2,1,90,0,0
243078,-100,4,1,1,75,0,0
243169,-100,4,2,1,90,0,0

[Colours]
Combo1 : 0,118,174
Combo2 : 163,93,145
Combo3 : 227,45,122
Combo4 : 128,128,255

[HitObjects]
196,232,169,6,0,L|108:232,2,75,6|0|0,0:0|0:0|0:0,0:0:0:0:
344,232,896,2,0,L|344:136,1,75,0|0,0:0|0:0,0:0:0:0:
276,156,1259,1,0,0:0:0:0:
208,156,1441,1,2,0:0:0:0:
340,152,1805,6,0,L|432:152,1,75,0|0,0:0|0:0,0:0:0:0:
484,152,2169,2,0,L|484:252,1,75,0|0,0:0|0:0,0:0:0:0:
416,232,2532,2,0,L|328:232,1,75,0|0,0:0|0:0,0:0:0:0:
272,236,2896,1,2,0:0:0:0:
124,240,3259,6,0,L|124:140,1,75,0|0,0:0|0:0,0:0:0:0:
184,168,3623,2,0,L|284:168,1,75,0|0,0:0|0:0,0:0:0:0:
328,164,3987,2,0,L|328:68,1,75,0|0,0:0|0:0,0:0:0:0:
256,92,4350,1,2,0:0:0:0:
112,88,4714,6,0,L|32:88,1,75,0|0,0:0|0:0,0:0:0:0:
108,168,5078,2,0,L|208:168,1,75,0|0,0:0|0:0,0:0:0:0:
256,168,5441,2,0,L|332:168,1,75,0|0,0:0|0:0,0:0:0:0:
332,252,5805,1,2,0:0:0:0:
196,196,6169,6,0,L|196:288,1,75,0|0,0:0|0:0,0:0:0:0:
268,276,6532,2,0,L|352:276,1,75,0|0,0:0|0:0,0:0:0:0:
416,276,6896,2,0,L|416:180,1,75,0|0,0:0|0:0,0:0:0:0:
416,124,7259,1,2,0:0:0:0:
272,124,7623,6,0,L|272:216,1,75,0|0,0:0|0:0,0:0:0:0:
276,260,7987,2,0,L|360:260,1,75,0|0,0:0|0:0,0:0:0:0:
424,328,8350,2,0,L|344:328,1,75,0|0,0:0|0:0,0:0:0:0:
276,328,8714,1,2,0:0:0:0:
128,320,9078,6,0,L|128:240,1,75,0|0,0:0|0:0,0:0:0:0:
200,240,9441,2,0,L|284:240,1,75,0|0,0:0|0:0,0:0:0:0:
348,236,9805,2,0,L|348:136,1,75,0|0,0:0|0:0,0:0:0:0:
276,152,10169,1,2,0:0:0:0:
124,152,10532,6,0,L|124:252,1,75
204,224,10896,2,0,L|280:224,1,75,0|0,0:0|0:0,0:0:0:0:
204,224,11259,2,0,L|124:224,1,75,0|0,0:0|0:0,0:0:0:0:
380,80,11805,5,4,0:0:0:0:
380,80,11987,1,8,0:0:0:0:
380,184,12350,2,0,L|136:184,1,225,8|8,0:0|0:0,0:0:0:0:
156,80,13259,5,4,0:0:0:0:
156,80,13441,1,8,0:0:0:0:
156,184,13805,2,0,L|400:184,1,225,8|8,0:0|0:0,0:0:0:0:
260,80,14714,5,4,0:0:0:0:
260,80,14896,1,8,0:0:0:0:
380,184,15259,2,0,L|136:184,1,225,8|8,0:0|0:0,0:0:0:0:
276,80,16169,5,4,0:0:0:0:
276,80,16350,1,8,0:0:0:0:
140,184,16714,2,0,L|384:184,1,225,8|8,0:0|0:0,0:0:0:0:
124,184,17623,5,4,0:0:0:0:
124,184,17987,1,8,0:0:0:0:
124,184,18350,1,0,0:0:0:0:
124,184,18714,1,8,0:0:0:0:
304,180,19078,5,4,0:0:0:0:
304,180,19441,1,8,0:0:0:0:
304,180,19805,1,2,0:0:0:0:
304,180,20169,1,8,0:0:0:0:
48,112,20532,6,0,L|48:212,1,75,4|0,0:0|0:0,0:0:0:0:
136,192,20896,2,0,L|136:291,1,75,8|0,0:0|0:0,0:0:0:0:
224,112,21259,2,0,L|224:211,1,75,8|0,0:0|0:0,0:0:0:0:
312,192,21623,2,0,L|312:291,1,75,8|0,0:0|0:0,0:0:0:0:
208,104,21987,5,4,0:0:0:0:
156,192,22169,1,0,0:0:0:0:
204,276,22350,1,2,0:0:0:0:
288,316,22532,1,2,0:0:0:0:
380,296,22714,5,2,0:0:0:0:
411,253,22805,1,0,0:0:0:0:
424,209,22896,1,2,0:0:0:0:
419,144,22987,1,0,0:0:0:0:
397,115,23078,1,6,0:0:0:0:
160,204,23441,6,0,L|160:112,1,75,4|0,0:0|0:0,0:0:0:0:
236,128,23805,2,0,L|352:128,1,112.5,2|2,0:0|0:0,0:0:0:0:
464,196,24350,2,0,L|348:196,1,112.5,2|0,0:0|0:0,0:0:0:0:
232,196,24896,1,8,0:0:0:0:
148,132,25078,5,2,0:0:0:0:
148,132,25259,1,2,0:0:0:0:
300,52,25623,1,8,0:0:0:0:
300,52,25805,1,2,0:0:0:0:
144,116,26259,6,0,L|144:222,1,75,2|0,0:0|0:0,0:0:0:0:
184,192,26532,2,0,L|280:192,1,75,0|0,0:0|0:0,0:0:0:0:
340,192,26896,1,0,0:0:0:0:
420,88,27078,2,0,L|316:88,1,75,0|0,0:0|0:0,0:0:0:0:
272,84,27441,1,0,0:0:0:0:
80,184,27714,6,0,L|80:296,1,112.5,2|0,0:0|0:0,0:0:0:0:
156,296,28169,2,0,L|252:296,1,75,6|0,0:0|0:0,0:0:0:0:
312,188,28532,2,0,L|216:188,1,75,6|0,0:0|0:0,0:0:0:0:
168,280,28896,2,0,P|166:233|168:180,1,75,6|0,0:0|0:0,0:0:0:0:
348,216,29259,6,0,L|348:116,1,75,4|0,0:0|0:0,0:0:0:0:
260,224,29623,2,0,L|260:336,1,112.5,2|2,0:0|0:0,0:0:0:0:
368,336,30169,2,0,L|496:336,1,112.5,2|0,0:0|0:0,0:0:0:0:
368,176,30714,1,8,0:0:0:0:
280,176,30896,5,2,0:0:0:0:
280,176,31078,1,2,0:0:0:0:
136,176,31441,1,8,0:0:0:0:
136,176,31623,1,2,0:0:0:0:
328,164,32078,6,0,L|328:270,1,75,2|0,0:0|0:0,0:0:0:0:
284,240,32350,2,0,L|188:240,1,75,0|0,0:0|0:0,0:0:0:0:
128,240,32714,1,0,0:0:0:0:
48,136,32896,2,0,L|152:136,1,75,0|0,0:0|0:0,0:0:0:0:
200,132,33259,1,0,0:0:0:0:
408,180,33532,6,0,L|264:180,1,112.5,2|0,0:0|0:0,0:0:0:0:
212,184,33987,2,0,L|212:104,1,75,8|8,0:0|0:0,0:0:0:0:
360,112,34532,2,0,L|360:216,1,75,8|0,0:0|0:0,0:0:0:0:
176,136,34896,6,0,P|133:199|176:260,1,150,2|0,0:0|0:0,0:0:0:0:
248,264,35441,1,8,0:0:0:0:
328,264,35623,2,0,P|364:200|316:128,1,150,0|0,0:0|0:0,0:0:0:0:
80,216,36350,6,0,L|240:216,1,150,2|2,0:0|0:0,0:0:0:0:
308,216,36896,2,0,L|388:216,1,75,8|0,0:0|0:0,0:0:0:0:
308,116,37259,2,0,L|228:116,1,75,2|0,0:0|0:0,0:0:0:0:
156,116,37623,1,8,0:0:0:0:
68,220,37805,6,0,L|228:220,1,150,2|0,0:0|0:0,0:0:0:0:
300,216,38350,1,8,0:0:0:0:
380,216,38532,2,0,P|416:280|376:368,1,150,0|0,0:0|0:0,0:0:0:0:
120,312,39259,6,0,L|120:160,1,150,2|0,0:0|0:0,0:0:0:0:
200,160,39805,2,0,L|284:160,1,75,8|0,0:0|0:0,0:0:0:0:
364,160,40169,2,0,L|364:72,1,75,2|0,0:0|0:0,0:0:0:0:
284,68,40532,1,8,0:0:0:0:
376,72,40714,6,0,P|408:124|380:232,1,150,2|0,0:0|0:0,0:0:0:0:
308,240,41259,1,8,0:0:0:0:
224,240,41441,2,0,P|188:304|228:392,1,150,0|0,0:0|0:0,0:0:0:0:
468,312,42169,6,0,L|468:160,1,150,2|0,0:0|0:0,0:0:0:0:
388,160,42714,2,0,L|304:160,1,75,8|0,0:0|0:0,0:0:0:0:
224,160,43078,2,0,L|224:72,1,75,2|0,0:0|0:0,0:0:0:0:
296,64,43441,1,8,0:0:0:0:
224,60,43623,6,0,P|208:116|232:220,1,150
480,308,44350,2,0,L|480:152,1,150,4|4,0:0|0:0,0:0:0:0:
328,232,45078,2,0,L|480:232,1,150,4|4,0:0|0:0,0:0:0:0:
328,312,45805,2,0,L|480:312,1,150,4|2,0:0|0:0,0:0:0:0:
192,164,46532,6,0,L|352:164,1,150,2|0,0:0|0:0,0:0:0:0:
264,164,47078,1,8,0:0:0:0:
188,164,47259,2,0,P|144:224|156:312,1,150,2|0,0:0|0:0,0:0:0:0:
396,300,47987,6,0,P|384:212|340:172,1,150,2|0,0:0|0:0,0:0:0:0:
260,160,48532,2,0,L|260:56,1,75,8|0,0:0|0:0,0:0:0:0:
344,104,48896,2,0,L|344:16,1,75,2|0,0:0|0:0,0:0:0:0:
260,28,49259,1,8,0:0:0:0:
176,40,49441,6,0,P|144:92|164:196,1,150,2|0,0:0|0:0,0:0:0:0:
236,184,49987,1,8,0:0:0:0:
320,192,50169,2,0,P|356:256|316:344,1,150,2|0,0:0|0:0,0:0:0:0:
76,316,50896,6,0,L|76:152,1,150,2|0,0:0|0:0,0:0:0:0:
152,156,51441,2,0,L|240:156,1,75,8|0,0:0|0:0,0:0:0:0:
308,156,51805,2,0,L|308:68,1,75,2|0,0:0|0:0,0:0:0:0:
228,72,52169,1,8,0:0:0:0:
144,72,52350,6,0,L|144:232,1,150,2|0,0:0|0:0,0:0:0:0:
232,224,52896,1,8,0:0:0:0:
136,224,53078,2,0,L|136:384,1,150,2|0,0:0|0:0,0:0:0:0:
396,216,53805,6,0,L|236:216,1,150,4|0,0:0|0:0,0:0:0:0:
164,212,54350,2,0,L|80:212,1,75,2|0,0:0|0:0,0:0:0:0:
168,136,54714,2,0,L|324:136,1,150,2|0,0:0|0:0,0:0:0:0:
244,136,55259,6,0,P|212:188|280:352,1,225,2|0,0:0|0:0,0:0:0:0:
432,124,56381,2,0,L|492:180,2,75
280,116,57078,6,0,L|280:200,1,75,0|0,0:0|0:0,0:0:0:0:
200,184,57441,2,0,L|200:268,1,75,0|0,0:0|0:0,0:0:0:0:
120,272,57805,2,0,L|120:356,1,75,0|0,0:0|0:0,0:0:0:0:
196,348,58169,1,0,0:0:0:0:
368,288,58350,6,0,P|400:200|312:92,1,225,4|0,0:0|0:0,0:0:0:0:
248,76,59078,1,2,0:0:0:0:
176,112,59259,1,0,0:0:0:0:
148,188,59441,1,8,0:0:0:0:
384,96,59805,6,0,P|416:184|388:252,1,150,2|8,0:0|0:0,0:0:0:0:
324,236,60350,2,0,L|164:236,1,150,0|0,0:0|0:0,0:0:0:0:
96,236,60896,1,8,0:0:0:0:
24,240,61078,6,0,P|39:118|62:96,1,150,0|0,0:0|0:0,0:0:0:0:
168,248,61805,2,0,L|328:248,1,150,0|0,0:0|0:0,0:0:0:0:
244,336,62350,1,8,0:0:0:0:
164,336,62532,6,0,L|164:180,1,150,2|0,0:0|0:0,0:0:0:0:
244,176,63078,2,0,L|244:88,1,75,8|0,0:0|0:0,0:0:0:0:
320,136,63441,2,0,L|224:136,1,75,2|0,0:0|0:0,0:0:0:0:
164,136,63805,1,8,0:0:0:0:
408,288,64169,6,0,P|440:200|412:124,1,150,2|8,0:0|0:0,0:0:0:0:
344,112,64714,2,0,P|320:203|344:268,1,150
420,280,65259,1,8,0:0:0:0:
184,96,65623,6,0,P|152:184|180:252,1,150,2|8,0:0|0:0,0:0:0:0:
260,232,66169,2,0,P|292:320|264:388,1,150,0|0,0:0|0:0,0:0:0:0:
188,364,66714,1,8,0:0:0:0:
104,288,66896,6,0,L|276:288,1,150,2|0,0:0|0:0,0:0:0:0:
396,144,67623,1,0,0:0:0:0:
244,144,67987,1,0,0:0:0:0:
440,120,68350,6,0,L|440:292,1,150,2|0,0:0|0:0,0:0:0:0:
368,256,68896,2,0,L|284:256,1,75,2|0,0:0|0:0,0:0:0:0:
368,256,69259,2,0,L|284:256,1,75,2|0,0:0|0:0,0:0:0:0:
216,252,69623,2,0,L|217:158,1,75,2|0,0:0|0:0,0:0:0:0:
396,40,69987,6,0,P|484:168|464:252,1,225,4|0,0:0|0:0,0:0:0:0:
416,272,70714,1,2,0:0:0:0:
344,292,70896,1,0,0:0:0:0:
272,308,71078,1,8,0:0:0:0:
28,296,71441,6,0,P|16:208|44:140,1,150,2|8,0:0|0:0,0:0:0:0:
108,144,71987,2,0,L|268:144,1,150,0|0,0:0|0:0,0:0:0:0:
332,144,72532,1,8,0:0:0:0:
408,136,72714,6,0,L|408:308,1,150,0|0,0:0|0:0,0:0:0:0:
280,296,73441,2,0,L|108:296,1,150,0|0,0:0|0:0,0:0:0:0:
60,300,73987,1,8,0:0:0:0:
136,300,74169,6,0,L|308:300,1,150,2|0,0:0|0:0,0:0:0:0:
360,296,74714,2,0,L|360:204,1,75,8|0,0:0|0:0,0:0:0:0:
264,212,75078,2,0,L|264:112,1,75,2|0,0:0|0:0,0:0:0:0:
352,128,75441,1,8,0:0:0:0:
112,96,75805,6,0,P|80:184|108:252,1,150,4|8,0:0|0:0,0:0:0:0:
176,228,76350,2,0,P|208:316|180:384,1,150,0|0,0:0|0:0,0:0:0:0:
108,376,76896,1,8,0:0:0:0:
400,96,77259,6,0,P|432:184|404:252,1,150,4|8,0:0|0:0,0:0:0:0:
336,228,77805,2,0,P|304:316|332:384,1,150,0|0,0:0|0:0,0:0:0:0:
396,376,78350,1,8,0:0:0:0:
228,328,78532,6,0,L|228:160,1,150,4|0,0:0|0:0,0:0:0:0:
228,104,79078,1,2,0:0:0:0:
400,108,79259,1,2,0:0:0:0:
248,104,79623,1,2,0:0:0:0:
488,108,79987,6,0,L|488:280,1,150,8|2,0:0|0:0,0:0:0:0:
408,256,80532,2,0,L|324:256,1,75,2|2,0:0|0:0,0:0:0:0:
252,256,80896,2,0,L|252:192,1,37.5,4|0,0:0|0:0,0:0:0:0:
288,184,81078,1,0,0:0:0:0:
368,172,81259,2,0,L|368:112,1,37.5,4|0,0:0|0:0,0:0:0:0:
332,96,81441,1,0,0:0:0:0:
144,192,81623,6,0,L|144:88,1,75,4|0,0:0|0:0,0:0:0:0:
220,148,81987,2,0,L|220:44,1,75,8|0,0:0|0:0,0:0:0:0:
144,192,82350,2,0,L|144:88,1,75,2|0,0:0|0:0,0:0:0:0:
220,148,82714,2,0,L|220:44,1,75,8|0,0:0|0:0,0:0:0:0:
56,88,83078,5,2,0:0:0:0:
204,88,83441,1,8,0:0:0:0:
348,84,83805,2,0,L|348:168,1,75,2|2,0:0|0:0,0:0:0:0:
264,168,84169,2,0,L|184:168,1,75,8|0,0:0|0:0,0:0:0:0:
352,144,84532,6,0,L|352:232,1,75,4|0,0:0|0:0,0:0:0:0:
264,252,84896,2,0,L|224:252,2,37.5,8|2|0,0:0|0:0|0:0,0:0:0:0:
420,260,85259,2,0,L|420:348,1,75,4|0,0:0|0:0,0:0:0:0:
332,368,85623,2,0,L|292:368,2,37.5,8|2|0,0:0|0:0|0:0,0:0:0:0:
480,240,85987,6,0,L|396:240,1,75,2|2,0:0|0:0,0:0:0:0:
328,240,86350,2,0,L|244:240,1,75,8|2,0:0|0:0,0:0:0:0:
184,176,86714,1,2,0:0:0:0:
144,144,86805,1,0,0:0:0:0:
184,116,86896,1,2,0:0:0:0:
260,112,87078,1,8,0:0:0:0:
20,92,87441,6,0,L|20:196,1,75,4|0,0:0|0:0,0:0:0:0:
96,164,87805,2,0,L|96:268,1,75
172,88,88169,2,0,L|172:192,1,75,2|2,0:0|0:0,0:0:0:0:
248,192,88532,2,0,L|248:296,1,75,8|2,0:0|0:0,0:0:0:0:
416,260,88896,5,4,0:0:0:0:
264,268,89259,1,4,0:0:0:0:
408,264,89623,1,4,0:0:0:0:
476,300,89805,1,2,0:0:0:0:
408,336,89987,1,8,0:0:0:0:
168,144,90350,6,0,L|168:232,1,75,4|0,0:0|0:0,0:0:0:0:
256,252,90714,2,0,L|296:252,2,37.5,8|2|0,0:0|0:0|0:0,0:0:0:0:
100,260,91078,2,0,L|100:348,1,75,4|0,0:0|0:0,0:0:0:0:
188,368,91441,2,0,L|228:368,2,37.5,8|2|0,0:0|0:0|0:0,0:0:0:0:
36,344,91805,6,0,L|36:252,1,75,4|2,0:0|0:0,0:0:0:0:
120,256,92169,1,0,0:0:0:0:
208,256,92350,1,2,0:0:0:0:
296,256,92532,2,0,L|344:256,2,37.5,4|0|0,0:0|0:0|0:0,0:0:0:0:
208,256,92896,1,8,0:0:0:0:
452,80,93259,6,0,L|452:168,1,75,4|0,0:0|0:0,0:0:0:0:
376,164,93623,2,0,L|296:164,1,75,8|0,0:0|0:0,0:0:0:0:
228,168,93987,2,0,L|228:272,1,75,2|0,0:0|0:0,0:0:0:0:
316,252,94350,2,0,L|316:344,1,75,8|0,0:0|0:0,0:0:0:0:
144,324,94714,5,2,0:0:0:0:
300,324,95078,1,8,0:0:0:0:
144,324,95441,2,0,L|144:240,1,75,2|2,0:0|0:0,0:0:0:0:
220,220,95805,1,8,0:0:0:0:
460,208,96169,6,0,L|460:308,1,75,4|0,0:0|0:0,0:0:0:0:
380,284,96532,1,8,0:0:0:0:
340,284,96623,1,2,0:0:0:0:
300,284,96714,1,0,0:0:0:0:
132,276,96896,2,0,L|132:376,1,75,4|0,0:0|0:0,0:0:0:0:
212,352,97259,1,8,0:0:0:0:
252,352,97350,1,2,0:0:0:0:
292,352,97441,1,0,0:0:0:0:
124,240,97623,6,0,L|208:240,1,75,2|2,0:0|0:0,0:0:0:0:
276,240,97987,2,0,L|360:240,1,75,8|2,0:0|0:0,0:0:0:0:
420,176,98350,1,2,0:0:0:0:
460,144,98441,1,0,0:0:0:0:
420,116,98532,1,2,0:0:0:0:
344,112,98714,1,8,0:0:0:0:
88,248,99078,6,0,L|88:144,1,75,4|0,0:0|0:0,0:0:0:0:
176,176,99441,2,0,L|176:72,1,75,0|0,0:0|0:0,0:0:0:0:
88,100,99805,2,0,L|176:100,1,75,2|2,0:0|0:0,0:0:0:0:
88,192,100169,2,0,L|168:192,1,75,8|2,0:0|0:0,0:0:0:0:
324,324,100532,5,4,0:0:0:0:
168,324,100896,1,4,0:0:0:0:
324,324,101259,2,0,L|324:240,1,75,4|2,0:0|0:0,0:0:0:0:
248,220,101623,1,8,0:0:0:0:
16,208,101987,6,0,L|16:308,1,75,4|0,0:0|0:0,0:0:0:0:
96,284,102350,1,8,0:0:0:0:
136,284,102441,1,2,0:0:0:0:
176,284,102532,1,0,0:0:0:0:
344,276,102714,2,0,L|344:376,1,75,4|0,0:0|0:0,0:0:0:0:
264,352,103078,1,8,0:0:0:0:
224,352,103169,1,2,0:0:0:0:
184,352,103259,1,0,0:0:0:0:
340,172,103441,6,0,L|236:172,1,75,4|2,0:0|0:0,0:0:0:0:
180,172,103805,2,0,L|180:256,1,75,0|2,0:0|0:0,0:0:0:0:
272,256,104169,5,4,0:0:0:0:
312,240,104259,1,0,0:0:0:0:
338,213,104350,1,0,0:0:0:0:
353,179,104441,1,0,0:0:0:0:
355,142,104532,1,8,0:0:0:0:
312,80,104714,1,0,0:0:0:0:
143,85,104896,5,4,0:0:0:0:
379,255,116350,6,0,L|379:97,1,150,2|0,0:0|0:0,0:0:0:0:
304,112,116896,1,8,0:0:0:0:
224,116,117078,2,0,P|188:180|236:252,1,150,0|0,0:0|0:0,0:0:0:0:
476,216,117805,6,0,L|316:216,1,150,2|2,0:0|0:0,0:0:0:0:
244,216,118350,2,0,L|160:216,1,75,8|0,0:0|0:0,0:0:0:0:
248,48,118714,2,0,L|324:48,1,75,2|0,0:0|0:0,0:0:0:0:
404,48,119078,1,8,0:0:0:0:
488,48,119259,6,0,L|328:48,1,150,2|0,0:0|0:0,0:0:0:0:
256,52,119805,1,8,0:0:0:0:
338,48,119987,2,0,P|374:112|334:200,1,150,0|0,0:0|0:0,0:0:0:0:
108,312,120714,6,0,L|108:160,1,150,2|0,0:0|0:0,0:0:0:0:
200,160,121259,2,0,L|284:160,1,75,8|0,0:0|0:0,0:0:0:0:
364,160,121623,2,0,L|364:72,1,75,2|0,0:0|0:0,0:0:0:0:
284,68,121987,1,8,0:0:0:0:
196,68,122169,6,0,P|164:120|192:228,1,150,2|0,0:0|0:0,0:0:0:0:
264,236,122714,1,8,0:0:0:0:
348,236,122896,2,0,P|384:300|344:388,1,150,0|0,0:0|0:0,0:0:0:0:
92,336,123623,6,0,L|268:336,1,150,2|0,0:0|0:0,0:0:0:0:
320,328,124169,2,0,L|320:236,1,75,8|0,0:0|0:0,0:0:0:0:
240,240,124532,2,0,L|240:152,1,75,2|0,0:0|0:0,0:0:0:0:
320,152,124896,1,8,0:0:0:0:
236,152,125078,6,0,P|192:100|208:4,1,150,0|0,0:0|0:0,0:0:0:0:
464,32,125805,2,0,L|312:32,1,150,4|4,0:0|0:0,0:0:0:0:
160,140,126532,2,0,L|312:140,1,150,4|4,0:0|0:0,0:0:0:0:
464,312,127259,2,0,L|312:312,1,150,4|2,0:0|0:0,0:0:0:0:
44,328,127987,6,0,L|44:152,1,150,2|0,0:0|0:0,0:0:0:0:
120,164,128532,1,8,0:0:0:0:
188,164,128714,2,0,L|344:164,1,150,2|0,0:0|0:0,0:0:0:0:
104,168,129441,6,0,P|68:88|104:48,1,150,2|0,0:0|0:0,0:0:0:0:
184,40,129987,2,0,L|268:40,1,75,8|0,0:0|0:0,0:0:0:0:
344,104,130350,2,0,L|344:16,1,75,2|0,0:0|0:0,0:0:0:0:
260,28,130714,1,8,0:0:0:0:
176,40,130896,6,0,P|144:92|164:196,1,150,2|0,0:0|0:0,0:0:0:0:
236,184,131441,1,8,0:0:0:0:
320,192,131623,2,0,P|356:256|316:344,1,150,2|0,0:0|0:0,0:0:0:0:
76,316,132350,6,0,L|240:316,1,150,2|0,0:0|0:0,0:0:0:0:
312,312,132896,2,0,L|312:236,1,75,8|0,0:0|0:0,0:0:0:0:
232,220,133259,2,0,L|232:132,1,75,2|0,0:0|0:0,0:0:0:0:
156,104,133623,1,0,0:0:0:0:
80,40,133805,6,0,L|232:40,1,150,2|0,0:0|0:0,0:0:0:0:
304,40,134350,1,8,0:0:0:0:
380,40,134532,2,0,L|380:200,1,150,2|0,0:0|0:0,0:0:0:0:
116,216,135259,6,0,L|276:216,1,150,4|0,0:0|0:0,0:0:0:0:
348,212,135805,2,0,L|348:120,1,75,2|0,0:0|0:0,0:0:0:0:
268,136,136169,2,0,L|116:136,1,150,2|0,0:0|0:0,0:0:0:0:
196,136,136714,6,0,P|252:172|264:344,1,225,2|0,0:0|0:0,0:0:0:0:
80,124,137737,2,0,L|20:180,2,75
232,116,138532,2,0,L|232:200,1,75,0|0,0:0|0:0,0:0:0:0:
308,184,138896,2,0,L|308:268,1,75
384,272,139259,6,0,L|384:356,1,75
308,348,139623,1,0,0:0:0:0:
128,96,139805,6,0,P|96:184|184:292,1,225,4|0,0:0|0:0,0:0:0:0:
240,300,140532,1,2,0:0:0:0:
307,262,140714,1,0,0:0:0:0:
329,187,140896,1,8,0:0:0:0:
56,112,141259,6,0,L|212:112,1,150,2|8,0:0|0:0,0:0:0:0:
280,116,141805,2,0,L|280:284,1,150,0|0,0:0|0:0,0:0:0:0:
200,264,142350,1,8,0:0:0:0:
120,336,142532,6,0,L|292:336,1,150,0|0,0:0|0:0,0:0:0:0:
416,324,143259,2,0,L|416:160,1,150,0|0,0:0|0:0,0:0:0:0:
332,176,143805,1,8,0:0:0:0:
160,184,143987,6,0,L|160:28,1,150,2|0,0:0|0:0,0:0:0:0:
248,40,144532,2,0,L|332:40,1,75,8|0,0:0|0:0,0:0:0:0:
408,124,144896,2,0,L|320:124,1,75,2|0,0:0|0:0,0:0:0:0:
248,124,145259,1,8,0:0:0:0:
488,136,145623,6,0,P|492:224|448:280,1,150,2|8,0:0|0:0,0:0:0:0:
388,280,146169,2,0,L|232:280,1,150,0|0,0:0|0:0,0:0:0:0:
164,280,146714,1,8,0:0:0:0:
404,96,147078,6,0,P|436:184|408:252,1,150,2|8,0:0|0:0,0:0:0:0:
340,244,147623,2,0,L|180:244,1,150,0|0,0:0|0:0,0:0:0:0:
192,168,148169,1,8,0:0:0:0:
360,168,148350,6,0,L|360:16,1,150,2|0,0:0|0:0,0:0:0:0:
200,24,149078,1,0,0:0:0:0:
360,18,149441,1,0,0:0:0:0:
120,104,149805,6,0,L|120:276,1,150,2|0,0:0|0:0,0:0:0:0:
204,248,150350,2,0,L|204:164,1,75,2|0,0:0|0:0,0:0:0:0:
292,272,150714,2,0,L|292:188,1,75,2|0,0:0|0:0,0:0:0:0:
204,173,151078,2,0,L|204:89,1,75,2|0,0:0|0:0,0:0:0:0:
384,96,151441,6,0,P|416:184|328:292,1,225,4|0,0:0|0:0,0:0:0:0:
272,300,152169,1,2,0:0:0:0:
205,262,152350,1,0,0:0:0:0:
183,187,152532,1,8,0:0:0:0:
456,112,152896,6,0,L|456:284,1,150,2|8,0:0|0:0,0:0:0:0:
392,284,153441,2,0,L|232:284,1,150,0|0,0:0|0:0,0:0:0:0:
168,284,153987,1,8,0:0:0:0:
92,288,154169,6,0,L|92:116,1,150,0|0,0:0|0:0,0:0:0:0:
242,138,154896,2,0,L|58:138,1,150,0|0,0:0|0:0,0:0:0:0:
172,176,155441,1,8,0:0:0:0:
352,184,155623,6,0,L|352:28,1,150,2|0,0:0|0:0,0:0:0:0:
264,40,156169,2,0,L|180:40,1,75,8|0,0:0|0:0,0:0:0:0:
104,124,156532,6,0,L|192:124,1,75,2|0,0:0|0:0,0:0:0:0:
264,124,156896,1,8,0:0:0:0:
24,220,157259,6,0,L|208:220,1,150,4|8,0:0|0:0,0:0:0:0:
252,216,157805,2,0,L|436:216,1,150,0|0,0:0|0:0,0:0:0:0:
404,296,158350,1,8,0:0:0:0:
148,220,158714,6,0,L|332:220,1,150,4|8,0:0|0:0,0:0:0:0:
372,220,159259,2,0,P|400:248|372:352,1,150,0|0,0:0|0:0,0:0:0:0:
308,352,159805,1,8,0:0:0:0:
144,272,159987,6,0,L|144:104,1,150,4|0,0:0|0:0,0:0:0:0:
144,84,160532,1,2,0:0:0:0:
300,84,160714,1,2,0:0:0:0:
144,84,161078,1,2,0:0:0:0:
368,88,161441,6,0,L|368:260,1,150,8|2,0:0|0:0,0:0:0:0:
288,240,161987,2,0,L|204:240,1,75,2|2,0:0|0:0,0:0:0:0:
292,276,162350,1,4,0:0:0:0:
296,324,162441,1,0,0:0:0:0:
256,352,162532,1,0,0:0:0:0:
168,328,162714,1,4,0:0:0:0:
168,272,162805,1,0,0:0:0:0:
208,236,162896,1,0,0:0:0:0:
384,192,163078,6,0,L|384:88,1,75,4|0,0:0|0:0,0:0:0:0:
300,148,163441,2,0,L|300:44,1,75,8|0,0:0|0:0,0:0:0:0:
216,112,163805,2,0,L|216:8,1,75,2|0,0:0|0:0,0:0:0:0:
300,148,164169,2,0,L|300:44,1,75,8|0,0:0|0:0,0:0:0:0:
140,88,164532,5,2,0:0:0:0:
288,88,164896,1,8,0:0:0:0:
164,84,165259,2,0,L|164:168,1,75,2|2,0:0|0:0,0:0:0:0:
248,168,165623,2,0,L|328:168,1,75,8|0,0:0|0:0,0:0:0:0:
160,144,165987,6,0,L|160:232,1,75,4|0,0:0|0:0,0:0:0:0:
248,252,166350,2,0,L|288:252,1,37.5,8|2,0:0|0:0,0:0:0:0:
324,252,166532,1,0,0:0:0:0:
164,248,166714,2,0,L|164:336,1,75,4|0,0:0|0:0,0:0:0:0:
252,356,167078,2,0,L|292:356,1,37.5,8|2,0:0|0:0,0:0:0:0:
328,356,167259,1,0,0:0:0:0:
172,240,167441,6,0,L|172:136,1,75,2|2,0:0|0:0,0:0:0:0:
260,172,167805,2,0,L|260:64,1,75,8|2,0:0|0:0,0:0:0:0:
168,120,168169,1,2,0:0:0:0:
128,88,168259,1,0,0:0:0:0:
168,60,168350,1,2,0:0:0:0:
244,56,168532,1,8,0:0:0:0:
20,96,168896,6,0,L|20:200,1,75,4|0,0:0|0:0,0:0:0:0:
104,168,169259,2,0,L|104:272,1,75,0|0,0:0|0:0,0:0:0:0:
24,292,169623,2,0,L|120:292,1,75,2|2,0:0|0:0,0:0:0:0:
184,296,169987,2,0,L|268:296,1,75,8|2,0:0|0:0,0:0:0:0:
96,260,170350,5,4,0:0:0:0:
248,268,170714,1,4,0:0:0:0:
104,264,171078,1,4,0:0:0:0:
36,300,171259,1,2,0:0:0:0:
104,336,171441,1,8,0:0:0:0:
364,144,171805,6,0,L|364:232,1,75,4|0,0:0|0:0,0:0:0:0:
276,252,172169,2,0,L|236:252,1,37.5,8|2,0:0|0:0,0:0:0:0:
200,252,172350,1,0,0:0:0:0:
360,248,172532,2,0,L|360:336,1,75,4|0,0:0|0:0,0:0:0:0:
272,356,172896,2,0,L|232:356,1,37.5,8|2,0:0|0:0,0:0:0:0:
196,356,173078,1,0,0:0:0:0:
352,352,173259,6,0,L|352:260,1,75,4|2,0:0|0:0,0:0:0:0:
272,272,173623,1,0,0:0:0:0:
188,272,173805,1,2,0:0:0:0:
100,272,173987,2,0,L|52:272,2,37.5,4|0|0,0:0|0:0|0:0,0:0:0:0:
188,272,174350,1,8,0:0:0:0:
452,80,174714,6,0,L|452:168,1,75,4|0,0:0|0:0,0:0:0:0:
376,164,175078,2,0,L|296:164,1,75,8|0,0:0|0:0,0:0:0:0:
376,164,175441,2,0,L|376:268,1,75,2|0,0:0|0:0,0:0:0:0:
292,252,175805,2,0,L|292:344,1,75,8|0,0:0|0:0,0:0:0:0:
464,324,176169,5,2,0:0:0:0:
308,324,176532,1,8,0:0:0:0:
448,220,176896,2,0,L|348:220,1,75,2|2,0:0|0:0,0:0:0:0:
292,220,177259,1,8,0:0:0:0:
52,208,177623,6,0,L|52:308,1,75,4|0,0:0|0:0,0:0:0:0:
132,284,177987,1,8,0:0:0:0:
172,280,178078,1,2,0:0:0:0:
212,284,178169,1,0,0:0:0:0:
380,276,178350,2,0,L|380:376,1,75,4|0,0:0|0:0,0:0:0:0:
300,352,178714,1,8,0:0:0:0:
260,352,178805,1,2,0:0:0:0:
220,352,178896,1,0,0:0:0:0:
388,240,179078,6,0,L|304:240,1,75,2|2,0:0|0:0,0:0:0:0:
236,240,179441,2,0,L|152:240,1,75,8|2,0:0|0:0,0:0:0:0:
92,176,179805,1,2,0:0:0:0:
52,144,179896,1,0,0:0:0:0:
92,116,179987,1,2,0:0:0:0:
168,112,180169,1,8,0:0:0:0:
424,248,180532,6,0,L|424:144,1,75,4|0,0:0|0:0,0:0:0:0:
336,176,180896,2,0,L|336:72,1,75,0|0,0:0|0:0,0:0:0:0:
424,100,181259,2,0,L|336:100,1,75,2|2,0:0|0:0,0:0:0:0:
424,192,181623,2,0,L|344:192,1,75,8|2,0:0|0:0,0:0:0:0:
188,324,181987,5,4,0:0:0:0:
344,324,182350,1,4,0:0:0:0:
188,324,182714,2,0,L|188:240,1,75,4|2,0:0|0:0,0:0:0:0:
264,220,183078,1,8,0:0:0:0:
496,208,183441,6,0,L|496:308,1,75,4|0,0:0|0:0,0:0:0:0:
416,284,183805,1,8,0:0:0:0:
376,280,183896,1,2,0:0:0:0:
336,284,183987,1,0,0:0:0:0:
168,276,184169,2,0,L|168:376,1,75,4|0,0:0|0:0,0:0:0:0:
248,352,184532,1,8,0:0:0:0:
288,352,184623,1,2,0:0:0:0:
328,352,184714,1,0,0:0:0:0:
172,172,184896,6,0,L|276:172,1,75,4|2,0:0|0:0,0:0:0:0:
332,172,185259,2,0,L|332:256,1,75,0|2,0:0|0:0,0:0:0:0:
240,256,185623,5,4,0:0:0:0:
206,241,185714,1,0,0:0:0:0:
180,214,185805,1,0,0:0:0:0:
165,180,185896,1,0,0:0:0:0:
163,143,185987,1,8,0:0:0:0:
199,79,186169,1,0,0:0:0:0:
388,76,186350,6,0,P|440:140|396:280,1,225,4|0,0:0|0:0,0:0:0:0:
332,276,187078,2,0,L|160:276,1,150,2|8,0:0|0:0,0:0:0:0:
60,232,187805,6,0,L|60:144,1,75,2|2,0:0|0:0,0:0:0:0:
140,36,188169,2,0,L|184:36,1,37.5,8|0,0:0|0:0,0:0:0:0:
216,36,188350,1,0,0:0:0:0:
296,40,188532,2,0,L|376:40,1,75,2|0,0:0|0:0,0:0:0:0:
300,208,188896,1,8,0:0:0:0:
64,100,189259,6,0,P|40:168|120:284,1,225,2|0,0:0|0:0,0:0:0:0:
192,288,189987,2,0,L|256:288,2,37.5,2|0|0,0:0|0:0|0:0,0:0:0:0:
120,288,190350,2,0,L|52:288,2,37.5,8|0|0,0:0|0:0|0:0,0:0:0:0:
192,288,190714,6,0,L|356:288,1,150,2|8,0:0|0:0,0:0:0:0:
420,284,191259,2,0,L|420:128,1,150,2|2,0:0|0:0,0:0:0:0:
344,132,191805,1,8,0:0:0:0:
96,304,192169,6,0,P|56:248|124:100,1,225,4|0,0:0|0:0,0:0:0:0:
176,104,192896,2,0,L|260:104,1,75,2|0,0:0|0:0,0:0:0:0:
328,104,193259,2,0,L|328:200,1,75,8|0,0:0|0:0,0:0:0:0:
248,224,193623,6,0,L|100:228,2,112.5,2|2|2,0:0|0:0|0:0,0:0:0:0:
328,224,194350,2,0,P|360:156|304:72,1,150,0|8,0:0|0:0,0:0:0:0:
80,96,195078,6,0,P|56:188|152:280,1,225,4|0,0:0|0:0,0:0:0:0:
224,272,195805,2,0,L|320:268,1,75,4|0,0:0|0:0,0:0:0:0:
220,192,196169,2,0,L|212:104,1,75,8|0,0:0|0:0,0:0:0:0:
372,104,196532,6,0,P|388:180|100:296,1,450,2|8,0:0|0:0,0:0:0:0:
362,139,197987,6,0,L|474:139,2,112.5,4|0|0,0:0|0:0|0:0,0:0:0:0:
284,140,198714,2,0,L|284:236,1,75,2|0,0:0|0:0,0:0:0:0:
368,224,199078,2,0,L|368:320,1,75,8|0,0:0|0:0,0:0:0:0:
208,224,199441,6,0,L|76:224,2,112.5,2|0|0,0:0|0:0|0:0,0:0:0:0:
288,216,200169,2,0,L|288:128,1,75,2|0,0:0|0:0,0:0:0:0:
208,128,200532,1,8,0:0:0:0:
448,72,200896,6,0,L|328:73,2,112.5,2|0|0,0:0|0:0|0:0,0:0:0:0:
312,68,201714,2,0,L|312:184,1,112.5,0|8,0:0|0:0,0:0:0:0:
392,184,202169,1,0,0:0:0:0:
236,184,202350,6,0,P|212:240|308:388,1,225,2|2,0:0|0:0,0:0:0:0:
364,332,203078,2,0,P|388:272|292:128,1,225,2|0,0:0|0:0,0:0:0:0:
168,96,203805,6,0,L|52:96,2,112.5,4|0|0,0:0|0:0|0:0,0:0:0:0:
248,92,204532,2,0,L|248:176,1,75,4|0,0:0|0:0,0:0:0:0:
164,172,204896,2,0,L|72:172,1,75,8|0,0:0|0:0,0:0:0:0:
240,172,205259,6,0,L|396:172,1,150,4|8,0:0|0:0,0:0:0:0:
240,144,205987,2,0,L|240:56,1,75,2|2,0:0|0:0,0:0:0:0:
324,68,206350,1,8,0:0:0:0:
84,64,206714,6,0,L|212:64,2,112.5,4|0|0,0:0|0:0|0:0,0:0:0:0:
168,160,207441,2,0,L|40:160,2,112.5,2|0|0,0:0|0:0|0:0,0:0:0:0:
328,88,208169,6,0,P|372:192|288:292,1,225,2|2,0:0|0:0,0:0:0:0:
232,288,208896,2,0,P|188:184|272:84,1,225,2|8,0:0|0:0,0:0:0:0:
392,96,209623,5,4,0:0:0:0:
256,192,209987,12,0,211805,0:0:0:0:
252,192,212532,5,4,0:0:0:0:
252,192,213259,1,4,0:0:0:0:
252,192,213987,1,4,0:0:0:0:
252,192,214714,1,2,0:0:0:0:
252,192,215078,1,2,0:0:0:0:
168,88,215441,6,0,L|168:180,1,75,4|0,0:0|0:0,0:0:0:0:
244,168,215805,1,0,0:0:0:0:
344,88,216169,2,0,L|344:180,1,75,4|0,0:0|0:0,0:0:0:0:
268,168,216532,1,0,0:0:0:0:
140,120,216896,5,4,0:0:0:0:
264,120,217259,1,0,0:0:0:0:
388,120,217623,1,4,0:0:0:0:
388,120,217987,1,2,0:0:0:0:
140,120,218350,6,0,L|140:208,1,75,4|0,0:0|0:0,0:0:0:0:
212,292,218714,2,0,L|316:292,1,75,2|0,0:0|0:0,0:0:0:0:
372,120,219078,6,0,L|372:208,1,75,2|0,0:0|0:0,0:0:0:0:
300,292,219441,2,0,L|196:292,1,75,2|0,0:0|0:0,0:0:0:0:
144,156,219805,6,0,L|108:184,4,37.5,4|0|0|0|2,0:0|0:0|0:0|0:0|0:0,0:0:0:0:
144,156,220350,1,2,0:0:0:0:
304,148,220532,2,0,P|365:197|376:268,1,150,4|2,0:0|0:0,0:0:0:0:
128,192,221259,6,0,L|128:88,1,75,4|0,0:0|0:0,0:0:0:0:
212,148,221623,2,0,L|212:44,1,75,8|0,0:0|0:0,0:0:0:0:
372,192,221987,2,0,L|372:88,1,75,2|0,0:0|0:0,0:0:0:0:
288,148,222350,2,0,L|288:44,1,75,8|0,0:0|0:0,0:0:0:0:
132,72,222714,5,2,0:0:0:0:
280,72,223078,1,8,0:0:0:0:
432,76,223441,2,0,L|432:160,1,75,2|2,0:0|0:0,0:0:0:0:
348,160,223805,2,0,L|268:160,1,75,8|0,0:0|0:0,0:0:0:0:
116,168,224169,6,0,L|116:256,1,75,4|0,0:0|0:0,0:0:0:0:
196,244,224532,1,8,0:0:0:0:
233,244,224623,1,2,0:0:0:0:
271,244,224714,1,0,0:0:0:0:
428,244,224896,2,0,L|428:332,1,75,4|0,0:0|0:0,0:0:0:0:
348,320,225259,1,8,0:0:0:0:
310,320,225350,1,2,0:0:0:0:
273,320,225441,1,0,0:0:0:0:
428,240,225623,6,0,L|344:240,1,75,2|2,0:0|0:0,0:0:0:0:
276,240,225987,2,0,L|192:240,1,75,8|2,0:0|0:0,0:0:0:0:
280,164,226350,1,2,0:0:0:0:
320,164,226441,1,0,0:0:0:0:
360,164,226532,1,2,0:0:0:0:
440,164,226714,1,8,0:0:0:0:
184,176,227078,6,0,L|184:280,1,75,4|0,0:0|0:0,0:0:0:0:
268,256,227441,2,0,L|344:256,1,75,0|0,0:0|0:0,0:0:0:0:
496,272,227805,2,0,L|496:376,1,75,2|2,0:0|0:0,0:0:0:0:
412,352,228169,2,0,L|336:352,1,75,8|2,0:0|0:0,0:0:0:0:
176,344,228532,5,4,0:0:0:0:
320,248,228896,1,4,0:0:0:0:
172,240,229259,2,0,L|88:240,2,75,4|2|8,0:0|0:0|0:0,0:0:0:0:
440,156,229987,6,0,L|336:156,1,75,4|0,0:0|0:0,0:0:0:0:
288,152,230350,1,8,0:0:0:0:
250,152,230441,1,2,0:0:0:0:
213,152,230532,1,0,0:0:0:0:
360,248,230714,2,0,L|256:248,1,75,4|0,0:0|0:0,0:0:0:0:
208,244,231078,1,8,0:0:0:0:
170,244,231169,1,2,0:0:0:0:
133,244,231259,1,0,0:0:0:0:
292,188,231441,6,0,L|292:96,1,75,4|2,0:0|0:0,0:0:0:0:
212,124,231805,1,0,0:0:0:0:
132,124,231987,1,2,0:0:0:0:
48,128,232169,6,0,L|48:212,1,75,4|0,0:0|0:0,0:0:0:0:
128,212,232532,1,8,0:0:0:0:
368,216,232896,6,0,L|368:120,1,75,4|0,0:0|0:0,0:0:0:0:
272,104,233259,2,0,L|272:220,1,112.5,2|2,0:0|0:0,0:0:0:0:
392,208,233805,2,0,L|392:324,1,112.5,2|0,0:0|0:0,0:0:0:0:
288,308,234350,1,8,0:0:0:0:
128,308,234532,5,2,0:0:0:0:
128,308,234714,1,2,0:0:0:0:
288,308,235078,1,8,0:0:0:0:
288,308,235259,1,2,0:0:0:0:
120,240,235714,6,0,L|120:140,1,75,2|0,0:0|0:0,0:0:0:0:
164,164,235987,2,0,L|260:164,1,75,0|0,0:0|0:0,0:0:0:0:
312,164,236350,1,0,0:0:0:0:
384,164,236532,2,0,L|384:64,1,75,0|0,0:0|0:0,0:0:0:0:
312,80,236896,1,0,0:0:0:0:
116,180,237169,6,0,L|260:180,1,112.5,2|0,0:0|0:0,0:0:0:0:
308,180,237623,2,0,L|388:180,1,75,2|0,0:0|0:0,0:0:0:0:
460,252,237987,2,0,L|460:328,1,75,2|0,0:0|0:0,0:0:0:0:
380,328,238350,1,2,0:0:0:0:
144,216,238714,6,0,L|144:120,1,75,4|0,0:0|0:0,0:0:0:0:
240,104,239078,2,0,L|240:220,1,112.5,2|2,0:0|0:0,0:0:0:0:
120,208,239623,2,0,L|120:324,1,112.5,2|0,0:0|0:0,0:0:0:0:
224,308,240169,1,8,0:0:0:0:
384,308,240350,5,2,0:0:0:0:
384,308,240532,1,2,0:0:0:0:
224,308,240896,1,8,0:0:0:0:
224,308,241078,1,2,0:0:0:0:
392,240,241532,6,0,L|392:140,1,75,2|0,0:0|0:0,0:0:0:0:
348,164,241805,2,0,L|252:164,1,75,0|0,0:0|0:0,0:0:0:0:
200,164,242169,1,0,0:0:0:0:
128,164,242350,2,0,L|128:64,1,75,0|0,0:0|0:0,0:0:0:0:
200,80,242714,1,0,0:0:0:0:
396,180,242987,6,0,L|396:292,1,112.5,2|0,0:0|0:0,0:0:0:0:
208,264,243441,2,0,L|128:264,1,75,8|8,0:0|0:0,0:0:0:0:
288,248,243987,2,0,L|440:248,1,150,8|2,0:0|0:0,0:0:0:0:
280,244,244896,5,8,0:0:0:0:
200,248,245078,1,8,0:0:0:0:
280,244,245259,1,8,0:0:0:0:
436,348,245441,2,0,P|436:148|120:364,1,825,8|0,0:0|0:0,0:0:0:0:
