osu file format v14

[General]
AudioFilename: audio.mp3
AudioLeadIn: 0
PreviewTime: 81532
Countdown: 0
SampleSet: Soft
StackLeniency: 0.7
Mode: 2
LetterboxInBreaks: 0
WidescreenStoryboard: 1

[Editor]
Bookmarks: 23441,35078,58350,81623,104896,116532,139805,163078,186350,190714,209623,221259,232896
DistanceSpacing: 1.6
BeatDivisor: 4
GridSize: 4
TimelineZoom: 2.1

[Metadata]
Title:Bloody Night
TitleUnicode:Bloody Night
Artist:A-One feat. Shihori
ArtistUnicode:A-One feat. Shihori
Creator:ZiRoX
Version:Platter
Source:東方妖々夢 ~ Perfect Cherry Blossom.
Tags:Deif GIGACHAD Dako Featured Artist FA Mappers' Guild MG 東方Project Touhou Youyoumu Team Shanghai Alice ZUN TOHO EUROBEAT VOL. 4 アリス・マーガトロイド Alice Margatroid ブクレシュティの人形師 The Doll Maker of Bucuresti Video Game English
BeatmapID:3155150
BeatmapSetID:1543564

[Difficulty]
HPDrainRate:4
CircleSize:3.5
OverallDifficulty:8
ApproachRate:8
SliderMultiplier:1.6
SliderTickRate:1

[Events]
//Background and Video events
0,0,"bg_bloodynight.png",0,0
//Break Periods
2,105096,115600
//Storyboard Layer 0 (Background)
//Storyboard Layer 1 (Fail)
//Storyboard Layer 2 (Pass)
//Storyboard Layer 3 (Foreground)
//Storyboard Layer 4 (Overlay)
//Storyboard Sound Samples

[TimingPoints]
169,363.636363636364,4,2,1,85,1,0
11805,-100,4,1,1,75,0,0
12169,-100,4,2,1,90,0,0
12350,-100,4,1,1,75,0,0
12532,-100,4,2,1,90,0,0
12896,-100,4,1,1,65,0,0
13259,-100,4,1,1,75,0,0
13532,-100,4,2,1,90,0,0
13805,-100,4,1,1,75,0,0
13987,-100,4,2,1,90,0,0
14350,-100,4,1,1,65,0,0
14714,-100,4,1,1,75,0,0
15078,-100,4,2,1,90,0,0
15259,-100,4,1,1,75,0,0
15441,-100,4,2,1,90,0,0
15805,-100,4,1,1,65,0,0
16169,-100,4,1,1,75,0,0
16441,-100,4,2,1,90,0,0
16714,-100,4,1,1,75,0,0
16896,-100,4,2,1,90,0,0
17259,-100,4,1,1,65,0,0
17623,-100,4,1,1,75,0,0
17805,-100,4,2,1,90,0,0
17987,-100,4,1,1,65,0,0
18169,-100,4,2,1,90,0,0
18714,-100,4,1,1,65,0,0
18805,-100,4,2,1,90,0,0
19441,-100,4,1,1,65,0,0
19623,-100,4,2,1,90,0,0
20169,-100,4,1,1,65,0,0
20259,-100,4,2,1,90,0,0
20896,-100,4,1,1,65,0,0
21078,-100,4,2,1,90,0,0
21259,-100,4,1,1,65,0,0
21350,-100,4,2,1,90,0,0
21623,-100,4,1,1,65,0,0
21714,-100,4,2,1,90,0,0
23441,-100,4,1,1,85,0,0
23532,-100,4,2,1,90,0,0
26350,-100,4,1,1,85,0,0
27714,-100,4,2,1,90,0,0
27805,-100,4,1,1,75,0,0
27896,-100,4,2,1,90,0,0
28169,-100,4,2,1,90,0,0
29259,-100,4,1,1,85,0,0
29350,-100,4,2,1,90,0,0
32169,-100,4,1,1,85,0,0
33532,-100,4,2,1,90,0,0
33623,-100,4,1,1,85,0,0
33714,-100,4,2,1,90,0,0
35441,-100,4,1,1,65,0,0
35623,-100,4,2,1,90,0,0
36169,-100,4,1,1,65,0,0
36350,-100,4,2,1,90,0,0
36896,-100,4,1,1,65,0,0
37078,-100,4,2,1,90,0,0
37623,-100,4,1,1,65,0,0
37805,-100,4,2,1,90,0,0
38350,-100,4,1,1,65,0,0
38532,-100,4,2,1,90,0,0
39078,-100,4,1,1,65,0,0
39259,-100,4,2,1,90,0,0
39805,-100,4,1,1,65,0,0
39987,-100,4,2,1,90,0,0
40532,-100,4,1,1,65,0,0
40714,-100,4,2,1,90,0,0
41259,-100,4,1,1,65,0,0
41441,-100,4,2,1,90,0,0
41987,-100,4,1,1,65,0,0
42169,-100,4,2,1,90,0,0
42714,-100,4,1,1,65,0,0
42896,-100,4,2,1,90,0,0
43441,-100,4,1,1,65,0,0
43623,-100,4,2,1,90,0,0
44350,-100,4,2,1,85,0,0
46532,-100,4,2,1,90,0,0
47078,-100,4,1,1,65,0,0
47259,-100,4,2,1,90,0,0
48532,-100,4,1,1,65,0,0
48714,-100,4,2,1,90,0,0
49259,-100,4,1,1,65,0,0
49441,-100,4,2,1,90,0,0
49987,-100,4,1,1,65,0,0
50169,-100,4,2,1,90,0,0
51441,-100,4,1,1,65,0,0
51623,-100,4,2,1,90,0,0
52169,-100,4,1,1,65,0,0
52350,-100,4,2,1,90,0,0
52896,-100,4,1,1,65,0,0
53078,-100,4,2,1,90,0,0
58714,-100,4,1,1,75,0,0
58805,-100,4,2,1,90,0,0
59441,-100,4,1,1,75,0,0
59502,-100,4,2,1,90,0,0
60169,-100,4,1,1,75,0,0
60259,-100,4,2,1,90,0,0
60896,-100,4,1,1,75,0,0
61078,-100,4,2,1,90,0,0
61623,-100,4,1,1,75,0,0
61805,-100,4,2,1,90,0,0
62350,-100,4,1,1,75,0,0
62532,-100,4,2,1,90,0,0
63078,-100,4,1,1,75,0,0
63441,-100,4,2,1,90,0,0
63623,-100,4,1,1,75,0,0
64169,-100,4,2,1,90,0,0
64532,-100,4,1,1,75,0,0
64623,-100,4,2,1,90,0,0
65259,-100,4,1,1,75,0,0
65350,-100,4,2,1,90,0,0
65987,-100,4,1,1,75,0,0
66169,-100,4,2,1,90,0,0
66714,-100,4,1,1,75,0,0
66896,-100,4,2,1,90,0,0
70351,-100,4,1,1,75,0,0
70442,-100,4,2,1,90,0,0
71078,-100,4,1,1,75,0,0
71139,-100,4,2,1,90,0,0
71806,-100,4,1,1,75,0,0
71896,-100,4,2,1,90,0,0
72533,-100,4,1,1,75,0,0
72715,-100,4,2,1,90,0,0
73260,-100,4,1,1,75,0,0
73442,-100,4,2,1,90,0,0
73987,-100,4,1,1,75,0,0
74169,-100,4,2,1,90,0,0
74715,-100,4,1,1,75,0,0
75078,-100,4,2,1,90,0,0
75260,-100,4,1,1,75,0,0
75805,-100,4,2,1,90,0,0
76169,-100,4,1,1,75,0,0
76350,-100,4,2,1,90,0,0
76896,-100,4,1,1,75,0,0
77259,-100,4,2,1,90,0,0
77623,-100,4,1,1,75,0,0
77805,-100,4,2,1,90,0,0
78350,-100,4,1,1,75,0,0
78532,-100,4,2,1,90,0,0
80896,-100,4,2,1,80,0,0
81623,-100,4,2,1,100,0,1
81987,-100,4,1,1,80,0,1
82169,-100,4,2,1,100,0,1
82714,-100,4,1,1,80,0,1
83078,-100,4,2,1,100,0,1
83441,-100,4,1,1,80,0,1
83532,-100,4,2,1,100,0,1
84169,-100,4,1,1,80,0,1
84214,-100,4,2,1,100,0,1
84896,-100,4,1,1,80,0,1
84941,-100,4,2,1,100,0,1
85623,-100,4,1,1,80,0,1
85668,-100,4,2,1,100,0,1
86350,-100,4,1,1,80,0,1
86396,-100,4,2,1,100,0,1
87078,-100,4,1,1,80,0,1
87123,-100,4,2,1,100,0,1
87805,-100,4,1,1,80,0,1
87896,-100,4,2,1,100,0,1
88532,-100,4,1,1,80,0,1
88623,-100,4,2,1,100,0,1
89987,-100,4,1,1,80,0,1
90169,-100,4,2,1,100,0,1
90714,-100,4,1,1,80,0,1
90759,-100,4,2,1,100,0,1
91442,-100,4,1,1,80,0,1
91487,-100,4,2,1,100,0,1
92169,-100,4,1,1,80,0,1
92259,-100,4,2,1,100,0,1
92896,-100,4,1,1,80,0,1
92941,-100,4,2,1,100,0,1
93623,-100,4,1,1,80,0,1
93805,-100,4,2,1,100,0,1
94350,-100,4,1,1,80,0,1
94714,-100,4,2,1,100,0,1
95077,-100,4,1,1,80,0,1
95168,-100,4,2,1,100,0,1
95805,-100,4,1,1,80,0,1
95850,-100,4,2,1,100,0,1
96532,-100,4,1,1,80,0,1
96577,-100,4,2,1,100,0,1
97259,-100,4,1,1,80,0,1
97304,-100,4,2,1,100,0,1
97986,-100,4,1,1,80,0,1
98032,-100,4,2,1,100,0,1
98714,-100,4,1,1,80,0,1
98759,-100,4,2,1,100,0,1
99441,-100,4,1,1,80,0,1
99532,-100,4,2,1,100,0,1
100168,-100,4,1,1,80,0,1
100259,-100,4,2,1,100,0,1
101623,-100,4,1,1,80,0,1
101805,-100,4,2,1,100,0,1
102350,-100,4,1,1,80,0,1
102395,-100,4,2,1,100,0,1
103078,-100,4,1,1,80,0,1
103123,-100,4,2,1,100,0,1
103805,-100,4,1,1,80,0,1
103895,-100,4,2,1,100,0,1
104532,-100,4,1,1,80,0,1
104896,-100,4,1,1,75,0,0
104987,-100,4,2,1,90,0,0
107805,-100,4,1,1,50,0,0
109169,-100,4,2,1,90,0,0
109260,-100,4,1,1,75,0,0
109351,-100,4,2,1,90,0,0
110714,-100,4,1,1,75,0,0
110805,-100,4,2,1,90,0,0
113624,-100,4,1,1,50,0,0
114987,-100,4,2,1,90,0,0
115078,-100,4,1,1,75,0,0
115169,-100,4,2,1,90,0,0
116895,-100,4,1,1,65,0,0
117077,-100,4,2,1,90,0,0
117623,-100,4,1,1,65,0,0
117804,-100,4,2,1,90,0,0
118350,-100,4,1,1,65,0,0
118532,-100,4,2,1,90,0,0
119077,-100,4,1,1,65,0,0
119259,-100,4,2,1,90,0,0
119804,-100,4,1,1,65,0,0
119986,-100,4,2,1,90,0,0
120532,-100,4,1,1,65,0,0
120713,-100,4,2,1,90,0,0
121259,-100,4,1,1,65,0,0
121441,-100,4,2,1,90,0,0
121986,-100,4,1,1,65,0,0
122168,-100,4,2,1,90,0,0
122713,-100,4,1,1,65,0,0
122895,-100,4,2,1,90,0,0
123441,-100,4,1,1,65,0,0
123623,-100,4,2,1,90,0,0
124168,-100,4,1,1,65,0,0
124350,-100,4,2,1,90,0,0
124895,-100,4,1,1,65,0,0
125077,-100,4,2,1,90,0,0
125804,-100,4,2,1,65,0,0
127986,-100,4,2,1,90,0,0
128532,-100,4,1,1,65,0,0
128713,-100,4,2,1,90,0,0
129986,-100,4,1,1,65,0,0
130168,-100,4,2,1,90,0,0
130713,-100,4,1,1,65,0,0
130895,-100,4,2,1,90,0,0
131441,-100,4,1,1,65,0,0
131623,-100,4,2,1,90,0,0
132895,-100,4,1,1,65,0,0
133077,-100,4,2,1,90,0,0
133623,-100,4,1,1,65,0,0
133804,-100,4,2,1,90,0,0
134350,-100,4,1,1,65,0,0
134532,-100,4,2,1,90,0,0
139896,-100,4,1,1,75,0,0
139987,-100,4,2,1,90,0,0
140169,-100,4,1,1,75,0,0
140260,-100,4,2,1,90,0,0
140896,-100,4,1,1,75,0,0
140957,-100,4,2,1,90,0,0
141624,-100,4,1,1,75,0,0
141714,-100,4,2,1,90,0,0
142351,-100,4,1,1,75,0,0
142533,-100,4,2,1,90,0,0
142805,-100,4,1,1,75,0,0
143260,-100,4,2,1,90,0,0
143805,-100,4,1,1,75,0,0
143987,-100,4,2,1,90,0,0
144260,-100,4,1,1,75,0,0
144351,-100,4,2,1,90,0,0
144533,-100,4,1,1,75,0,0
144896,-100,4,2,1,90,0,0
145078,-100,4,1,1,75,0,0
145351,-100,4,2,1,90,0,0
145714,-100,4,1,1,75,0,0
145805,-100,4,2,1,90,0,0
145987,-100,4,1,1,75,0,0
146078,-100,4,2,1,90,0,0
146714,-100,4,1,1,75,0,0
146805,-100,4,2,1,90,0,0
147442,-100,4,1,1,75,0,0
147624,-100,4,2,1,90,0,0
148169,-100,4,1,1,75,0,0
148351,-100,4,2,1,90,0,0
148624,-100,4,1,1,75,0,0
149987,-100,4,2,1,90,0,0
150078,-100,4,1,1,75,0,0
150169,-100,4,2,1,90,0,0
151806,-100,4,1,1,75,0,0
151897,-100,4,2,1,90,0,0
152533,-100,4,1,1,75,0,0
152594,-100,4,2,1,90,0,0
153261,-100,4,1,1,75,0,0
153351,-100,4,2,1,90,0,0
153988,-100,4,1,1,75,0,0
154170,-100,4,2,1,90,0,0
154715,-100,4,1,1,75,0,0
154897,-100,4,2,1,90,0,0
155442,-100,4,1,1,75,0,0
155624,-100,4,2,1,90,0,0
156170,-100,4,1,1,75,0,0
156533,-100,4,2,1,90,0,0
156715,-100,4,1,1,75,0,0
157260,-100,4,2,1,90,0,0
157624,-100,4,1,1,75,0,0
157805,-100,4,2,1,90,0,0
158351,-100,4,1,1,75,0,0
158714,-100,4,2,1,90,0,0
159078,-100,4,1,1,75,0,0
159260,-100,4,2,1,90,0,0
159805,-100,4,1,1,75,0,0
159987,-100,4,2,1,90,0,0
162351,-100,4,2,1,80,0,0
163078,-100,4,2,1,100,0,1
163442,-100,4,1,1,80,0,1
163624,-100,4,2,1,100,0,1
164169,-100,4,1,1,80,0,1
164533,-100,4,2,1,100,0,1
164896,-100,4,1,1,80,0,1
164987,-100,4,2,1,100,0,1
165624,-100,4,1,1,80,0,1
165669,-100,4,2,1,100,0,1
166351,-100,4,1,1,80,0,1
166396,-100,4,2,1,100,0,1
167078,-100,4,1,1,80,0,1
167123,-100,4,2,1,100,0,1
167805,-100,4,1,1,80,0,1
167851,-100,4,2,1,100,0,1
168533,-100,4,1,1,80,0,1
168578,-100,4,2,1,100,0,1
169260,-100,4,1,1,80,0,1
169351,-100,4,2,1,100,0,1
169987,-100,4,1,1,80,0,1
170078,-100,4,2,1,100,0,1
171442,-100,4,1,1,80,0,1
171624,-100,4,2,1,100,0,1
172169,-100,4,1,1,80,0,1
172214,-100,4,2,1,100,0,1
172897,-100,4,1,1,80,0,1
172942,-100,4,2,1,100,0,1
173624,-100,4,1,1,80,0,1
173714,-100,4,2,1,100,0,1
174351,-100,4,1,1,80,0,1
174396,-100,4,2,1,100,0,1
175078,-100,4,1,1,80,0,1
175260,-100,4,2,1,100,0,1
175805,-100,4,1,1,80,0,1
176169,-100,4,2,1,100,0,1
176532,-100,4,1,1,80,0,1
176623,-100,4,2,1,100,0,1
177260,-100,4,1,1,80,0,1
177305,-100,4,2,1,100,0,1
177987,-100,4,1,1,80,0,1
178032,-100,4,2,1,100,0,1
178714,-100,4,1,1,80,0,1
178759,-100,4,2,1,100,0,1
179441,-100,4,1,1,80,0,1
179487,-100,4,2,1,100,0,1
180169,-100,4,1,1,80,0,1
180214,-100,4,2,1,100,0,1
180896,-100,4,1,1,80,0,1
180987,-100,4,2,1,100,0,1
181623,-100,4,1,1,80,0,1
181714,-100,4,2,1,100,0,1
183078,-100,4,1,1,80,0,1
183260,-100,4,2,1,100,0,1
183805,-100,4,1,1,80,0,1
183850,-100,4,2,1,100,0,1
184533,-100,4,1,1,80,0,1
184578,-100,4,2,1,100,0,1
185260,-100,4,1,1,80,0,1
185350,-100,4,2,1,100,0,1
185987,-100,4,1,1,80,0,1
186350,-100,4,2,1,90,0,0
186714,-100,4,1,1,75,0,0
186896,-100,4,2,1,90,0,0
187441,-100,4,1,1,75,0,0
187623,-100,4,2,1,90,0,0
188169,-100,4,1,1,75,0,0
188259,-100,4,2,1,90,0,0
188896,-100,4,1,1,75,0,0
188986,-100,4,2,1,90,0,0
189623,-100,4,1,1,75,0,0
189669,-100,4,2,1,90,0,0
190350,-100,4,1,1,75,0,0
190396,-100,4,2,1,90,0,0
191078,-100,4,1,1,75,0,0
191169,-100,4,2,1,90,0,0
191805,-100,4,1,1,75,0,0
191851,-100,4,2,1,90,0,0
192532,-100,4,1,1,75,0,0
192623,-100,4,2,1,90,0,0
193259,-100,4,1,1,75,0,0
193350,-100,4,2,1,90,0,0
193987,-100,4,1,1,75,0,0
194078,-100,4,2,1,90,0,0
194714,-100,4,1,1,75,0,0
194805,-100,4,2,1,75,0,0
195441,-100,4,1,1,75,0,0
195487,-100,4,2,1,90,0,0
196169,-100,4,1,1,75,0,0
196215,-100,4,2,1,90,0,0
196896,-100,4,1,1,75,0,0
196987,-100,4,2,1,90,0,0
197623,-100,4,1,1,75,0,0
197669,-100,4,2,1,90,0,0
198350,-100,4,1,1,75,0,0
198441,-100,4,2,1,90,0,0
199078,-100,4,1,1,75,0,0
199259,-100,4,2,1,90,0,0
199805,-100,4,1,1,75,0,0
199896,-100,4,2,1,90,0,0
200532,-100,4,1,1,75,0,0
200623,-100,4,2,1,90,0,0
201259,-100,4,1,1,75,0,0
201305,-100,4,2,1,90,0,0
201987,-100,4,1,1,75,0,0
202033,-100,4,2,1,90,0,0
202714,-100,4,1,1,75,0,0
202805,-100,4,2,1,90,0,0
203441,-100,4,1,1,75,0,0
203487,-100,4,2,1,90,0,0
204169,-100,4,1,1,75,0,0
204259,-100,4,2,1,90,0,0
204896,-100,4,1,1,75,0,0
204986,-100,4,2,1,90,0,0
205623,-100,4,1,1,75,0,0
205713,-100,4,2,1,90,0,0
206350,-100,4,1,1,75,0,0
206532,-100,4,2,1,90,0,0
207078,-100,4,1,1,75,0,0
207123,-100,4,2,1,90,0,0
207805,-100,4,1,1,75,0,0
207850,-100,4,2,1,90,0,0
209623,-100,4,2,1,70,0,0
214714,-100,4,2,1,90,0,0
215441,-100,4,2,1,70,0,0
220896,-100,4,2,1,100,0,0
221259,-90.9090909090909,4,2,1,100,0,1
221623,-90.9090909090909,4,1,1,80,0,1
221805,-90.9090909090909,4,2,1,100,0,1
222350,-90.9090909090909,4,1,1,80,0,1
222714,-90.9090909090909,4,2,1,100,0,1
223077,-90.9090909090909,4,1,1,80,0,1
223168,-90.9090909090909,4,2,1,100,0,1
223805,-90.9090909090909,4,1,1,80,0,1
223850,-90.9090909090909,4,2,1,100,0,1
224532,-90.9090909090909,4,1,1,80,0,1
224577,-90.9090909090909,4,2,1,100,0,1
225259,-90.9090909090909,4,1,1,80,0,1
225304,-90.9090909090909,4,2,1,100,0,1
225986,-90.9090909090909,4,1,1,80,0,1
226032,-90.9090909090909,4,2,1,100,0,1
226714,-90.9090909090909,4,1,1,80,0,1
226759,-90.9090909090909,4,2,1,100,0,1
227441,-90.9090909090909,4,1,1,80,0,1
227532,-90.9090909090909,4,2,1,100,0,1
228168,-90.9090909090909,4,1,1,80,0,1
228259,-90.9090909090909,4,2,1,100,0,1
229623,-90.9090909090909,4,1,1,80,0,1
229805,-90.9090909090909,4,2,1,100,0,1
230350,-90.9090909090909,4,1,1,80,0,1
230395,-90.9090909090909,4,2,1,100,0,1
231078,-90.9090909090909,4,1,1,80,0,1
231123,-90.9090909090909,4,2,1,100,0,1
231805,-90.9090909090909,4,1,1,80,0,1
231895,-90.9090909090909,4,2,1,100,0,1
232532,-90.9090909090909,4,1,1,80,0,1
232896,-100,4,1,1,75,0,0
232987,-100,4,2,1,90,0,0
235805,-100,4,1,1,65,0,0
237169,-100,4,2,1,90,0,0
237260,-100,4,1,1,75,0,0
237351,-100,4,2,1,90,0,0
238714,-100,4,1,1,75,0,0
238805,-100,4,2,1,90,0,0
241624,-100,4,1,1,50,0,0
242987,-100,4,2,1,90,0,0
243078,-100,4,1,1,75,0,0
243169,-100,4,2,1,90,0,0

[Colours]
Combo1 : 0,118,174
Combo2 : 163,93,145
Combo3 : 227,45,122
Combo4 : 128,128,255

[HitObjects]
340,228,169,6,0,L|448:228,2,80,6|0|0,0:0|0:0|0:0,0:0:0:0:
188,232,896,2,0,L|176:124,1,80,0|0,0:0|0:0,0:0:0:0:
268,136,1259,1,0,0:0:0:0:
356,128,1441,1,2,0:0:0:0:
212,144,1805,6,0,L|208:252,1,80,0|0,0:0|0:0,0:0:0:0:
116,236,2169,2,0,L|112:344,1,80,0|0,0:0|0:0,0:0:0:0:
200,312,2532,2,0,L|284:312,1,80,0|0,0:0|0:0,0:0:0:0:
368,312,2896,1,2,0:0:0:0:
224,136,3259,6,0,L|220:244,1,80,0|0,0:0|0:0,0:0:0:0:
308,220,3623,2,0,L|396:228,1,80,0|0,0:0|0:0,0:0:0:0:
476,232,3987,2,0,L|484:320,1,80,0|0,0:0|0:0,0:0:0:0:
396,340,4350,1,2,0:0:0:0:
232,344,4714,6,0,L|124:332,1,80,0|0,0:0|0:0,0:0:0:0:
76,316,5078,2,0,L|72:208,1,80,0|0,0:0|0:0,0:0:0:0:
160,220,5441,2,0,L|168:120,1,80,0|0,0:0|0:0,0:0:0:0:
256,144,5805,1,2,0:0:0:0:
416,144,5987,5,6,0:0:0:0:
504,148,6169,2,0,L|508:256,1,80,0|0,0:0|0:0,0:0:0:0:
432,264,6532,2,0,L|332:276,1,80,0|0,0:0|0:0,0:0:0:0:
272,288,6896,2,0,L|184:300,1,80,0|0,0:0|0:0,0:0:0:0:
108,316,7259,1,2,0:0:0:0:
280,236,7623,6,0,L|284:128,1,80
204,152,7987,2,0,L|120:136,1,80,0|0,0:0|0:0,0:0:0:0:
44,136,8350,2,0,L|36:36,1,80,0|0,0:0|0:0,0:0:0:0:
124,52,8714,1,2,0:0:0:0:
284,56,9078,6,0,L|372:80,1,80,0|0,0:0|0:0,0:0:0:0:
444,104,9441,2,0,L|448:212,1,80,0|0,0:0|0:0,0:0:0:0:
352,236,9805,2,0,L|352:320,1,80
440,320,10169,1,2,0:0:0:0:
280,304,10532,6,0,L|196:296,1,80
272,216,10896,2,0,L|272:132,1,80
176,132,11259,2,0,L|76:132,1,80
340,76,11805,5,4,0:0:0:0:
340,76,11987,1,8,0:0:0:0:
180,184,12350,2,0,L|444:184,1,240,8|8,0:0|0:0,0:0:0:0:
132,76,13259,5,4,0:0:0:0:
132,76,13441,1,8,0:0:0:0:
292,184,13805,2,0,L|28:184,1,240,8|8,0:0|0:0,0:0:0:0:
340,88,14714,5,4,0:0:0:0:
340,88,14896,1,8,0:0:0:0:
492,160,15259,2,0,P|468:304|384:368,1,240,8|8,0:0|0:0,0:0:0:0:
112,88,16169,5,4,0:0:0:0:
112,88,16350,1,8,0:0:0:0:
272,156,16714,2,0,P|232:292|140:344,1,240,8|8,0:0|0:0,0:0:0:0:
448,184,17623,5,4,0:0:0:0:
448,184,17987,1,8,0:0:0:0:
304,184,18350,1,0,0:0:0:0:
304,184,18714,1,8,0:0:0:0:
36,188,19078,5,4,0:0:0:0:
36,188,19441,1,8,0:0:0:0:
180,188,19805,1,2,0:0:0:0:
36,188,20169,1,8,0:0:0:0:
273,154,20532,6,0,L|160:154,1,80,4|0,0:0|0:0,0:0:0:0:
273,154,20896,2,0,L|368:152,1,80,8|0,0:0|0:0,0:0:0:0:
168,164,21259,2,0,L|168:244,1,80,8|0,0:0|0:0,0:0:0:0:
273,154,21623,2,0,L|273:46,1,80,8|0,0:0|0:0,0:0:0:0:
108,72,21987,5,4,0:0:0:0:
92,116,22078,1,0,0:0:0:0:
92,160,22169,1,0,0:0:0:0:
112,208,22259,1,0,0:0:0:0:
135,253,22350,1,2,0:0:0:0:
172,285,22441,1,0,0:0:0:0:
219,303,22532,1,2,0:0:0:0:
152,72,22714,5,2,0:0:0:0:
121,111,22805,1,0,0:0:0:0:
108,159,22896,1,2,0:0:0:0:
135,253,23078,2,0,L|240:252,1,80,6|0,0:0|0:0,0:0:0:0:
460,212,23441,6,0,L|460:148,1,40,4|0,0:0|0:0,0:0:0:0:
416,144,23623,1,0,0:0:0:0:
328,144,23805,2,0,L|200:144,1,120,2|2,0:0|0:0,0:0:0:0:
100,228,24350,2,0,L|228:228,1,120,2|0,0:0|0:0,0:0:0:0:
344,224,24896,1,8,0:0:0:0:
448,224,25078,5,2,0:0:0:0:
272,224,25259,2,0,L|268:332,1,80,2|0,0:0|0:0,0:0:0:0:
356,304,25623,1,8,0:0:0:0:
444,304,25805,2,0,L|448:412,1,80,2|0,0:0|0:0,0:0:0:0:
196,224,26259,6,0,L|196:108,1,80,2|0,0:0|0:0,0:0:0:0:
252,144,26532,2,0,L|348:144,1,80,0|0,0:0|0:0,0:0:0:0:
416,144,26896,1,0,0:0:0:0:
328,144,27078,2,0,L|328:40,1,80,0|0,0:0|0:0,0:0:0:0:
232,148,27441,2,0,L|232:212,1,40,0|0,0:0|0:0,0:0:0:0:
400,276,27714,6,0,L|256:276,1,120,2|0,0:0|0:0,0:0:0:0:
376,184,28169,2,0,L|380:96,1,80,6|0,0:0|0:0,0:0:0:0:
288,188,28532,2,0,L|284:272,1,80,6|0,0:0|0:0,0:0:0:0:
384,264,28896,2,0,L|288:264,1,80,6|0,0:0|0:0,0:0:0:0:
52,212,29259,6,0,L|52:148,1,40,4|0,0:0|0:0,0:0:0:0:
96,144,29441,1,0,0:0:0:0:
184,144,29623,2,0,L|312:144,1,120,2|2,0:0|0:0,0:0:0:0:
412,228,30169,2,0,L|284:228,1,120,2|0,0:0|0:0,0:0:0:0:
168,224,30714,1,8,0:0:0:0:
64,224,30896,5,2,0:0:0:0:
232,224,31078,2,0,L|236:332,1,80,2|0,0:0|0:0,0:0:0:0:
148,304,31441,1,8,0:0:0:0:
316,304,31623,2,0,L|320:412,1,80,2|0,0:0|0:0,0:0:0:0:
96,224,32078,6,0,L|96:108,1,80,2|0,0:0|0:0,0:0:0:0:
152,144,32350,2,0,L|248:144,1,80,0|0,0:0|0:0,0:0:0:0:
312,152,32714,1,0,0:0:0:0:
216,148,32896,2,0,L|216:44,1,80,0|0,0:0|0:0,0:0:0:0:
312,152,33259,2,0,L|312:216,1,40,0|0,0:0|0:0,0:0:0:0:
136,276,33532,6,0,L|280:276,1,120,2|0,0:0|0:0,0:0:0:0:
80,276,33987,2,0,L|76:188,1,80,8|8,0:0|0:0,0:0:0:0:
224,172,34532,2,0,L|328:172,1,80,8|0,0:0|0:0,0:0:0:0:
56,172,34896,6,0,P|50:238|112:304,1,160,2|0,0:0|0:0,0:0:0:0:
200,312,35441,1,8,0:0:0:0:
110,303,35623,2,0,P|74:239|122:167,1,160
408,168,36350,6,0,L|244:168,1,160,2|2,0:0|0:0,0:0:0:0:
160,236,36896,2,0,L|160:144,1,80,8|0,0:0|0:0,0:0:0:0:
248,144,37259,2,0,L|248:56,1,80,2|0,0:0|0:0,0:0:0:0:
160,68,37623,1,8,0:0:0:0:
336,64,37805,6,0,P|368:116|332:240,1,160,2|0,0:0|0:0,0:0:0:0:
276,216,38350,1,8,0:0:0:0:
192,220,38532,2,0,P|156:284|196:372,1,160,0|0,0:0|0:0,0:0:0:0:
456,212,39259,6,0,L|280:212,1,160,2|0,0:0|0:0,0:0:0:0:
208,220,39805,2,0,L|208:120,1,80,8|0,0:0|0:0,0:0:0:0:
296,136,40169,2,0,L|384:136,1,80,2|0,0:0|0:0,0:0:0:0:
296,60,40532,1,8,0:0:0:0:
120,64,40714,6,0,P|88:116|124:240,1,160,2|0,0:0|0:0,0:0:0:0:
184,212,41259,1,8,0:0:0:0:
276,216,41441,2,0,P|324:272|320:364,1,160
44,280,42169,6,0,L|216:280,1,160,2|0,0:0|0:0,0:0:0:0:
300,264,42714,2,0,L|312:160,1,80,8|0,0:0|0:0,0:0:0:0:
208,184,43078,2,0,L|208:96,1,80,2|0,0:0|0:0,0:0:0:0:
304,104,43441,1,8,0:0:0:0:
128,104,43623,6,0,P|96:156|132:280,1,160,0|0,0:0|0:0,0:0:0:0:
372,104,44350,2,0,P|408:168|368:256,1,160,4|4,0:0|0:0,0:0:0:0:
104,104,45078,2,0,P|68:168|108:256,1,160,4|4,0:0|0:0,0:0:0:0:
376,100,45805,2,0,P|412:164|372:252,1,160,4|2,0:0|0:0,0:0:0:0:
140,160,46532,6,0,L|312:160,1,160,2|0,0:0|0:0,0:0:0:0:
212,208,47078,1,8,0:0:0:0:
128,212,47259,2,0,P|92:276|140:348,1,160,2|0,0:0|0:0,0:0:0:0:
396,216,47987,6,0,L|200:216,1,160,2|0,0:0|0:0,0:0:0:0:
148,212,48532,2,0,L|136:108,1,80,8|0,0:0|0:0,0:0:0:0:
224,120,48896,2,0,L|312:104,1,80,2|0,0:0|0:0,0:0:0:0:
384,92,49259,1,8,0:0:0:0:
208,96,49441,6,0,P|176:148|212:272,1,160,2|0,0:0|0:0,0:0:0:0:
268,236,49987,1,8,0:0:0:0:
179,242,50169,2,0,P|143:306|183:394,1,160,2|0,0:0|0:0,0:0:0:0:
396,216,50896,6,0,P|412:301|348:364,1,160,2|0,0:0|0:0,0:0:0:0:
280,352,51441,2,0,L|268:248,1,80,8|0,0:0|0:0,0:0:0:0:
360,236,51805,2,0,L|360:148,1,80,2|0,0:0|0:0,0:0:0:0:
264,156,52169,1,8,0:0:0:0:
440,184,52350,6,0,P|472:236|436:360,1,160,2|0,0:0|0:0,0:0:0:0:
368,332,52896,1,8,0:0:0:0:
192,336,53078,2,0,P|156:272|196:184,1,160,2|0,0:0|0:0,0:0:0:0:
444,128,53805,6,0,L|272:128,1,160,4|0,0:0|0:0,0:0:0:0:
188,128,54350,2,0,L|188:36,1,80,2|0,0:0|0:0,0:0:0:0:
284,128,54714,2,0,P|304:176|264:272,1,160,2|0,0:0|0:0,0:0:0:0:
88,136,55259,6,0,P|56:188|124:352,1,240,2|0,0:0|0:0,0:0:0:0:
308,328,56381,2,0,L|392:360,2,80,0|0|0,0:0|0:0|0:0,0:0:0:0:
156,156,57078,6,0,L|156:208,1,40,0|0,0:0|0:0,0:0:0:0:
208,220,57259,1,0,0:0:0:0:
304,240,57441,2,0,L|304:292,1,40,0|0,0:0|0:0,0:0:0:0:
252,304,57623,1,0,0:0:0:0:
156,156,57805,2,0,L|156:208,1,40
208,220,57987,1,0,0:0:0:0:
304,220,58169,1,0,0:0:0:0:
60,184,58350,6,0,P|52:272|104:328,1,160,4|8,0:0|0:0,0:0:0:0:
192,332,58896,1,0,0:0:0:0:
288,328,59078,5,2,0:0:0:0:
307,310,59138,1,0,0:0:0:0:
324,289,59199,1,0,0:0:0:0:
337,266,59259,1,0,0:0:0:0:
347,241,59320,1,0,0:0:0:0:
353,215,59381,1,0,0:0:0:0:
354,188,59441,1,8,0:0:0:0:
352,162,59502,1,0,0:0:0:0:
345,136,59562,1,0,0:0:0:0:
335,112,59623,1,0,0:0:0:0:
160,100,59805,6,0,P|128:188|156:256,1,160,2|8,0:0|0:0,0:0:0:0:
236,272,60350,1,0,0:0:0:0:
328,268,60532,2,0,L|332:184,1,80,2|0,0:0|0:0,0:0:0:0:
244,176,60896,1,8,0:0:0:0:
412,152,61078,6,0,P|451:204|456:316,1,160,0|0,0:0|0:0,0:0:0:0:
264,288,61805,2,0,L|432:288,1,160,0|0,0:0|0:0,0:0:0:0:
336,208,62350,1,8,0:0:0:0:
184,120,62532,6,0,L|356:120,1,160,2|0,0:0|0:0,0:0:0:0:
252,120,63078,2,0,L|252:216,1,80,8|0,0:0|0:0,0:0:0:0:
332,224,63441,2,0,L|248:224,1,80,2|0,0:0|0:0,0:0:0:0:
172,224,63805,1,8,0:0:0:0:
448,300,64169,6,0,L|260:300,1,160,2|8,0:0|0:0,0:0:0:0:
200,300,64714,1,0,0:0:0:0:
116,300,64896,2,0,L|288:300,1,160,2|8,0:0|0:0,0:0:0:0:
16,304,65623,6,0,P|16:216|68:160,1,160,2|8,0:0|0:0,0:0:0:0:
148,152,66169,2,0,L|328:152,1,160,0|0,0:0|0:0,0:0:0:0:
392,152,66714,1,8,0:0:0:0:
236,272,66896,6,0,P|205:190|236:104,1,160,2|0,0:0|0:0,0:0:0:0:
392,120,67623,1,0,0:0:0:0:
208,116,67987,1,0,0:0:0:0:
480,104,68350,6,0,L|480:276,1,160,2|0,0:0|0:0,0:0:0:0:
320,264,68896,2,0,L|236:264,1,80,2|0,0:0|0:0,0:0:0:0:
328,264,69259,2,0,L|328:176,1,80,2|0,0:0|0:0,0:0:0:0:
236,160,69623,2,0,L|236:264,1,80,2|0,0:0|0:0,0:0:0:0:
416,180,69987,6,0,P|436:92|408:24,1,160,4|8,0:0|0:0,0:0:0:0:
320,28,70532,1,0,0:0:0:0:
224,56,70714,5,2,0:0:0:0:
205,74,70775,1,0,0:0:0:0:
188,95,70835,1,0,0:0:0:0:
175,118,70896,1,0,0:0:0:0:
165,143,70956,1,0,0:0:0:0:
159,169,71017,1,0,0:0:0:0:
158,196,71078,1,8,0:0:0:0:
160,222,71138,1,0,0:0:0:0:
167,248,71199,1,0,0:0:0:0:
177,272,71259,1,0,0:0:0:0:
352,284,71441,6,0,P|384:196|356:128,1,160,2|8,0:0|0:0,0:0:0:0:
276,136,71987,1,0,0:0:0:0:
192,132,72169,2,0,L|176:228,1,80,2|0,0:0|0:0,0:0:0:0:
268,216,72532,1,8,0:0:0:0:
100,212,72714,6,0,L|100:384,1,160,0|0,0:0|0:0,0:0:0:0:
276,192,73441,2,0,L|112:192,1,160,0|0,0:0|0:0,0:0:0:0:
28,196,73987,1,8,0:0:0:0:
208,200,74169,6,0,P|250:134|208:60,1,160,2|0,0:0|0:0,0:0:0:0:
128,72,74714,2,0,L|116:160,1,80,8|0,0:0|0:0,0:0:0:0:
204,180,75078,2,0,L|292:200,1,80,2|0,0:0|0:0,0:0:0:0:
372,220,75441,1,8,0:0:0:0:
128,96,75805,6,0,P|96:184|124:252,1,160,4|8,0:0|0:0,0:0:0:0:
216,204,76350,2,0,L|216:372,1,160,0|0,0:0|0:0,0:0:0:0:
308,356,76896,1,8,0:0:0:0:
216,364,77078,1,0,0:0:0:0:
384,96,77259,6,0,P|416:184|388:252,1,160,4|8,0:0|0:0,0:0:0:0:
280,292,77805,2,0,L|280:120,1,160,0|0,0:0|0:0,0:0:0:0:
376,136,78350,1,8,0:0:0:0:
192,284,78532,6,0,L|192:116,1,160,4|0,0:0|0:0,0:0:0:0:
192,56,79078,1,2,0:0:0:0:
348,56,79259,1,2,0:0:0:0:
172,144,79623,1,2,0:0:0:0:
440,140,79987,6,0,L|440:312,1,160,8|2,0:0|0:0,0:0:0:0:
344,296,80532,2,0,L|260:296,1,80,2|2,0:0|0:0,0:0:0:0:
112,296,80896,1,4,0:0:0:0:
112,256,80987,1,0,0:0:0:0:
112,216,81078,1,0,0:0:0:0:
264,212,81259,1,4,0:0:0:0:
304,212,81350,1,0,0:0:0:0:
344,212,81441,1,0,0:0:0:0:
100,216,81623,6,0,L|100:112,1,80,4|0,0:0|0:0,0:0:0:0:
192,148,81987,2,0,L|192:44,1,80,8|0,0:0|0:0,0:0:0:0:
364,76,82350,2,0,L|452:76,1,80,2|0,0:0|0:0,0:0:0:0:
368,176,82714,2,0,L|280:176,1,80,8|0,0:0|0:0,0:0:0:0:
112,184,83078,5,2,0:0:0:0:
376,184,83441,1,8,0:0:0:0:
112,184,83805,2,0,L|112:268,1,80,2|2,0:0|0:0,0:0:0:0:
208,264,84169,2,0,L|296:264,1,80,8|0,0:0|0:0,0:0:0:0:
44,224,84532,6,0,L|44:336,1,80,4|0,0:0|0:0,0:0:0:0:
204,304,84896,1,8,0:0:0:0:
164,304,84987,1,2,0:0:0:0:
124,304,85078,1,0,0:0:0:0:
284,224,85259,6,0,L|284:336,1,80,4|0,0:0|0:0,0:0:0:0:
124,304,85623,1,8,0:0:0:0:
164,304,85714,1,2,0:0:0:0:
204,304,85805,1,0,0:0:0:0:
364,312,85987,6,0,L|364:220,1,80,2|2,0:0|0:0,0:0:0:0:
268,220,86350,1,8,0:0:0:0:
268,180,86441,1,0,0:0:0:0:
268,140,86532,1,2,0:0:0:0:
124,76,86714,1,2,0:0:0:0:
124,116,86805,1,0,0:0:0:0:
124,156,86896,1,2,0:0:0:0:
216,164,87078,2,0,L|296:164,1,80,8|0,0:0|0:0,0:0:0:0:
52,192,87441,6,0,L|136:192,1,80,4|0,0:0|0:0,0:0:0:0:
224,192,87805,2,0,L|224:88,1,80,0|0,0:0|0:0,0:0:0:0:
64,88,88169,2,0,L|152:88,1,80,2|2,0:0|0:0,0:0:0:0:
236,96,88532,2,0,L|324:96,1,80,8|2,0:0|0:0,0:0:0:0:
144,96,88896,5,4,0:0:0:0:
408,96,89259,1,4,0:0:0:0:
144,96,89623,1,4,0:0:0:0:
146,135,89714,1,2,0:0:0:0:
148,175,89805,1,2,0:0:0:0:
228,268,89987,2,0,L|136:268,1,80,8|0,0:0|0:0,0:0:0:0:
392,160,90350,6,0,L|392:48,1,80,4|0,0:0|0:0,0:0:0:0:
232,80,90714,1,8,0:0:0:0:
272,80,90805,1,2,0:0:0:0:
312,80,90896,1,0,0:0:0:0:
152,160,91078,6,0,L|152:48,1,80,4|0,0:0|0:0,0:0:0:0:
312,80,91441,1,8,0:0:0:0:
272,80,91532,1,2,0:0:0:0:
232,80,91623,1,0,0:0:0:0:
384,76,91805,6,0,L|384:168,1,80,4|2,0:0|0:0,0:0:0:0:
292,180,92169,2,0,L|292:272,1,80,0|2,0:0|0:0,0:0:0:0:
124,76,92532,1,4,0:0:0:0:
84,76,92623,1,0,0:0:0:0:
44,76,92714,1,0,0:0:0:0:
124,200,92896,2,0,L|212:200,1,80,8|0,0:0|0:0,0:0:0:0:
456,216,93259,6,0,L|456:120,1,80,4|0,0:0|0:0,0:0:0:0:
376,76,93623,2,0,L|292:76,1,80,8|0,0:0|0:0,0:0:0:0:
128,76,93987,2,0,L|40:76,1,80,2|0,0:0|0:0,0:0:0:0:
124,176,94350,2,0,L|212:176,1,80,8|0,0:0|0:0,0:0:0:0:
352,104,94714,5,2,0:0:0:0:
96,112,95078,1,8,0:0:0:0:
352,104,95441,2,0,L|264:104,1,80,2|2,0:0|0:0,0:0:0:0:
184,108,95805,2,0,L|96:108,1,80,8|0,0:0|0:0,0:0:0:0:
392,160,96169,6,0,L|392:48,1,80,4|0,0:0|0:0,0:0:0:0:
232,80,96532,1,8,0:0:0:0:
272,80,96623,1,2,0:0:0:0:
312,80,96714,1,0,0:0:0:0:
152,160,96896,6,0,L|152:48,1,80,4|0,0:0|0:0,0:0:0:0:
312,80,97259,1,8,0:0:0:0:
272,80,97350,1,2,0:0:0:0:
232,80,97441,1,0,0:0:0:0:
388,76,97623,6,0,L|388:168,1,80,2|2,0:0|0:0,0:0:0:0:
300,156,97987,2,0,L|208:156,1,80,8|2,0:0|0:0,0:0:0:0:
376,168,98350,1,2,0:0:0:0:
376,208,98441,1,0,0:0:0:0:
376,248,98532,1,2,0:0:0:0:
288,244,98714,2,0,L|192:244,1,80,8|0,0:0|0:0,0:0:0:0:
460,192,99078,6,0,L|376:192,1,80,4|0,0:0|0:0,0:0:0:0:
288,192,99441,2,0,L|288:88,1,80,0|0,0:0|0:0,0:0:0:0:
440,88,99805,2,0,L|352:88,1,80,2|2,0:0|0:0,0:0:0:0:
268,96,100169,2,0,L|180:96,1,80,8|2,0:0|0:0,0:0:0:0:
360,96,100532,5,4,0:0:0:0:
96,96,100896,1,4,0:0:0:0:
336,104,101259,1,4,0:0:0:0:
336,144,101350,1,2,0:0:0:0:
296,184,101441,1,2,0:0:0:0:
212,188,101623,2,0,L|128:188,1,80,8|0,0:0|0:0,0:0:0:0:
396,180,101987,6,0,L|400:292,1,80,4|0,0:0|0:0,0:0:0:0:
244,256,102350,1,8,0:0:0:0:
204,256,102441,1,2,0:0:0:0:
244,256,102532,1,0,0:0:0:0:
396,256,102714,6,0,L|400:368,1,80,4|0,0:0|0:0,0:0:0:0:
244,332,103078,1,8,0:0:0:0:
204,332,103169,1,2,0:0:0:0:
244,332,103259,1,0,0:0:0:0:
488,208,103441,6,0,L|388:208,1,80,4|2,0:0|0:0,0:0:0:0:
328,208,103805,2,0,L|228:208,1,80,0|2,0:0|0:0,0:0:0:0:
96,208,104169,1,4,0:0:0:0:
96,248,104259,1,0,0:0:0:0:
96,288,104350,1,0,0:0:0:0:
256,276,104532,1,8,0:0:0:0:
256,316,104623,1,0,0:0:0:0:
256,356,104714,1,0,0:0:0:0:
8,364,104896,1,4,0:0:0:0:
364,64,116350,6,0,L|372:224,1,160,2|0,0:0|0:0,0:0:0:0:
288,232,116896,1,8,0:0:0:0:
196,236,117078,2,0,P|148:288|160:376,1,160
396,216,117805,6,0,L|200:228,1,160,2|2,0:0|0:0,0:0:0:0:
156,232,118350,2,0,L|144:128,1,80,8|0,0:0|0:0,0:0:0:0:
236,144,118714,2,0,L|236:56,1,80,2|0,0:0|0:0,0:0:0:0:
324,64,119078,1,8,0:0:0:0:
148,64,119259,6,0,P|116:116|152:240,1,160,2|0,0:0|0:0,0:0:0:0:
212,216,119805,1,8,0:0:0:0:
300,224,119987,2,0,P|336:288|296:376,1,160,0|0,0:0|0:0,0:0:0:0:
32,216,120714,6,0,L|228:228,1,160,2|0,0:0|0:0,0:0:0:0:
280,224,121259,2,0,L|292:120,1,80,8|0,0:0|0:0,0:0:0:0:
196,144,121623,2,0,L|196:56,1,80,2|0,0:0|0:0,0:0:0:0:
288,64,121987,1,8,0:0:0:0:
112,248,122169,6,0,L|288:248,1,160,2|0,0:0|0:0,0:0:0:0:
360,248,122714,1,8,0:0:0:0:
188,104,122896,2,0,P|152:168|192:256,1,160,0|0,0:0|0:0,0:0:0:0:
444,200,123623,6,0,L|268:200,1,160,2|0,0:0|0:0,0:0:0:0:
196,200,124169,2,0,L|280:200,1,80,8|0,0:0|0:0,0:0:0:0:
184,128,124532,2,0,L|184:44,1,80,2|0,0:0|0:0,0:0:0:0:
284,52,124896,1,8,0:0:0:0:
108,60,125078,6,0,P|76:112|112:236,1,160,0|0,0:0|0:0,0:0:0:0:
332,192,125805,2,0,L|500:192,1,160,4|4,0:0|0:0,0:0:0:0:
220,256,126532,2,0,L|388:256,1,160,4|4,0:0|0:0,0:0:0:0:
120,336,127259,2,0,L|288:336,1,160,4|2,0:0|0:0,0:0:0:0:
20,232,127987,6,0,L|20:64,1,160,2|0,0:0|0:0,0:0:0:0:
268,80,128532,1,8,0:0:0:0:
368,80,128714,2,0,L|368:248,1,160,2|0,0:0|0:0,0:0:0:0:
92,216,129441,6,0,L|276:216,1,160,2|0,0:0|0:0,0:0:0:0:
352,216,129987,2,0,L|256:216,1,80,8|0,0:0|0:0,0:0:0:0:
368,144,130350,2,0,L|368:56,1,80,2|0,0:0|0:0,0:0:0:0:
284,68,130714,1,8,0:0:0:0:
112,68,130896,6,0,P|80:120|116:244,1,160,2|0,0:0|0:0,0:0:0:0:
340,216,131441,1,8,0:0:0:0:
428,280,131623,2,0,L|252:280,1,160,2|0,0:0|0:0,0:0:0:0:
496,148,132350,6,0,L|328:148,1,160,2|0,0:0|0:0,0:0:0:0:
248,144,132896,2,0,L|248:44,1,80,8|0,0:0|0:0,0:0:0:0:
336,148,133259,2,0,L|336:236,1,80,2|0,0:0|0:0,0:0:0:0:
428,236,133623,1,0,0:0:0:0:
252,304,133805,6,0,L|448:304,1,160,2|0,0:0|0:0,0:0:0:0:
168,152,134350,1,8,0:0:0:0:
72,156,134532,2,0,P|36:220|76:308,1,160,2|0,0:0|0:0,0:0:0:0:
396,216,135259,6,0,L|200:216,1,160,4|0,0:0|0:0,0:0:0:0:
144,212,135805,2,0,L|132:108,1,80,2|0,0:0|0:0,0:0:0:0:
308,72,136169,2,0,L|124:72,1,160,2|0,0:0|0:0,0:0:0:0:
324,72,136714,6,0,P|356:124|288:288,1,240,2|0,0:0|0:0,0:0:0:0:
116,236,137737,2,0,L|36:288,2,80,0|0|0,0:0|0:0|0:0,0:0:0:0:
392,104,138532,6,0,L|392:156,1,40,0|0,0:0|0:0,0:0:0:0:
340,168,138714,1,0,0:0:0:0:
244,184,138896,2,0,L|244:236,1,40,0|0,0:0|0:0,0:0:0:0:
296,248,139078,1,0,0:0:0:0:
392,104,139259,2,0,L|392:156,1,40,0|0,0:0|0:0,0:0:0:0:
340,168,139441,1,0,0:0:0:0:
248,172,139623,1,0,0:0:0:0:
492,164,139805,6,0,P|480:252|412:312,1,160,4|8,0:0|0:0,0:0:0:0:
344,312,140350,1,0,0:0:0:0:
240,312,140532,5,2,0:0:0:0:
240,285,140593,1,0,0:0:0:0:
247,259,140653,1,0,0:0:0:0:
259,236,140714,1,0,0:0:0:0:
275,214,140775,1,0,0:0:0:0:
293,194,140835,1,0,0:0:0:0:
309,172,140896,1,8,0:0:0:0:
321,149,140957,1,0,0:0:0:0:
328,123,141017,1,0,0:0:0:0:
328,96,141078,1,0,0:0:0:0:
180,100,141259,6,0,P|196:192|268:236,1,160,2|8,0:0|0:0,0:0:0:0:
336,252,141805,1,0,0:0:0:0:
424,248,141987,2,0,L|424:148,1,80,2|0,0:0|0:0,0:0:0:0:
340,152,142350,1,8,0:0:0:0:
164,172,142532,6,0,L|164:344,1,160,0|0,0:0|0:0,0:0:0:0:
372,196,143259,2,0,L|200:196,1,160,0|0,0:0|0:0,0:0:0:0:
124,200,143805,1,8,0:0:0:0:
300,152,143987,6,0,L|128:152,1,160,2|0,0:0|0:0,0:0:0:0:
52,152,144532,2,0,L|52:240,1,80,8|0,0:0|0:0,0:0:0:0:
144,252,144896,2,0,L|224:252,1,80,2|0,0:0|0:0,0:0:0:0:
320,252,145259,1,8,0:0:0:0:
48,152,145623,6,0,L|216:152,1,160,2|8,0:0|0:0,0:0:0:0:
300,152,146169,1,0,0:0:0:0:
392,156,146350,2,0,L|392:324,1,160,2|8,0:0|0:0,0:0:0:0:
104,296,147078,6,0,L|272:296,1,160,2|8,0:0|0:0,0:0:0:0:
356,312,147623,2,0,L|356:152,1,160,0|0,0:0|0:0,0:0:0:0:
268,152,148169,1,8,0:0:0:0:
428,152,148350,6,0,L|244:152,1,160,2|0,0:0|0:0,0:0:0:0:
132,148,149078,1,0,0:0:0:0:
296,144,149441,1,0,0:0:0:0:
36,140,149805,6,0,L|36:312,1,160,2|0,0:0|0:0,0:0:0:0:
196,292,150350,2,0,L|280:292,1,80,2|0,0:0|0:0,0:0:0:0:
184,220,150714,2,0,L|184:112,1,80,2|0,0:0|0:0,0:0:0:0:
280,144,151078,2,0,L|364:144,1,80,2|0,0:0|0:0,0:0:0:0:
112,144,151441,6,0,P|80:232|108:300,1,160,4|8,0:0|0:0,0:0:0:0:
192,300,151987,1,0,0:0:0:0:
296,300,152169,5,2,0:0:0:0:
296,273,152229,1,0,0:0:0:0:
289,247,152290,1,0,0:0:0:0:
277,224,152350,1,0,0:0:0:0:
261,202,152411,1,0,0:0:0:0:
243,182,152472,1,0,0:0:0:0:
227,160,152533,1,8,0:0:0:0:
215,137,152593,1,0,0:0:0:0:
208,111,152654,1,0,0:0:0:0:
208,84,152714,1,0,0:0:0:0:
376,88,152896,6,0,P|392:176|364:244,1,160,2|8,0:0|0:0,0:0:0:0:
280,240,153441,1,0,0:0:0:0:
188,240,153623,2,0,L|172:336,1,80,2|0,0:0|0:0,0:0:0:0:
272,324,153987,1,8,0:0:0:0:
96,324,154169,6,0,L|256:324,1,160,0|0,0:0|0:0,0:0:0:0:
428,140,154896,2,0,L|264:140,1,160,0|0,0:0|0:0,0:0:0:0:
172,140,155441,1,8,0:0:0:0:
352,152,155623,6,0,P|354:239|304:312,1,160,2|0,0:0|0:0,0:0:0:0:
220,296,156169,2,0,L|220:200,1,80,8|0,0:0|0:0,0:0:0:0:
316,192,156532,2,0,L|316:104,1,80,2|0,0:0|0:0,0:0:0:0:
164,112,156896,1,8,0:0:0:0:
432,148,157259,6,0,L|268:148,1,160,4|8,0:0|0:0,0:0:0:0:
192,144,157805,2,0,L|192:312,1,160,0|0,0:0|0:0,0:0:0:0:
280,300,158350,1,8,0:0:0:0:
376,300,158532,1,0,0:0:0:0:
192,144,158714,6,0,L|356:144,1,160,4|8,0:0|0:0,0:0:0:0:
440,140,159259,2,0,L|440:308,1,160,0|0,0:0|0:0,0:0:0:0:
352,296,159805,1,8,0:0:0:0:
168,288,159987,6,0,L|168:120,1,160,4|0,0:0|0:0,0:0:0:0:
168,56,160532,1,2,0:0:0:0:
344,64,160714,1,2,0:0:0:0:
168,56,161078,1,2,0:0:0:0:
456,192,161441,6,0,L|280:192,1,160,8|2,0:0|0:0,0:0:0:0:
124,168,161987,2,0,L|124:256,1,80,2|2,0:0|0:0,0:0:0:0:
268,212,162350,1,4,0:0:0:0:
308,212,162441,1,0,0:0:0:0:
268,212,162532,1,0,0:0:0:0:
108,296,162714,1,4,0:0:0:0:
108,344,162805,1,0,0:0:0:0:
164,348,162896,1,0,0:0:0:0:
412,216,163078,6,0,L|412:112,1,80,4|0,0:0|0:0,0:0:0:0:
320,148,163441,2,0,L|236:148,1,80,8|0,0:0|0:0,0:0:0:0:
68,76,163805,2,0,L|148:76,1,80,2|0,0:0|0:0,0:0:0:0:
232,80,164169,2,0,L|232:176,1,80,8|0,0:0|0:0,0:0:0:0:
52,184,164532,5,2,0:0:0:0:
316,184,164896,1,8,0:0:0:0:
112,184,165259,2,0,L|112:268,1,80,2|2,0:0|0:0,0:0:0:0:
208,264,165623,2,0,L|296:264,1,80,8|0,0:0|0:0,0:0:0:0:
468,224,165987,6,0,L|468:336,1,80,4|0,0:0|0:0,0:0:0:0:
308,304,166350,1,8,0:0:0:0:
348,304,166441,1,2,0:0:0:0:
388,304,166532,1,0,0:0:0:0:
228,224,166714,6,0,L|228:336,1,80,4|0,0:0|0:0,0:0:0:0:
388,304,167078,1,8,0:0:0:0:
348,304,167169,1,2,0:0:0:0:
308,304,167259,1,0,0:0:0:0:
148,312,167441,6,0,L|148:220,1,80,2|2,0:0|0:0,0:0:0:0:
228,140,167805,1,8,0:0:0:0:
268,140,167896,1,0,0:0:0:0:
308,140,167987,1,2,0:0:0:0:
136,308,168169,1,2,0:0:0:0:
92,308,168259,1,0,0:0:0:0:
52,308,168350,1,2,0:0:0:0:
140,252,168532,2,0,L|236:252,1,80,8|0,0:0|0:0,0:0:0:0:
468,192,168896,6,0,L|384:192,1,80,4|0,0:0|0:0,0:0:0:0:
296,192,169259,2,0,L|296:88,1,80,0|0,0:0|0:0,0:0:0:0:
132,192,169623,2,0,L|132:104,1,80,2|2,0:0|0:0,0:0:0:0:
236,96,169987,2,0,L|324:96,1,80,8|2,0:0|0:0,0:0:0:0:
140,96,170350,5,4,0:0:0:0:
404,96,170714,1,4,0:0:0:0:
140,96,171078,1,4,0:0:0:0:
142,135,171169,1,2,0:0:0:0:
184,176,171259,1,2,0:0:0:0:
284,268,171441,2,0,L|376:268,1,80,8|0,0:0|0:0,0:0:0:0:
120,160,171805,6,0,L|120:48,1,80,4|0,0:0|0:0,0:0:0:0:
280,80,172169,1,8,0:0:0:0:
240,80,172259,1,2,0:0:0:0:
200,80,172350,1,0,0:0:0:0:
360,160,172532,6,0,L|360:48,1,80,4|0,0:0|0:0,0:0:0:0:
200,80,172896,1,8,0:0:0:0:
240,80,172987,1,2,0:0:0:0:
280,80,173078,1,0,0:0:0:0:
128,76,173259,6,0,L|128:168,1,80,4|2,0:0|0:0,0:0:0:0:
220,180,173623,2,0,L|220:272,1,80,0|2,0:0|0:0,0:0:0:0:
388,76,173987,1,4,0:0:0:0:
388,116,174078,1,0,0:0:0:0:
388,156,174169,1,0,0:0:0:0:
304,244,174350,2,0,L|400:244,1,80,8|0,0:0|0:0,0:0:0:0:
120,216,174714,6,0,L|120:112,1,80,4|0,0:0|0:0,0:0:0:0:
212,148,175078,2,0,L|312:148,1,80,8|0,0:0|0:0,0:0:0:0:
464,76,175441,2,0,L|384:76,1,80,2|0,0:0|0:0,0:0:0:0:
296,76,175805,2,0,L|208:76,1,80,8|0,0:0|0:0,0:0:0:0:
384,104,176169,5,2,0:0:0:0:
156,112,176532,1,8,0:0:0:0:
380,104,176896,2,0,L|380:184,1,80,2|2,0:0|0:0,0:0:0:0:
468,268,177259,2,0,L|372:268,1,80,8|0,0:0|0:0,0:0:0:0:
120,160,177623,6,0,L|120:48,1,80,4|0,0:0|0:0,0:0:0:0:
280,80,177987,1,8,0:0:0:0:
240,80,178078,1,2,0:0:0:0:
200,80,178169,1,0,0:0:0:0:
360,160,178350,6,0,L|360:48,1,80,4|0,0:0|0:0,0:0:0:0:
200,80,178714,1,8,0:0:0:0:
240,80,178805,1,2,0:0:0:0:
280,80,178896,1,0,0:0:0:0:
124,76,179078,6,0,L|124:168,1,80,2|2,0:0|0:0,0:0:0:0:
220,92,179441,2,0,L|312:92,1,80,8|2,0:0|0:0,0:0:0:0:
136,168,179805,1,2,0:0:0:0:
136,208,179896,1,0,0:0:0:0:
136,248,179987,1,2,0:0:0:0:
224,256,180169,2,0,L|316:256,1,80,8|0,0:0|0:0,0:0:0:0:
52,192,180532,6,0,L|136:192,1,80,4|0,0:0|0:0,0:0:0:0:
224,192,180896,2,0,L|224:88,1,80,0|0,0:0|0:0,0:0:0:0:
64,88,181259,2,0,L|152:88,1,80,2|2,0:0|0:0,0:0:0:0:
236,96,181623,2,0,L|324:96,1,80,8|2,0:0|0:0,0:0:0:0:
144,96,181987,5,4,0:0:0:0:
408,96,182350,1,4,0:0:0:0:
164,104,182714,1,4,0:0:0:0:
166,143,182805,1,2,0:0:0:0:
204,184,182896,1,2,0:0:0:0:
284,188,183078,2,0,L|368:188,1,80,8|0,0:0|0:0,0:0:0:0:
116,180,183441,6,0,L|112:292,1,80,4|0,0:0|0:0,0:0:0:0:
268,256,183805,1,8,0:0:0:0:
308,256,183896,1,2,0:0:0:0:
268,256,183987,1,0,0:0:0:0:
116,256,184169,6,0,L|112:368,1,80,4|0,0:0|0:0,0:0:0:0:
268,332,184532,1,8,0:0:0:0:
308,332,184623,1,2,0:0:0:0:
268,332,184714,1,0,0:0:0:0:
24,208,184896,6,0,L|124:208,1,80,4|2,0:0|0:0,0:0:0:0:
184,208,185259,2,0,L|284:208,1,80,0|2,0:0|0:0,0:0:0:0:
416,208,185623,5,4,0:0:0:0:
416,248,185714,1,0,0:0:0:0:
416,288,185805,1,0,0:0:0:0:
240,276,185987,1,8,0:0:0:0:
240,316,186078,1,0,0:0:0:0:
240,356,186169,1,0,0:0:0:0:
484,72,186350,6,0,P|484:144|360:264,1,240,4|0,0:0|0:0,0:0:0:0:
328,268,186987,1,0,0:0:0:0:
260,272,187078,2,0,L|88:272,1,160,2|8,0:0|0:0,0:0:0:0:
416,84,187805,6,0,L|416:28,1,40,2|0,0:0|0:0,0:0:0:0:
376,40,187987,2,0,L|312:40,1,40,2|0,0:0|0:0,0:0:0:0:
296,40,188169,2,0,L|240:40,1,40,8|0,0:0|0:0,0:0:0:0:
216,40,188350,1,0,0:0:0:0:
112,44,188532,2,0,L|112:140,1,80,2|0,0:0|0:0,0:0:0:0:
208,164,188896,1,8,0:0:0:0:
208,204,188987,1,0,0:0:0:0:
208,244,189078,1,0,0:0:0:0:
56,140,189259,6,0,P|44:200|144:356,1,240,2|0,0:0|0:0,0:0:0:0:
240,320,189987,2,0,L|304:320,2,40,2|0|0,0:0|0:0|0:0,0:0:0:0:
160,320,190350,2,0,L|96:320,2,40,8|0|0,0:0|0:0|0:0,0:0:0:0:
300,292,190714,6,0,P|348:232|324:140,1,160,2|8,0:0|0:0,0:0:0:0:
252,132,191259,2,0,L|428:132,1,160,2|2,0:0|0:0,0:0:0:0:
496,220,191805,2,0,L|408:220,1,80,8|0,0:0|0:0,0:0:0:0:
240,264,192169,6,0,P|200:208|268:60,1,240,4|0,0:0|0:0,0:0:0:0:
304,64,192805,1,0,0:0:0:0:
343,72,192895,1,0,0:0:0:0:
378,89,192986,1,0,0:0:0:0:
409,115,193077,1,0,0:0:0:0:
432,148,193168,1,0,0:0:0:0:
446,185,193259,1,0,0:0:0:0:
451,224,193350,1,0,0:0:0:0:
446,264,193441,1,0,0:0:0:0:
264,280,193623,6,0,L|116:284,2,120,2|2|2,0:0|0:0|0:0,0:0:0:0:
372,272,194350,2,0,P|404:204|348:120,1,160,0|8,0:0|0:0,0:0:0:0:
272,96,194896,1,2,0:0:0:0:
80,96,195078,6,0,P|56:188|152:280,1,240,4|0,0:0|0:0,0:0:0:0:
208,272,195714,1,0,0:0:0:0:
284,256,195805,2,0,L|292:168,1,80,4|0,0:0|0:0,0:0:0:0:
188,172,196169,2,0,L|180:84,1,80,8|0,0:0|0:0,0:0:0:0:
424,96,196532,6,0,P|416:184|88:292,1,480,2|8,0:0|0:0,0:0:0:0:
292,228,197987,6,0,L|292:152,1,40,4|0,0:0|0:0,0:0:0:0:
212,136,198259,2,0,L|364:136,1,120
416,136,198714,2,0,L|504:136,2,80,2|0|8,0:0|0:0|0:0,0:0:0:0:
332,136,199259,1,0,0:0:0:0:
184,272,199441,6,0,L|272:272,1,80,2|0,0:0|0:0,0:0:0:0:
356,272,199805,2,0,L|356:184,1,80,8|0,0:0|0:0,0:0:0:0:
304,164,200078,1,0,0:0:0:0:
184,144,200169,2,0,L|184:56,1,80,2|0,0:0|0:0,0:0:0:0:
276,56,200532,2,0,L|364:56,1,80,8|0,0:0|0:0,0:0:0:0:
184,72,200896,6,0,L|56:76,2,120,2|0|0,0:0|0:0|0:0,0:0:0:0:
400,72,201714,2,0,P|468:100|492:160,1,120,0|8,0:0|0:0,0:0:0:0:
404,72,202169,1,0,0:0:0:0:
160,72,202350,6,0,P|128:128|232:276,1,240,2|2,0:0|0:0,0:0:0:0:
376,72,203078,2,0,P|408:128|304:276,1,240,2|0,0:0|0:0,0:0:0:0:
176,280,203805,6,0,L|176:204,1,40,4|0,0:0|0:0,0:0:0:0:
252,172,204078,2,0,L|112:172,1,120,0|0,0:0|0:0,0:0:0:0:
224,100,204532,2,0,L|308:100,2,80,4|0|8,0:0|0:0|0:0,0:0:0:0:
132,104,205078,1,0,0:0:0:0:
308,120,205259,6,0,P|332:176|284:264,1,160,4|8,0:0|0:0,0:0:0:0:
176,272,205805,2,0,L|176:184,1,80,0|2,0:0|0:0,0:0:0:0:
264,184,206169,1,2,0:0:0:0:
348,144,206350,2,0,L|348:56,1,80,8|0,0:0|0:0,0:0:0:0:
184,68,206714,6,0,L|56:72,2,120,4|0|0,0:0|0:0|0:0,0:0:0:0:
344,68,207441,2,0,L|472:72,2,120,2|0|0,0:0|0:0|0:0,0:0:0:0:
172,72,208169,5,2,0:0:0:0:
148,104,208259,1,0,0:0:0:0:
137,142,208350,1,2,0:0:0:0:
139,182,208441,1,0,0:0:0:0:
153,219,208532,1,8,0:0:0:0:
179,249,208623,1,0,0:0:0:0:
214,269,208714,1,2,0:0:0:0:
376,72,208896,5,2,0:0:0:0:
390,86,208941,1,0,0:0:0:0:
401,102,208986,1,0,0:0:0:0:
410,120,209032,1,0,0:0:0:0:
416,139,209077,1,0,0:0:0:0:
419,159,209123,1,0,0:0:0:0:
418,178,209168,1,0,0:0:0:0:
416,200,209214,1,0,0:0:0:0:
408,217,209259,1,8,0:0:0:0:
372,256,209350,1,0,0:0:0:0:
333,269,209441,1,8,0:0:0:0:
172,272,209623,5,4,0:0:0:0:
256,192,209805,12,0,211805,0:0:0:0:
252,192,212532,5,4,0:0:0:0:
252,192,213259,1,4,0:0:0:0:
252,192,213987,1,4,0:0:0:0:
252,192,214714,1,2,0:0:0:0:
252,192,215078,1,2,0:0:0:0:
168,88,215441,6,0,L|168:180,1,80,4|0,0:0|0:0,0:0:0:0:
264,168,215805,1,0,0:0:0:0:
424,180,216169,2,0,L|424:272,1,80,4|0,0:0|0:0,0:0:0:0:
328,260,216532,1,0,0:0:0:0:
88,120,216896,5,4,0:0:0:0:
248,116,217259,1,0,0:0:0:0:
408,116,217623,1,4,0:0:0:0:
408,116,217987,1,2,0:0:0:0:
168,120,218350,6,0,L|168:212,1,80,4|0,0:0|0:0,0:0:0:0:
224,216,218623,1,0,0:0:0:0:
280,240,218714,2,0,L|280:320,1,80,2|0,0:0|0:0,0:0:0:0:
420,120,219078,6,0,L|420:208,1,80,2|0,0:0|0:0,0:0:0:0:
368,216,219350,1,0,0:0:0:0:
312,240,219441,2,0,L|312:320,1,80,2|0,0:0|0:0,0:0:0:0:
152,152,219805,6,0,L|116:184,4,40,4|0|0|0|2,0:0|0:0|0:0|0:0|0:0,0:0:0:0:
152,152,220350,1,2,0:0:0:0:
340,148,220532,2,0,L|340:324,1,160,4|2,0:0|0:0,0:0:0:0:
340,352,221078,1,0,0:0:0:0:
88,192,221259,6,0,L|88:88,1,88.000002685547,4|0,0:0|0:0,0:0:0:0:
176,108,221623,2,0,L|268:108,1,88.000002685547,8|0,0:0|0:0,0:0:0:0:
88,108,221987,2,0,L|180:108,1,88.000002685547,2|0,0:0|0:0,0:0:0:0:
264,108,222350,2,0,L|364:108,1,88.000002685547,8|0,0:0|0:0,0:0:0:0:
156,104,222714,6,0,L|108:104,1,44.0000013427735,2|0,0:0|0:0,0:0:0:0:
156,176,222896,1,0,0:0:0:0:
312,180,223078,2,0,L|312:244,1,44.0000013427735,8|0,0:0|0:0,0:0:0:0:
260,252,223259,1,0,0:0:0:0:
104,248,223441,2,0,L|48:248,2,44.0000013427735,2|2|2,0:0|0:0|0:0,0:0:0:0:
260,252,223805,2,0,L|364:252,1,88.000002685547,8|0,0:0|0:0,0:0:0:0:
100,144,224169,6,0,L|100:256,1,88.000002685547,4|0,0:0|0:0,0:0:0:0:
264,232,224532,1,8,0:0:0:0:
224,232,224623,1,2,0:0:0:0:
184,232,224714,1,0,0:0:0:0:
432,240,224896,6,0,L|432:128,1,88.000002685547,4|0,0:0|0:0,0:0:0:0:
268,152,225259,1,8,0:0:0:0:
308,152,225350,1,2,0:0:0:0:
348,152,225441,1,0,0:0:0:0:
104,124,225623,6,0,L|104:216,1,88.000002685547,2|2,0:0|0:0,0:0:0:0:
256,160,225987,2,0,L|256:252,1,88.000002685547,8|2,0:0|0:0,0:0:0:0:
408,124,226350,2,0,L|408:216,1,88.000002685547,2|2,0:0|0:0,0:0:0:0:
256,196,226714,2,0,L|192:196,1,44.0000013427735,8|2,0:0|0:0,0:0:0:0:
160,196,226896,1,0,0:0:0:0:
424,192,227078,6,0,L|424:88,1,88.000002685547,4|0,0:0|0:0,0:0:0:0:
336,108,227441,2,0,L|244:108,1,88.000002685547,0|0,0:0|0:0,0:0:0:0:
424,108,227805,2,0,L|324:108,1,88.000002685547,2|2,0:0|0:0,0:0:0:0:
248,108,228169,2,0,L|148:108,1,88.000002685547,8|2,0:0|0:0,0:0:0:0:
352,104,228532,6,0,L|352:192,1,88.000002685547,4|0,0:0|0:0,0:0:0:0:
192,104,228896,2,0,L|192:192,1,88.000002685547,4|0,0:0|0:0,0:0:0:0:
352,104,229259,1,4,0:0:0:0:
350,143,229350,1,2,0:0:0:0:
348,183,229441,1,2,0:0:0:0:
164,204,229623,2,0,L|164:296,1,88.000002685547,8|0,0:0|0:0,0:0:0:0:
412,144,229987,6,0,L|412:256,1,88.000002685547,4|0,0:0|0:0,0:0:0:0:
248,232,230350,1,8,0:0:0:0:
288,232,230441,1,2,0:0:0:0:
328,232,230532,1,0,0:0:0:0:
80,240,230714,6,0,L|80:128,1,88.000002685547,4|0,0:0|0:0,0:0:0:0:
244,152,231078,1,8,0:0:0:0:
204,152,231169,1,2,0:0:0:0:
164,152,231259,1,0,0:0:0:0:
412,104,231441,6,0,L|412:152,1,44.0000013427735,4|0,0:0|0:0,0:0:0:0:
360,160,231623,1,2,0:0:0:0:
200,104,231805,2,0,L|152:104,2,44.0000013427735,0|0|2,0:0|0:0|0:0,0:0:0:0:
340,104,232169,2,0,L|376:140,4,44.0000013427735,4|0|0|0|8,0:0|0:0|0:0|0:0|0:0,0:0:0:0:
236,104,232714,1,0,0:0:0:0:
480,108,232896,6,0,L|480:152,1,40,4|0,0:0|0:0,0:0:0:0:
428,164,233078,1,0,0:0:0:0:
332,128,233259,2,0,L|212:128,1,120,2|2,0:0|0:0,0:0:0:0:
88,192,233805,2,0,L|232:192,1,120,2|0,0:0|0:0,0:0:0:0:
340,200,234350,1,8,0:0:0:0:
408,104,234532,5,2,0:0:0:0:
232,104,234714,2,0,L|232:216,1,80,2|0,0:0|0:0,0:0:0:0:
328,184,235078,1,8,0:0:0:0:
152,184,235259,2,0,L|152:292,1,80,2|0,0:0|0:0,0:0:0:0:
304,280,235714,6,0,L|208:280,1,80,2|0,0:0|0:0,0:0:0:0:
176,268,235987,2,0,L|176:164,1,80,0|0,0:0|0:0,0:0:0:0:
276,192,236350,1,0,0:0:0:0:
176,156,236532,2,0,L|176:60,1,80
268,80,236896,2,0,L|308:80,1,40,0|0,0:0|0:0,0:0:0:0:
64,180,237169,6,0,L|208:180,1,120,2|0,0:0|0:0,0:0:0:0:
344,184,237623,2,0,L|344:96,1,80,2|0,0:0|0:0,0:0:0:0:
188,208,237987,2,0,L|276:208,1,80,2|0,0:0|0:0,0:0:0:0:
408,208,238350,2,0,L|408:292,1,80,2|0,0:0|0:0,0:0:0:0:
144,132,238714,6,0,L|80:132,2,40,4|0|0,0:0|0:0|0:0,0:0:0:0:
236,128,239078,2,0,L|356:128,1,120,2|2,0:0|0:0,0:0:0:0:
468,192,239623,2,0,L|324:192,1,120,2|0,0:0|0:0,0:0:0:0:
216,200,240169,1,8,0:0:0:0:
148,104,240350,5,2,0:0:0:0:
316,104,240532,2,0,L|316:216,1,80,2|0,0:0|0:0,0:0:0:0:
228,184,240896,1,8,0:0:0:0:
396,184,241078,2,0,L|396:292,1,80,2|0,0:0|0:0,0:0:0:0:
252,280,241532,6,0,L|348:280,1,80,2|0,0:0|0:0,0:0:0:0:
380,268,241805,2,0,L|380:164,1,80,0|0,0:0|0:0,0:0:0:0:
280,192,242169,1,0,0:0:0:0:
380,156,242350,2,0,L|380:60,1,80,0|0,0:0|0:0,0:0:0:0:
288,80,242714,2,0,L|248:80,1,40,0|0,0:0|0:0,0:0:0:0:
492,180,242987,6,0,L|348:180,1,120,2|0,0:0|0:0,0:0:0:0:
128,180,243441,2,0,L|128:100,1,80,8|8,0:0|0:0,0:0:0:0:
392,172,243987,2,0,L|228:172,1,160,8|2,0:0|0:0,0:0:0:0:
316,148,244532,5,0,0:0:0:0:
316,188,244623,1,0,0:0:0:0:
316,228,244714,1,0,0:0:0:0:
164,232,244896,1,8,0:0:0:0:
92,236,245078,1,8,0:0:0:0:
164,232,245259,1,8,0:0:0:0:
428,336,245441,2,0,P|408:100|60:352,1,880,8|0,0:0|0:0,0:0:0:0:
