osu file format v14

[General]
AudioFilename: audio.mp3
AudioLeadIn: 0
PreviewTime: 81532
Countdown: 0
SampleSet: Soft
StackLeniency: 0.7
Mode: 2
LetterboxInBreaks: 0
WidescreenStoryboard: 0

[Editor]
Bookmarks: 23441,35078,58350,81623,104896,116532,139805,163078,172350,186350,209623,221259,232896
DistanceSpacing: 1
BeatDivisor: 4
GridSize: 4
TimelineZoom: 2.8

[Metadata]
Title:Bloody Night
TitleUnicode:Bloody Night
Artist:A-One feat. Shihori
ArtistUnicode:A-One feat. Shihori
Creator:ZiRoX
Version:Overdose
Source:東方妖々夢 ~ Perfect Cherry Blossom.
Tags:Deif GIGACHAD Dako Featured Artist FA Mappers' Guild MG 東方Project Touhou Youyoumu Team Shanghai Alice ZUN TOHO EUROBEAT VOL. 4 アリス・マーガトロイド Alice Margatroid ブクレシュティの人形師 The Doll Maker of Bucuresti Video Game English
BeatmapID:3159697
BeatmapSetID:1543564

[Difficulty]
HPDrainRate:5
CircleSize:0
OverallDifficulty:9.6
ApproachRate:9.6
SliderMultiplier:2
SliderTickRate:1

[Events]
//Background and Video events
0,0,"bg_bloodynight.png",0,0
//Break Periods
2,105096,115825
//Storyboard Layer 0 (Background)
//Storyboard Layer 1 (Fail)
//Storyboard Layer 2 (Pass)
//Storyboard Layer 3 (Foreground)
//Storyboard Layer 4 (Overlay)
//Storyboard Sound Samples

[TimingPoints]
169,363.636363636364,4,2,1,85,1,0
11805,-100,4,1,1,75,0,0
12169,-100,4,2,1,90,0,0
12350,-100,4,1,1,75,0,0
12532,-100,4,2,1,90,0,0
12896,-100,4,1,1,65,0,0
13259,-100,4,1,1,75,0,0
13532,-100,4,2,1,90,0,0
13805,-100,4,1,1,75,0,0
13987,-100,4,2,1,90,0,0
14350,-100,4,1,1,65,0,0
14714,-100,4,1,1,75,0,0
15078,-100,4,2,1,90,0,0
15259,-100,4,1,1,75,0,0
15441,-100,4,2,1,90,0,0
15805,-100,4,1,1,65,0,0
16169,-100,4,1,1,75,0,0
16441,-100,4,2,1,90,0,0
16714,-100,4,1,1,75,0,0
16896,-100,4,2,1,90,0,0
17259,-100,4,1,1,65,0,0
17623,-100,4,1,1,75,0,0
17805,-100,4,2,1,90,0,0
17987,-100,4,1,1,65,0,0
18169,-100,4,2,1,90,0,0
18714,-100,4,1,1,65,0,0
18805,-100,4,2,1,90,0,0
19441,-100,4,1,1,65,0,0
19623,-100,4,2,1,90,0,0
20169,-100,4,1,1,65,0,0
20259,-100,4,2,1,90,0,0
20896,-100,4,1,1,65,0,0
21078,-100,4,2,1,90,0,0
21259,-100,4,1,1,65,0,0
21350,-100,4,2,1,90,0,0
21623,-100,4,1,1,65,0,0
21714,-100,4,2,1,90,0,0
23078,-33.3333333333333,4,2,1,90,0,0
23441,-100,4,1,1,85,0,0
23532,-100,4,2,1,90,0,0
26350,-100,4,1,1,85,0,0
27714,-40,4,2,1,90,0,0
27805,-40,4,1,1,75,0,0
27896,-40,4,2,1,90,0,0
28169,-100,4,2,1,90,0,0
28896,-33.3333333333333,4,2,1,90,0,0
29259,-100,4,1,1,85,0,0
29350,-100,4,2,1,90,0,0
32169,-100,4,1,1,85,0,0
33532,-40,4,2,1,90,0,0
33623,-40,4,1,1,85,0,0
33714,-40,4,2,1,90,0,0
33805,-100,4,2,1,90,0,0
35441,-100,4,1,1,65,0,0
35623,-100,4,2,1,90,0,0
36169,-100,4,1,1,65,0,0
36350,-100,4,2,1,90,0,0
36896,-100,4,1,1,65,0,0
37078,-100,4,2,1,90,0,0
37623,-100,4,1,1,65,0,0
37805,-100,4,2,1,90,0,0
38350,-100,4,1,1,65,0,0
38532,-100,4,2,1,90,0,0
39078,-100,4,1,1,65,0,0
39259,-100,4,2,1,90,0,0
39805,-100,4,1,1,65,0,0
39987,-100,4,2,1,90,0,0
40532,-100,4,1,1,65,0,0
40714,-100,4,2,1,90,0,0
41259,-100,4,1,1,65,0,0
41441,-100,4,2,1,90,0,0
41987,-100,4,1,1,65,0,0
42169,-100,4,2,1,90,0,0
42714,-100,4,1,1,65,0,0
42896,-100,4,2,1,90,0,0
43441,-100,4,1,1,65,0,0
43623,-100,4,2,1,90,0,0
44350,-100,4,2,1,85,0,0
46532,-100,4,2,1,90,0,0
47078,-100,4,1,1,65,0,0
47259,-100,4,2,1,90,0,0
48532,-100,4,1,1,65,0,0
48714,-100,4,2,1,90,0,0
49259,-100,4,1,1,65,0,0
49441,-100,4,2,1,90,0,0
49987,-100,4,1,1,65,0,0
50169,-100,4,2,1,90,0,0
51441,-100,4,1,1,65,0,0
51623,-100,4,2,1,90,0,0
52169,-100,4,1,1,65,0,0
52350,-100,4,2,1,90,0,0
52896,-100,4,1,1,65,0,0
53078,-100,4,2,1,90,0,0
58714,-100,4,1,1,75,0,0
58805,-100,4,2,1,90,0,0
59441,-100,4,1,1,75,0,0
59502,-100,4,2,1,90,0,0
60169,-100,4,1,1,75,0,0
60259,-100,4,2,1,90,0,0
60896,-100,4,1,1,75,0,0
61078,-100,4,2,1,90,0,0
61623,-100,4,1,1,75,0,0
61805,-100,4,2,1,90,0,0
62350,-100,4,1,1,75,0,0
62532,-100,4,2,1,90,0,0
63078,-100,4,1,1,75,0,0
63441,-100,4,2,1,90,0,0
63623,-100,4,1,1,75,0,0
64169,-100,4,2,1,90,0,0
64532,-100,4,1,1,75,0,0
64623,-100,4,2,1,90,0,0
65259,-100,4,1,1,75,0,0
65350,-100,4,2,1,90,0,0
65987,-100,4,1,1,75,0,0
66169,-100,4,2,1,90,0,0
66714,-100,4,1,1,75,0,0
66896,-100,4,2,1,90,0,0
70351,-100,4,1,1,75,0,0
70442,-100,4,2,1,90,0,0
71078,-100,4,1,1,75,0,0
71139,-100,4,2,1,90,0,0
71806,-100,4,1,1,75,0,0
71896,-100,4,2,1,90,0,0
72533,-100,4,1,1,75,0,0
72715,-100,4,2,1,90,0,0
73260,-100,4,1,1,75,0,0
73442,-100,4,2,1,90,0,0
73987,-100,4,1,1,75,0,0
74169,-100,4,2,1,90,0,0
74715,-100,4,1,1,75,0,0
75078,-100,4,2,1,90,0,0
75260,-100,4,1,1,75,0,0
75805,-100,4,2,1,90,0,0
76169,-100,4,1,1,75,0,0
76350,-100,4,2,1,90,0,0
76896,-100,4,1,1,75,0,0
77259,-100,4,2,1,90,0,0
77623,-100,4,1,1,75,0,0
77805,-100,4,2,1,90,0,0
78350,-100,4,1,1,75,0,0
78532,-100,4,2,1,90,0,0
80896,-100,4,2,1,80,0,0
81623,-100,4,2,1,100,0,1
81987,-100,4,1,1,80,0,1
82169,-100,4,2,1,100,0,1
82714,-100,4,1,1,80,0,1
83078,-100,4,2,1,100,0,1
83441,-100,4,1,1,80,0,1
83532,-100,4,2,1,100,0,1
84169,-100,4,1,1,80,0,1
84214,-100,4,2,1,100,0,1
84896,-100,4,1,1,80,0,1
84941,-100,4,2,1,100,0,1
85623,-100,4,1,1,80,0,1
85668,-100,4,2,1,100,0,1
86350,-100,4,1,1,80,0,1
86396,-100,4,2,1,100,0,1
87078,-100,4,1,1,80,0,1
87123,-100,4,2,1,100,0,1
87805,-100,4,1,1,80,0,1
87896,-100,4,2,1,100,0,1
88532,-100,4,1,1,80,0,1
88623,-100,4,2,1,100,0,1
89987,-100,4,1,1,80,0,1
90169,-100,4,2,1,100,0,1
90714,-100,4,1,1,80,0,1
90759,-100,4,2,1,100,0,1
91442,-100,4,1,1,80,0,1
91487,-100,4,2,1,100,0,1
92169,-100,4,1,1,80,0,1
92259,-100,4,2,1,100,0,1
92896,-100,4,1,1,80,0,1
92941,-100,4,2,1,100,0,1
93623,-100,4,1,1,80,0,1
93805,-100,4,2,1,100,0,1
94350,-100,4,1,1,80,0,1
94714,-100,4,2,1,100,0,1
95077,-100,4,1,1,80,0,1
95168,-100,4,2,1,100,0,1
95805,-100,4,1,1,80,0,1
95850,-100,4,2,1,100,0,1
96532,-100,4,1,1,80,0,1
96577,-100,4,2,1,100,0,1
97259,-100,4,1,1,80,0,1
97304,-100,4,2,1,100,0,1
97986,-100,4,1,1,80,0,1
98032,-100,4,2,1,100,0,1
98714,-100,4,1,1,80,0,1
98759,-100,4,2,1,100,0,1
99441,-100,4,1,1,80,0,1
99532,-100,4,2,1,100,0,1
100168,-100,4,1,1,80,0,1
100259,-100,4,2,1,100,0,1
101623,-100,4,1,1,80,0,1
101805,-100,4,2,1,100,0,1
102350,-100,4,1,1,80,0,1
102395,-100,4,2,1,100,0,1
103078,-100,4,1,1,80,0,1
103123,-100,4,2,1,100,0,1
103805,-100,4,1,1,80,0,1
103895,-100,4,2,1,100,0,1
104532,-100,4,1,1,80,0,1
104896,-100,4,1,1,75,0,0
104987,-100,4,2,1,90,0,0
107805,-100,4,1,1,50,0,0
109169,-100,4,2,1,90,0,0
109260,-100,4,1,1,75,0,0
109351,-100,4,2,1,90,0,0
110714,-100,4,1,1,75,0,0
110805,-100,4,2,1,90,0,0
113624,-100,4,1,1,50,0,0
114987,-100,4,2,1,90,0,0
115078,-100,4,1,1,75,0,0
115169,-100,4,2,1,90,0,0
116895,-100,4,1,1,65,0,0
117077,-100,4,2,1,90,0,0
117623,-100,4,1,1,65,0,0
117804,-100,4,2,1,90,0,0
118350,-100,4,1,1,65,0,0
118532,-100,4,2,1,90,0,0
119077,-100,4,1,1,65,0,0
119259,-100,4,2,1,90,0,0
119804,-100,4,1,1,65,0,0
119986,-100,4,2,1,90,0,0
120532,-100,4,1,1,65,0,0
120713,-100,4,2,1,90,0,0
121259,-100,4,1,1,65,0,0
121441,-100,4,2,1,90,0,0
121986,-100,4,1,1,65,0,0
122168,-100,4,2,1,90,0,0
122713,-100,4,1,1,65,0,0
122895,-100,4,2,1,90,0,0
123441,-100,4,1,1,65,0,0
123623,-100,4,2,1,90,0,0
124168,-100,4,1,1,65,0,0
124350,-100,4,2,1,90,0,0
124895,-100,4,1,1,65,0,0
125077,-100,4,2,1,90,0,0
125804,-100,4,2,1,65,0,0
127986,-100,4,2,1,90,0,0
128532,-100,4,1,1,65,0,0
128713,-100,4,2,1,90,0,0
129986,-100,4,1,1,65,0,0
130168,-100,4,2,1,90,0,0
130713,-100,4,1,1,65,0,0
130895,-100,4,2,1,90,0,0
131441,-100,4,1,1,65,0,0
131623,-100,4,2,1,90,0,0
132895,-100,4,1,1,65,0,0
133077,-100,4,2,1,90,0,0
133623,-100,4,1,1,65,0,0
133804,-100,4,2,1,90,0,0
134350,-100,4,1,1,65,0,0
134532,-100,4,2,1,90,0,0
139896,-100,4,1,1,75,0,0
139987,-100,4,2,1,90,0,0
140169,-100,4,1,1,75,0,0
140260,-100,4,2,1,90,0,0
140896,-100,4,1,1,75,0,0
140957,-100,4,2,1,90,0,0
141624,-100,4,1,1,75,0,0
141714,-100,4,2,1,90,0,0
142351,-100,4,1,1,75,0,0
142533,-100,4,2,1,90,0,0
142805,-100,4,1,1,75,0,0
143260,-100,4,2,1,90,0,0
143805,-100,4,1,1,75,0,0
143987,-100,4,2,1,90,0,0
144260,-100,4,1,1,75,0,0
144351,-100,4,2,1,90,0,0
144533,-100,4,1,1,75,0,0
144896,-100,4,2,1,90,0,0
145078,-100,4,1,1,75,0,0
145351,-100,4,2,1,90,0,0
145714,-100,4,1,1,75,0,0
145805,-100,4,2,1,90,0,0
145987,-100,4,1,1,75,0,0
146078,-100,4,2,1,90,0,0
146714,-100,4,1,1,75,0,0
146805,-100,4,2,1,90,0,0
147442,-100,4,1,1,75,0,0
147624,-100,4,2,1,90,0,0
148169,-100,4,1,1,75,0,0
148351,-100,4,2,1,90,0,0
148624,-100,4,1,1,75,0,0
149987,-100,4,2,1,90,0,0
150078,-100,4,1,1,75,0,0
150169,-100,4,2,1,90,0,0
151806,-100,4,1,1,75,0,0
151897,-100,4,2,1,90,0,0
152533,-100,4,1,1,75,0,0
152594,-100,4,2,1,90,0,0
153261,-100,4,1,1,75,0,0
153351,-100,4,2,1,90,0,0
153988,-100,4,1,1,75,0,0
154170,-100,4,2,1,90,0,0
154715,-100,4,1,1,75,0,0
154897,-100,4,2,1,90,0,0
155442,-100,4,1,1,75,0,0
155624,-100,4,2,1,90,0,0
156170,-100,4,1,1,75,0,0
156533,-100,4,2,1,90,0,0
156715,-100,4,1,1,75,0,0
157260,-100,4,2,1,90,0,0
157624,-100,4,1,1,75,0,0
157805,-100,4,2,1,90,0,0
158351,-100,4,1,1,75,0,0
158714,-100,4,2,1,90,0,0
159078,-100,4,1,1,75,0,0
159260,-100,4,2,1,90,0,0
159805,-100,4,1,1,75,0,0
159987,-100,4,2,1,90,0,0
162351,-100,4,2,1,80,0,0
163078,-100,4,2,1,100,0,1
163442,-100,4,1,1,80,0,1
163624,-100,4,2,1,100,0,1
164169,-100,4,1,1,80,0,1
164532,-76.9230769230769,4,1,1,80,0,1
164533,-76.9230769230769,4,2,1,100,0,1
164896,-76.9230769230769,4,1,1,80,0,1
164987,-76.9230769230769,4,2,1,100,0,1
165259,-100,4,2,1,100,0,1
165624,-100,4,1,1,80,0,1
165669,-100,4,2,1,100,0,1
166351,-100,4,1,1,80,0,1
166396,-100,4,2,1,100,0,1
167078,-100,4,1,1,80,0,1
167123,-100,4,2,1,100,0,1
167805,-100,4,1,1,80,0,1
167851,-100,4,2,1,100,0,1
168533,-100,4,1,1,80,0,1
168578,-100,4,2,1,100,0,1
169260,-100,4,1,1,80,0,1
169351,-100,4,2,1,100,0,1
169987,-100,4,1,1,80,0,1
170078,-100,4,2,1,100,0,1
170350,-76.9230769230769,4,2,1,100,0,1
171078,-100,4,2,1,100,0,1
171442,-100,4,1,1,80,0,1
171624,-100,4,2,1,100,0,1
172169,-100,4,1,1,80,0,1
172214,-100,4,2,1,100,0,1
172897,-100,4,1,1,80,0,1
172942,-100,4,2,1,100,0,1
173624,-100,4,1,1,80,0,1
173714,-100,4,2,1,100,0,1
174351,-100,4,1,1,80,0,1
174396,-100,4,2,1,100,0,1
175078,-100,4,1,1,80,0,1
175260,-100,4,2,1,100,0,1
175805,-100,4,1,1,80,0,1
176169,-76.9230769230769,4,2,1,100,0,1
176532,-76.9230769230769,4,1,1,80,0,1
176623,-76.9230769230769,4,2,1,100,0,1
176896,-100,4,2,1,100,0,1
177260,-100,4,1,1,80,0,1
177305,-100,4,2,1,100,0,1
177987,-100,4,1,1,80,0,1
178032,-100,4,2,1,100,0,1
178714,-100,4,1,1,80,0,1
178759,-100,4,2,1,100,0,1
179441,-100,4,1,1,80,0,1
179487,-100,4,2,1,100,0,1
180169,-100,4,1,1,80,0,1
180214,-100,4,2,1,100,0,1
180896,-100,4,1,1,80,0,1
180987,-100,4,2,1,100,0,1
181623,-100,4,1,1,80,0,1
181714,-100,4,2,1,100,0,1
181987,-76.9230769230769,4,2,1,100,0,1
182714,-100,4,2,1,100,0,1
183078,-100,4,1,1,80,0,1
183260,-100,4,2,1,100,0,1
183805,-100,4,1,1,80,0,1
183850,-100,4,2,1,100,0,1
184533,-100,4,1,1,80,0,1
184578,-100,4,2,1,100,0,1
185260,-100,4,1,1,80,0,1
185350,-100,4,2,1,100,0,1
185987,-100,4,1,1,80,0,1
186350,-100,4,2,1,90,0,0
186714,-100,4,1,1,75,0,0
186896,-100,4,2,1,90,0,0
187441,-100,4,1,1,75,0,0
187623,-100,4,2,1,90,0,0
188169,-100,4,1,1,75,0,0
188259,-100,4,2,1,90,0,0
188896,-100,4,1,1,75,0,0
188986,-100,4,2,1,90,0,0
189623,-100,4,1,1,75,0,0
189669,-100,4,2,1,90,0,0
190350,-100,4,1,1,75,0,0
190396,-100,4,2,1,90,0,0
191078,-100,4,1,1,75,0,0
191169,-100,4,2,1,90,0,0
191805,-100,4,1,1,75,0,0
191851,-100,4,2,1,90,0,0
192532,-100,4,1,1,75,0,0
192623,-100,4,2,1,90,0,0
193259,-100,4,1,1,75,0,0
193350,-100,4,2,1,90,0,0
193987,-100,4,1,1,75,0,0
194078,-100,4,2,1,90,0,0
194714,-28.5714285714286,4,1,1,75,0,0
194805,-28.5714285714286,4,2,1,75,0,0
195078,-100,4,2,1,75,0,0
195441,-100,4,1,1,75,0,0
195487,-100,4,2,1,90,0,0
196169,-100,4,1,1,75,0,0
196215,-100,4,2,1,90,0,0
196896,-100,4,1,1,75,0,0
196987,-100,4,2,1,90,0,0
197623,-100,4,1,1,75,0,0
197669,-100,4,2,1,90,0,0
198350,-100,4,1,1,75,0,0
198441,-100,4,2,1,90,0,0
199078,-100,4,1,1,75,0,0
199259,-100,4,2,1,90,0,0
199805,-100,4,1,1,75,0,0
199896,-100,4,2,1,90,0,0
200532,-100,4,1,1,75,0,0
200623,-100,4,2,1,90,0,0
201259,-100,4,1,1,75,0,0
201305,-100,4,2,1,90,0,0
201987,-100,4,1,1,75,0,0
202033,-100,4,2,1,90,0,0
202714,-100,4,1,1,75,0,0
202805,-100,4,2,1,90,0,0
203441,-100,4,1,1,75,0,0
203487,-100,4,2,1,90,0,0
204169,-100,4,1,1,75,0,0
204259,-100,4,2,1,90,0,0
204896,-100,4,1,1,75,0,0
204986,-100,4,2,1,90,0,0
205623,-100,4,1,1,75,0,0
205713,-100,4,2,1,90,0,0
206350,-100,4,1,1,75,0,0
206532,-100,4,2,1,90,0,0
207078,-100,4,1,1,75,0,0
207123,-100,4,2,1,90,0,0
207805,-100,4,1,1,75,0,0
207850,-100,4,2,1,90,0,0
209623,-100,4,2,1,70,0,0
214714,-100,4,2,1,90,0,0
215441,-100,4,2,1,70,0,0
220896,-40,4,2,1,100,0,0
221259,-83.3333333333333,4,2,1,100,0,1
221623,-83.3333333333333,4,1,1,80,0,1
221805,-83.3333333333333,4,2,1,100,0,1
222350,-83.3333333333333,4,1,1,80,0,1
222714,-66.6666666666667,4,2,1,100,0,1
223077,-66.6666666666667,4,1,1,80,0,1
223168,-66.6666666666667,4,2,1,100,0,1
223441,-83.3333333333333,4,2,1,100,0,1
223805,-83.3333333333333,4,1,1,80,0,1
223850,-83.3333333333333,4,2,1,100,0,1
224532,-83.3333333333333,4,1,1,80,0,1
224577,-83.3333333333333,4,2,1,100,0,1
225259,-83.3333333333333,4,1,1,80,0,1
225304,-83.3333333333333,4,2,1,100,0,1
225986,-83.3333333333333,4,1,1,80,0,1
226032,-83.3333333333333,4,2,1,100,0,1
226714,-83.3333333333333,4,1,1,80,0,1
226759,-83.3333333333333,4,2,1,100,0,1
227441,-83.3333333333333,4,1,1,80,0,1
227532,-83.3333333333333,4,2,1,100,0,1
228168,-83.3333333333333,4,1,1,80,0,1
228259,-83.3333333333333,4,2,1,100,0,1
228532,-66.6666666666667,4,2,1,100,0,1
229259,-83.3333333333333,4,2,1,100,0,1
229623,-83.3333333333333,4,1,1,80,0,1
229805,-83.3333333333333,4,2,1,100,0,1
230350,-83.3333333333333,4,1,1,80,0,1
230395,-83.3333333333333,4,2,1,100,0,1
231078,-83.3333333333333,4,1,1,80,0,1
231123,-83.3333333333333,4,2,1,100,0,1
231805,-83.3333333333333,4,1,1,80,0,1
231895,-83.3333333333333,4,2,1,100,0,1
232532,-83.3333333333333,4,1,1,80,0,1
232896,-100,4,1,1,75,0,0
232987,-100,4,2,1,90,0,0
235805,-100,4,1,1,65,0,0
237169,-40,4,2,1,90,0,0
237260,-40,4,1,1,75,0,0
237351,-40,4,2,1,90,0,0
237441,-100,4,2,1,90,0,0
238714,-100,4,1,1,75,0,0
238805,-100,4,2,1,90,0,0
241624,-100,4,1,1,50,0,0
242987,-40,4,2,1,90,0,0
243078,-40,4,1,1,75,0,0
243169,-40,4,2,1,90,0,0
243259,-100,4,2,1,90,0,0
243987,-58.8235294117647,4,2,1,90,0,0
244532,-100,4,2,1,90,0,0

[Colours]
Combo1 : 0,118,174
Combo2 : 163,93,145
Combo3 : 227,45,122
Combo4 : 128,128,255

[HitObjects]
408,228,169,6,0,L|268:228,2,100,6|0|0,0:0|0:0|0:0,0:0:0:0:
188,232,896,2,0,L|176:124,1,100,0|0,0:0|0:0,0:0:0:0:
312,132,1259,1,0,0:0:0:0:
124,128,1441,1,2,0:0:0:0:
312,132,1805,6,0,L|316:240,1,100,0|0,0:0|0:0,0:0:0:0:
444,240,2169,2,0,L|448:348,1,100,0|0,0:0|0:0,0:0:0:0:
319,231,2532,2,0,L|311:131,1,100,0|0,0:0|0:0,0:0:0:0:
120,132,2896,1,2,0:0:0:0:
320,132,3259,6,0,L|424:132,1,100,0|0,0:0|0:0,0:0:0:0:
320,240,3623,2,0,L|220:240,1,100,0|0,0:0|0:0,0:0:0:0:
100,336,3987,2,0,L|200:336,1,100,0|0,0:0|0:0,0:0:0:0:
392,340,4350,1,2,0:0:0:0:
200,252,4714,6,0,L|196:144,1,100,0|0,0:0|0:0,0:0:0:0:
304,128,5078,2,0,L|192:140,1,100,0|0,0:0|0:0,0:0:0:0:
320,132,5441,2,0,L|328:32,1,100,0|0,0:0|0:0,0:0:0:0:
144,44,5805,1,2,0:0:0:0:
468,52,5987,5,6,0:0:0:0:
352,144,6169,2,0,L|354:266,1,100,0|0,0:0|0:0,0:0:0:0:
452,296,6532,2,0,L|336:300,1,100,0|0,0:0|0:0,0:0:0:0:
228,304,6896,2,0,L|112:308,1,100,0|0,0:0|0:0,0:0:0:0:
352,299,7259,1,2,0:0:0:0:
128,232,7623,6,0,L|126:110,1,100,0|0,0:0|0:0,0:0:0:0:
256,140,7987,2,0,L|256:32,1,100,0|0,0:0|0:0,0:0:0:0:
388,148,8350,2,0,L|390:270,1,100,0|0,0:0|0:0,0:0:0:0:
164,248,8714,1,2,0:0:0:0:
348,136,9078,6,0,L|240:140,1,100,0|0,0:0|0:0,0:0:0:0:
368,240,9441,2,0,L|264:244,1,100,0|0,0:0|0:0,0:0:0:0:
392,340,9805,2,0,L|288:344,1,100,0|0,0:0|0:0,0:0:0:0:
88,352,10169,1,2,0:0:0:0:
288,248,10532,6,0,L|286:126,1,100,0|0,0:0|0:0,0:0:0:0:
160,176,10896,2,0,L|158:54,1,100,0|0,0:0|0:0,0:0:0:0:
296,184,11259,2,0,L|298:306,1,100,0|0,0:0|0:0,0:0:0:0:
164,284,11623,1,2,0:0:0:0:
472,184,11805,5,4,0:0:0:0:
32,188,11987,1,8,0:0:0:0:
492,184,12350,2,0,L|156:188,1,300,8|8,0:0|0:0,0:0:0:0:
472,184,13259,5,4,0:0:0:0:
32,188,13441,1,8,0:0:0:0:
492,184,13804,2,0,L|156:188,1,300,8|8,0:0|0:0,0:0:0:0:
472,184,14714,5,4,0:0:0:0:
32,188,14896,1,8,0:0:0:0:
492,184,15259,2,0,L|156:188,1,300,8|8,0:0|0:0,0:0:0:0:
472,184,16169,5,4,0:0:0:0:
32,188,16351,1,8,0:0:0:0:
492,184,16714,2,0,L|156:188,1,300,8|8,0:0|0:0,0:0:0:0:
109,187,17350,1,0,0:0:0:0:
108,248,17441,1,8,0:0:0:0:
384,260,17623,6,0,L|496:260,1,100,4|0,0:0|0:0,0:0:0:0:
304,192,17987,2,0,L|304:88,1,100,8|0,0:0|0:0,0:0:0:0:
124,196,18350,2,0,L|124:92,1,100,0|0,0:0|0:0,0:0:0:0:
304,92,18714,2,0,L|204:92,1,100,8|0,0:0|0:0,0:0:0:0:
500,148,19078,6,0,L|500:256,1,100,4|0,0:0|0:0,0:0:0:0:
288,192,19442,2,0,L|288:88,1,100,8|0,0:0|0:0,0:0:0:0:
80,272,19805,2,0,L|80:168,1,100,2|0,0:0|0:0,0:0:0:0:
276,192,20169,2,0,L|388:192,1,100,8|0,0:0|0:0,0:0:0:0:
120,80,20532,5,4,0:0:0:0:
328,84,20714,1,0,0:0:0:0:
120,80,20896,1,8,0:0:0:0:
328,84,21078,1,0,0:0:0:0:
112,80,21259,2,0,L|104:144,1,50,8|0,0:0|0:0,0:0:0:0:
160,172,21441,2,0,L|228:192,1,50,0|0,0:0|0:0,0:0:0:0:
412,216,21623,2,0,L|420:288,1,50,8|0,0:0|0:0,0:0:0:0:
340,300,21805,2,0,L|276:308,1,50,0|0,0:0|0:0,0:0:0:0:
92,80,21987,6,0,L|84:152,1,50,4|0,0:0|0:0,0:0:0:0:
320,152,22169,2,0,L|312:224,1,50,0|0,0:0|0:0,0:0:0:0:
92,80,22351,2,0,L|84:152,1,50,2|0,0:0|0:0,0:0:0:0:
320,152,22532,2,0,L|312:224,1,50,2|0,0:0|0:0,0:0:0:0:
120,80,22714,6,0,L|180:96,1,50,2|0,0:0|0:0,0:0:0:0:
380,124,22896,2,0,L|444:140,1,50,2|0,0:0|0:0,0:0:0:0:
120,80,23078,2,0,L|424:80,1,300.000011444092,6|0,0:0|0:0,0:0:0:0:
120,216,23441,6,0,L|120:284,1,50,4|0,0:0|0:0,0:0:0:0:
312,144,23623,2,0,L|380:144,1,50,0|0,0:0|0:0,0:0:0:0:
128,100,23805,6,0,L|120:232,1,100,2|0,0:0|0:0,0:0:0:0:
352,232,24078,2,0,L|348:352,1,100,2|0,0:0|0:0,0:0:0:0:
136,280,24350,2,0,L|140:160,1,100,2|0,0:0|0:0,0:0:0:0:
332,192,24623,2,0,L|336:80,1,100,0|0,0:0|0:0,0:0:0:0:
132,92,24896,1,8,0:0:0:0:
432,96,25078,5,2,0:0:0:0:
112,92,25259,2,0,L|144:144,3,50,2|0|0|0,0:0|0:0|0:0|0:0,0:0:0:0:
388,104,25623,5,8,0:0:0:0:
68,100,25805,2,0,L|102:152,3,50,2|0|0|0,0:0|0:0|0:0|0:0,0:0:0:0:
72,156,26169,1,0,0:0:0:0:
304,164,26259,6,0,L|304:280,1,100,2|0,0:0|0:0,0:0:0:0:
148,272,26532,2,0,L|148:160,1,100,0|0,0:0|0:0,0:0:0:0:
360,168,26896,1,0,0:0:0:0:
140,172,27078,1,0,0:0:0:0:
360,168,27259,1,0,0:0:0:0:
140,172,27441,2,0,L|132:108,2,50
480,180,27714,6,0,L|100:180,1,375,2|0,0:0|0:0,0:0:0:0:
424,180,28169,2,0,L|428:76,1,100,6|0,0:0|0:0,0:0:0:0:
120,204,28532,2,0,L|116:308,1,100,6|0,0:0|0:0,0:0:0:0:
496,192,28896,5,6,0:0:0:0:
256,192,28986,1,0,0:0:0:0:
16,192,29078,1,0,0:0:0:0:
352,200,29259,6,0,L|352:132,1,50,4|0,0:0|0:0,0:0:0:0:
168,136,29441,2,0,L|100:136,1,50,0|0,0:0|0:0,0:0:0:0:
348,152,29623,6,0,L|460:152,1,100,2|0,0:0|0:0,0:0:0:0:
304,200,29896,2,0,L|416:200,1,100,2|0,0:0|0:0,0:0:0:0:
260,248,30169,2,0,L|372:248,1,100,2|0,0:0|0:0,0:0:0:0:
216,296,30441,2,0,L|328:296,1,100,0|0,0:0|0:0,0:0:0:0:
124,100,30714,1,8,0:0:0:0:
424,100,30896,5,2,0:0:0:0:
88,100,31078,2,0,L|120:152,3,50,2|0|0|0,0:0|0:0|0:0|0:0,0:0:0:0:
408,104,31441,5,8,0:0:0:0:
88,100,31623,2,0,L|120:152,3,50,2|0|0|0,0:0|0:0|0:0|0:0,0:0:0:0:
92,156,31987,1,0,0:0:0:0:
304,164,32077,6,0,L|304:280,1,100,2|0,0:0|0:0,0:0:0:0:
120,272,32350,2,0,L|120:160,1,100,0|0,0:0|0:0,0:0:0:0:
320,140,32714,1,0,0:0:0:0:
104,140,32896,1,0,0:0:0:0:
320,140,33078,1,0,0:0:0:0:
320,140,33259,1,0,0:0:0:0:
200,140,33350,1,0,0:0:0:0:
320,140,33441,1,0,0:0:0:0:
32,180,33532,6,0,L|412:180,1,375,2|0,0:0|0:0,0:0:0:0:
444,184,33850,1,0,0:0:0:0:
472,212,33896,1,0,0:0:0:0:
484,256,33941,1,0,0:0:0:0:
160,264,33987,2,0,L|56:264,1,100,8|8,0:0|0:0,0:0:0:0:
396,108,34532,5,8,0:0:0:0:
409,129,34577,1,0,0:0:0:0:
418,152,34622,1,0,0:0:0:0:
422,177,34668,1,0,0:0:0:0:
422,202,34713,1,0,0:0:0:0:
418,227,34759,1,0,0:0:0:0:
409,250,34804,1,0,0:0:0:0:
152,248,34896,6,0,L|372:248,1,200,2|0,0:0|0:0,0:0:0:0:
152,248,35442,1,8,0:0:0:0:
432,204,35623,2,0,L|432:72,1,100,0|2,0:0|0:0,0:0:0:0:
332,72,35987,2,0,L|432:72,1,100,0|8,0:0|0:0,0:0:0:0:
80,80,36351,6,0,L|284:80,1,200,2|2,0:0|0:0,0:0:0:0:
80,80,36896,2,0,L|80:192,1,100,8|0,0:0|0:0,0:0:0:0:
296,184,37260,2,0,L|192:184,1,100,2|0,0:0|0:0,0:0:0:0:
376,184,37623,1,8,0:0:0:0:
88,80,37805,6,0,L|88:292,1,200,2|0,0:0|0:0,0:0:0:0:
208,276,38351,1,8,0:0:0:0:
484,276,38533,2,0,L|368:276,1,100,0|2,0:0|0:0,0:0:0:0:
264,280,38896,2,0,L|156:280,1,100,0|8,0:0|0:0,0:0:0:0:
452,112,39260,6,0,L|252:112,1,200,2|0,0:0|0:0,0:0:0:0:
452,112,39805,2,0,L|452:232,1,100,8|0,0:0|0:0,0:0:0:0:
256,228,40169,2,0,L|256:328,1,100,2|0,0:0|0:0,0:0:0:0:
448,316,40533,1,8,0:0:0:0:
88,316,40714,6,0,L|320:316,1,200,2|0,0:0|0:0,0:0:0:0:
88,316,41260,1,8,0:0:0:0:
388,316,41442,2,0,L|268:316,1,100,0|2,0:0|0:0,0:0:0:0:
456,236,41805,2,0,L|456:104,1,100,0|8,0:0|0:0,0:0:0:0:
128,116,42169,6,0,L|332:116,1,200,2|0,0:0|0:0,0:0:0:0:
128,116,42715,1,8,0:0:0:0:
340,120,42896,1,0,0:0:0:0:
128,116,43078,2,0,L|248:116,1,100,2|0,0:0|0:0,0:0:0:0:
76,116,43441,1,8,0:0:0:0:
376,72,43623,5,0,0:0:0:0:
377,96,43668,1,0,0:0:0:0:
377,121,43713,1,0,0:0:0:0:
377,146,43759,1,0,0:0:0:0:
378,171,43804,1,0,0:0:0:0:
378,196,43850,1,0,0:0:0:0:
378,221,43895,1,0,0:0:0:0:
379,246,43941,1,0,0:0:0:0:
379,271,43986,1,0,0:0:0:0:
379,296,44032,1,0,0:0:0:0:
380,321,44077,1,0,0:0:0:0:
380,346,44122,1,0,0:0:0:0:
380,371,44168,1,0,0:0:0:0:
152,208,44350,6,0,L|168:252,4,25,4|0|0|0|0,0:0|0:0|0:0|0:0|0:0,0:0:0:0:
384,208,44714,2,0,L|368:252,4,25,4|0|0|0|0,0:0|0:0|0:0|0:0|0:0,0:0:0:0:
152,208,45078,2,0,L|168:252,4,25,4|0|0|0|0,0:0|0:0|0:0|0:0|0:0,0:0:0:0:
384,208,45441,6,0,L|368:252,4,25,4|0|0|0|0,0:0|0:0|0:0|0:0|0:0,0:0:0:0:
152,208,45805,2,0,L|168:252,4,25,4|0|0|0|0,0:0|0:0|0:0|0:0|0:0,0:0:0:0:
436,344,46169,2,0,L|436:240,1,100,2|0,0:0|0:0,0:0:0:0:
76,248,46532,6,0,L|296:248,1,200,2|0,0:0|0:0,0:0:0:0:
412,252,47078,1,8,0:0:0:0:
132,204,47259,2,0,L|132:72,1,100,2|0,0:0|0:0,0:0:0:0:
352,76,47623,2,0,L|392:96,4,25
80,80,47987,6,0,L|284:80,1,200,2|0,0:0|0:0,0:0:0:0:
80,80,48532,2,0,L|80:192,1,100,8|0,0:0|0:0,0:0:0:0:
296,184,48896,2,0,L|192:184,1,100,2|0,0:0|0:0,0:0:0:0:
376,184,49259,1,8,0:0:0:0:
88,80,49441,6,0,L|88:292,1,200,2|0,0:0|0:0,0:0:0:0:
232,276,49987,1,8,0:0:0:0:
432,276,50169,2,0,L|432:160,1,100,2|0,0:0|0:0,0:0:0:0:
48,124,50532,2,0,L|76:144,4,25,0|0|0|0|0,0:0|0:0|0:0|0:0|0:0,0:0:0:0:
388,104,50896,6,0,L|188:104,1,200,2|0,0:0|0:0,0:0:0:0:
344,104,51441,2,0,L|344:224,1,100,8|0,0:0|0:0,0:0:0:0:
56,208,51805,2,0,L|168:208,1,100,2|0,0:0|0:0,0:0:0:0:
56,208,52169,1,8,0:0:0:0:
364,112,52350,6,0,L|364:316,1,200,2|0,0:0|0:0,0:0:0:0:
208,316,52896,1,8,0:0:0:0:
492,320,53078,2,0,L|372:320,1,100,2|0,0:0|0:0,0:0:0:0:
112,280,53441,2,0,L|88:256,4,25,0|0|0|0|0,0:0|0:0|0:0|0:0|0:0,0:0:0:0:
396,140,53805,6,0,L|188:140,1,200,4|0,0:0|0:0,0:0:0:0:
432,140,54350,1,2,0:0:0:0:
72,144,54714,1,2,0:0:0:0:
452,140,55078,1,0,0:0:0:0:
36,144,55259,6,0,L|348:140,1,300,2|0,0:0|0:0,0:0:0:0:
448,144,56380,1,0,0:0:0:0:
240,148,56562,1,0,0:0:0:0:
448,144,56744,1,0,0:0:0:0:
268,264,57078,6,0,L|264:196,1,50,0|0,0:0|0:0,0:0:0:0:
56,184,57259,1,0,0:0:0:0:
332,264,57441,6,0,L|328:196,1,50,0|0,0:0|0:0,0:0:0:0:
120,184,57622,1,0,0:0:0:0:
400,256,57805,2,0,L|396:188,1,50,0|0,0:0|0:0,0:0:0:0:
188,176,57986,1,0,0:0:0:0:
464,256,58169,2,0,L|460:188,1,50,0|0,0:0|0:0,0:0:0:0:
176,104,58350,6,0,L|288:104,2,100,4|0|8,0:0|0:0|0:0,0:0:0:0:
352,104,58896,2,0,L|360:160,1,50,0|0,0:0|0:0,0:0:0:0:
176,176,59078,6,0,L|168:232,1,33.3333333333333,2|0,0:0|0:0,0:0:0:0:
248,240,59199,1,0,0:0:0:0:
424,252,59259,2,0,L|432:196,1,33.3333333333333,0|0,0:0|0:0,0:0:0:0:
352,188,59380,1,0,0:0:0:0:
152,116,59441,2,0,L|116:104,2,33.3333333333333,8|0|0,0:0|0:0|0:0,0:0:0:0:
336,108,59623,2,0,L|368:118,2,33.3333333333333,0|0|0,0:0|0:0|0:0,0:0:0:0:
140,96,59805,6,0,L|28:96,2,100,2|0|8,0:0|0:0|0:0,0:0:0:0:
352,104,60351,2,0,L|352:160,1,50,0|0,0:0|0:0,0:0:0:0:
208,168,60532,2,0,L|208:288,1,100,2|0,0:0|0:0,0:0:0:0:
376,256,60896,1,8,0:0:0:0:
92,256,61078,6,0,L|92:52,1,200,0|0,0:0|0:0,0:0:0:0:
252,60,61623,1,8,0:0:0:0:
52,60,61805,2,0,L|272:60,1,200,0|0,0:0|0:0,0:0:0:0:
96,52,62350,1,8,0:0:0:0:
380,80,62532,6,0,L|444:80,6,33.3333333333333,2|0|0|2|0|0|0,0:0|0:0|0:0|0:0|0:0|0:0|0:0,0:0:0:0:
108,92,63078,2,0,L|212:96,1,100,8|0,0:0|0:0,0:0:0:0:
416,208,63441,2,0,L|308:216,1,100,2|0,0:0|0:0,0:0:0:0:
116,232,63805,1,8,0:0:0:0:
340,284,63987,1,0,0:0:0:0:
64,236,64169,6,0,L|64:28,1,200,2|8,0:0|0:0,0:0:0:0:
204,40,64714,1,0,0:0:0:0:
416,64,64896,2,0,L|416:172,1,100,2|0,0:0|0:0,0:0:0:0:
232,168,65259,2,0,L|124:168,1,100,8|0,0:0|0:0,0:0:0:0:
448,264,65623,6,0,L|244:264,1,200,2|8,0:0|0:0,0:0:0:0:
444,208,66169,2,0,L|444:96,1,100,0|2,0:0|0:0,0:0:0:0:
260,88,66532,1,0,0:0:0:0:
456,92,66714,1,8,0:0:0:0:
148,80,66896,6,0,L|148:288,1,200,2|0,0:0|0:0,0:0:0:0:
256,284,67441,1,2,0:0:0:0:
120,196,67623,1,0,0:0:0:0:
312,156,67805,2,0,L|364:136,3,50,2|0|0|0,0:0|0:0|0:0|0:0,0:0:0:0:
104,88,68169,1,0,0:0:0:0:
392,72,68350,6,0,L|392:280,1,200,2|0,0:0|0:0,0:0:0:0:
180,264,68896,2,0,L|300:260,1,100,2|0,0:0|0:0,0:0:0:0:
72,144,69259,2,0,L|192:140,1,100,2|0,0:0|0:0,0:0:0:0:
8,44,69623,1,2,0:0:0:0:
58,42,69713,1,0,0:0:0:0:
108,40,69804,1,0,0:0:0:0:
380,104,69987,6,0,L|492:104,2,100,4|0|8,0:0|0:0|0:0,0:0:0:0:
160,104,70533,2,0,L|152:160,1,50,0|0,0:0|0:0,0:0:0:0:
336,176,70715,6,0,L|344:232,1,33.3333333333333,2|0,0:0|0:0,0:0:0:0:
264,240,70836,1,0,0:0:0:0:
88,252,70896,2,0,L|80:196,1,33.3333333333333,0|0,0:0|0:0,0:0:0:0:
160,188,71017,1,0,0:0:0:0:
360,116,71078,2,0,L|396:104,2,33.3333333333333,8|0|0,0:0|0:0|0:0,0:0:0:0:
176,108,71260,2,0,L|144:118,2,33.3333333333333,0|0|0,0:0|0:0|0:0,0:0:0:0:
340,96,71442,6,0,L|452:96,2,100,2|0|8,0:0|0:0|0:0,0:0:0:0:
160,104,71988,2,0,L|160:160,1,50,0|0,0:0|0:0,0:0:0:0:
304,168,72169,2,0,L|304:288,1,100,2|0,0:0|0:0,0:0:0:0:
140,264,72533,1,8,0:0:0:0:
436,52,72715,6,0,L|220:52,1,200,0|0,0:0|0:0,0:0:0:0:
404,52,73260,1,8,0:0:0:0:
96,52,73442,2,0,L|316:52,1,200,0|0,0:0|0:0,0:0:0:0:
96,52,73987,1,8,0:0:0:0:
376,84,74169,6,0,L|440:84,6,33.3333333333333,2|0|0|2|0|0|0,0:0|0:0|0:0|0:0|0:0|0:0|0:0,0:0:0:0:
104,92,74715,2,0,L|104:192,1,100,8|0,0:0|0:0,0:0:0:0:
396,112,75078,2,0,L|396:216,1,100,2|0,0:0|0:0,0:0:0:0:
172,204,75442,1,8,0:0:0:0:
388,215,75624,1,0,0:0:0:0:
112,232,75806,6,0,L|116:24,1,200,4|8,0:0|0:0,0:0:0:0:
260,56,76351,1,0,0:0:0:0:
72,56,76533,2,0,L|68:168,1,100,2|0,0:0|0:0,0:0:0:0:
228,172,76896,2,0,L|116:172,1,100,8|0,0:0|0:0,0:0:0:0:
464,268,77260,6,0,L|260:268,1,200,4|8,0:0|0:0,0:0:0:0:
432,184,77806,2,0,L|432:72,1,100,0|2,0:0|0:0,0:0:0:0:
260,88,78169,1,0,0:0:0:0:
456,92,78351,1,8,0:0:0:0:
148,80,78533,6,0,L|148:288,1,200,4|0,0:0|0:0,0:0:0:0:
304,280,79078,1,2,0:0:0:0:
32,184,79259,2,0,L|32:64,1,100,2|0,0:0|0:0,0:0:0:0:
384,192,79623,2,0,L|384:312,1,100,2|0,0:0|0:0,0:0:0:0:
84,280,79987,6,0,L|324:280,1,200,8|2,0:0|0:0,0:0:0:0:
84,280,80533,2,0,L|84:168,1,100,2|2,0:0|0:0,0:0:0:0:
412,264,80896,1,4,0:0:0:0:
387,263,80941,1,0,0:0:0:0:
362,262,80986,1,0,0:0:0:0:
337,261,81032,1,0,0:0:0:0:
312,260,81077,1,0,0:0:0:0:
40,264,81260,1,4,0:0:0:0:
65,263,81304,1,0,0:0:0:0:
90,262,81349,1,0,0:0:0:0:
115,261,81395,1,0,0:0:0:0:
140,260,81440,1,0,0:0:0:0:
416,252,81623,6,0,L|416:140,1,100,4|0,0:0|0:0,0:0:0:0:
196,152,81987,2,0,L|312:148,1,100,8|0,0:0|0:0,0:0:0:0:
368,144,82259,1,0,0:0:0:0:
144,232,82350,2,0,L|144:112,1,100,2|0,0:0|0:0,0:0:0:0:
304,180,82714,2,0,L|300:100,1,50,8|0,0:0|0:0,0:0:0:0:
188,136,82896,2,0,L|184:60,1,50,0|0,0:0|0:0,0:0:0:0:
392,96,83078,6,0,L|392:212,1,100,2|0,0:0|0:0,0:0:0:0:
56,96,83441,2,0,L|56:216,1,100,8|0,0:0|0:0,0:0:0:0:
340,104,83805,5,2,0:0:0:0:
336,136,83850,1,2,0:0:0:0:
336,180,83895,1,2,0:0:0:0:
336,220,83941,1,2,0:0:0:0:
104,104,83987,2,0,L|104:176,1,50,2|0,0:0|0:0,0:0:0:0:
348,108,84169,5,8,0:0:0:0:
363,127,84214,1,2,0:0:0:0:
374,149,84259,1,2,0:0:0:0:
379,174,84305,1,2,0:0:0:0:
379,199,84350,1,0,0:0:0:0:
372,223,84396,1,0,0:0:0:0:
360,245,84441,1,0,0:0:0:0:
108,220,84532,6,0,L|108:336,1,100,4|0,0:0|0:0,0:0:0:0:
452,116,84896,1,8,0:0:0:0:
427,116,84941,1,2,0:0:0:0:
402,116,84986,1,2,0:0:0:0:
377,116,85032,1,2,0:0:0:0:
352,116,85077,1,0,0:0:0:0:
328,116,85123,1,0,0:0:0:0:
304,116,85169,1,0,0:0:0:0:
108,220,85259,6,0,L|108:336,1,100,4|0,0:0|0:0,0:0:0:0:
452,116,85623,1,8,0:0:0:0:
427,116,85668,1,2,0:0:0:0:
402,116,85713,1,2,0:0:0:0:
377,116,85759,1,2,0:0:0:0:
352,116,85804,1,0,0:0:0:0:
328,116,85850,1,0,0:0:0:0:
304,116,85896,1,0,0:0:0:0:
44,112,85987,6,0,L|44:220,1,100,2|2,0:0|0:0,0:0:0:0:
316,224,86350,2,0,L|196:224,1,100,8|2,0:0|0:0,0:0:0:0:
488,336,86714,2,0,L|416:336,1,50,2|0,0:0|0:0,0:0:0:0:
216,336,86896,2,0,L|160:336,1,50,2|0,0:0|0:0,0:0:0:0:
352,292,87078,1,8,0:0:0:0:
352,267,87123,1,2,0:0:0:0:
352,242,87168,1,2,0:0:0:0:
352,217,87214,1,2,0:0:0:0:
352,192,87259,1,0,0:0:0:0:
352,167,87305,1,0,0:0:0:0:
352,142,87350,1,0,0:0:0:0:
80,184,87441,6,0,L|80:64,1,100,4|0,0:0|0:0,0:0:0:0:
292,92,87805,2,0,L|180:92,1,100,0|0,0:0|0:0,0:0:0:0:
128,100,88078,1,0,0:0:0:0:
356,104,88169,1,2,0:0:0:0:
400,140,88259,1,0,0:0:0:0:
400,189,88350,1,2,0:0:0:0:
357,229,88441,1,0,0:0:0:0:
156,104,88532,1,8,0:0:0:0:
112,140,88622,1,0,0:0:0:0:
112,189,88713,1,2,0:0:0:0:
156,229,88804,1,0,0:0:0:0:
368,176,88896,6,0,L|368:280,1,100,4|0,0:0|0:0,0:0:0:0:
88,176,89259,2,0,L|88:284,1,100,4|0,0:0|0:0,0:0:0:0:
360,172,89623,5,4,0:0:0:0:
360,197,89668,1,2,0:0:0:0:
360,222,89713,1,2,0:0:0:0:
360,247,89759,1,2,0:0:0:0:
152,172,89805,2,0,L|148:108,1,50,2|0,0:0|0:0,0:0:0:0:
360,172,89987,1,8,0:0:0:0:
335,172,90032,1,0,0:0:0:0:
310,172,90077,1,0,0:0:0:0:
285,172,90123,1,0,0:0:0:0:
256,172,90169,2,0,L|200:172,1,50,0|0,0:0|0:0,0:0:0:0:
404,220,90350,6,0,L|404:336,1,100,4|0,0:0|0:0,0:0:0:0:
60,116,90714,1,8,0:0:0:0:
85,116,90759,1,2,0:0:0:0:
110,116,90804,1,2,0:0:0:0:
135,116,90850,1,2,0:0:0:0:
160,116,90895,1,0,0:0:0:0:
184,116,90941,1,0,0:0:0:0:
208,116,90987,1,0,0:0:0:0:
404,220,91077,6,0,L|404:336,1,100,4|0,0:0|0:0,0:0:0:0:
60,116,91441,1,8,0:0:0:0:
85,116,91486,1,2,0:0:0:0:
110,116,91531,1,0,0:0:0:0:
135,116,91577,1,2,0:0:0:0:
160,116,91622,1,0,0:0:0:0:
184,116,91668,1,0,0:0:0:0:
208,116,91714,1,0,0:0:0:0:
404,120,91805,5,4,0:0:0:0:
220,112,91987,1,2,0:0:0:0:
404,120,92169,1,0,0:0:0:0:
128,120,92350,1,2,0:0:0:0:
432,188,92532,2,0,L|432:252,1,50,4|0,0:0|0:0,0:0:0:0:
244,316,92714,2,0,L|244:380,1,50,0|0,0:0|0:0,0:0:0:0:
432,292,92896,1,8,0:0:0:0:
432,267,92941,1,2,0:0:0:0:
432,242,92986,1,2,0:0:0:0:
432,217,93032,1,2,0:0:0:0:
432,192,93077,1,0,0:0:0:0:
432,167,93123,1,0,0:0:0:0:
432,142,93168,1,0,0:0:0:0:
96,252,93259,6,0,L|96:140,1,100,4|0,0:0|0:0,0:0:0:0:
316,152,93623,2,0,L|200:148,1,100,8|0,0:0|0:0,0:0:0:0:
144,144,93895,1,0,0:0:0:0:
368,232,93987,2,0,L|368:112,1,100,2|0,0:0|0:0,0:0:0:0:
208,180,94350,2,0,L|212:100,1,50,8|0,0:0|0:0,0:0:0:0:
296,136,94532,2,0,L|300:60,1,50,0|0,0:0|0:0,0:0:0:0:
72,216,94714,6,0,L|188:216,1,100,2|0,0:0|0:0,0:0:0:0:
480,216,95078,2,0,L|364:216,1,100,8|0,0:0|0:0,0:0:0:0:
104,104,95441,5,2,0:0:0:0:
108,136,95486,1,2,0:0:0:0:
108,180,95531,1,2,0:0:0:0:
108,220,95577,1,2,0:0:0:0:
340,104,95623,2,0,L|340:176,1,50,2|0,0:0|0:0,0:0:0:0:
144,108,95805,5,8,0:0:0:0:
129,127,95850,1,2,0:0:0:0:
118,149,95895,1,2,0:0:0:0:
113,174,95941,1,2,0:0:0:0:
113,199,95986,1,0,0:0:0:0:
120,223,96032,1,0,0:0:0:0:
132,245,96077,1,0,0:0:0:0:
368,220,96168,6,0,L|368:336,1,100,4|0,0:0|0:0,0:0:0:0:
60,116,96532,1,8,0:0:0:0:
85,116,96577,1,2,0:0:0:0:
110,116,96622,1,2,0:0:0:0:
135,116,96668,1,2,0:0:0:0:
160,116,96713,1,0,0:0:0:0:
184,116,96759,1,0,0:0:0:0:
208,116,96805,1,0,0:0:0:0:
404,220,96896,6,0,L|404:336,1,100,4|0,0:0|0:0,0:0:0:0:
60,116,97259,1,8,0:0:0:0:
85,116,97304,1,2,0:0:0:0:
110,116,97349,1,2,0:0:0:0:
135,116,97395,1,2,0:0:0:0:
160,116,97440,1,0,0:0:0:0:
184,116,97486,1,0,0:0:0:0:
208,116,97532,1,0,0:0:0:0:
420,112,97623,6,0,L|420:220,1,100,2|2,0:0|0:0,0:0:0:0:
336,208,97895,1,0,0:0:0:0:
152,224,97987,2,0,L|152:288,1,50,8|0,0:0|0:0,0:0:0:0:
356,272,98168,2,0,L|356:336,1,50,2|0,0:0|0:0,0:0:0:0:
124,336,98350,2,0,L|196:336,1,50,2|0,0:0|0:0,0:0:0:0:
364,336,98532,2,0,L|420:336,1,50,2|0,0:0|0:0,0:0:0:0:
160,292,98714,1,8,0:0:0:0:
160,267,98759,1,2,0:0:0:0:
160,242,98804,1,2,0:0:0:0:
160,217,98850,1,2,0:0:0:0:
160,192,98895,1,0,0:0:0:0:
160,167,98941,1,0,0:0:0:0:
160,142,98986,1,0,0:0:0:0:
432,184,99077,6,0,L|432:64,1,100,4|0,0:0|0:0,0:0:0:0:
220,92,99441,2,0,L|332:92,1,100,0|0,0:0|0:0,0:0:0:0:
384,100,99714,1,0,0:0:0:0:
156,104,99805,1,2,0:0:0:0:
112,140,99895,1,0,0:0:0:0:
112,189,99986,1,2,0:0:0:0:
155,229,100077,1,0,0:0:0:0:
356,104,100168,1,8,0:0:0:0:
400,140,100258,1,0,0:0:0:0:
400,189,100349,1,2,0:0:0:0:
356,229,100440,1,0,0:0:0:0:
160,176,100532,6,0,L|100:176,3,50,4|0|0|0,0:0|0:0|0:0|0:0,0:0:0:0:
352,176,100896,2,0,L|412:176,3,50,4|0|0|0,0:0|0:0|0:0|0:0,0:0:0:0:
152,172,101259,5,4,0:0:0:0:
152,197,101304,1,2,0:0:0:0:
152,222,101349,1,2,0:0:0:0:
152,247,101395,1,2,0:0:0:0:
360,172,101441,2,0,L|364:108,1,50,2|0,0:0|0:0,0:0:0:0:
152,172,101623,1,8,0:0:0:0:
177,172,101668,1,0,0:0:0:0:
202,172,101713,1,0,0:0:0:0:
227,172,101759,1,0,0:0:0:0:
256,172,101805,2,0,L|312:172,1,50,0|0,0:0|0:0,0:0:0:0:
108,220,101987,6,0,L|108:336,1,100,4|0,0:0|0:0,0:0:0:0:
452,116,102350,1,8,0:0:0:0:
427,116,102395,1,2,0:0:0:0:
402,116,102440,1,2,0:0:0:0:
377,116,102486,1,2,0:0:0:0:
352,116,102531,1,0,0:0:0:0:
328,116,102577,1,0,0:0:0:0:
304,116,102623,1,0,0:0:0:0:
108,220,102714,6,0,L|108:336,1,100,4|0,0:0|0:0,0:0:0:0:
452,116,103077,1,8,0:0:0:0:
427,116,103122,1,2,0:0:0:0:
402,116,103169,1,2,0:0:0:0:
377,116,103213,1,2,0:0:0:0:
352,116,103258,1,0,0:0:0:0:
328,116,103304,1,0,0:0:0:0:
304,116,103350,1,0,0:0:0:0:
108,120,103441,6,0,L|212:120,1,100,4|2,0:0|0:0,0:0:0:0:
260,120,103713,1,0,0:0:0:0:
80,188,103805,2,0,L|156:188,1,50,0|0,0:0|0:0,0:0:0:0:
328,248,103987,2,0,L|392:248,1,50,2|0,0:0|0:0,0:0:0:0:
120,276,104168,2,0,L|200:276,1,50,4|0,0:0|0:0,0:0:0:0:
372,320,104350,2,0,L|372:384,1,50,0|0,0:0|0:0,0:0:0:0:
80,292,104532,5,8,0:0:0:0:
80,267,104577,1,0,0:0:0:0:
80,242,104622,1,0,0:0:0:0:
80,217,104668,1,0,0:0:0:0:
80,192,104713,1,0,0:0:0:0:
80,167,104759,1,0,0:0:0:0:
80,142,104804,1,0,0:0:0:0:
336,180,104896,1,4,0:0:0:0:
360,248,116350,6,0,L|140:248,1,200,2|0,0:0|0:0,0:0:0:0:
360,248,116896,1,8,0:0:0:0:
80,204,117077,2,0,L|196:204,1,100,0|2,0:0|0:0,0:0:0:0:
36,176,117441,2,0,L|36:72,1,100,0|8,0:0|0:0,0:0:0:0:
432,80,117805,6,0,L|228:80,1,200,2|2,0:0|0:0,0:0:0:0:
432,80,118350,2,0,L|432:192,1,100,8|0,0:0|0:0,0:0:0:0:
216,184,118714,2,0,L|320:184,1,100,2|0,0:0|0:0,0:0:0:0:
136,184,119077,1,8,0:0:0:0:
424,80,119259,6,0,L|212:80,1,200,2|0,0:0|0:0,0:0:0:0:
424,80,119805,1,8,0:0:0:0:
28,276,119987,2,0,L|144:276,1,100,0|2,0:0|0:0,0:0:0:0:
248,280,120350,2,0,L|356:280,1,100,0|8,0:0|0:0,0:0:0:0:
60,112,120714,6,0,L|260:112,1,200,2|0,0:0|0:0,0:0:0:0:
60,112,121259,2,0,L|60:232,1,100,8|0,0:0|0:0,0:0:0:0:
256,228,121623,2,0,L|152:228,1,100,2|0,0:0|0:0,0:0:0:0:
348,228,121987,1,8,0:0:0:0:
72,224,122168,6,0,L|72:16,1,200,2|0,0:0|0:0,0:0:0:0:
380,68,122714,1,8,0:0:0:0:
56,236,122896,2,0,L|56:112,1,100,0|2,0:0|0:0,0:0:0:0:
248,224,123259,2,0,L|144:224,1,100,0|8,0:0|0:0,0:0:0:0:
440,112,123623,6,0,L|236:112,1,200,2|0,0:0|0:0,0:0:0:0:
384,116,124169,1,8,0:0:0:0:
172,120,124350,1,0,0:0:0:0:
384,116,124532,2,0,L|264:116,1,100,2|0,0:0|0:0,0:0:0:0:
436,116,124895,1,8,0:0:0:0:
84,72,125077,5,0,0:0:0:0:
83,96,125122,1,0,0:0:0:0:
83,121,125169,1,0,0:0:0:0:
83,146,125213,1,0,0:0:0:0:
82,171,125258,1,0,0:0:0:0:
82,196,125304,1,0,0:0:0:0:
82,221,125349,1,0,0:0:0:0:
81,246,125395,1,0,0:0:0:0:
81,271,125440,1,0,0:0:0:0:
81,296,125486,1,0,0:0:0:0:
80,321,125531,1,0,0:0:0:0:
80,346,125578,1,0,0:0:0:0:
80,371,125622,1,0,0:0:0:0:
376,208,125805,5,4,0:0:0:0:
340,208,125850,1,0,0:0:0:0:
304,208,125895,1,0,0:0:0:0:
268,208,125941,1,0,0:0:0:0:
232,208,125986,1,0,0:0:0:0:
440,312,126169,1,4,0:0:0:0:
440,312,126214,1,0,0:0:0:0:
440,312,126259,1,0,0:0:0:0:
440,312,126305,1,0,0:0:0:0:
440,312,126350,1,0,0:0:0:0:
136,208,126532,5,4,0:0:0:0:
172,208,126577,1,0,0:0:0:0:
208,208,126622,1,0,0:0:0:0:
244,208,126668,1,0,0:0:0:0:
280,208,126713,1,0,0:0:0:0:
72,312,126896,1,4,0:0:0:0:
72,312,126941,1,0,0:0:0:0:
72,312,126986,1,0,0:0:0:0:
72,312,127032,1,0,0:0:0:0:
72,312,127077,1,0,0:0:0:0:
372,208,127259,2,0,L|356:252,4,25,4|0|0|0|0,0:0|0:0|0:0|0:0|0:0,0:0:0:0:
76,344,127623,2,0,L|76:240,1,100,2|0,0:0|0:0,0:0:0:0:
400,248,127986,6,0,L|180:248,1,200,2|0,0:0|0:0,0:0:0:0:
480,252,128532,1,8,0:0:0:0:
184,208,128714,2,0,L|184:76,1,100,2|0,0:0|0:0,0:0:0:0:
400,72,129078,2,0,L|440:92,4,25,0|0|0|0|0,0:0|0:0|0:0|0:0|0:0,0:0:0:0:
128,76,129441,6,0,L|332:76,1,200,2|0,0:0|0:0,0:0:0:0:
128,76,129987,2,0,L|228:76,1,100,8|0,0:0|0:0,0:0:0:0:
428,184,130350,2,0,L|324:184,1,100,2|0,0:0|0:0,0:0:0:0:
500,184,130713,1,8,0:0:0:0:
216,76,130895,6,0,L|216:288,1,200,2|0,0:0|0:0,0:0:0:0:
488,272,131441,1,8,0:0:0:0:
144,272,131623,2,0,L|144:156,1,100,2|0,0:0|0:0,0:0:0:0:
464,124,131987,2,0,L|436:144,4,25,0|0|0|0|0,0:0|0:0|0:0|0:0|0:0,0:0:0:0:
124,104,132350,6,0,L|324:104,1,200,2|0,0:0|0:0,0:0:0:0:
168,104,132896,2,0,L|168:208,1,100,8|0,0:0|0:0,0:0:0:0:
456,208,133259,2,0,L|344:208,1,100,2|0,0:0|0:0,0:0:0:0:
456,208,133623,1,0,0:0:0:0:
148,112,133805,6,0,L|360:112,1,200,2|0,0:0|0:0,0:0:0:0:
72,112,134350,1,8,0:0:0:0:
348,112,134532,2,0,L|348:216,1,100,2|0,0:0|0:0,0:0:0:0:
72,280,134896,2,0,L|48:256,4,25,0|0|0|0|0,0:0|0:0|0:0|0:0|0:0,0:0:0:0:
356,140,135259,6,0,L|148:140,1,200,4|0,0:0|0:0,0:0:0:0:
436,140,135804,1,2,0:0:0:0:
84,144,136168,1,2,0:0:0:0:
384,140,136532,1,0,0:0:0:0:
36,144,136713,6,0,L|348:140,1,300,2|0,0:0|0:0,0:0:0:0:
64,144,137737,1,0,0:0:0:0:
272,148,137919,1,0,0:0:0:0:
64,144,138101,1,0,0:0:0:0:
244,264,138532,6,0,L|248:196,1,50,0|0,0:0|0:0,0:0:0:0:
456,184,138713,1,0,0:0:0:0:
180,264,138896,6,0,L|184:196,1,50,0|0,0:0|0:0,0:0:0:0:
392,184,139078,1,0,0:0:0:0:
112,256,139259,2,0,L|116:188,1,50,0|0,0:0|0:0,0:0:0:0:
324,176,139440,1,0,0:0:0:0:
48,256,139623,2,0,L|52:188,1,50,0|0,0:0|0:0,0:0:0:0:
336,104,139805,6,0,L|224:104,2,100,4|0|8,0:0|0:0|0:0,0:0:0:0:
160,104,140350,2,0,L|152:160,1,50,0|0,0:0|0:0,0:0:0:0:
336,176,140532,6,0,L|343:221,1,33.3333333333333,2|0,0:0|0:0,0:0:0:0:
264,240,140653,1,0,0:0:0:0:
88,252,140714,2,0,L|80:196,1,33.3333333333333,0|0,0:0|0:0,0:0:0:0:
160,188,140835,1,0,0:0:0:0:
360,116,140895,2,0,L|396:104,2,33.3333333333333,8|0|0,0:0|0:0|0:0,0:0:0:0:
176,108,141077,2,0,L|144:118,2,33.3333333333333,0|0|0,0:0|0:0|0:0,0:0:0:0:
372,96,141259,6,0,L|484:96,2,100,2|0|8,0:0|0:0|0:0,0:0:0:0:
160,104,141805,2,0,L|160:160,1,50,0|0,0:0|0:0,0:0:0:0:
312,168,141987,2,0,L|424:168,1,100,2|0,0:0|0:0,0:0:0:0:
136,256,142350,1,8,0:0:0:0:
420,256,142532,6,0,L|420:52,1,200,0|0,0:0|0:0,0:0:0:0:
208,60,143077,1,8,0:0:0:0:
480,60,143259,2,0,L|260:60,1,200,0|0,0:0|0:0,0:0:0:0:
480,60,143804,1,8,0:0:0:0:
168,64,143987,6,0,L|104:64,6,33.3333333333333,2|0|0|2|0|0|0,0:0|0:0|0:0|0:0|0:0|0:0|0:0,0:0:0:0:
444,92,144532,1,8,0:0:0:0:
228,92,144714,1,0,0:0:0:0:
444,92,144896,1,2,0:0:0:0:
228,92,145078,1,0,0:0:0:0:
444,92,145259,1,8,0:0:0:0:
448,224,145441,1,0,0:0:0:0:
64,236,145623,6,0,L|64:28,1,200,2|8,0:0|0:0,0:0:0:0:
284,56,146168,1,0,0:0:0:0:
96,64,146350,2,0,L|220:64,1,100,2|0,0:0|0:0,0:0:0:0:
404,176,146714,2,0,L|296:176,1,100,8|0,0:0|0:0,0:0:0:0:
32,264,147077,6,0,L|32:24,1,200,2|8,0:0|0:0,0:0:0:0:
444,208,147623,2,0,L|444:96,1,100,0|2,0:0|0:0,0:0:0:0:
260,88,147986,1,0,0:0:0:0:
456,92,148168,1,8,0:0:0:0:
148,80,148350,6,0,L|148:288,1,200,2|0,0:0|0:0,0:0:0:0:
256,284,148895,1,2,0:0:0:0:
120,196,149077,1,0,0:0:0:0:
312,156,149259,2,0,L|364:136,3,50,2|0|0|0,0:0|0:0|0:0|0:0,0:0:0:0:
104,88,149623,1,0,0:0:0:0:
448,76,149805,6,0,L|448:284,1,200,2|0,0:0|0:0,0:0:0:0:
160,268,150350,2,0,L|40:264,1,100,2|0,0:0|0:0,0:0:0:0:
332,156,150714,2,0,L|212:152,1,100,2|0,0:0|0:0,0:0:0:0:
504,44,151078,1,2,0:0:0:0:
454,42,151169,1,0,0:0:0:0:
404,40,151259,1,0,0:0:0:0:
132,104,151441,6,0,L|20:104,2,100,4|0|8,0:0|0:0|0:0,0:0:0:0:
352,104,151987,2,0,L|360:160,1,50,0|0,0:0|0:0,0:0:0:0:
176,176,152169,6,0,L|168:232,1,33.3333333333333,2|0,0:0|0:0,0:0:0:0:
248,240,152290,1,0,0:0:0:0:
424,252,152350,2,0,L|432:196,1,33.3333333333333,0|0,0:0|0:0,0:0:0:0:
352,188,152471,1,0,0:0:0:0:
152,116,152532,2,0,L|116:104,2,33.3333333333333,8|0|0,0:0|0:0|0:0,0:0:0:0:
336,108,152714,2,0,L|368:118,2,33.3333333333333,0|0|0,0:0|0:0|0:0,0:0:0:0:
172,96,152896,6,0,L|60:96,2,100,2|0|8,0:0|0:0|0:0,0:0:0:0:
352,104,153442,2,0,L|360:160,1,50,0|0,0:0|0:0,0:0:0:0:
200,168,153623,2,0,L|200:288,1,100,2|0,0:0|0:0,0:0:0:0:
372,264,153987,1,8,0:0:0:0:
76,52,154169,6,0,L|292:52,1,200,0|0,0:0|0:0,0:0:0:0:
108,52,154714,1,8,0:0:0:0:
416,52,154896,2,0,L|196:52,1,200,0|0,0:0|0:0,0:0:0:0:
416,52,155441,1,8,0:0:0:0:
136,84,155623,6,0,L|72:84,6,33.3333333333333,2|0|0|2|0|0|0,0:0|0:0|0:0|0:0|0:0|0:0|0:0,0:0:0:0:
408,92,156169,1,8,0:0:0:0:
208,88,156350,1,0,0:0:0:0:
480,92,156532,1,2,0:0:0:0:
282,88,156714,1,0,0:0:0:0:
480,92,156896,1,8,0:0:0:0:
124,215,157078,1,0,0:0:0:0:
400,232,157260,6,0,L|396:24,1,200,4|8,0:0|0:0,0:0:0:0:
252,56,157805,1,0,0:0:0:0:
440,56,157987,2,0,L|444:168,1,100,2|0,0:0|0:0,0:0:0:0:
284,172,158350,2,0,L|396:172,1,100,8|0,0:0|0:0,0:0:0:0:
64,268,158714,6,0,L|268:268,1,200,4|8,0:0|0:0,0:0:0:0:
92,184,159260,2,0,L|92:72,1,100,0|2,0:0|0:0,0:0:0:0:
300,88,159623,1,0,0:0:0:0:
16,92,159805,1,8,0:0:0:0:
376,80,159987,6,0,L|376:288,1,200,4|0,0:0|0:0,0:0:0:0:
104,280,160532,1,2,0:0:0:0:
404,184,160714,2,0,L|404:64,1,100,2|0,0:0|0:0,0:0:0:0:
128,192,161077,2,0,L|128:312,1,100,2|0,0:0|0:0,0:0:0:0:
428,280,161441,6,0,L|188:280,1,200,8|2,0:0|0:0,0:0:0:0:
428,280,161987,2,0,L|428:168,1,100,2|2,0:0|0:0,0:0:0:0:
96,264,162350,1,4,0:0:0:0:
121,263,162395,1,0,0:0:0:0:
146,262,162440,1,0,0:0:0:0:
171,261,162486,1,0,0:0:0:0:
196,260,162531,1,0,0:0:0:0:
468,264,162714,1,4,0:0:0:0:
443,263,162758,1,0,0:0:0:0:
418,262,162805,1,0,0:0:0:0:
393,261,162849,1,0,0:0:0:0:
368,260,162896,1,0,0:0:0:0:
96,252,163077,6,0,L|96:140,1,100,4|0,0:0|0:0,0:0:0:0:
372,152,163441,1,8,0:0:0:0:
92,160,163623,1,0,0:0:0:0:
92,84,163713,1,0,0:0:0:0:
472,196,163805,2,0,L|360:196,1,100,2|0,0:0|0:0,0:0:0:0:
172,184,164168,2,0,L|168:104,1,50,8|0,0:0|0:0,0:0:0:0:
352,128,164350,2,0,L|348:52,1,50,0|0,0:0|0:0,0:0:0:0:
148,96,164532,6,0,L|80:96,3,64.9999970245363,2|0|0|0,0:0|0:0|0:0|0:0,0:0:0:0:
364,96,164896,2,0,L|432:96,3,64.9999970245363,8|0|0|0,0:0|0:0|0:0|0:0,0:0:0:0:
188,104,165259,5,2,0:0:0:0:
192,136,165304,1,2,0:0:0:0:
192,180,165349,1,0,0:0:0:0:
192,220,165395,1,2,0:0:0:0:
424,104,165441,2,0,L|424:176,1,50,2|0,0:0|0:0,0:0:0:0:
184,272,165623,5,8,0:0:0:0:
209,272,165668,1,2,0:0:0:0:
234,272,165713,1,2,0:0:0:0:
259,272,165759,1,2,0:0:0:0:
284,272,165804,1,0,0:0:0:0:
309,272,165850,1,0,0:0:0:0:
334,272,165895,1,0,0:0:0:0:
108,220,165987,6,0,L|108:336,1,100,4|0,0:0|0:0,0:0:0:0:
452,116,166351,1,8,0:0:0:0:
416,116,166396,1,2,0:0:0:0:
380,116,166441,1,2,0:0:0:0:
344,116,166487,1,2,0:0:0:0:
308,116,166532,1,0,0:0:0:0:
272,116,166578,1,0,0:0:0:0:
236,116,166624,1,0,0:0:0:0:
460,220,166714,6,0,L|460:336,1,100,4|0,0:0|0:0,0:0:0:0:
104,116,167079,1,8,0:0:0:0:
140,116,167124,1,2,0:0:0:0:
176,116,167169,1,2,0:0:0:0:
212,116,167215,1,2,0:0:0:0:
248,116,167260,1,0,0:0:0:0:
284,116,167306,1,0,0:0:0:0:
320,116,167350,1,0,0:0:0:0:
116,112,167441,5,2,0:0:0:0:
392,112,167623,1,2,0:0:0:0:
120,224,167805,2,0,L|120:288,1,50,8|0,0:0|0:0,0:0:0:0:
356,272,167987,2,0,L|356:336,1,50,2|0,0:0|0:0,0:0:0:0:
124,336,168169,2,0,L|196:336,1,50,2|0,0:0|0:0,0:0:0:0:
396,336,168350,2,0,L|452:336,1,50,2|0,0:0|0:0,0:0:0:0:
160,292,168532,1,8,0:0:0:0:
160,267,168577,1,2,0:0:0:0:
160,242,168622,1,2,0:0:0:0:
160,217,168668,1,2,0:0:0:0:
160,192,168713,1,0,0:0:0:0:
160,167,168759,1,0,0:0:0:0:
160,142,168804,1,0,0:0:0:0:
432,184,168896,6,0,L|432:64,1,100,4|0,0:0|0:0,0:0:0:0:
156,92,169259,1,0,0:0:0:0:
432,96,169441,1,0,0:0:0:0:
432,164,169532,1,0,0:0:0:0:
156,104,169623,1,2,0:0:0:0:
96,140,169713,1,0,0:0:0:0:
96,188,169804,1,2,0:0:0:0:
155,229,169895,1,0,0:0:0:0:
356,104,169986,1,8,0:0:0:0:
420,140,170078,1,0,0:0:0:0:
420,189,170169,1,2,0:0:0:0:
356,229,170258,1,0,0:0:0:0:
160,176,170350,6,0,L|88:176,3,64.9999970245363,4|0|0|0,0:0|0:0|0:0|0:0,0:0:0:0:
352,176,170714,2,0,L|420:176,3,64.9999970245363,4|0|0|0,0:0|0:0|0:0|0:0,0:0:0:0:
152,172,171077,5,4,0:0:0:0:
152,197,171122,1,0,0:0:0:0:
152,222,171169,1,2,0:0:0:0:
152,247,171213,1,2,0:0:0:0:
360,172,171259,2,0,L|364:108,1,50,2|0,0:0|0:0,0:0:0:0:
152,172,171441,1,8,0:0:0:0:
177,172,171486,1,0,0:0:0:0:
202,172,171531,1,0,0:0:0:0:
227,172,171577,1,0,0:0:0:0:
256,172,171623,2,0,L|312:172,1,50,0|0,0:0|0:0,0:0:0:0:
108,220,171805,6,0,L|108:336,1,100,4|0,0:0|0:0,0:0:0:0:
452,116,172168,1,8,0:0:0:0:
420,116,172213,1,2,0:0:0:0:
388,116,172258,1,0,0:0:0:0:
356,116,172304,1,2,0:0:0:0:
324,116,172349,1,0,0:0:0:0:
292,116,172395,1,0,0:0:0:0:
260,116,172441,1,0,0:0:0:0:
460,220,172532,6,0,L|460:336,1,100,4|0,0:0|0:0,0:0:0:0:
60,116,172896,1,8,0:0:0:0:
92,116,172941,1,2,0:0:0:0:
124,116,172986,1,0,0:0:0:0:
156,116,173032,1,2,0:0:0:0:
188,116,173077,1,0,0:0:0:0:
220,116,173123,1,0,0:0:0:0:
252,116,173169,1,0,0:0:0:0:
52,220,173260,6,0,L|52:336,1,100,4|2,0:0|0:0,0:0:0:0:
260,120,173531,1,0,0:0:0:0:
68,188,173623,2,0,L|68:252,1,50,0|0,0:0|0:0,0:0:0:0:
340,260,173805,2,0,L|291:248,1,50,2|0,0:0|0:0,0:0:0:0:
80,188,173987,2,0,L|80:252,1,50,4|0,0:0|0:0,0:0:0:0:
326,335,174168,2,0,L|279:316,1,50,0|0,0:0|0:0,0:0:0:0:
80,292,174350,1,8,0:0:0:0:
80,267,174395,1,2,0:0:0:0:
80,242,174440,1,0,0:0:0:0:
80,217,174486,1,2,0:0:0:0:
80,192,174531,1,0,0:0:0:0:
80,167,174577,1,0,0:0:0:0:
80,142,174622,1,0,0:0:0:0:
416,252,174714,6,0,L|416:140,1,100,4|0,0:0|0:0,0:0:0:0:
140,152,175078,1,8,0:0:0:0:
416,152,175259,1,0,0:0:0:0:
416,80,175349,1,0,0:0:0:0:
144,232,175441,2,0,L|144:112,1,100,2|0,0:0|0:0,0:0:0:0:
304,180,175805,2,0,L|300:100,1,50,8|0,0:0|0:0,0:0:0:0:
148,136,175987,2,0,L|144:60,1,50,0|0,0:0|0:0,0:0:0:0:
368,108,176169,5,2,0:0:0:0:
308,108,176259,1,0,0:0:0:0:
248,108,176350,1,0,0:0:0:0:
188,108,176441,1,0,0:0:0:0:
408,240,176532,1,8,0:0:0:0:
348,240,176622,1,0,0:0:0:0:
288,240,176713,1,0,0:0:0:0:
228,240,176804,1,0,0:0:0:0:
428,104,176895,5,2,0:0:0:0:
424,136,176940,1,2,0:0:0:0:
424,180,176987,1,2,0:0:0:0:
424,220,177031,1,2,0:0:0:0:
192,104,177078,2,0,L|192:176,1,50,2|0,0:0|0:0,0:0:0:0:
408,272,177259,5,8,0:0:0:0:
376,272,177304,1,2,0:0:0:0:
344,272,177349,1,2,0:0:0:0:
312,272,177395,1,2,0:0:0:0:
280,272,177440,1,0,0:0:0:0:
248,272,177486,1,0,0:0:0:0:
216,272,177531,1,0,0:0:0:0:
436,220,177623,6,0,L|436:336,1,100,4|0,0:0|0:0,0:0:0:0:
128,116,177986,1,8,0:0:0:0:
153,116,178031,1,2,0:0:0:0:
178,116,178078,1,2,0:0:0:0:
203,116,178122,1,2,0:0:0:0:
228,116,178169,1,0,0:0:0:0:
252,116,178213,1,0,0:0:0:0:
276,116,178259,1,0,0:0:0:0:
76,220,178350,6,0,L|76:336,1,100,4|0,0:0|0:0,0:0:0:0:
384,116,178714,1,8,0:0:0:0:
359,116,178759,1,2,0:0:0:0:
334,116,178804,1,2,0:0:0:0:
309,116,178850,1,2,0:0:0:0:
284,116,178895,1,0,0:0:0:0:
260,116,178941,1,0,0:0:0:0:
236,116,178987,1,0,0:0:0:0:
476,116,179078,5,2,0:0:0:0:
200,112,179259,1,2,0:0:0:0:
472,200,179441,2,0,L|416:220,1,50,8|0,0:0|0:0,0:0:0:0:
160,217,179623,2,0,L|160:281,1,50,2|0,0:0|0:0,0:0:0:0:
388,336,179805,2,0,L|316:336,1,50,2|0,0:0|0:0,0:0:0:0:
148,336,179987,2,0,L|92:336,1,50,2|0,0:0|0:0,0:0:0:0:
352,292,180168,1,8,0:0:0:0:
352,267,180213,1,2,0:0:0:0:
352,242,180258,1,2,0:0:0:0:
352,217,180304,1,2,0:0:0:0:
352,192,180349,1,0,0:0:0:0:
352,167,180395,1,0,0:0:0:0:
352,142,180440,1,0,0:0:0:0:
80,184,180532,6,0,L|80:84,1,100,4|0,0:0|0:0,0:0:0:0:
372,92,180896,1,0,0:0:0:0:
96,88,181078,1,0,0:0:0:0:
96,152,181168,1,0,0:0:0:0:
356,104,181259,1,2,0:0:0:0:
284,104,181349,1,0,0:0:0:0:
212,104,181440,1,2,0:0:0:0:
140,104,181531,1,0,0:0:0:0:
360,232,181622,1,8,0:0:0:0:
284,232,181714,1,0,0:0:0:0:
212,232,181805,1,2,0:0:0:0:
140,232,181896,1,0,0:0:0:0:
352,176,181987,6,0,L|420:176,3,64.9999970245363,4|0|0|0,0:0|0:0|0:0|0:0,0:0:0:0:
160,176,182350,2,0,L|88:176,3,64.9999970245363,4|0|0|0,0:0|0:0|0:0|0:0,0:0:0:0:
360,172,182713,5,4,0:0:0:0:
360,197,182758,1,0,0:0:0:0:
360,222,182805,1,2,0:0:0:0:
360,247,182849,1,2,0:0:0:0:
152,172,182896,2,0,L|148:108,1,50,2|0,0:0|0:0,0:0:0:0:
360,172,183077,1,8,0:0:0:0:
335,172,183122,1,0,0:0:0:0:
310,172,183169,1,0,0:0:0:0:
285,172,183213,1,0,0:0:0:0:
256,172,183259,2,0,L|200:172,1,50,0|0,0:0|0:0,0:0:0:0:
404,220,183441,6,0,L|404:336,1,100,4|0,0:0|0:0,0:0:0:0:
60,116,183804,1,8,0:0:0:0:
85,116,183849,1,2,0:0:0:0:
110,116,183896,1,2,0:0:0:0:
135,116,183940,1,2,0:0:0:0:
160,116,183987,1,0,0:0:0:0:
184,116,184031,1,0,0:0:0:0:
208,116,184078,1,0,0:0:0:0:
404,220,184169,6,0,L|404:336,1,100,4|0,0:0|0:0,0:0:0:0:
60,116,184531,1,0,0:0:0:0:
85,116,184578,1,2,0:0:0:0:
110,116,184623,1,2,0:0:0:0:
135,116,184669,1,2,0:0:0:0:
160,116,184714,1,0,0:0:0:0:
184,116,184759,1,0,0:0:0:0:
208,116,184805,1,0,0:0:0:0:
404,120,184896,6,0,L|404:200,1,50,4|0,0:0|0:0,0:0:0:0:
192,120,185078,2,0,L|112:116,1,50,2|0,0:0|0:0,0:0:0:0:
432,188,185259,2,0,L|360:188,1,50,0|0,0:0|0:0,0:0:0:0:
124,204,185441,2,0,L|196:204,1,50,2|0,0:0|0:0,0:0:0:0:
432,188,185623,2,0,L|356:212,1,50,4|0,0:0|0:0,0:0:0:0:
148,248,185805,2,0,L|148:332,1,50,0|0,0:0|0:0,0:0:0:0:
432,292,185986,5,8,0:0:0:0:
432,267,186031,1,0,0:0:0:0:
432,242,186078,1,0,0:0:0:0:
432,217,186123,1,0,0:0:0:0:
432,192,186169,1,0,0:0:0:0:
432,167,186214,1,0,0:0:0:0:
432,142,186259,1,0,0:0:0:0:
144,144,186350,6,0,P|100:216|164:332,1,200,4|8,0:0|0:0,0:0:0:0:
336,316,186896,2,0,L|336:248,1,50,0|0,0:0|0:0,0:0:0:0:
132,240,187078,2,0,L|132:132,1,100,2|0,0:0|0:0,0:0:0:0:
332,132,187441,2,0,L|220:132,1,100,8|0,0:0|0:0,0:0:0:0:
452,136,187805,6,0,L|452:200,1,50,2|0,0:0|0:0,0:0:0:0:
356,200,187987,2,0,L|356:260,1,50,2|0,0:0|0:0,0:0:0:0:
260,272,188169,2,0,L|260:332,1,50,8|0,0:0|0:0,0:0:0:0:
164,268,188350,2,0,L|164:204,1,50,0|0,0:0|0:0,0:0:0:0:
388,101,188532,6,0,L|328:100,1,50,2|2,0:0|0:0,0:0:0:0:
152,96,188714,2,0,L|84:96,1,50,0|0,0:0|0:0,0:0:0:0:
388,224,188896,2,0,L|332:224,1,50,8|0,0:0|0:0,0:0:0:0:
100,228,189078,2,0,L|168:228,1,50,0|0,0:0|0:0,0:0:0:0:
392,124,189259,6,0,L|392:260,1,100,2|0,0:0|0:0,0:0:0:0:
104,228,189623,1,8,0:0:0:0:
312,224,189804,1,0,0:0:0:0:
314,320,189895,1,0,0:0:0:0:
116,228,189987,6,0,L|196:228,3,50,2|0|0|0,0:0|0:0|0:0|0:0,0:0:0:0:
368,228,190350,2,0,L|284:228,3,50,8|0|0|0,0:0|0:0|0:0|0:0,0:0:0:0:
96,224,190714,6,0,P|84:168|164:48,1,200,2|8,0:0|0:0,0:0:0:0:
280,40,191259,1,2,0:0:0:0:
432,48,191441,2,0,L|432:112,1,50,2|0,0:0|0:0,0:0:0:0:
196,128,191623,1,2,0:0:0:0:
480,168,191805,2,0,L|480:300,1,100,8|0,0:0|0:0,0:0:0:0:
128,168,192169,6,0,P|104:236|184:340,1,200,4|8,0:0|0:0,0:0:0:0:
308,340,192714,2,0,L|368:340,1,50,0|0,0:0|0:0,0:0:0:0:
168,232,192896,2,0,L|160:152,1,50,2|0,0:0|0:0,0:0:0:0:
348,172,193078,2,0,L|416:168,1,50,0|0,0:0|0:0,0:0:0:0:
144,124,193259,2,0,L|136:64,1,50,8|0,0:0|0:0,0:0:0:0:
320,64,193441,2,0,L|376:60,1,50,0|0,0:0|0:0,0:0:0:0:
148,124,193623,6,0,L|304:124,2,150,2|2|2,0:0|0:0|0:0,0:0:0:0:
420,128,194350,5,0,0:0:0:0:
88,136,194532,1,2,0:0:0:0:
424,336,194714,2,0,L|68:336,1,350.00000333786,8|2,0:0|0:0,0:0:0:0:
392,124,195078,6,0,L|392:332,1,200,4|8,0:0|0:0,0:0:0:0:
184,308,195623,2,0,L|124:308,1,50,0|0,0:0|0:0,0:0:0:0:
436,124,195806,6,0,L|436:224,1,100,4|0,0:0|0:0,0:0:0:0:
76,260,196169,2,0,L|76:160,1,100,8|0,0:0|0:0,0:0:0:0:
416,224,196532,6,0,P|428:168|348:48,1,200,2|8,0:0|0:0,0:0:0:0:
228,40,197077,1,2,0:0:0:0:
432,48,197259,2,0,L|432:112,1,50,2|0,0:0|0:0,0:0:0:0:
196,128,197441,1,2,0:0:0:0:
480,168,197623,2,0,L|480:300,1,100,8|0,0:0|0:0,0:0:0:0:
120,132,197987,6,0,L|192:132,1,50,4|0,0:0|0:0,0:0:0:0:
384,140,198259,2,0,L|228:140,1,150,0|0,0:0|0:0,0:0:0:0:
420,248,198714,2,0,L|304:248,2,100,2|0|8,0:0|0:0|0:0,0:0:0:0:
200,248,199259,1,0,0:0:0:0:
476,152,199441,6,0,L|476:96,1,50,2|0,0:0|0:0,0:0:0:0:
276,112,199714,2,0,L|116:112,1,150,0|0,0:0|0:0,0:0:0:0:
64,112,200078,1,0,0:0:0:0:
276,112,200169,6,0,L|392:112,1,100,2|0,0:0|0:0,0:0:0:0:
64,112,200532,2,0,L|64:216,1,100,8|0,0:0|0:0,0:0:0:0:
428,200,200896,6,0,L|248:200,2,150,2|0|0,0:0|0:0|0:0,0:0:0:0:
84,200,201805,2,0,L|224:200,2,100,0|8|0,0:0|0:0|0:0,0:0:0:0:
416,224,202350,6,0,P|428:168|348:48,1,200,2|8,0:0|0:0,0:0:0:0:
232,40,202895,1,2,0:0:0:0:
80,48,203078,2,0,L|80:112,1,50,2|0,0:0|0:0,0:0:0:0:
316,128,203259,1,2,0:0:0:0:
32,168,203441,2,0,L|32:300,1,100,8|0,0:0|0:0,0:0:0:0:
392,132,203805,6,0,L|320:132,1,50,4|0,0:0|0:0,0:0:0:0:
128,140,204077,2,0,L|284:140,1,150,0|0,0:0|0:0,0:0:0:0:
92,248,204532,2,0,L|208:248,2,100,4|0|8,0:0|0:0|0:0,0:0:0:0:
312,248,205077,1,0,0:0:0:0:
36,152,205259,6,0,L|36:96,1,50,4|0,0:0|0:0,0:0:0:0:
236,112,205532,2,0,L|396:112,1,150,0|0,0:0|0:0,0:0:0:0:
448,112,205896,1,0,0:0:0:0:
120,108,205987,6,0,L|120:232,1,100,2|2,0:0|0:0,0:0:0:0:
440,196,206350,2,0,L|440:308,1,100,8|0,0:0|0:0,0:0:0:0:
368,328,206622,1,0,0:0:0:0:
72,84,206714,6,0,L|240:84,2,150,4|0|0,0:0|0:0|0:0,0:0:0:0:
440,84,207441,2,0,L|272:84,2,150,2|0|0,0:0|0:0|0:0,0:0:0:0:
96,224,208169,6,0,L|88:148,1,50,2|0,0:0|0:0,0:0:0:0:
280,112,208350,2,0,L|340:104,1,50,2|0,0:0|0:0,0:0:0:0:
96,72,208532,2,0,L|156:64,1,50,8|0,0:0|0:0,0:0:0:0:
352,108,208714,2,0,L|352:188,1,50,2|0,0:0|0:0,0:0:0:0:
80,48,208895,1,2,0:0:0:0:
80,73,208940,1,0,0:0:0:0:
80,98,208987,1,0,0:0:0:0:
324,132,209078,1,0,0:0:0:0:
324,157,209123,1,0,0:0:0:0:
324,182,209168,1,0,0:0:0:0:
64,196,209259,5,8,0:0:0:0:
248,200,209349,1,8,0:0:0:0:
432,196,209440,1,8,0:0:0:0:
248,200,209532,1,8,0:0:0:0:
64,196,209623,5,4,0:0:0:0:
256,192,209805,12,0,211805,0:0:0:0:
260,192,212532,5,4,0:0:0:0:
260,192,213259,1,4,0:0:0:0:
260,192,213987,1,4,0:0:0:0:
260,192,214714,1,2,0:0:0:0:
260,192,215078,1,2,0:0:0:0:
404,88,215441,6,0,L|404:196,1,100,4|0,0:0|0:0,0:0:0:0:
308,168,215805,1,0,0:0:0:0:
88,180,216169,2,0,L|88:288,1,100,4|0,0:0|0:0,0:0:0:0:
184,260,216532,1,0,0:0:0:0:
424,120,216896,5,4,0:0:0:0:
64,120,217259,1,0,0:0:0:0:
448,120,217623,1,4,0:0:0:0:
64,120,217987,1,2,0:0:0:0:
360,120,218350,6,0,L|364:232,1,100,4|0,0:0|0:0,0:0:0:0:
180,216,218623,1,0,0:0:0:0:
360,120,218714,2,0,L|364:232,1,100,2|0,0:0|0:0,0:0:0:0:
152,120,219078,6,0,L|148:232,1,100,2|0,0:0|0:0,0:0:0:0:
332,216,219350,1,0,0:0:0:0:
152,120,219442,2,0,L|148:232,1,100,2|0,0:0|0:0,0:0:0:0:
424,152,219805,6,0,L|392:176,8,25,4|0|0|0|0|0|0|0|2,0:0|0:0|0:0|0:0|0:0|0:0|0:0|0:0|0:0,0:0:0:0:
136,152,220350,2,0,L|136:216,1,50,2|0,0:0|0:0,0:0:0:0:
340,148,220532,2,0,L|340:292,1,100,4|0,0:0|0:0,0:0:0:0:
64,244,220896,2,0,L|448:244,1,375,2|0,0:0|0:0,0:0:0:0:
64,244,221259,6,0,L|64:116,1,119.999996337891,4|0,0:0|0:0,0:0:0:0:
148,120,221532,1,0,0:0:0:0:
328,124,221623,2,0,L|392:124,1,59.9999981689454,8|0,0:0|0:0,0:0:0:0:
148,120,221805,2,0,L|148:192,1,59.9999981689454,0|0,0:0|0:0,0:0:0:0:
384,236,221987,2,0,L|300:236,1,59.9999981689454,2|0,0:0|0:0,0:0:0:0:
120,248,222169,2,0,L|120:180,1,59.9999981689454,0|0,0:0|0:0,0:0:0:0:
388,188,222350,2,0,L|320:188,1,59.9999981689454,8|0,0:0|0:0,0:0:0:0:
80,184,222532,2,0,L|172:184,1,59.9999981689454,0|0,0:0|0:0,0:0:0:0:
364,96,222714,6,0,L|452:96,3,75.0000028610231,2|0|0|0,0:0|0:0|0:0|0:0,0:0:0:0:
148,96,223078,2,0,L|68:96,3,75.0000028610231,8|0|0|0,0:0|0:0|0:0|0:0,0:0:0:0:
356,276,223441,5,2,0:0:0:0:
304,276,223486,1,2,0:0:0:0:
252,276,223531,1,2,0:0:0:0:
200,276,223577,1,2,0:0:0:0:
148,280,223623,2,0,L|148:201,1,59.9999981689454,2|0,0:0|0:0,0:0:0:0:
380,92,223805,1,8,0:0:0:0:
348,92,223850,1,2,0:0:0:0:
316,92,223895,1,2,0:0:0:0:
284,92,223941,1,2,0:0:0:0:
252,92,223986,1,0,0:0:0:0:
220,92,224032,1,0,0:0:0:0:
188,92,224077,1,0,0:0:0:0:
472,96,224168,6,0,L|472:220,1,119.999996337891,4|0,0:0|0:0,0:0:0:0:
100,96,224532,1,8,0:0:0:0:
144,96,224577,1,2,0:0:0:0:
188,96,224622,1,2,0:0:0:0:
232,96,224668,1,2,0:0:0:0:
276,96,224713,1,0,0:0:0:0:
320,96,224759,1,0,0:0:0:0:
364,96,224805,1,0,0:0:0:0:
68,92,224896,6,0,L|68:232,1,119.999996337891,4|0,0:0|0:0,0:0:0:0:
436,100,225259,1,8,0:0:0:0:
392,100,225304,1,2,0:0:0:0:
348,100,225349,1,2,0:0:0:0:
304,100,225395,1,2,0:0:0:0:
260,100,225440,1,0,0:0:0:0:
216,100,225486,1,0,0:0:0:0:
172,100,225532,1,0,0:0:0:0:
408,104,225623,6,0,L|408:172,1,59.9999981689454,2|0,0:0|0:0,0:0:0:0:
168,192,225805,2,0,L|168:264,1,59.9999981689454,2|0,0:0|0:0,0:0:0:0:
456,192,225987,2,0,L|388:192,1,59.9999981689454,8|0,0:0|0:0,0:0:0:0:
108,192,226168,2,0,L|176:192,1,59.9999981689454,2|0,0:0|0:0,0:0:0:0:
432,217,226350,2,0,L|432:285,1,59.9999981689454,2|0,0:0|0:0,0:0:0:0:
140,260,226532,2,0,L|140:328,1,59.9999981689454,2|0,0:0|0:0,0:0:0:0:
432,292,226714,1,8,0:0:0:0:
432,267,226759,1,2,0:0:0:0:
432,242,226804,1,2,0:0:0:0:
432,217,226850,1,2,0:0:0:0:
432,192,226895,1,0,0:0:0:0:
432,167,226941,1,0,0:0:0:0:
432,142,226986,1,0,0:0:0:0:
64,244,227078,6,0,L|64:116,1,119.999996337891,4|0,0:0|0:0,0:0:0:0:
148,120,227351,1,0,0:0:0:0:
328,124,227441,2,0,L|408:124,1,59.9999981689454,0|0,0:0|0:0,0:0:0:0:
132,224,227623,2,0,L|204:224,1,59.9999981689454,0|0,0:0|0:0,0:0:0:0:
380,224,227805,2,0,L|380:148,1,59.9999981689454,2|0,0:0|0:0,0:0:0:0:
148,120,227987,2,0,L|84:120,1,59.9999981689454,2|0,0:0|0:0,0:0:0:0:
388,188,228169,2,0,L|320:188,1,59.9999981689454,8|0,0:0|0:0,0:0:0:0:
144,188,228351,2,0,L|76:188,1,59.9999981689454,2|0,0:0|0:0,0:0:0:0:
364,96,228533,6,0,L|452:96,3,75.0000028610231,4|0|0|0,0:0|0:0|0:0|0:0,0:0:0:0:
148,96,228896,2,0,L|68:96,3,75.0000028610231,4|0|0|0,0:0|0:0|0:0|0:0,0:0:0:0:
356,276,229260,5,4,0:0:0:0:
304,276,229305,1,2,0:0:0:0:
252,276,229350,1,2,0:0:0:0:
200,276,229396,1,2,0:0:0:0:
148,272,229442,2,0,L|148:191,1,59.9999981689454,2|0,0:0|0:0,0:0:0:0:
380,92,229624,1,8,0:0:0:0:
348,92,229669,1,0,0:0:0:0:
316,92,229714,1,0,0:0:0:0:
284,92,229760,1,0,0:0:0:0:
252,92,229805,1,0,0:0:0:0:
220,92,229851,1,0,0:0:0:0:
188,92,229896,1,0,0:0:0:0:
472,96,229987,6,0,L|472:220,1,119.999996337891,4|0,0:0|0:0,0:0:0:0:
100,96,230351,1,8,0:0:0:0:
144,96,230396,1,2,0:0:0:0:
188,96,230441,1,2,0:0:0:0:
232,96,230487,1,2,0:0:0:0:
276,96,230532,1,0,0:0:0:0:
320,96,230578,1,0,0:0:0:0:
364,96,230624,1,0,0:0:0:0:
68,92,230714,6,0,L|68:232,1,119.999996337891,4|0,0:0|0:0,0:0:0:0:
436,100,231078,1,8,0:0:0:0:
392,100,231123,1,2,0:0:0:0:
348,100,231168,1,2,0:0:0:0:
304,100,231214,1,2,0:0:0:0:
260,100,231259,1,0,0:0:0:0:
216,100,231305,1,0,0:0:0:0:
172,100,231351,1,0,0:0:0:0:
408,104,231442,6,0,L|408:172,1,59.9999981689454,4|0,0:0|0:0,0:0:0:0:
180,188,231624,2,0,L|180:260,1,59.9999981689454,2|0,0:0|0:0,0:0:0:0:
432,188,231805,2,0,L|364:188,1,59.9999981689454,0|0,0:0|0:0,0:0:0:0:
88,184,231987,2,0,L|156:184,1,59.9999981689454,2|0,0:0|0:0,0:0:0:0:
404,172,232169,1,4,0:0:0:0:
404,202,232214,1,0,0:0:0:0:
404,232,232259,1,0,0:0:0:0:
404,260,232305,1,0,0:0:0:0:
404,288,232350,1,0,0:0:0:0:
404,318,232395,1,0,0:0:0:0:
404,348,232440,1,0,0:0:0:0:
80,292,232533,5,8,0:0:0:0:
80,267,232578,1,0,0:0:0:0:
80,242,232623,1,0,0:0:0:0:
80,217,232669,1,0,0:0:0:0:
80,192,232714,1,0,0:0:0:0:
80,167,232760,1,0,0:0:0:0:
80,142,232805,1,0,0:0:0:0:
392,216,232896,6,0,L|392:284,1,50,4|0,0:0|0:0,0:0:0:0:
200,144,233078,2,0,L|132:144,1,50,0|0,0:0|0:0,0:0:0:0:
336,184,233260,6,0,L|220:184,1,100,2|0,0:0|0:0,0:0:0:0:
376,236,233533,2,0,L|272:236,1,100,2|0,0:0|0:0,0:0:0:0:
416,288,233805,2,0,L|312:288,1,100,2|0,0:0|0:0,0:0:0:0:
456,336,234078,2,0,L|352:336,1,100,0|0,0:0|0:0,0:0:0:0:
132,92,234351,1,8,0:0:0:0:
432,96,234533,5,2,0:0:0:0:
112,92,234714,2,0,L|144:144,3,50,2|0|0|0,0:0|0:0|0:0|0:0,0:0:0:0:
388,104,235078,5,8,0:0:0:0:
68,100,235259,2,0,L|100:152,3,50,2|0|0|0,0:0|0:0|0:0|0:0,0:0:0:0:
72,156,235624,1,0,0:0:0:0:
304,164,235714,6,0,L|304:280,1,100,2|0,0:0|0:0,0:0:0:0:
48,160,235987,2,0,L|148:160,1,100,0|0,0:0|0:0,0:0:0:0:
360,168,236351,1,0,0:0:0:0:
140,172,236533,1,0,0:0:0:0:
360,168,236714,1,0,0:0:0:0:
136,180,236896,2,0,L|128:116,2,50,0|0|0,0:0|0:0|0:0,0:0:0:0:
480,180,237169,6,0,L|100:180,1,375,2|0,0:0|0:0,0:0:0:0:
424,180,237624,2,0,L|428:76,1,100,2|0,0:0|0:0,0:0:0:0:
120,204,237987,2,0,L|116:308,1,100,2|0,0:0|0:0,0:0:0:0:
496,192,238351,5,2,0:0:0:0:
256,192,238441,1,0,0:0:0:0:
16,192,238533,1,0,0:0:0:0:
352,200,238714,6,0,L|352:132,1,50,4|0,0:0|0:0,0:0:0:0:
168,136,238896,2,0,L|100:136,1,50,0|0,0:0|0:0,0:0:0:0:
332,152,239078,6,0,L|444:152,1,100,2|0,0:0|0:0,0:0:0:0:
252,200,239351,2,0,L|364:200,1,100,2|0,0:0|0:0,0:0:0:0:
172,252,239624,2,0,L|284:252,1,100,2|0,0:0|0:0,0:0:0:0:
92,300,239896,2,0,L|204:300,1,100,0|0,0:0|0:0,0:0:0:0:
388,100,240169,1,8,0:0:0:0:
88,100,240351,5,2,0:0:0:0:
424,100,240532,2,0,L|392:152,3,50,2|0|0|0,0:0|0:0|0:0|0:0,0:0:0:0:
104,104,240896,5,8,0:0:0:0:
424,100,241078,2,0,L|392:152,3,50,2|0|0|0,0:0|0:0|0:0|0:0,0:0:0:0:
92,156,241442,1,0,0:0:0:0:
344,164,241532,6,0,L|344:280,1,100,2|0,0:0|0:0,0:0:0:0:
92,256,241805,2,0,L|92:144,1,100,0|0,0:0|0:0,0:0:0:0:
368,140,242169,1,0,0:0:0:0:
152,140,242351,1,0,0:0:0:0:
368,140,242533,1,0,0:0:0:0:
368,140,242714,1,0,0:0:0:0:
244,140,242805,5,0,0:0:0:0:
368,140,242896,1,0,0:0:0:0:
32,180,242987,6,0,L|412:180,1,375,2|0,0:0|0:0,0:0:0:0:
416,212,243305,1,0,0:0:0:0:
420,244,243350,1,0,0:0:0:0:
424,264,243396,1,0,0:0:0:0:
428,284,243441,1,8,0:0:0:0:
104,296,243623,1,8,0:0:0:0:
428,284,243987,6,0,L|80:284,1,340.000006484985,8|2,0:0|0:0,0:0:0:0:
380,116,244532,1,0,0:0:0:0:
381,140,244577,1,0,0:0:0:0:
381,165,244622,1,0,0:0:0:0:
382,190,244668,1,0,0:0:0:0:
382,215,244713,1,0,0:0:0:0:
383,240,244759,1,0,0:0:0:0:
383,265,244804,1,0,0:0:0:0:
116,288,244896,5,8,0:0:0:0:
436,52,245078,1,8,0:0:0:0:
92,60,245259,1,8,0:0:0:0:
464,352,245441,2,0,P|424:36|52:376,1,1100,8|0,0:0|0:0,0:0:0:0:
