osu file format v14

[General]
AudioFilename: audio.mp3
AudioLeadIn: 0
PreviewTime: 81532
Countdown: 0
SampleSet: Soft
StackLeniency: 0.7
Mode: 2
LetterboxInBreaks: 0
WidescreenStoryboard: 1

[Editor]
Bookmarks: 23441,35078,58350,81623,104896,116532,139805,163078,186350,209623,221259,232896
DistanceSpacing: 1.6
BeatDivisor: 4
GridSize: 8
TimelineZoom: 3.100001

[Metadata]
Title:Bloody Night
TitleUnicode:Bloody Night
Artist:A-One feat. Shihori
ArtistUnicode:A-One feat. Shihori
Creator:ZiRoX
Version:GIGACHAD's Rain
Source:東方妖々夢 ~ Perfect Cherry Blossom.
Tags:Deif GIGACHAD Dako Featured Artist FA Mappers' Guild MG 東方Project Touhou Youyoumu Team Shanghai Alice ZUN TOHO EUROBEAT VOL. 4 アリス・マーガトロイド Alice Margatroid ブクレシュティの人形師 The Doll Maker of Bucuresti Video Game English
BeatmapID:3233995
BeatmapSetID:1543564

[Difficulty]
HPDrainRate:5
CircleSize:4
OverallDifficulty:9
ApproachRate:9
SliderMultiplier:1.92
SliderTickRate:1

[Events]
//Background and Video events
0,0,"bg_bloodynight.png",0,0
//Break Periods
2,105096,115933
//Storyboard Layer 0 (Background)
//Storyboard Layer 1 (Fail)
//Storyboard Layer 2 (Pass)
//Storyboard Layer 3 (Foreground)
//Storyboard Layer 4 (Overlay)
//Storyboard Sound Samples

[TimingPoints]
169,363.636363636364,4,2,1,85,1,0
11805,-100,4,1,1,75,0,0
12169,-100,4,2,1,90,0,0
12350,-100,4,1,1,75,0,0
12532,-100,4,2,1,90,0,0
12896,-100,4,1,1,65,0,0
13259,-100,4,1,1,75,0,0
13532,-100,4,2,1,90,0,0
13805,-100,4,1,1,75,0,0
13987,-100,4,2,1,90,0,0
14350,-100,4,1,1,65,0,0
14714,-100,4,1,1,75,0,0
15078,-100,4,2,1,90,0,0
15259,-100,4,1,1,75,0,0
15441,-100,4,2,1,90,0,0
15805,-100,4,1,1,65,0,0
16169,-100,4,1,1,75,0,0
16441,-100,4,2,1,90,0,0
16714,-100,4,1,1,75,0,0
16896,-100,4,2,1,90,0,0
17259,-100,4,1,1,65,0,0
17623,-100,4,1,1,75,0,0
17805,-100,4,2,1,90,0,0
17987,-100,4,1,1,65,0,0
18169,-100,4,2,1,90,0,0
18714,-100,4,1,1,65,0,0
18805,-100,4,2,1,90,0,0
19441,-100,4,1,1,65,0,0
19623,-100,4,2,1,90,0,0
20169,-100,4,1,1,65,0,0
20259,-100,4,2,1,90,0,0
20896,-100,4,1,1,65,0,0
21078,-100,4,2,1,90,0,0
21259,-100,4,1,1,65,0,0
21350,-100,4,2,1,90,0,0
21623,-100,4,1,1,65,0,0
21714,-100,4,2,1,90,0,0
23441,-100,4,1,1,85,0,0
23532,-100,4,2,1,90,0,0
26350,-100,4,1,1,85,0,0
27714,-100,4,2,1,90,0,0
27805,-100,4,1,1,75,0,0
27896,-100,4,2,1,90,0,0
28169,-100,4,2,1,90,0,0
28896,-100,4,2,1,90,0,0
29259,-100,4,1,1,85,0,0
29350,-100,4,2,1,90,0,0
32169,-100,4,1,1,85,0,0
33532,-100,4,2,1,90,0,0
33623,-100,4,1,1,85,0,0
33714,-100,4,2,1,90,0,0
33805,-100,4,2,1,90,0,0
35441,-100,4,1,1,65,0,0
35623,-100,4,2,1,90,0,0
36169,-100,4,1,1,65,0,0
36350,-100,4,2,1,90,0,0
36896,-100,4,1,1,65,0,0
37078,-100,4,2,1,90,0,0
37623,-100,4,1,1,65,0,0
37805,-100,4,2,1,90,0,0
38350,-100,4,1,1,65,0,0
38532,-100,4,2,1,90,0,0
39078,-100,4,1,1,65,0,0
39259,-100,4,2,1,90,0,0
39805,-100,4,1,1,65,0,0
39987,-100,4,2,1,90,0,0
40532,-100,4,1,1,65,0,0
40714,-100,4,2,1,90,0,0
41259,-100,4,1,1,65,0,0
41441,-100,4,2,1,90,0,0
41987,-100,4,1,1,65,0,0
42169,-100,4,2,1,90,0,0
42714,-100,4,1,1,65,0,0
42896,-100,4,2,1,90,0,0
43441,-100,4,1,1,65,0,0
43623,-100,4,2,1,90,0,0
44350,-100,4,2,1,85,0,0
46532,-100,4,2,1,90,0,0
47078,-100,4,1,1,65,0,0
47259,-100,4,2,1,90,0,0
48532,-100,4,1,1,65,0,0
48714,-100,4,2,1,90,0,0
49259,-100,4,1,1,65,0,0
49441,-100,4,2,1,90,0,0
49987,-100,4,1,1,65,0,0
50169,-100,4,2,1,90,0,0
51441,-100,4,1,1,65,0,0
51623,-100,4,2,1,90,0,0
52169,-100,4,1,1,65,0,0
52350,-100,4,2,1,90,0,0
52896,-100,4,1,1,65,0,0
53078,-100,4,2,1,90,0,0
58714,-100,4,1,1,75,0,0
58805,-100,4,2,1,90,0,0
59441,-100,4,1,1,75,0,0
59502,-100,4,2,1,90,0,0
60169,-100,4,1,1,75,0,0
60259,-100,4,2,1,90,0,0
60896,-100,4,1,1,75,0,0
61078,-100,4,2,1,90,0,0
61623,-100,4,1,1,75,0,0
61805,-100,4,2,1,90,0,0
62350,-100,4,1,1,75,0,0
62532,-100,4,2,1,90,0,0
63078,-100,4,1,1,75,0,0
63441,-100,4,2,1,90,0,0
63623,-100,4,1,1,75,0,0
64169,-100,4,2,1,90,0,0
64532,-100,4,1,1,75,0,0
64623,-100,4,2,1,90,0,0
65259,-100,4,1,1,75,0,0
65350,-100,4,2,1,90,0,0
65987,-100,4,1,1,75,0,0
66169,-100,4,2,1,90,0,0
66714,-100,4,1,1,75,0,0
66896,-100,4,2,1,90,0,0
70351,-100,4,1,1,75,0,0
70442,-100,4,2,1,90,0,0
71078,-100,4,1,1,75,0,0
71139,-100,4,2,1,90,0,0
71806,-100,4,1,1,75,0,0
71896,-100,4,2,1,90,0,0
72533,-100,4,1,1,75,0,0
72715,-100,4,2,1,90,0,0
73260,-100,4,1,1,75,0,0
73442,-100,4,2,1,90,0,0
73987,-100,4,1,1,75,0,0
74169,-100,4,2,1,90,0,0
74715,-100,4,1,1,75,0,0
75078,-100,4,2,1,90,0,0
75260,-100,4,1,1,75,0,0
75805,-100,4,2,1,90,0,0
76169,-100,4,1,1,75,0,0
76350,-100,4,2,1,90,0,0
76896,-100,4,1,1,75,0,0
77259,-100,4,2,1,90,0,0
77623,-100,4,1,1,75,0,0
77805,-100,4,2,1,90,0,0
78350,-100,4,1,1,75,0,0
78532,-100,4,2,1,90,0,0
80896,-100,4,2,1,80,0,0
81623,-100,4,2,1,100,0,1
81987,-100,4,1,1,80,0,1
82169,-100,4,2,1,100,0,1
82714,-100,4,1,1,80,0,1
83078,-100,4,2,1,100,0,1
83441,-100,4,1,1,80,0,1
83532,-100,4,2,1,100,0,1
84169,-100,4,1,1,80,0,1
84214,-100,4,2,1,100,0,1
84896,-100,4,1,1,80,0,1
84941,-100,4,2,1,100,0,1
85623,-100,4,1,1,80,0,1
85668,-100,4,2,1,100,0,1
86350,-100,4,1,1,80,0,1
86396,-100,4,2,1,100,0,1
87078,-100,4,1,1,80,0,1
87123,-100,4,2,1,100,0,1
87805,-100,4,1,1,80,0,1
87896,-100,4,2,1,100,0,1
88532,-100,4,1,1,80,0,1
88623,-100,4,2,1,100,0,1
89987,-100,4,1,1,80,0,1
90169,-100,4,2,1,100,0,1
90714,-100,4,1,1,80,0,1
90759,-100,4,2,1,100,0,1
91442,-100,4,1,1,80,0,1
91487,-100,4,2,1,100,0,1
92169,-100,4,1,1,80,0,1
92259,-100,4,2,1,100,0,1
92896,-100,4,1,1,80,0,1
92941,-100,4,2,1,100,0,1
93169,-100,4,2,1,100,0,0
93259,-100,4,2,1,100,0,1
93623,-100,4,1,1,80,0,1
93805,-100,4,2,1,100,0,1
94350,-100,4,1,1,80,0,1
94714,-100,4,2,1,100,0,1
95077,-100,4,1,1,80,0,1
95168,-100,4,2,1,100,0,1
95805,-100,4,1,1,80,0,1
95850,-100,4,2,1,100,0,1
96532,-100,4,1,1,80,0,1
96577,-100,4,2,1,100,0,1
97259,-100,4,1,1,80,0,1
97304,-100,4,2,1,100,0,1
97986,-100,4,1,1,80,0,1
98032,-100,4,2,1,100,0,1
98714,-100,4,1,1,80,0,1
98759,-100,4,2,1,100,0,1
99441,-100,4,1,1,80,0,1
99532,-100,4,2,1,100,0,1
100168,-100,4,1,1,80,0,1
100259,-100,4,2,1,100,0,1
101623,-100,4,1,1,80,0,1
101805,-100,4,2,1,100,0,1
102350,-100,4,1,1,80,0,1
102395,-100,4,2,1,100,0,1
103078,-100,4,1,1,80,0,1
103123,-100,4,2,1,100,0,1
103805,-100,4,1,1,80,0,1
103895,-100,4,2,1,100,0,1
104532,-100,4,1,1,80,0,1
104896,-100,4,1,1,75,0,0
104987,-100,4,2,1,90,0,0
107805,-100,4,1,1,50,0,0
109169,-100,4,2,1,90,0,0
109260,-100,4,1,1,75,0,0
109351,-100,4,2,1,90,0,0
110714,-100,4,1,1,75,0,0
110805,-100,4,2,1,90,0,0
113624,-100,4,1,1,50,0,0
114987,-100,4,2,1,90,0,0
115078,-100,4,1,1,75,0,0
115169,-100,4,2,1,90,0,0
116895,-100,4,1,1,65,0,0
117077,-100,4,2,1,90,0,0
117623,-100,4,1,1,65,0,0
117804,-100,4,2,1,90,0,0
118350,-100,4,1,1,65,0,0
118532,-100,4,2,1,90,0,0
119077,-100,4,1,1,65,0,0
119259,-100,4,2,1,90,0,0
119804,-100,4,1,1,65,0,0
119986,-100,4,2,1,90,0,0
120532,-100,4,1,1,65,0,0
120713,-100,4,2,1,90,0,0
121259,-100,4,1,1,65,0,0
121441,-100,4,2,1,90,0,0
121986,-100,4,1,1,65,0,0
122168,-100,4,2,1,90,0,0
122713,-100,4,1,1,65,0,0
122895,-100,4,2,1,90,0,0
123441,-100,4,1,1,65,0,0
123623,-100,4,2,1,90,0,0
124168,-100,4,1,1,65,0,0
124350,-100,4,2,1,90,0,0
124895,-100,4,1,1,65,0,0
125077,-100,4,2,1,90,0,0
125804,-100,4,2,1,65,0,0
127986,-100,4,2,1,90,0,0
128532,-100,4,1,1,65,0,0
128713,-100,4,2,1,90,0,0
129986,-100,4,1,1,65,0,0
130168,-100,4,2,1,90,0,0
130713,-100,4,1,1,65,0,0
130895,-100,4,2,1,90,0,0
131441,-100,4,1,1,65,0,0
131623,-100,4,2,1,90,0,0
132895,-100,4,1,1,65,0,0
133077,-100,4,2,1,90,0,0
133623,-100,4,1,1,65,0,0
133804,-100,4,2,1,90,0,0
134350,-100,4,1,1,65,0,0
134532,-100,4,2,1,90,0,0
139896,-100,4,1,1,75,0,0
139987,-100,4,2,1,90,0,0
140169,-100,4,1,1,75,0,0
140260,-100,4,2,1,90,0,0
140896,-100,4,1,1,75,0,0
140957,-100,4,2,1,90,0,0
141624,-100,4,1,1,75,0,0
141714,-100,4,2,1,90,0,0
142351,-100,4,1,1,75,0,0
142533,-100,4,2,1,90,0,0
142805,-100,4,1,1,75,0,0
143260,-100,4,2,1,90,0,0
143805,-100,4,1,1,75,0,0
143987,-100,4,2,1,90,0,0
144260,-100,4,1,1,75,0,0
144351,-100,4,2,1,90,0,0
144533,-100,4,1,1,75,0,0
144896,-100,4,2,1,90,0,0
145078,-100,4,1,1,75,0,0
145351,-100,4,2,1,90,0,0
145714,-100,4,1,1,75,0,0
145805,-100,4,2,1,90,0,0
145987,-100,4,1,1,75,0,0
146078,-100,4,2,1,90,0,0
146714,-100,4,1,1,75,0,0
146805,-100,4,2,1,90,0,0
147442,-100,4,1,1,75,0,0
147624,-100,4,2,1,90,0,0
148169,-100,4,1,1,75,0,0
148351,-100,4,2,1,90,0,0
148624,-100,4,1,1,75,0,0
149987,-100,4,2,1,90,0,0
150078,-100,4,1,1,75,0,0
150169,-100,4,2,1,90,0,0
151806,-100,4,1,1,75,0,0
151897,-100,4,2,1,90,0,0
152533,-100,4,1,1,75,0,0
152594,-100,4,2,1,90,0,0
153261,-100,4,1,1,75,0,0
153351,-100,4,2,1,90,0,0
153988,-100,4,1,1,75,0,0
154170,-100,4,2,1,90,0,0
154715,-100,4,1,1,75,0,0
154897,-100,4,2,1,90,0,0
155442,-100,4,1,1,75,0,0
155624,-100,4,2,1,90,0,0
156170,-100,4,1,1,75,0,0
156533,-100,4,2,1,90,0,0
156715,-100,4,1,1,75,0,0
157260,-100,4,2,1,90,0,0
157624,-100,4,1,1,75,0,0
157805,-100,4,2,1,90,0,0
158351,-100,4,1,1,75,0,0
158714,-100,4,2,1,90,0,0
159078,-100,4,1,1,75,0,0
159260,-100,4,2,1,90,0,0
159805,-100,4,1,1,75,0,0
159987,-100,4,2,1,90,0,0
162351,-100,4,2,1,80,0,0
163078,-100,4,2,1,100,0,1
163442,-100,4,1,1,80,0,1
163624,-100,4,2,1,100,0,1
164169,-100,4,1,1,80,0,1
164533,-100,4,2,1,100,0,1
164896,-100,4,1,1,80,0,1
164987,-100,4,2,1,100,0,1
165624,-100,4,1,1,80,0,1
165669,-100,4,2,1,100,0,1
166351,-100,4,1,1,80,0,1
166396,-100,4,2,1,100,0,1
167078,-100,4,1,1,80,0,1
167123,-100,4,2,1,100,0,1
167805,-100,4,1,1,80,0,1
167851,-100,4,2,1,100,0,1
168533,-100,4,1,1,80,0,1
168578,-100,4,2,1,100,0,1
169260,-100,4,1,1,80,0,1
169351,-100,4,2,1,100,0,1
169987,-100,4,1,1,80,0,1
170078,-100,4,2,1,100,0,1
171442,-100,4,1,1,80,0,1
171624,-100,4,2,1,100,0,1
172169,-100,4,1,1,80,0,1
172214,-100,4,2,1,100,0,1
172897,-100,4,1,1,80,0,1
172942,-100,4,2,1,100,0,1
173624,-100,4,1,1,80,0,1
173714,-100,4,2,1,100,0,1
174351,-100,4,1,1,80,0,1
174396,-100,4,2,1,100,0,1
174623,-100,4,2,1,100,0,0
174714,-100,4,2,1,100,0,1
175078,-100,4,1,1,80,0,1
175260,-100,4,2,1,100,0,1
175805,-100,4,1,1,80,0,1
176169,-100,4,2,1,100,0,1
176532,-100,4,1,1,80,0,1
176623,-100,4,2,1,100,0,1
177260,-100,4,1,1,80,0,1
177305,-100,4,2,1,100,0,1
177987,-100,4,1,1,80,0,1
178032,-100,4,2,1,100,0,1
178714,-100,4,1,1,80,0,1
178759,-100,4,2,1,100,0,1
179441,-100,4,1,1,80,0,1
179487,-100,4,2,1,100,0,1
180169,-100,4,1,1,80,0,1
180214,-100,4,2,1,100,0,1
180896,-100,4,1,1,80,0,1
180987,-100,4,2,1,100,0,1
181623,-100,4,1,1,80,0,1
181714,-100,4,2,1,100,0,1
183078,-100,4,1,1,80,0,1
183260,-100,4,2,1,100,0,1
183805,-100,4,1,1,80,0,1
183850,-100,4,2,1,100,0,1
184533,-100,4,1,1,80,0,1
184578,-100,4,2,1,100,0,1
185260,-100,4,1,1,80,0,1
185350,-100,4,2,1,100,0,1
185987,-100,4,1,1,80,0,1
186350,-100,4,2,1,90,0,0
186714,-100,4,1,1,75,0,0
186896,-100,4,2,1,90,0,0
187441,-100,4,1,1,75,0,0
187623,-100,4,2,1,90,0,0
188169,-100,4,1,1,75,0,0
188259,-100,4,2,1,90,0,0
188896,-100,4,1,1,75,0,0
188986,-100,4,2,1,90,0,0
189623,-100,4,1,1,75,0,0
189669,-100,4,2,1,90,0,0
190350,-100,4,1,1,75,0,0
190396,-100,4,2,1,90,0,0
191078,-100,4,1,1,75,0,0
191169,-100,4,2,1,90,0,0
191805,-100,4,1,1,75,0,0
191851,-100,4,2,1,90,0,0
192532,-100,4,1,1,75,0,0
192623,-100,4,2,1,90,0,0
193259,-100,4,1,1,75,0,0
193350,-100,4,2,1,90,0,0
193987,-100,4,1,1,75,0,0
194078,-100,4,2,1,90,0,0
194532,-100,4,2,1,90,0,0
194714,-100,4,1,1,75,0,0
194805,-100,4,2,1,75,0,0
195441,-100,4,1,1,75,0,0
195487,-100,4,2,1,90,0,0
196169,-100,4,1,1,75,0,0
196215,-100,4,2,1,90,0,0
196896,-100,4,1,1,75,0,0
196987,-100,4,2,1,90,0,0
197623,-100,4,1,1,75,0,0
197669,-100,4,2,1,90,0,0
198350,-100,4,1,1,75,0,0
198441,-100,4,2,1,90,0,0
199078,-100,4,1,1,75,0,0
199259,-100,4,2,1,90,0,0
199805,-100,4,1,1,75,0,0
199896,-100,4,2,1,90,0,0
200532,-100,4,1,1,75,0,0
200623,-100,4,2,1,90,0,0
201259,-100,4,1,1,75,0,0
201305,-100,4,2,1,90,0,0
201987,-100,4,1,1,75,0,0
202033,-100,4,2,1,90,0,0
202714,-100,4,1,1,75,0,0
202805,-100,4,2,1,90,0,0
203441,-100,4,1,1,75,0,0
203487,-100,4,2,1,90,0,0
204169,-100,4,1,1,75,0,0
204259,-100,4,2,1,90,0,0
204896,-100,4,1,1,75,0,0
204986,-100,4,2,1,90,0,0
205623,-100,4,1,1,75,0,0
205713,-100,4,2,1,90,0,0
206350,-100,4,1,1,75,0,0
206532,-100,4,2,1,90,0,0
207078,-100,4,1,1,75,0,0
207123,-100,4,2,1,90,0,0
207805,-100,4,1,1,75,0,0
207850,-100,4,2,1,90,0,0
209623,-100,4,2,1,70,0,0
214714,-100,4,2,1,90,0,0
215441,-100,4,2,1,70,0,0
220896,-100,4,2,1,100,0,0
221259,-100,4,2,1,100,0,1
221623,-100,4,1,1,80,0,1
221805,-100,4,2,1,100,0,1
222350,-100,4,1,1,80,0,1
222714,-100,4,2,1,100,0,1
223077,-100,4,1,1,80,0,1
223168,-100,4,2,1,100,0,1
223441,-100,4,2,1,100,0,1
223805,-100,4,1,1,80,0,1
223850,-100,4,2,1,100,0,1
224532,-100,4,1,1,80,0,1
224577,-100,4,2,1,100,0,1
225259,-100,4,1,1,80,0,1
225304,-100,4,2,1,100,0,1
225986,-100,4,1,1,80,0,1
226032,-100,4,2,1,100,0,1
226714,-100,4,1,1,80,0,1
226759,-100,4,2,1,100,0,1
227441,-100,4,1,1,80,0,1
227532,-100,4,2,1,100,0,1
228168,-100,4,1,1,80,0,1
228259,-100,4,2,1,100,0,1
228532,-100,4,2,1,100,0,1
229259,-100,4,2,1,100,0,1
229623,-100,4,1,1,80,0,1
229805,-100,4,2,1,100,0,1
230350,-100,4,1,1,80,0,1
230395,-100,4,2,1,100,0,1
231078,-100,4,1,1,80,0,1
231123,-100,4,2,1,100,0,1
231805,-100,4,1,1,80,0,1
231895,-100,4,2,1,100,0,1
232532,-100,4,1,1,80,0,1
232896,-100,4,1,1,75,0,0
232987,-100,4,2,1,90,0,0
235805,-100,4,1,1,65,0,0
237169,-100,4,2,1,90,0,0
237260,-100,4,1,1,75,0,0
237351,-100,4,2,1,90,0,0
237441,-100,4,2,1,90,0,0
238714,-100,4,1,1,75,0,0
238805,-100,4,2,1,90,0,0
241624,-100,4,1,1,50,0,0
242987,-100,4,2,1,90,0,0
243078,-100,4,1,1,75,0,0
243169,-100,4,2,1,90,0,0
243259,-100,4,2,1,90,0,0
243987,-100,4,2,1,90,0,0
244532,-100,4,2,1,90,0,0

[Colours]
Combo1 : 0,118,174
Combo2 : 163,93,145
Combo3 : 227,45,122
Combo4 : 128,128,255

[HitObjects]
144,192,11805,5,4,0:0:0:0:
288,192,11987,2,0,L|304:320,1,96,8|0,0:0|0:0,0:0:0:0:
144,304,12350,2,0,L|352:304,1,192,8|0,0:0|0:0,0:0:0:0:
240,256,12896,1,8,0:0:0:0:
144,256,13078,1,0,0:0:0:0:
384,192,13259,5,4,0:0:0:0:
240,144,13441,2,0,L|224:256,1,96,8|0,0:0|0:0,0:0:0:0:
368,96,13805,2,0,L|160:96,1,192,8|0,0:0|0:0,0:0:0:0:
272,176,14350,1,8,0:0:0:0:
368,176,14532,1,0,0:0:0:0:
128,224,14714,5,4,0:0:0:0:
272,224,14896,2,0,L|288:352,1,96,8|0,0:0|0:0,0:0:0:0:
128,336,15259,2,0,L|336:336,1,192,8|0,0:0|0:0,0:0:0:0:
224,288,15805,1,8,0:0:0:0:
128,288,15987,1,0,0:0:0:0:
368,224,16168,5,4,0:0:0:0:
224,128,16350,2,0,L|208:240,1,96,8|0,0:0|0:0,0:0:0:0:
464,320,16714,2,0,L|480:128,1,192,8|0,0:0|0:0,0:0:0:0:
336,80,17259,1,8,0:0:0:0:
393,80,17349,1,0,0:0:0:0:
451,80,17440,1,8,0:0:0:0:
176,176,17623,6,0,L|160:288,1,96,4|0,0:0|0:0,0:0:0:0:
256,272,17987,2,0,L|272:176,1,96,8|0,0:0|0:0,0:0:0:0:
416,176,18350,2,0,L|432:288,1,96,0|0,0:0|0:0,0:0:0:0:
336,272,18714,2,0,L|320:176,1,96,8|0,0:0|0:0,0:0:0:0:
64,64,19078,6,0,L|48:176,1,96,4|0,0:0|0:0,0:0:0:0:
144,160,19442,2,0,L|160:64,1,96,8|0,0:0|0:0,0:0:0:0:
304,64,19805,2,0,L|320:176,1,96,2|0,0:0|0:0,0:0:0:0:
224,160,20169,2,0,L|208:64,1,96,8|0,0:0|0:0,0:0:0:0:
448,320,20532,6,0,L|352:320,1,96,4|0,0:0|0:0,0:0:0:0:
208,256,20896,2,0,L|320:256,1,96,8|0,0:0|0:0,0:0:0:0:
48,160,21259,1,8,0:0:0:0:
103,160,21349,1,0,0:0:0:0:
158,160,21440,1,0,0:0:0:0:
304,96,21623,1,8,0:0:0:0:
249,96,21713,1,0,0:0:0:0:
194,96,21804,1,0,0:0:0:0:
448,288,21987,6,0,L|448:208,1,48,4|0,0:0|0:0,0:0:0:0:
384,240,22169,2,0,L|384:160,1,48,0|0,0:0|0:0,0:0:0:0:
448,288,22350,2,0,L|448:208,1,48,2|0,0:0|0:0,0:0:0:0:
384,240,22532,2,0,L|384:160,1,48,2|0,0:0|0:0,0:0:0:0:
480,192,22714,6,0,L|480:112,1,48,2|0,0:0|0:0,0:0:0:0:
416,144,22896,2,0,L|368:144,1,48,2|0,0:0|0:0,0:0:0:0:
208,224,23078,2,0,B|160:224|160:224|272:224,1,144,6|0,0:0|0:0,0:0:0:0:
96,96,23441,5,4,0:0:0:0:
88,143,23531,1,0,0:0:0:0:
80,190,23622,1,0,0:0:0:0:
224,336,23805,2,0,L|240:240,1,96,2|0,0:0|0:0,0:0:0:0:
304,240,24078,2,0,L|416:240,1,96,2|0,0:0|0:0,0:0:0:0:
336,192,24350,2,0,L|240:192,1,96,2|0,0:0|0:0,0:0:0:0:
304,144,24623,1,0,0:0:0:0:
464,112,24714,6,0,L|352:112,1,96,0|8,0:0|0:0,0:0:0:0:
224,112,25078,1,2,0:0:0:0:
368,240,25259,2,0,L|384:352,1,96,2|0,0:0|0:0,0:0:0:0:
320,336,25532,1,0,0:0:0:0:
224,336,25623,1,8,0:0:0:0:
368,256,25805,1,2,0:0:0:0:
272,256,25987,1,0,0:0:0:0:
368,256,26169,1,0,0:0:0:0:
192,176,26259,6,0,L|80:176,1,96,2|0,0:0|0:0,0:0:0:0:
160,128,26532,2,0,L|176:64,1,48,0|0,0:0|0:0,0:0:0:0:
112,64,26714,2,0,L|224:64,1,96,0|0,0:0|0:0,0:0:0:0:
352,304,27078,2,0,L|240:304,1,96,0|0,0:0|0:0,0:0:0:0:
400,240,27441,2,0,L|352:192,1,48,0|0,0:0|0:0,0:0:0:0:
304,208,27623,1,0,0:0:0:0:
128,160,27714,6,0,L|272:112,1,144,2|0,0:0|0:0,0:0:0:0:
112,368,28169,2,0,L|128:240,1,96,6|0,0:0|0:0,0:0:0:0:
272,272,28532,2,0,L|160:272,1,96,6|0,0:0|0:0,0:0:0:0:
416,208,28896,1,6,0:0:0:0:
272,176,29078,2,0,L|256:240,1,48,0|0,0:0|0:0,0:0:0:0:
448,96,29259,5,4,0:0:0:0:
456,143,29349,1,0,0:0:0:0:
464,190,29440,1,0,0:0:0:0:
320,336,29623,2,0,L|304:240,1,96,2|0,0:0|0:0,0:0:0:0:
240,240,29896,2,0,L|128:240,1,96,2|0,0:0|0:0,0:0:0:0:
208,192,30168,2,0,L|304:192,1,96,2|0,0:0|0:0,0:0:0:0:
240,144,30441,1,0,0:0:0:0:
80,112,30532,6,0,L|192:112,1,96,0|8,0:0|0:0,0:0:0:0:
320,112,30896,1,2,0:0:0:0:
176,240,31077,2,0,L|160:352,1,96,2|0,0:0|0:0,0:0:0:0:
224,336,31350,1,0,0:0:0:0:
320,336,31441,1,8,0:0:0:0:
176,256,31623,1,2,0:0:0:0:
320,256,31805,1,0,0:0:0:0:
176,256,31987,1,0,0:0:0:0:
352,176,32077,6,0,L|464:176,1,96,2|0,0:0|0:0,0:0:0:0:
384,128,32350,2,0,L|368:64,1,48,0|0,0:0|0:0,0:0:0:0:
432,64,32532,2,0,L|320:64,1,96,0|0,0:0|0:0,0:0:0:0:
192,304,32896,2,0,L|304:304,1,96,0|0,0:0|0:0,0:0:0:0:
144,240,33259,2,0,L|192:192,1,48,0|0,0:0|0:0,0:0:0:0:
240,208,33441,1,0,0:0:0:0:
416,160,33532,6,0,L|272:112,1,144,2|0,0:0|0:0,0:0:0:0:
432,240,33987,1,8,0:0:0:0:
283,222,34169,2,0,L|272:336,1,96,8|0,0:0|0:0,0:0:0:0:
416,320,34532,1,8,0:0:0:0:
273,317,34714,1,0,0:0:0:0:
416,320,34896,2,0,L|432:384,1,48,2|0,0:0|0:0,0:0:0:0:
240,272,35078,6,0,L|112:272,2,96,0|0|8,0:0|0:0|0:0,0:0:0:0:
368,144,35623,2,0,L|368:352,1,192
144,256,36350,6,0,P|144:208|272:128,1,192,2|2,0:0|0:0,0:0:0:0:
352,128,36896,2,0,L|464:128,4,96,8|0|2|0|8,0:0|0:0|0:0|0:0|0:0,0:0:0:0:
208,128,37805,5,2,0:0:0:0:
208,288,38169,1,0,0:0:0:0:
304,272,38350,1,8,0:0:0:0:
448,192,38532,2,0,L|240:192,1,192,0|0,0:0|0:0,0:0:0:0:
400,128,39259,6,0,L|208:128,1,192,2|0,0:0|0:0,0:0:0:0:
64,64,39805,2,0,L|176:64,4,96,8|0|2|0|8,0:0|0:0|0:0|0:0|0:0,0:0:0:0:
208,320,40714,6,0,L|416:320,1,192,2|0,0:0|0:0,0:0:0:0:
304,256,41259,1,8,0:0:0:0:
160,256,41441,2,0,P|96:192|176:144,1,192,0|0,0:0|0:0,0:0:0:0:
448,128,42169,6,0,L|256:128,1,192,2|0,0:0|0:0,0:0:0:0:
112,64,42715,2,0,L|224:64,4,96,8|0|2|0|0,0:0|0:0|0:0|0:0|0:0,0:0:0:0:
352,320,43623,5,0,0:0:0:0:
397,311,43713,1,0,0:0:0:0:
419,270,43804,1,0,0:0:0:0:
401,228,43895,1,0,0:0:0:0:
356,215,43986,1,0,0:0:0:0:
304,272,44078,1,0,0:0:0:0:
256,272,44168,1,0,0:0:0:0:
208,272,44259,1,0,0:0:0:0:
32,256,44350,6,0,L|32:160,1,96,4|0,0:0|0:0,0:0:0:0:
176,128,44714,2,0,L|176:224,1,96,4|0,0:0|0:0,0:0:0:0:
320,224,45078,2,0,L|192:224,1,96,4|0,0:0|0:0,0:0:0:0:
368,160,45441,2,0,L|464:160,1,96,4|0,0:0|0:0,0:0:0:0:
320,96,45805,2,0,L|320:208,1,96,4|0,0:0|0:0,0:0:0:0:
384,208,46078,1,0,0:0:0:0:
192,192,46169,2,0,L|64:192,1,96,2|0,0:0|0:0,0:0:0:0:
336,352,46532,6,0,P|400:336|432:192,1,192,2|0,0:0|0:0,0:0:0:0:
352,224,47078,1,8,0:0:0:0:
208,224,47259,2,0,L|416:224,1,192,2|0,0:0|0:0,0:0:0:0:
240,96,47987,6,0,P|176:128|256:176,1,192,2|0,0:0|0:0,0:0:0:0:
384,176,48532,2,0,L|480:176,4,96,8|0|2|0|8,0:0|0:0|0:0|0:0|0:0,0:0:0:0:
240,336,49441,6,0,L|224:144,1,192,2|0,0:0|0:0,0:0:0:0:
320,144,49987,1,8,0:0:0:0:
176,96,50169,2,0,L|368:96,1,192,2|0,0:0|0:0,0:0:0:0:
96,304,50896,6,0,P|32:256|112:192,1,192,2|0,0:0|0:0,0:0:0:0:
240,192,51441,2,0,L|144:192,4,96,8|0|2|0|8,0:0|0:0|0:0|0:0|0:0,0:0:0:0:
384,256,52350,6,0,P|384:208|256:144,1,192,2|0,0:0|0:0,0:0:0:0:
176,144,52896,1,8,0:0:0:0:
320,304,53078,2,0,L|112:304,1,192,2|0,0:0|0:0,0:0:0:0:
272,224,53623,1,0,0:0:0:0:
32,112,53805,6,0,L|16:304,1,192,4|0,0:0|0:0,0:0:0:0:
160,304,54350,2,0,L|64:304,1,96,2|0,0:0|0:0,0:0:0:0:
208,240,54714,2,0,L|224:352,1,96,2|0,0:0|0:0,0:0:0:0:
80,240,55078,1,0,0:0:0:0:
320,144,55259,6,0,L|64:144,1,240,2|0,0:0|0:0,0:0:0:0:
128,144,56380,1,0,0:0:0:0:
224,96,56562,1,0,0:0:0:0:
320,96,56744,2,0,L|320:176,1,80
80,304,57078,6,0,L|80:240,2,48,0|0|0,0:0|0:0|0:0,0:0:0:0:
224,240,57441,2,0,L|224:176,2,48,0|0|0,0:0|0:0|0:0,0:0:0:0:
128,192,57805,2,0,L|128:128,1,48,0|0,0:0|0:0,0:0:0:0:
128,256,57987,2,0,L|128:368,1,96,0|0,0:0|0:0,0:0:0:0:
128,112,58259,1,0,0:0:0:0:
320,160,58350,6,0,L|432:160,2,96,4|0|8,0:0|0:0|0:0,0:0:0:0:
176,256,58896,1,0,0:0:0:0:
272,240,59078,1,2,0:0:0:0:
295,261,59138,1,0,0:0:0:0:
304,291,59199,1,0,0:0:0:0:
297,322,59259,1,0,0:0:0:0:
275,344,59320,1,0,0:0:0:0:
320,240,59381,1,0,0:0:0:0:
343,261,59441,1,8,0:0:0:0:
352,291,59502,1,0,0:0:0:0:
345,322,59562,1,0,0:0:0:0:
323,344,59623,1,0,0:0:0:0:
48,160,59806,6,0,P|48:240|128:320,1,192,2|8,0:0|0:0,0:0:0:0:
256,144,60350,2,0,L|256:240,1,96,0|2,0:0|0:0,0:0:0:0:
96,320,60896,1,8,0:0:0:0:
240,272,61078,6,0,L|32:272,1,192,0|0,0:0|0:0,0:0:0:0:
304,176,61805,2,0,L|304:272,2,96,0|0|0,0:0|0:0|0:0,0:0:0:0:
160,272,62350,1,8,0:0:0:0:
400,144,62532,6,0,L|272:144,1,96,2|2,0:0|0:0,0:0:0:0:
160,144,62896,1,0,0:0:0:0:
304,272,63078,2,0,L|192:272,1,96,8|0,0:0|0:0,0:0:0:0:
352,192,63441,2,0,L|240:192,1,96,2|0,0:0|0:0,0:0:0:0:
112,160,63805,1,8,0:0:0:0:
256,192,63987,1,0,0:0:0:0:
496,112,64169,6,0,L|496:320,1,192,2|8,0:0|0:0,0:0:0:0:
352,288,64714,2,0,L|240:288,4,96,0|2|0|8|0,0:0|0:0|0:0|0:0|0:0,0:0:0:0:
208,224,65623,6,0,L|16:224,1,192,2|8,0:0|0:0,0:0:0:0:
160,176,66169,2,0,L|272:176,2,96,0|2|0,0:0|0:0|0:0,0:0:0:0:
16,128,66714,1,8,0:0:0:0:
256,336,66896,6,0,P|128:240|272:144,1,384,2|0,0:0|0:0,0:0:0:0:
416,144,67805,2,0,L|400:224,1,48,2|0,0:0|0:0,0:0:0:0:
352,192,67987,2,0,L|368:256,1,48,0|0,0:0|0:0,0:0:0:0:
416,240,68169,1,0,0:0:0:0:
176,112,68350,6,0,L|288:112,2,96,2|0|0,0:0|0:0|0:0,0:0:0:0:
32,64,68896,2,0,L|128:64,1,96,2|0,0:0|0:0,0:0:0:0:
272,64,69259,2,0,L|288:192,1,96,2|0,0:0|0:0,0:0:0:0:
432,272,69623,1,2,0:0:0:0:
439,224,69713,1,0,0:0:0:0:
447,177,69804,1,0,0:0:0:0:
204,160,69987,6,0,L|92:160,2,96,4|0|8,0:0|0:0|0:0,0:0:0:0:
352,256,70533,1,0,0:0:0:0:
256,240,70714,1,2,0:0:0:0:
233,261,70774,1,0,0:0:0:0:
224,291,70835,1,0,0:0:0:0:
231,322,70895,1,0,0:0:0:0:
253,344,70956,1,0,0:0:0:0:
208,240,71017,1,0,0:0:0:0:
185,261,71077,1,8,0:0:0:0:
176,291,71138,1,0,0:0:0:0:
183,322,71198,1,0,0:0:0:0:
205,344,71259,1,0,0:0:0:0:
448,144,71442,6,0,P|480:208|400:288,1,192,2|8,0:0|0:0,0:0:0:0:
272,144,71987,2,0,L|272:240,1,96,0|2,0:0|0:0,0:0:0:0:
432,320,72533,1,8,0:0:0:0:
288,272,72715,6,0,L|496:272,1,192,0|0,0:0|0:0,0:0:0:0:
224,176,73442,2,0,L|224:272,2,96,0|0|0,0:0|0:0|0:0,0:0:0:0:
368,272,73987,1,8,0:0:0:0:
128,144,74169,6,0,L|256:144,1,96,2|2,0:0|0:0,0:0:0:0:
368,144,74533,1,0,0:0:0:0:
224,272,74715,2,0,L|336:272,1,96,8|0,0:0|0:0,0:0:0:0:
176,192,75078,2,0,L|288:192,1,96,2|0,0:0|0:0,0:0:0:0:
416,160,75442,1,8,0:0:0:0:
272,192,75624,1,0,0:0:0:0:
32,112,75806,6,0,L|32:320,1,192,4|8,0:0|0:0,0:0:0:0:
176,288,76350,1,0,0:0:0:0:
32,304,76532,2,0,L|32:176,1,96,2|0,0:0|0:0,0:0:0:0:
176,192,76896,1,8,0:0:0:0:
320,192,77078,1,0,0:0:0:0:
80,128,77260,6,0,L|272:128,1,192,4|8,0:0|0:0,0:0:0:0:
128,64,77806,2,0,L|16:64,2,96,0|2|0,0:0|0:0|0:0,0:0:0:0:
368,64,78351,5,8,0:0:0:0:
128,224,78532,1,4,0:0:0:0:
80,160,79078,1,2,0:0:0:0:
320,160,79259,1,2,0:0:0:0:
64,112,79623,1,2,0:0:0:0:
496,256,79987,6,0,B|496:160|496:160|384:160,1,192,8|2,0:0|0:0,0:0:0:0:
304,160,80532,1,2,0:0:0:0:
448,80,80714,1,2,0:0:0:0:
208,112,80896,2,0,L|208:144,4,24,4|0|0|0|0,0:0|0:0|0:0|0:0|0:0,0:0:0:0:
448,256,81259,1,4,0:0:0:0:
208,256,81441,2,0,L|192:320,1,48,0|0,0:0|0:0,0:0:0:0:
400,160,81623,6,0,L|528:160,1,96,4|0,0:0|0:0,0:0:0:0:
352,176,81987,2,0,L|336:272,1,96,8|0,0:0|0:0,0:0:0:0:
192,144,82350,2,0,L|64:144,1,96,2|0,0:0|0:0,0:0:0:0:
240,144,82714,2,0,L|256:224,1,48,8|0,0:0|0:0,0:0:0:0:
192,192,82896,2,0,L|128:192,1,48,0|0,0:0|0:0,0:0:0:0:
352,304,83078,6,0,L|464:304,1,96,2|0,0:0|0:0,0:0:0:0:
304,240,83441,2,0,L|432:240,1,96,8|0,0:0|0:0,0:0:0:0:
256,176,83805,2,0,L|192:176,2,48,2|2|2,0:0|0:0|0:0,0:0:0:0:
496,176,84169,1,8,0:0:0:0:
400,144,84350,2,0,L|400:176,2,24,0|0|0,0:0|0:0|0:0,0:0:0:0:
240,128,84532,6,0,L|112:128,1,96,4|0,0:0|0:0,0:0:0:0:
288,288,84896,1,8,0:0:0:0:
144,288,85078,1,0,0:0:0:0:
288,288,85259,2,0,L|304:192,1,96,4|0,0:0|0:0,0:0:0:0:
448,144,85623,1,8,0:0:0:0:
304,160,85805,1,0,0:0:0:0:
64,112,85987,6,0,L|48:224,1,96,2|2,0:0|0:0,0:0:0:0:
192,144,86350,1,8,0:0:0:0:
240,144,86440,1,0,0:0:0:0:
288,144,86531,1,2,0:0:0:0:
48,112,86714,6,0,L|32:192,1,48,2|0,0:0|0:0,0:0:0:0:
128,304,86896,2,0,L|208:304,1,48,2|0,0:0|0:0,0:0:0:0:
368,304,87078,1,8,0:0:0:0:
416,288,87168,1,2,0:0:0:0:
448,256,87259,1,0,0:0:0:0:
464,208,87350,1,0,0:0:0:0:
224,208,87441,6,0,L|112:208,1,96,4|0,0:0|0:0,0:0:0:0:
208,144,87714,1,0,0:0:0:0:
288,144,87805,2,0,L|304:240,1,96,0|0,0:0|0:0,0:0:0:0:
160,320,88169,2,0,L|256:320,1,96,2|2,0:0|0:0,0:0:0:0:
112,224,88532,2,0,L|96:336,1,96,8|2,0:0|0:0,0:0:0:0:
384,176,88896,6,0,L|400:288,1,96,4|0,0:0|0:0,0:0:0:0:
336,272,89169,1,0,0:0:0:0:
176,160,89259,2,0,L|80:160,1,96,4|0,0:0|0:0,0:0:0:0:
144,96,89532,1,0,0:0:0:0:
336,80,89623,6,0,L|368:80,4,24,4|2|2|2|2,0:0|0:0|0:0|0:0|0:0,0:0:0:0:
96,320,89987,2,0,L|32:320,1,48,8|0,0:0|0:0,0:0:0:0:
96,272,90169,1,0,0:0:0:0:
368,256,90350,6,0,L|384:352,1,96,4|0,0:0|0:0,0:0:0:0:
240,208,90714,1,8,0:0:0:0:
384,352,90896,1,0,0:0:0:0:
240,208,91078,2,0,L|224:112,1,96,4|0,0:0|0:0,0:0:0:0:
80,128,91441,1,8,0:0:0:0:
224,112,91623,1,0,0:0:0:0:
496,96,91805,6,0,L|496:144,1,48,4|0,0:0|0:0,0:0:0:0:
432,144,91987,2,0,L|384:144,1,48,2|0,0:0|0:0,0:0:0:0:
224,208,92169,2,0,L|224:272,1,48,0|0,0:0|0:0,0:0:0:0:
288,256,92350,2,0,L|352:256,1,48,2|0,0:0|0:0,0:0:0:0:
176,256,92532,6,0,L|176:192,1,48,4|0,0:0|0:0,0:0:0:0:
336,176,92714,2,0,L|400:176,1,48,0|0,0:0|0:0,0:0:0:0:
208,176,92896,1,8,0:0:0:0:
209,152,92941,1,2,0:0:0:0:
218,129,92986,1,2,0:0:0:0:
233,111,93032,1,2,0:0:0:0:
253,98,93077,1,0,0:0:0:0:
276,93,93123,1,0,0:0:0:0:
300,95,93168,1,0,0:0:0:0:
112,160,93259,6,0,L|-16:160,1,96,4|0,0:0|0:0,0:0:0:0:
160,176,93623,2,0,L|176:272,1,96,8|0,0:0|0:0,0:0:0:0:
320,144,93987,2,0,L|448:144,1,96,2|0,0:0|0:0,0:0:0:0:
272,144,94350,2,0,L|256:224,1,48,8|0,0:0|0:0,0:0:0:0:
320,192,94532,2,0,L|384:192,1,48,0|0,0:0|0:0,0:0:0:0:
160,304,94714,6,0,L|48:304,1,96,2|0,0:0|0:0,0:0:0:0:
208,240,95077,2,0,L|80:240,1,96,8|0,0:0|0:0,0:0:0:0:
256,176,95441,2,0,L|320:176,2,48,2|2|2,0:0|0:0|0:0,0:0:0:0:
16,176,95805,1,8,0:0:0:0:
112,144,95987,2,0,L|112:176,2,24,0|0|0,0:0|0:0|0:0,0:0:0:0:
272,128,96168,6,0,L|400:128,1,96,4|0,0:0|0:0,0:0:0:0:
224,288,96532,1,8,0:0:0:0:
368,288,96714,1,0,0:0:0:0:
224,288,96896,2,0,L|208:192,1,96,4|0,0:0|0:0,0:0:0:0:
64,144,97259,1,8,0:0:0:0:
208,160,97441,1,0,0:0:0:0:
448,112,97623,6,0,L|464:224,1,96,2|2,0:0|0:0,0:0:0:0:
320,144,97986,1,8,0:0:0:0:
272,144,98078,1,0,0:0:0:0:
224,144,98169,1,2,0:0:0:0:
464,112,98350,6,0,L|480:192,1,48,2|0,0:0|0:0,0:0:0:0:
384,304,98532,2,0,L|304:304,1,48,2|0,0:0|0:0,0:0:0:0:
144,304,98714,1,8,0:0:0:0:
96,288,98804,1,2,0:0:0:0:
64,256,98895,1,0,0:0:0:0:
48,208,98986,1,0,0:0:0:0:
288,208,99077,6,0,L|400:208,1,96,4|0,0:0|0:0,0:0:0:0:
304,144,99350,1,0,0:0:0:0:
224,144,99441,2,0,L|208:240,1,96,0|0,0:0|0:0,0:0:0:0:
352,320,99805,2,0,L|256:320,1,96,2|2,0:0|0:0,0:0:0:0:
400,224,100168,2,0,L|416:336,1,96,8|2,0:0|0:0,0:0:0:0:
128,176,100532,6,0,L|112:288,1,96,4|0,0:0|0:0,0:0:0:0:
176,272,100805,1,0,0:0:0:0:
336,160,100896,2,0,L|432:160,1,96,4|0,0:0|0:0,0:0:0:0:
368,96,101168,1,0,0:0:0:0:
176,80,101259,6,0,L|144:80,4,24,4|2|2|2|2,0:0|0:0|0:0|0:0|0:0,0:0:0:0:
416,320,101623,2,0,L|480:320,1,48,8|0,0:0|0:0,0:0:0:0:
288,256,101805,1,0,0:0:0:0:
144,256,101987,6,0,L|128:352,1,96,4|0,0:0|0:0,0:0:0:0:
272,208,102350,1,8,0:0:0:0:
128,352,102532,1,0,0:0:0:0:
272,208,102714,2,0,L|288:112,1,96,4|0,0:0|0:0,0:0:0:0:
432,128,103077,1,8,0:0:0:0:
288,112,103259,1,0,0:0:0:0:
16,96,103441,6,0,L|16:144,1,48,4|0,0:0|0:0,0:0:0:0:
80,144,103623,2,0,L|128:144,1,48,2|0,0:0|0:0,0:0:0:0:
288,208,103805,2,0,L|288:272,1,48,0|0,0:0|0:0,0:0:0:0:
224,256,103987,2,0,L|160:256,1,48,2|0,0:0|0:0,0:0:0:0:
336,256,104168,6,0,L|336:192,1,48,4|0,0:0|0:0,0:0:0:0:
176,176,104350,2,0,L|112:176,1,48,0|0,0:0|0:0,0:0:0:0:
304,176,104532,1,8,0:0:0:0:
302,152,104577,1,0,0:0:0:0:
293,129,104622,1,0,0:0:0:0:
278,111,104668,1,0,0:0:0:0:
258,98,104713,1,0,0:0:0:0:
235,93,104759,1,0,0:0:0:0:
211,95,104804,1,0,0:0:0:0:
416,96,104896,5,4,0:0:0:0:
272,272,116533,6,0,L|400:272,2,96,0|0|8,0:0|0:0|0:0,0:0:0:0:
144,144,117078,2,0,L|144:256,1,96,0|2,0:0|0:0,0:0:0:0:
368,256,117805,6,0,P|368:208|240:128,1,192,2|2,0:0|0:0,0:0:0:0:
160,128,118351,2,0,L|48:128,4,96,8|0|2|0|0,0:0|0:0|0:0|0:0|0:0,0:0:0:0:
304,128,119260,5,2,0:0:0:0:
304,288,119624,1,0,0:0:0:0:
208,272,119805,1,8,0:0:0:0:
64,192,119987,2,0,L|272:192,1,192,0|0,0:0|0:0,0:0:0:0:
112,128,120714,6,0,L|304:128,1,192,2|0,0:0|0:0,0:0:0:0:
448,64,121260,2,0,L|336:64,4,96,8|0|2|0|8,0:0|0:0|0:0|0:0|0:0,0:0:0:0:
304,320,122169,6,0,L|96:320,1,192,2|0,0:0|0:0,0:0:0:0:
208,256,122714,1,8,0:0:0:0:
352,256,122896,2,0,P|416:192|336:144,1,192,0|0,0:0|0:0,0:0:0:0:
64,128,123624,6,0,L|256:128,1,192,2|0,0:0|0:0,0:0:0:0:
400,64,124170,2,0,L|288:64,4,96,8|0|0|0|0,0:0|0:0|0:0|0:0|0:0,0:0:0:0:
160,320,125078,5,0,0:0:0:0:
115,311,125168,1,0,0:0:0:0:
93,270,125259,1,0,0:0:0:0:
111,228,125350,1,0,0:0:0:0:
156,215,125441,1,0,0:0:0:0:
208,272,125533,1,0,0:0:0:0:
256,272,125623,1,0,0:0:0:0:
304,272,125714,1,0,0:0:0:0:
480,256,125805,6,0,L|480:160,1,96,4|0,0:0|0:0,0:0:0:0:
336,128,126169,2,0,L|336:224,1,96,4|0,0:0|0:0,0:0:0:0:
192,224,126533,2,0,L|320:224,1,96,4|0,0:0|0:0,0:0:0:0:
144,160,126896,2,0,L|48:160,1,96,4|0,0:0|0:0,0:0:0:0:
192,96,127260,2,0,L|192:208,1,96,4|0,0:0|0:0,0:0:0:0:
144,208,127533,1,0,0:0:0:0:
320,192,127624,2,0,L|448:192,1,96,2|0,0:0|0:0,0:0:0:0:
176,352,127987,6,0,P|112:336|80:192,1,192,2|0,0:0|0:0,0:0:0:0:
160,224,128533,1,8,0:0:0:0:
304,224,128714,2,0,L|96:224,1,192,2|0,0:0|0:0,0:0:0:0:
272,96,129442,6,0,P|336:128|256:176,1,192,2|0,0:0|0:0,0:0:0:0:
128,176,129987,2,0,L|32:176,4,96,8|0|2|0|0,0:0|0:0|0:0|0:0|0:0,0:0:0:0:
272,336,130896,6,0,L|288:144,1,192,2|0,0:0|0:0,0:0:0:0:
192,144,131442,1,8,0:0:0:0:
336,96,131624,2,0,L|144:96,1,192,2|0,0:0|0:0,0:0:0:0:
416,304,132351,6,0,P|480:256|400:192,1,192,2|0,0:0|0:0,0:0:0:0:
272,192,132896,2,0,L|368:192,4,96,8|0|2|0|0,0:0|0:0|0:0|0:0|0:0,0:0:0:0:
128,256,133805,6,0,P|128:208|256:144,1,192,2|0,0:0|0:0,0:0:0:0:
336,144,134351,1,8,0:0:0:0:
192,304,134533,2,0,L|400:304,1,192,2|0,0:0|0:0,0:0:0:0:
240,224,135078,1,0,0:0:0:0:
480,112,135260,6,0,L|496:304,1,192,4|0,0:0|0:0,0:0:0:0:
352,304,135805,2,0,L|448:304,1,96,2|0,0:0|0:0,0:0:0:0:
304,240,136169,2,0,L|288:352,1,96,2|0,0:0|0:0,0:0:0:0:
432,240,136533,1,0,0:0:0:0:
192,144,136714,6,0,L|400:144,2,192,2|0|0,0:0|0:0|0:0,0:0:0:0:
384,96,137737,1,0,0:0:0:0:
288,96,137919,1,0,0:0:0:0:
192,96,138100,2,0,L|192:232,1,132,0|0,0:0|0:0,0:0:0:0:
432,304,138533,6,0,L|432:240,2,48,0|0|0,0:0|0:0|0:0,0:0:0:0:
288,240,138896,2,0,L|288:176,2,48,0|0|0,0:0|0:0|0:0,0:0:0:0:
384,192,139260,2,0,L|384:128,1,48,0|0,0:0|0:0,0:0:0:0:
384,256,139442,2,0,L|384:368,1,96,0|0,0:0|0:0,0:0:0:0:
384,112,139714,1,0,0:0:0:0:
192,160,139805,6,0,L|80:160,2,96,4|0|8,0:0|0:0|0:0,0:0:0:0:
336,256,140351,1,0,0:0:0:0:
240,240,140532,1,2,0:0:0:0:
217,261,140592,1,0,0:0:0:0:
208,291,140653,1,0,0:0:0:0:
215,322,140713,1,0,0:0:0:0:
237,344,140774,1,0,0:0:0:0:
192,240,140835,1,0,0:0:0:0:
169,261,140895,1,8,0:0:0:0:
160,291,140956,1,0,0:0:0:0:
167,322,141016,1,0,0:0:0:0:
189,344,141077,1,0,0:0:0:0:
464,144,141260,6,0,P|480:224|384:288,1,192,2|8,0:0|0:0,0:0:0:0:
256,144,141805,2,0,L|256:240,1,96,0|2,0:0|0:0,0:0:0:0:
416,320,142351,1,8,0:0:0:0:
272,272,142533,6,0,L|480:272,1,192,0|0,0:0|0:0,0:0:0:0:
208,176,143260,2,0,L|208:272,2,96,0|0|0,0:0|0:0|0:0,0:0:0:0:
352,272,143805,1,8,0:0:0:0:
112,144,143987,6,0,L|240:144,1,96,2|2,0:0|0:0,0:0:0:0:
352,144,144351,1,0,0:0:0:0:
208,272,144533,2,0,L|320:272,1,96,8|0,0:0|0:0,0:0:0:0:
160,192,144896,2,0,L|272:192,1,96,2|0,0:0|0:0,0:0:0:0:
400,160,145260,1,8,0:0:0:0:
256,192,145442,1,0,0:0:0:0:
16,112,145624,6,0,L|16:320,1,192,2|8,0:0|0:0,0:0:0:0:
160,288,146169,2,0,L|272:288,4,96,0|2|0|8|0,0:0|0:0|0:0|0:0|0:0,0:0:0:0:
304,224,147078,6,0,L|496:224,1,192,2|8,0:0|0:0,0:0:0:0:
352,176,147624,2,0,L|240:176,2,96,0|2|0,0:0|0:0|0:0,0:0:0:0:
496,128,148169,1,8,0:0:0:0:
256,336,148351,6,0,P|384:240|240:144,1,384,2|0,0:0|0:0,0:0:0:0:
96,144,149260,2,0,L|112:224,1,48,2|0,0:0|0:0,0:0:0:0:
160,192,149442,2,0,L|144:256,1,48,0|0,0:0|0:0,0:0:0:0:
96,240,149624,1,0,0:0:0:0:
336,112,149805,6,0,L|224:112,2,96,2|0|0,0:0|0:0|0:0,0:0:0:0:
480,64,150351,2,0,L|384:64,1,96,2|0,0:0|0:0,0:0:0:0:
240,64,150714,2,0,L|224:192,1,96,2|0,0:0|0:0,0:0:0:0:
80,272,151078,1,2,0:0:0:0:
73,224,151168,1,0,0:0:0:0:
65,177,151259,1,0,0:0:0:0:
308,160,151442,6,0,L|420:160,2,96,4|0|8,0:0|0:0|0:0,0:0:0:0:
160,256,151988,1,0,0:0:0:0:
256,240,152169,1,2,0:0:0:0:
279,261,152229,1,0,0:0:0:0:
288,291,152290,1,0,0:0:0:0:
281,322,152350,1,0,0:0:0:0:
259,344,152411,1,0,0:0:0:0:
304,240,152472,1,0,0:0:0:0:
327,261,152532,1,8,0:0:0:0:
336,291,152593,1,0,0:0:0:0:
329,322,152653,1,0,0:0:0:0:
307,344,152714,1,0,0:0:0:0:
32,144,152897,6,0,P|16:224|96:288,1,192,2|8,0:0|0:0,0:0:0:0:
240,144,153442,2,0,L|240:240,1,96,0|2,0:0|0:0,0:0:0:0:
80,320,153988,1,8,0:0:0:0:
224,272,154170,6,0,L|16:272,1,192,0|0,0:0|0:0,0:0:0:0:
288,176,154897,2,0,L|288:272,2,96,0|0|0,0:0|0:0|0:0,0:0:0:0:
144,272,155442,1,8,0:0:0:0:
384,144,155624,6,0,L|256:144,1,96,2|2,0:0|0:0,0:0:0:0:
144,144,155988,1,0,0:0:0:0:
288,272,156170,2,0,L|176:272,1,96,8|0,0:0|0:0,0:0:0:0:
336,192,156533,2,0,L|224:192,1,96,2|0,0:0|0:0,0:0:0:0:
96,160,156897,1,8,0:0:0:0:
240,192,157079,1,0,0:0:0:0:
480,112,157259,6,0,L|480:320,1,192,4|8,0:0|0:0,0:0:0:0:
336,288,157805,1,0,0:0:0:0:
480,304,157987,2,0,L|480:176,1,96,2|0,0:0|0:0,0:0:0:0:
336,192,158351,1,8,0:0:0:0:
192,192,158533,1,0,0:0:0:0:
432,128,158715,6,0,L|240:128,1,192,4|8,0:0|0:0,0:0:0:0:
384,64,159259,2,0,L|496:64,2,96,0|2|0,0:0|0:0|0:0,0:0:0:0:
141,63,159806,5,8,0:0:0:0:
384,224,159987,1,4,0:0:0:0:
432,160,160533,1,2,0:0:0:0:
192,160,160714,1,2,0:0:0:0:
448,112,161078,1,2,0:0:0:0:
16,256,161442,6,0,B|16:160|16:160|128:160,1,192,8|2,0:0|0:0,0:0:0:0:
208,160,161987,1,2,0:0:0:0:
64,80,162169,1,2,0:0:0:0:
304,112,162351,2,0,L|304:144,4,24,4|0|0|0|0,0:0|0:0|0:0|0:0|0:0,0:0:0:0:
64,256,162714,1,4,0:0:0:0:
304,256,162896,2,0,L|320:320,1,48,0|0,0:0|0:0,0:0:0:0:
112,160,163078,6,0,L|-16:160,1,96,4|0,0:0|0:0,0:0:0:0:
160,176,163442,2,0,L|176:272,1,96,8|0,0:0|0:0,0:0:0:0:
320,144,163805,2,0,L|448:144,1,96,2|0,0:0|0:0,0:0:0:0:
272,144,164169,2,0,L|256:224,1,48,8|0,0:0|0:0,0:0:0:0:
320,192,164351,2,0,L|384:192,1,48,0|0,0:0|0:0,0:0:0:0:
160,304,164533,6,0,L|48:304,1,96,2|0,0:0|0:0,0:0:0:0:
208,240,164896,2,0,L|80:240,1,96,8|0,0:0|0:0,0:0:0:0:
256,176,165260,2,0,L|320:176,2,48,2|0|2,0:0|0:0|0:0,0:0:0:0:
16,176,165624,1,8,0:0:0:0:
112,144,165805,2,0,L|112:176,2,24,0|0|0,0:0|0:0|0:0,0:0:0:0:
272,128,165987,6,0,L|400:128,1,96,4|0,0:0|0:0,0:0:0:0:
224,288,166351,1,8,0:0:0:0:
368,288,166533,1,0,0:0:0:0:
224,288,166714,2,0,L|208:192,1,96,4|0,0:0|0:0,0:0:0:0:
64,144,167078,1,8,0:0:0:0:
208,160,167260,1,0,0:0:0:0:
448,112,167442,6,0,L|464:224,1,96,2|2,0:0|0:0,0:0:0:0:
320,144,167805,1,8,0:0:0:0:
272,144,167895,1,0,0:0:0:0:
224,144,167986,1,2,0:0:0:0:
464,112,168169,6,0,L|480:192,1,48,2|0,0:0|0:0,0:0:0:0:
384,304,168351,2,0,L|304:304,1,48,2|0,0:0|0:0,0:0:0:0:
144,304,168533,1,8,0:0:0:0:
96,288,168623,1,2,0:0:0:0:
64,256,168714,1,0,0:0:0:0:
48,208,168805,1,0,0:0:0:0:
288,208,168896,6,0,L|400:208,1,96,4|0,0:0|0:0,0:0:0:0:
304,144,169169,1,0,0:0:0:0:
224,144,169260,2,0,L|208:240,1,96,0|0,0:0|0:0,0:0:0:0:
352,320,169624,2,0,L|256:320,1,96,2|0,0:0|0:0,0:0:0:0:
400,224,169987,2,0,L|416:336,1,96,8|2,0:0|0:0,0:0:0:0:
128,176,170351,6,0,L|112:288,1,96,4|0,0:0|0:0,0:0:0:0:
176,272,170624,1,0,0:0:0:0:
336,160,170714,2,0,L|432:160,1,96,4|0,0:0|0:0,0:0:0:0:
368,96,170987,1,0,0:0:0:0:
176,80,171078,2,0,L|144:80,4,24,4|0|2|0|2,0:0|0:0|0:0|0:0|0:0,0:0:0:0:
416,320,171442,2,0,L|480:320,1,48,8|0,0:0|0:0,0:0:0:0:
416,272,171624,1,0,0:0:0:0:
144,256,171805,6,0,L|128:352,1,96,4|0,0:0|0:0,0:0:0:0:
272,208,172169,1,8,0:0:0:0:
128,352,172351,1,0,0:0:0:0:
272,208,172533,2,0,L|288:112,1,96,4|0,0:0|0:0,0:0:0:0:
432,128,172896,1,8,0:0:0:0:
288,112,173078,1,0,0:0:0:0:
16,96,173260,6,0,L|16:144,1,48,4|0,0:0|0:0,0:0:0:0:
80,144,173442,2,0,L|128:144,1,48,2|0,0:0|0:0,0:0:0:0:
288,208,173624,2,0,L|288:272,1,48,0|0,0:0|0:0,0:0:0:0:
224,256,173805,2,0,L|160:256,1,48,2|0,0:0|0:0,0:0:0:0:
336,256,173987,6,0,L|336:192,1,48,4|0,0:0|0:0,0:0:0:0:
176,176,174169,2,0,L|112:176,1,48,0|0,0:0|0:0,0:0:0:0:
304,176,174351,1,8,0:0:0:0:
303,152,174396,1,2,0:0:0:0:
294,129,174441,1,0,0:0:0:0:
279,111,174487,1,2,0:0:0:0:
259,98,174532,1,0,0:0:0:0:
236,93,174578,1,0,0:0:0:0:
212,95,174623,1,0,0:0:0:0:
400,160,174714,6,0,L|528:160,1,96,4|0,0:0|0:0,0:0:0:0:
352,176,175078,2,0,L|336:272,1,96,8|0,0:0|0:0,0:0:0:0:
192,144,175442,2,0,L|64:144,1,96,2|0,0:0|0:0,0:0:0:0:
240,144,175805,2,0,L|256:224,1,48,8|0,0:0|0:0,0:0:0:0:
192,192,175987,2,0,L|128:192,1,48,0|0,0:0|0:0,0:0:0:0:
352,304,176169,6,0,L|464:304,1,96,2|0,0:0|0:0,0:0:0:0:
304,240,176532,2,0,L|432:240,1,96,8|0,0:0|0:0,0:0:0:0:
256,176,176896,2,0,L|192:176,2,48,2|2|2,0:0|0:0|0:0,0:0:0:0:
496,176,177260,1,8,0:0:0:0:
400,144,177442,2,0,L|400:176,2,24,0|0|0,0:0|0:0|0:0,0:0:0:0:
240,128,177623,6,0,L|112:128,1,96,4|0,0:0|0:0,0:0:0:0:
288,288,177987,1,8,0:0:0:0:
144,288,178169,1,0,0:0:0:0:
288,288,178351,2,0,L|304:192,1,96,4|0,0:0|0:0,0:0:0:0:
448,144,178714,1,8,0:0:0:0:
304,160,178896,1,0,0:0:0:0:
64,112,179078,6,0,L|48:224,1,96,2|2,0:0|0:0,0:0:0:0:
192,144,179441,1,8,0:0:0:0:
240,144,179533,1,0,0:0:0:0:
288,144,179624,1,2,0:0:0:0:
48,112,179805,6,0,L|32:192,1,48,2|0,0:0|0:0,0:0:0:0:
128,304,179987,2,0,L|208:304,1,48,2|0,0:0|0:0,0:0:0:0:
368,304,180169,1,8,0:0:0:0:
416,288,180259,1,2,0:0:0:0:
448,256,180350,1,0,0:0:0:0:
464,208,180441,1,0,0:0:0:0:
224,208,180532,6,0,L|112:208,1,96,4|0,0:0|0:0,0:0:0:0:
208,144,180805,1,0,0:0:0:0:
288,144,180896,2,0,L|304:240,1,96,0|0,0:0|0:0,0:0:0:0:
160,320,181260,2,0,L|256:320,1,96,2|0,0:0|0:0,0:0:0:0:
112,224,181623,2,0,L|96:336,1,96,8|2,0:0|0:0,0:0:0:0:
384,176,181987,6,0,L|400:288,1,96,4|0,0:0|0:0,0:0:0:0:
336,272,182260,1,0,0:0:0:0:
176,160,182351,2,0,L|80:160,1,96,4|0,0:0|0:0,0:0:0:0:
144,96,182623,1,0,0:0:0:0:
336,80,182714,6,0,L|368:80,4,24,4|0|2|0|2,0:0|0:0|0:0|0:0|0:0,0:0:0:0:
96,320,183078,2,0,L|32:320,1,48,8|0,0:0|0:0,0:0:0:0:
224,256,183260,1,0,0:0:0:0:
368,256,183442,6,0,L|384:352,1,96,4|0,0:0|0:0,0:0:0:0:
240,208,183805,1,8,0:0:0:0:
384,352,183987,1,0,0:0:0:0:
240,208,184169,2,0,L|224:112,1,96,4|0,0:0|0:0,0:0:0:0:
80,128,184532,1,0,0:0:0:0:
224,112,184714,1,0,0:0:0:0:
496,96,184896,6,0,L|496:144,1,48,4|0,0:0|0:0,0:0:0:0:
432,144,185078,2,0,L|384:144,1,48,2|0,0:0|0:0,0:0:0:0:
224,208,185260,2,0,L|224:272,1,48,0|0,0:0|0:0,0:0:0:0:
288,256,185442,2,0,L|352:256,1,48,2|0,0:0|0:0,0:0:0:0:
176,256,185623,6,0,L|176:192,1,48,4|0,0:0|0:0,0:0:0:0:
336,176,185805,2,0,L|400:176,1,48,0|0,0:0|0:0,0:0:0:0:
208,176,185987,1,8,0:0:0:0:
210,152,186032,1,0,0:0:0:0:
219,129,186077,1,0,0:0:0:0:
234,111,186123,1,0,0:0:0:0:
254,98,186168,1,0,0:0:0:0:
277,93,186214,1,0,0:0:0:0:
301,95,186259,1,0,0:0:0:0:
96,96,186350,6,0,P|32:160|112:224,1,192,4|8,0:0|0:0,0:0:0:0:
240,240,186896,2,0,L|304:240,1,48
192,288,187078,2,0,L|96:288,1,96,2|0,0:0|0:0,0:0:0:0:
240,224,187441,1,8,0:0:0:0:
96,288,187623,2,0,L|80:224,1,48,0|0,0:0|0:0,0:0:0:0:
256,176,187805,6,0,L|320:176,1,48,2|0,0:0|0:0,0:0:0:0:
304,128,187987,2,0,L|256:128,1,48,2|0,0:0|0:0,0:0:0:0:
336,96,188169,2,0,L|400:96,1,48,8|0,0:0|0:0,0:0:0:0:
384,48,188351,2,0,L|336:48,1,48,0|0,0:0|0:0,0:0:0:0:
176,256,188532,6,0,L|160:304,2,48,2|2|0,0:0|0:0|0:0,0:0:0:0:
320,256,188896,2,0,L|336:304,2,48,8|0|0,0:0|0:0|0:0,0:0:0:0:
80,208,189259,6,0,L|64:320,1,96,2|0,0:0|0:0,0:0:0:0:
208,176,189623,2,0,L|96:176,1,96,8|0,0:0|0:0,0:0:0:0:
256,128,189987,6,0,L|320:128,2,48,2|0|0,0:0|0:0|0:0,0:0:0:0:
112,80,190350,2,0,L|64:80,2,48,8|0|0,0:0|0:0|0:0,0:0:0:0:
176,80,190623,1,0,0:0:0:0:
352,240,190714,6,0,P|416:192|336:128,1,192,2|8,0:0|0:0,0:0:0:0:
256,128,191259,1,2,0:0:0:0:
400,320,191441,6,0,L|400:256,1,48,2|0,0:0|0:0,0:0:0:0:
336,272,191623,2,0,L|256:272,1,48,2|0,0:0|0:0,0:0:0:0:
128,272,191805,2,0,L|112:160,1,96,8|0,0:0|0:0,0:0:0:0:
368,176,192169,6,0,L|256:176,2,96,4|0|8,0:0|0:0|0:0,0:0:0:0:
464,160,192714,2,0,L|480:224,1,48,0|0,0:0|0:0,0:0:0:0:
384,288,192896,6,0,L|336:288,2,48,2|0|0,0:0|0:0|0:0,0:0:0:0:
432,288,193169,1,0,0:0:0:0:
352,224,193259,2,0,L|304:224,2,48,8|0|0,0:0|0:0|0:0,0:0:0:0:
400,224,193532,1,0,0:0:0:0:
224,144,193623,6,0,B|192:192|192:192|224:240,1,96,2|0,0:0|0:0,0:0:0:0:
304,256,193896,2,0,L|304:352,1,96,2|0,0:0|0:0,0:0:0:0:
400,144,194169,2,0,L|288:144,1,96,2|0,0:0|0:0,0:0:0:0:
160,144,194532,2,0,L|144:192,1,48,2|0,0:0|0:0,0:0:0:0:
304,80,194714,2,0,L|416:80,1,96,8|2,0:0|0:0,0:0:0:0:
160,272,195078,6,0,L|288:272,1,96,4|0,0:0|0:0,0:0:0:0:
400,208,195441,2,0,L|288:208,1,96,8|0,0:0|0:0,0:0:0:0:
256,208,195714,1,0,0:0:0:0:
416,128,195805,2,0,L|432:240,1,96,4|0,0:0|0:0,0:0:0:0:
176,128,196169,2,0,L|64:128,1,96,8|0,0:0|0:0,0:0:0:0:
320,304,196532,6,0,L|192:304,1,96,2|0,0:0|0:0,0:0:0:0:
80,240,196896,1,8,0:0:0:0:
224,256,197078,1,2,0:0:0:0:
464,144,197259,5,2,0:0:0:0:
416,144,197349,1,0,0:0:0:0:
368,144,197440,1,2,0:0:0:0:
128,144,197623,2,0,L|112:96,3,48,8|0|0|0,0:0|0:0|0:0|0:0,0:0:0:0:
304,240,197987,6,0,L|368:240,2,48,4|0|0,0:0|0:0|0:0,0:0:0:0:
160,240,198350,2,0,L|144:336,1,96,0|0,0:0|0:0,0:0:0:0:
288,128,198714,2,0,L|384:128,1,96,2|0,0:0|0:0,0:0:0:0:
240,64,199078,2,0,L|352:64,1,96,8|0,0:0|0:0,0:0:0:0:
96,112,199441,6,0,L|96:160,2,48,2|0|0,0:0|0:0|0:0,0:0:0:0:
192,240,199714,2,0,L|304:240,1,96,0|0,0:0|0:0,0:0:0:0:
192,192,199987,2,0,L|176:144,1,48,0|0,0:0|0:0,0:0:0:0:
272,128,200169,6,0,L|144:128,1,96,2|0,0:0|0:0,0:0:0:0:
416,112,200532,2,0,L|432:176,1,48,8|0,0:0|0:0,0:0:0:0:
368,160,200714,2,0,L|352:224,1,48,0|0,0:0|0:0,0:0:0:0:
192,304,200896,6,0,L|112:304,2,48,2|0|0,0:0|0:0|0:0,0:0:0:0:
288,256,201169,2,0,L|288:352,1,96,0|0,0:0|0:0,0:0:0:0:
192,240,201441,2,0,L|144:240,1,48,0|0,0:0|0:0,0:0:0:0:
240,176,201623,6,0,L|368:176,1,96,0|0,0:0|0:0,0:0:0:0:
96,144,201987,2,0,L|16:144,1,48,8|0,0:0|0:0,0:0:0:0:
48,96,202169,2,0,L|96:96,1,48,0|0,0:0|0:0,0:0:0:0:
288,96,202350,6,0,L|384:96,2,96,2|0|8,0:0|0:0|0:0,0:0:0:0:
144,192,202896,2,0,L|128:240,1,48,2|0,0:0|0:0,0:0:0:0:
304,224,203078,6,0,L|432:224,1,96,2|2,0:0|0:0,0:0:0:0:
160,320,203441,1,8,0:0:0:0:
209,290,203531,1,0,0:0:0:0:
238,242,203622,1,0,0:0:0:0:
242,185,203713,1,0,0:0:0:0:
64,176,203805,6,0,L|48:112,2,48,4|0|0,0:0|0:0|0:0,0:0:0:0:
144,128,204078,1,0,0:0:0:0:
224,128,204169,2,0,L|352:128,1,96,0|0,0:0|0:0,0:0:0:0:
464,128,204532,2,0,L|368:128,1,96,4|0,0:0|0:0,0:0:0:0:
224,64,204896,1,8,0:0:0:0:
368,128,205078,1,0,0:0:0:0:
128,256,205259,6,0,L|224:256,1,96,4|0,0:0|0:0,0:0:0:0:
80,176,205623,1,0,0:0:0:0:
224,176,205805,1,0,0:0:0:0:
80,176,205987,1,2,0:0:0:0:
74,223,206077,1,0,0:0:0:0:
69,271,206168,1,2,0:0:0:0:
64,319,206259,1,0,0:0:0:0:
240,320,206350,1,8,0:0:0:0:
352,272,206532,2,0,L|368:336,1,48,0|0,0:0|0:0,0:0:0:0:
192,176,206714,6,0,L|80:176,1,96,4|0,0:0|0:0,0:0:0:0:
176,112,206987,1,0,0:0:0:0:
256,64,207078,2,0,L|128:64,1,96,0|0,0:0|0:0,0:0:0:0:
400,320,207441,2,0,L|512:320,1,96,2|0,0:0|0:0,0:0:0:0:
432,256,207714,1,0,0:0:0:0:
240,272,207805,2,0,L|112:272,1,96,0|0,0:0|0:0,0:0:0:0:
208,224,208078,1,0,0:0:0:0:
400,160,208169,6,0,L|400:208,1,48,2|0,0:0|0:0,0:0:0:0:
336,208,208350,2,0,L|272:208,1,48,2|0,0:0|0:0,0:0:0:0:
128,96,208532,2,0,L|128:160,1,48,8|0,0:0|0:0,0:0:0:0:
192,144,208714,2,0,L|192:208,1,48,2|0,0:0|0:0,0:0:0:0:
16,304,208896,2,0,L|16:272,6,24,2|0|0|0|0|0|0,0:0|0:0|0:0|0:0|0:0|0:0|0:0,0:0:0:0:
192,272,209259,2,0,L|272:272,1,48,8|8,0:0|0:0,0:0:0:0:
80,224,209441,2,0,L|0:224,1,48,8|8,0:0|0:0,0:0:0:0:
304,224,209623,5,4,0:0:0:0:
256,192,209805,12,0,212169,0:0:0:0:
496,192,212532,5,4,0:0:0:0:
256,192,213259,1,4,0:0:0:0:
16,192,213987,1,4,0:0:0:0:
256,96,214714,1,2,0:0:0:0:
496,96,215078,1,2,0:0:0:0:
64,192,215441,6,0,L|176:192,3,96,4|0|0|0,0:0|0:0|0:0|0:0,0:0:0:0:
400,192,216169,2,0,L|304:192,3,96,4|0|0|0,0:0|0:0|0:0|0:0,0:0:0:0:
64,80,216896,6,0,L|64:192,1,96,4|0,0:0|0:0,0:0:0:0:
208,80,217259,2,0,L|208:192,1,96,0|0,0:0|0:0,0:0:0:0:
464,176,217623,1,4,0:0:0:0:
32,256,217987,1,2,0:0:0:0:
160,256,218169,1,0,0:0:0:0:
416,256,218350,6,0,L|432:352,1,96,4|0,0:0|0:0,0:0:0:0:
368,352,218623,1,0,0:0:0:0:
192,320,218714,2,0,L|64:320,1,96,2|0,0:0|0:0,0:0:0:0:
336,176,219078,2,0,L|240:176,1,96,2|0,0:0|0:0,0:0:0:0:
304,128,219350,1,0,0:0:0:0:
464,112,219441,2,0,L|480:224,1,96,2|0,0:0|0:0,0:0:0:0:
208,80,219805,6,0,L|208:112,1,24,4|0,0:0|0:0,0:0:0:0:
232,96,219896,2,0,L|232:128,1,24,0|0,0:0|0:0,0:0:0:0:
208,80,219987,2,0,L|208:112,1,24,0|0,0:0|0:0,0:0:0:0:
232,96,220078,2,0,L|232:128,1,24,0|0,0:0|0:0,0:0:0:0:
208,80,220169,2,0,L|208:112,1,24,2|0,0:0|0:0,0:0:0:0:
232,120,220259,1,0,0:0:0:0:
448,176,220350,2,0,L|464:240,1,48,2|0,0:0|0:0,0:0:0:0:
304,224,220532,6,0,P|272:224|224:128,1,144,4|0,0:0|0:0,0:0:0:0:
384,64,220896,1,2,0:0:0:0:
336,64,220986,1,0,0:0:0:0:
288,64,221077,1,0,0:0:0:0:
240,64,221168,1,0,0:0:0:0:
400,160,221259,6,0,L|528:160,1,96,4|0,0:0|0:0,0:0:0:0:
352,176,221623,2,0,L|336:272,1,96,8|0,0:0|0:0,0:0:0:0:
192,144,221987,2,0,L|64:144,1,96,2|0,0:0|0:0,0:0:0:0:
240,144,222350,2,0,L|256:224,1,48,8|0,0:0|0:0,0:0:0:0:
192,192,222532,2,0,L|128:192,1,48,0|0,0:0|0:0,0:0:0:0:
352,304,222714,6,0,L|464:304,1,96,2|0,0:0|0:0,0:0:0:0:
304,240,223077,2,0,L|432:240,1,96,8|0,0:0|0:0,0:0:0:0:
256,176,223441,2,0,L|192:176,2,48,2|2|2,0:0|0:0|0:0,0:0:0:0:
496,176,223805,1,8,0:0:0:0:
400,144,223987,2,0,L|400:176,2,24,0|0|0,0:0|0:0|0:0,0:0:0:0:
240,128,224168,6,0,L|112:128,1,96,4|0,0:0|0:0,0:0:0:0:
288,288,224532,1,8,0:0:0:0:
144,288,224714,1,0,0:0:0:0:
288,288,224896,2,0,L|304:192,1,96,4|0,0:0|0:0,0:0:0:0:
448,144,225259,1,8,0:0:0:0:
304,160,225441,1,0,0:0:0:0:
64,112,225623,6,0,L|48:224,1,96,2|2,0:0|0:0,0:0:0:0:
192,144,225986,1,8,0:0:0:0:
240,144,226078,1,0,0:0:0:0:
288,144,226169,1,2,0:0:0:0:
48,112,226350,6,0,L|32:192,1,48,2|0,0:0|0:0,0:0:0:0:
128,304,226532,2,0,L|208:304,1,48,2|0,0:0|0:0,0:0:0:0:
368,304,226714,1,8,0:0:0:0:
416,288,226804,1,2,0:0:0:0:
448,256,226895,1,0,0:0:0:0:
464,208,226986,1,0,0:0:0:0:
224,208,227077,6,0,L|112:208,1,96,4|0,0:0|0:0,0:0:0:0:
208,144,227350,1,0,0:0:0:0:
288,144,227441,2,0,L|304:240,1,96,0|0,0:0|0:0,0:0:0:0:
160,320,227805,2,0,L|256:320,1,96,2|2,0:0|0:0,0:0:0:0:
112,224,228168,2,0,L|96:336,1,96,8|2,0:0|0:0,0:0:0:0:
384,176,228532,6,0,L|400:288,1,96,4|0,0:0|0:0,0:0:0:0:
336,272,228805,1,0,0:0:0:0:
176,160,228896,2,0,L|80:160,1,96,4|0,0:0|0:0,0:0:0:0:
144,96,229168,1,0,0:0:0:0:
336,80,229259,6,0,L|368:80,4,24,4|2|2|2|2,0:0|0:0|0:0|0:0|0:0,0:0:0:0:
96,320,229623,2,0,L|32:320,1,48,8|0,0:0|0:0,0:0:0:0:
96,256,229805,1,0,0:0:0:0:
368,256,229987,6,0,L|384:352,1,96,4|0,0:0|0:0,0:0:0:0:
240,208,230350,1,8,0:0:0:0:
384,352,230532,1,0,0:0:0:0:
240,208,230714,2,0,L|224:112,1,96,4|0,0:0|0:0,0:0:0:0:
80,128,231077,1,8,0:0:0:0:
224,112,231259,1,0,0:0:0:0:
496,96,231441,6,0,L|496:144,1,48,4|0,0:0|0:0,0:0:0:0:
432,144,231623,2,0,L|384:144,1,48,2|0,0:0|0:0,0:0:0:0:
224,208,231805,2,0,L|224:272,1,48,0|0,0:0|0:0,0:0:0:0:
288,256,231987,2,0,L|352:256,1,48,2|0,0:0|0:0,0:0:0:0:
176,256,232168,6,0,L|176:192,1,48,4|0,0:0|0:0,0:0:0:0:
336,176,232350,2,0,L|400:176,1,48,0|0,0:0|0:0,0:0:0:0:
208,176,232532,1,8,0:0:0:0:
210,152,232577,1,0,0:0:0:0:
219,129,232622,1,0,0:0:0:0:
234,111,232668,1,0,0:0:0:0:
254,98,232713,1,0,0:0:0:0:
277,93,232759,1,0,0:0:0:0:
301,95,232804,1,0,0:0:0:0:
128,80,232896,6,0,L|144:144,1,48,4|0,0:0|0:0,0:0:0:0:
192,96,233078,2,0,L|208:160,1,48,0|0,0:0|0:0,0:0:0:0:
112,272,233259,2,0,L|224:272,1,96,2|0,0:0|0:0,0:0:0:0:
304,336,233532,2,0,L|320:208,1,96,2|0,0:0|0:0,0:0:0:0:
224,144,233805,2,0,L|352:144,1,96,2|0,0:0|0:0,0:0:0:0:
416,144,234078,2,0,L|480:144,1,48,0|0,0:0|0:0,0:0:0:0:
32,128,234532,6,0,L|32:176,1,48,2|0,0:0|0:0,0:0:0:0:
208,272,234714,2,0,L|320:272,1,96,2|0,0:0|0:0,0:0:0:0:
160,224,235078,2,0,L|144:160,1,48,8|0,0:0|0:0,0:0:0:0:
320,160,235259,1,2,0:0:0:0:
367,166,235349,1,0,0:0:0:0:
405,195,235440,1,0,0:0:0:0:
425,238,235531,1,0,0:0:0:0:
423,285,235622,1,0,0:0:0:0:
224,320,235714,6,0,L|208:224,1,96,2|0,0:0|0:0,0:0:0:0:
304,224,235987,2,0,L|320:288,1,48,0|0,0:0|0:0,0:0:0:0:
160,144,236169,2,0,L|64:144,1,96,0|0,0:0|0:0,0:0:0:0:
208,80,236532,2,0,L|96:80,1,96,0|0,0:0|0:0,0:0:0:0:
352,96,236896,2,0,L|352:144,2,48,0|0|0,0:0|0:0|0:0,0:0:0:0:
144,304,237169,6,0,L|128:160,1,144,2|0,0:0|0:0,0:0:0:0:
224,128,237623,2,0,L|96:128,1,96,2|0,0:0|0:0,0:0:0:0:
272,208,237987,1,2,0:0:0:0:
128,64,238169,1,0,0:0:0:0:
368,64,238350,1,2,0:0:0:0:
128,64,238532,2,0,L|112:128,1,48,0|0,0:0|0:0,0:0:0:0:
336,176,238714,6,0,L|416:176,1,48,4|0,0:0|0:0,0:0:0:0:
432,176,238896,2,0,L|496:176,1,48,0|0,0:0|0:0,0:0:0:0:
384,272,239077,2,0,L|272:272,1,96,2|0,0:0|0:0,0:0:0:0:
192,336,239350,2,0,L|176:208,1,96,2|0,0:0|0:0,0:0:0:0:
272,144,239623,2,0,L|144:144,1,96,2|0,0:0|0:0,0:0:0:0:
80,144,239896,2,0,L|16:144,1,48,0|0,0:0|0:0,0:0:0:0:
464,128,240350,6,0,L|464:176,1,48,2|0,0:0|0:0,0:0:0:0:
288,272,240532,2,0,L|176:272,1,96,2|0,0:0|0:0,0:0:0:0:
336,224,240896,2,0,L|352:160,1,48,8|0,0:0|0:0,0:0:0:0:
176,160,241077,1,2,0:0:0:0:
129,166,241169,1,0,0:0:0:0:
91,195,241258,1,0,0:0:0:0:
71,238,241349,1,0,0:0:0:0:
73,285,241440,1,0,0:0:0:0:
272,320,241532,6,0,L|288:224,1,96,2|0,0:0|0:0,0:0:0:0:
192,224,241805,2,0,L|176:288,1,48,0|0,0:0|0:0,0:0:0:0:
336,144,241987,2,0,L|432:144,1,96,0|0,0:0|0:0,0:0:0:0:
288,80,242350,2,0,L|400:80,1,96,0|0,0:0|0:0,0:0:0:0:
144,96,242714,2,0,L|144:144,2,48,0|0|0,0:0|0:0|0:0,0:0:0:0:
352,304,242987,6,0,P|400:256|336:208,1,144,2|0,0:0|0:0,0:0:0:0:
112,208,243441,1,8,0:0:0:0:
368,176,243623,2,0,L|384:48,1,96,8|0,0:0|0:0,0:0:0:0:
240,272,243987,2,0,L|448:272,1,192,8|2,0:0|0:0,0:0:0:0:
448,208,244441,1,0,0:0:0:0:
272,208,244532,5,0,0:0:0:0:
248,208,244577,1,0,0:0:0:0:
224,208,244622,1,0,0:0:0:0:
200,208,244668,1,0,0:0:0:0:
176,208,244713,1,0,0:0:0:0:
152,208,244759,1,0,0:0:0:0:
128,208,244804,1,0,0:0:0:0:
304,144,244896,5,8,0:0:0:0:
448,144,245078,1,8,0:0:0:0:
304,144,245259,1,8,0:0:0:0:
32,144,245441,5,8,0:0:0:0:
256,192,245623,12,0,247441,0:0:0:0:
