osu file format v14

[General]
AudioFilename: audio.mp3
AudioLeadIn: 0
PreviewTime: 81532
Countdown: 0
SampleSet: Soft
StackLeniency: 0.7
Mode: 2
LetterboxInBreaks: 0
WidescreenStoryboard: 1

[Editor]
Bookmarks: 23441,35078,58350,81623,104896,116532,139805,163078,186350,209623,221259,232896
DistanceSpacing: 1
BeatDivisor: 8
GridSize: 16
TimelineZoom: 3.3

[Metadata]
Title:Bloody Night
TitleUnicode:Bloody Night
Artist:A-One feat. Shihori
ArtistUnicode:A-One feat. Shihori
Creator:ZiRoX
Version:Deif's Doll Activation
Source:東方妖々夢 ~ Perfect Cherry Blossom.
Tags:Deif GIGACHAD Dako Featured Artist FA Mappers' Guild MG 東方Project Touhou Youyoumu Team Shanghai Alice ZUN TOHO EUROBEAT VOL. 4 アリス・マーガトロイド Alice Margatroid ブクレシュティの人形師 The Doll Maker of Bucuresti Video Game English
BeatmapID:3300087
BeatmapSetID:1543564

[Difficulty]
HPDrainRate:6
CircleSize:4.2
OverallDifficulty:9.6
ApproachRate:9.3
SliderMultiplier:2.2
SliderTickRate:2

[Events]
//Background and Video events
0,0,"bg_bloodynight.png",0,0
//Break Periods
2,116732,124342
//Storyboard Layer 0 (Background)
//Storyboard Layer 1 (Fail)
//Storyboard Layer 2 (Pass)
//Storyboard Layer 3 (Foreground)
//Storyboard Layer 4 (Overlay)
//Storyboard Sound Samples

[TimingPoints]
169,363.636363636364,4,2,1,85,1,0
11805,-100,4,1,1,75,0,0
12169,-100,4,2,1,90,0,0
12350,-100,4,1,1,75,0,0
12532,-100,4,2,1,90,0,0
12896,-100,4,1,1,65,0,0
13259,-100,4,1,1,75,0,0
13532,-100,4,2,1,90,0,0
13805,-100,4,1,1,75,0,0
13987,-100,4,2,1,90,0,0
14350,-100,4,1,1,65,0,0
14714,-100,4,1,1,75,0,0
15078,-100,4,2,1,90,0,0
15259,-100,4,1,1,75,0,0
15441,-100,4,2,1,90,0,0
15805,-100,4,1,1,65,0,0
16169,-100,4,1,1,75,0,0
16441,-100,4,2,1,90,0,0
16714,-100,4,1,1,75,0,0
16896,-100,4,2,1,90,0,0
17259,-100,4,1,1,65,0,0
17623,-100,4,1,1,75,0,0
17805,-100,4,2,1,90,0,0
17987,-100,4,1,1,65,0,0
18169,-100,4,2,1,90,0,0
18714,-100,4,1,1,65,0,0
18805,-100,4,2,1,90,0,0
19441,-100,4,1,1,65,0,0
19623,-100,4,2,1,90,0,0
20169,-100,4,1,1,65,0,0
20259,-100,4,2,1,90,0,0
20896,-66.6666666666667,4,1,1,65,0,0
21078,-66.6666666666667,4,2,1,90,0,0
21259,-100,4,1,1,65,0,0
21350,-100,4,2,1,90,0,0
21623,-100,4,1,1,65,0,0
21714,-100,4,2,1,90,0,0
22350,-83.3333333333333,4,2,1,90,0,0
22714,-71.4285714285714,4,2,1,90,0,0
23078,-50,4,2,1,90,0,0
23441,-100,4,1,1,85,0,0
23532,-100,4,2,1,90,0,0
26350,-100,4,1,1,85,0,0
27714,-100,4,2,1,90,0,0
27805,-100,4,1,1,75,0,0
27896,-100,4,2,1,90,0,0
28532,-76.9230769230769,4,2,1,90,0,0
28896,-100,4,2,1,90,0,0
29259,-100,4,1,1,85,0,0
29350,-100,4,2,1,90,0,0
32169,-100,4,1,1,85,0,0
33532,-100,4,2,1,90,0,0
33623,-100,4,1,1,85,0,0
33714,-100,4,2,1,90,0,0
34532,-66.6666666666667,4,2,1,90,0,0
35078,-100,4,2,1,90,0,0
35441,-100,4,1,1,65,0,0
35623,-100,4,2,1,90,0,0
36169,-100,4,1,1,65,0,0
36350,-100,4,2,1,90,0,0
36896,-100,4,1,1,65,0,0
37078,-100,4,2,1,90,0,0
37623,-100,4,1,1,65,0,0
37805,-100,4,2,1,90,0,0
38350,-100,4,1,1,65,0,0
38532,-100,4,2,1,90,0,0
39078,-100,4,1,1,65,0,0
39259,-100,4,2,1,90,0,0
39805,-100,4,1,1,65,0,0
39987,-100,4,2,1,90,0,0
40532,-100,4,1,1,65,0,0
40714,-100,4,2,1,90,0,0
41259,-100,4,1,1,65,0,0
41441,-100,4,2,1,90,0,0
41987,-100,4,1,1,65,0,0
42169,-100,4,2,1,90,0,0
42714,-100,4,1,1,65,0,0
42896,-100,4,2,1,90,0,0
43441,-100,4,1,1,65,0,0
43623,-100,4,2,1,90,0,0
44350,-43.4782608695652,4,2,1,85,0,0
46532,-100,4,2,1,90,0,0
47078,-100,4,1,1,65,0,0
47259,-100,4,2,1,90,0,0
48532,-100,4,1,1,65,0,0
48714,-100,4,2,1,90,0,0
49259,-100,4,1,1,65,0,0
49441,-100,4,2,1,90,0,0
49987,-100,4,1,1,65,0,0
50169,-100,4,2,1,90,0,0
51441,-100,4,1,1,65,0,0
51623,-100,4,2,1,90,0,0
52169,-100,4,1,1,65,0,0
52350,-100,4,2,1,90,0,0
52896,-100,4,1,1,65,0,0
53078,-100,4,2,1,90,0,0
58714,-100,4,1,1,75,0,0
58805,-100,4,2,1,90,0,0
59441,-76.9230769230769,4,1,1,75,0,0
59502,-76.9230769230769,4,2,1,90,0,0
59805,-100,4,2,1,90,0,0
60169,-100,4,1,1,75,0,0
60259,-100,4,2,1,90,0,0
60896,-100,4,1,1,75,0,0
61078,-100,4,2,1,90,0,0
61623,-100,4,1,1,75,0,0
61805,-100,4,2,1,90,0,0
62350,-100,4,1,1,75,0,0
62532,-100,4,2,1,90,0,0
63078,-100,4,1,1,75,0,0
63441,-100,4,2,1,90,0,0
63623,-100,4,1,1,75,0,0
64169,-100,4,2,1,90,0,0
64532,-100,4,1,1,75,0,0
64623,-100,4,2,1,90,0,0
65259,-100,4,1,1,75,0,0
65350,-100,4,2,1,90,0,0
65987,-100,4,1,1,75,0,0
66169,-100,4,2,1,90,0,0
66714,-100,4,1,1,75,0,0
66896,-100,4,2,1,90,0,0
68350,-43.4782608695652,4,2,1,90,0,0
69987,-100,4,2,1,90,0,0
70351,-100,4,1,1,75,0,0
70442,-100,4,2,1,90,0,0
71078,-100,4,1,1,75,0,0
71139,-100,4,2,1,90,0,0
71806,-100,4,1,1,75,0,0
71896,-100,4,2,1,90,0,0
72533,-100,4,1,1,75,0,0
72715,-100,4,2,1,90,0,0
73260,-100,4,1,1,75,0,0
73442,-100,4,2,1,90,0,0
73987,-100,4,1,1,75,0,0
74169,-100,4,2,1,90,0,0
74715,-100,4,1,1,75,0,0
75078,-100,4,2,1,90,0,0
75260,-100,4,1,1,75,0,0
75805,-100,4,2,1,90,0,0
76169,-100,4,1,1,75,0,0
76350,-100,4,2,1,90,0,0
76896,-100,4,1,1,75,0,0
77259,-100,4,2,1,90,0,0
77623,-100,4,1,1,75,0,0
77805,-100,4,2,1,90,0,0
78350,-100,4,1,1,75,0,0
78532,-100,4,2,1,90,0,0
80328,-100,4,2,1,20,0,0
80350,-66.6666666666667,4,2,1,90,0,0
80509,-100,4,2,1,20,0,0
80532,-50,4,2,1,90,0,0
80691,-100,4,2,1,20,0,0
80714,-33.3333333333333,4,2,1,90,0,0
80873,-100,4,2,1,20,0,0
80896,-100,4,2,1,80,0,0
81623,-86.9565217391304,4,2,1,100,0,1
81987,-86.9565217391304,4,1,1,80,0,1
82169,-86.9565217391304,4,2,1,100,0,1
82714,-43.4782608695652,4,1,1,80,0,1
83078,-86.9565217391304,4,2,1,100,0,1
83441,-86.9565217391304,4,1,1,80,0,1
83532,-86.9565217391304,4,2,1,100,0,1
84169,-43.4782608695652,4,1,1,80,0,1
84214,-43.4782608695652,4,2,1,100,0,1
84532,-86.9565217391304,4,2,1,100,0,1
84896,-86.9565217391304,4,1,1,80,0,1
84941,-86.9565217391304,4,2,1,100,0,1
85623,-86.9565217391304,4,1,1,80,0,1
85668,-86.9565217391304,4,2,1,100,0,1
86350,-86.9565217391304,4,1,1,80,0,1
86396,-86.9565217391304,4,2,1,100,0,1
87078,-86.9565217391304,4,1,1,80,0,1
87123,-86.9565217391304,4,2,1,100,0,1
87805,-86.9565217391304,4,1,1,80,0,1
87896,-86.9565217391304,4,2,1,100,0,1
88532,-86.9565217391304,4,1,1,80,0,1
88623,-86.9565217391304,4,2,1,100,0,1
89987,-43.4782608695652,4,1,1,80,0,1
90169,-43.4782608695652,4,2,1,100,0,1
90350,-86.9565217391304,4,2,1,100,0,1
90714,-86.9565217391304,4,1,1,80,0,1
90759,-86.9565217391304,4,2,1,100,0,1
91442,-86.9565217391304,4,1,1,80,0,1
91487,-86.9565217391304,4,2,1,100,0,1
92169,-86.9565217391304,4,1,1,80,0,1
92259,-86.9565217391304,4,2,1,100,0,1
92896,-86.9565217391304,4,1,1,80,0,1
92941,-86.9565217391304,4,2,1,100,0,1
93623,-86.9565217391304,4,1,1,80,0,1
93805,-86.9565217391304,4,2,1,100,0,1
94350,-43.4782608695652,4,1,1,80,0,1
94714,-86.9565217391304,4,2,1,100,0,1
95077,-86.9565217391304,4,1,1,80,0,1
95168,-86.9565217391304,4,2,1,100,0,1
95805,-43.4782608695652,4,1,1,80,0,1
95850,-43.4782608695652,4,2,1,100,0,1
96169,-86.9565217391304,4,2,1,100,0,1
96532,-86.9565217391304,4,1,1,80,0,1
96577,-86.9565217391304,4,2,1,100,0,1
97259,-86.9565217391304,4,1,1,80,0,1
97304,-86.9565217391304,4,2,1,100,0,1
97986,-86.9565217391304,4,1,1,80,0,1
98032,-86.9565217391304,4,2,1,100,0,1
98714,-86.9565217391304,4,1,1,80,0,1
98759,-86.9565217391304,4,2,1,100,0,1
99441,-86.9565217391304,4,1,1,80,0,1
99532,-86.9565217391304,4,2,1,100,0,1
100168,-86.9565217391304,4,1,1,80,0,1
100259,-86.9565217391304,4,2,1,100,0,1
101623,-43.4782608695652,4,1,1,80,0,1
101805,-43.4782608695652,4,2,1,100,0,1
101987,-86.9565217391304,4,2,1,100,0,1
102350,-86.9565217391304,4,1,1,80,0,1
102395,-86.9565217391304,4,2,1,100,0,1
103078,-86.9565217391304,4,1,1,80,0,1
103123,-86.9565217391304,4,2,1,100,0,1
103805,-86.9565217391304,4,1,1,80,0,1
103895,-86.9565217391304,4,2,1,100,0,1
104532,-86.9565217391304,4,1,1,80,0,1
104896,-100,4,1,1,75,0,0
104987,-100,4,2,1,90,0,0
107805,-100,4,1,1,50,0,0
108532,-76.9230769230769,4,1,1,50,0,0
108896,-100,4,1,1,50,0,0
109169,-100,4,2,1,90,0,0
109260,-100,4,1,1,75,0,0
109351,-100,4,2,1,90,0,0
109987,-76.9230769230769,4,2,1,90,0,0
110350,-100,4,2,1,90,0,0
110714,-100,4,1,1,75,0,0
110805,-100,4,2,1,90,0,0
113624,-100,4,1,1,50,0,0
114350,-76.9230769230769,4,1,1,50,0,0
114714,-100,4,1,1,50,0,0
114987,-100,4,2,1,90,0,0
115078,-100,4,1,1,75,0,0
115169,-100,4,2,1,90,0,0
115987,-66.6666666666667,4,2,1,90,0,0
116350,-100,4,2,1,90,0,0
116895,-100,4,1,1,65,0,0
117077,-100,4,2,1,90,0,0
117623,-100,4,1,1,65,0,0
117804,-100,4,2,1,90,0,0
118350,-100,4,1,1,65,0,0
118532,-100,4,2,1,90,0,0
119077,-100,4,1,1,65,0,0
119259,-100,4,2,1,90,0,0
119804,-100,4,1,1,65,0,0
119986,-100,4,2,1,90,0,0
120532,-100,4,1,1,65,0,0
120713,-100,4,2,1,90,0,0
121259,-100,4,1,1,65,0,0
121441,-100,4,2,1,90,0,0
121986,-100,4,1,1,65,0,0
122168,-100,4,2,1,90,0,0
122713,-100,4,1,1,65,0,0
122895,-100,4,2,1,90,0,0
123441,-100,4,1,1,65,0,0
123623,-100,4,2,1,90,0,0
124168,-100,4,1,1,65,0,0
124350,-100,4,2,1,90,0,0
124895,-100,4,1,1,65,0,0
125077,-100,4,2,1,90,0,0
125804,-100,4,2,1,65,0,0
125805,-43.4782608695652,4,2,1,65,0,0
127986,-43.4782608695652,4,2,1,90,0,0
127987,-100,4,2,1,90,0,0
128532,-100,4,1,1,65,0,0
128713,-100,4,2,1,90,0,0
129986,-100,4,1,1,65,0,0
130168,-100,4,2,1,90,0,0
130713,-100,4,1,1,65,0,0
130895,-100,4,2,1,90,0,0
131441,-100,4,1,1,65,0,0
131623,-100,4,2,1,90,0,0
132895,-100,4,1,1,65,0,0
133077,-100,4,2,1,90,0,0
133623,-100,4,1,1,65,0,0
133804,-100,4,2,1,90,0,0
134350,-100,4,1,1,65,0,0
134532,-100,4,2,1,90,0,0
139896,-100,4,1,1,75,0,0
139987,-100,4,2,1,90,0,0
140169,-100,4,1,1,75,0,0
140260,-100,4,2,1,90,0,0
140896,-76.9230769230769,4,1,1,75,0,0
140957,-76.9230769230769,4,2,1,90,0,0
141259,-100,4,2,1,90,0,0
141624,-100,4,1,1,75,0,0
141714,-100,4,2,1,90,0,0
142351,-100,4,1,1,75,0,0
142533,-100,4,2,1,90,0,0
142805,-100,4,1,1,75,0,0
143260,-100,4,2,1,90,0,0
143805,-100,4,1,1,75,0,0
143987,-100,4,2,1,90,0,0
144260,-100,4,1,1,75,0,0
144351,-100,4,2,1,90,0,0
144533,-100,4,1,1,75,0,0
144896,-100,4,2,1,90,0,0
145078,-100,4,1,1,75,0,0
145351,-100,4,2,1,90,0,0
145714,-100,4,1,1,75,0,0
145805,-100,4,2,1,90,0,0
145987,-100,4,1,1,75,0,0
146078,-100,4,2,1,90,0,0
146714,-100,4,1,1,75,0,0
146805,-100,4,2,1,90,0,0
147442,-100,4,1,1,75,0,0
147624,-100,4,2,1,90,0,0
148169,-100,4,1,1,75,0,0
148351,-100,4,2,1,90,0,0
148624,-100,4,1,1,75,0,0
149805,-38.4615384615385,4,1,1,75,0,0
149987,-38.4615384615385,4,2,1,90,0,0
150078,-38.4615384615385,4,1,1,75,0,0
150169,-38.4615384615385,4,2,1,90,0,0
151441,-100,4,2,1,90,0,0
151806,-100,4,1,1,75,0,0
151897,-100,4,2,1,90,0,0
152533,-100,4,1,1,75,0,0
152594,-100,4,2,1,90,0,0
153261,-100,4,1,1,75,0,0
153351,-100,4,2,1,90,0,0
153988,-100,4,1,1,75,0,0
154170,-100,4,2,1,90,0,0
154715,-100,4,1,1,75,0,0
154897,-100,4,2,1,90,0,0
155442,-100,4,1,1,75,0,0
155624,-100,4,2,1,90,0,0
156170,-100,4,1,1,75,0,0
156533,-100,4,2,1,90,0,0
156715,-100,4,1,1,75,0,0
157260,-100,4,2,1,90,0,0
157624,-100,4,1,1,75,0,0
157805,-100,4,2,1,90,0,0
158351,-100,4,1,1,75,0,0
158714,-100,4,2,1,90,0,0
159078,-100,4,1,1,75,0,0
159260,-100,4,2,1,90,0,0
159805,-100,4,1,1,75,0,0
159987,-100,4,2,1,90,0,0
161782,-100,4,2,1,20,0,0
161805,-66.6666666666667,4,2,1,90,0,0
161964,-100,4,2,1,20,0,0
161987,-50,4,2,1,90,0,0
162146,-100,4,2,1,20,0,0
162169,-33.3333333333333,4,2,1,90,0,0
162328,-100,4,2,1,20,0,0
162350,-100,4,2,1,90,0,0
162351,-100,4,2,1,80,0,0
163078,-86.9565217391304,4,2,1,100,0,1
163442,-86.9565217391304,4,1,1,80,0,1
163624,-86.9565217391304,4,2,1,100,0,1
164169,-43.4782608695652,4,1,1,80,0,1
164532,-86.9565217391304,4,1,1,80,0,1
164533,-86.9565217391304,4,2,1,100,0,1
164896,-86.9565217391304,4,1,1,80,0,1
164987,-86.9565217391304,4,2,1,100,0,1
165623,-43.4782608695652,4,2,1,100,0,1
165624,-43.4782608695652,4,1,1,80,0,1
165669,-43.4782608695652,4,2,1,100,0,1
165987,-86.9565217391304,4,2,1,100,0,1
166351,-86.9565217391304,4,1,1,80,0,1
166396,-86.9565217391304,4,2,1,100,0,1
167078,-86.9565217391304,4,1,1,80,0,1
167123,-86.9565217391304,4,2,1,100,0,1
167805,-86.9565217391304,4,1,1,80,0,1
167851,-86.9565217391304,4,2,1,100,0,1
168533,-86.9565217391304,4,1,1,80,0,1
168578,-86.9565217391304,4,2,1,100,0,1
169260,-86.9565217391304,4,1,1,80,0,1
169351,-86.9565217391304,4,2,1,100,0,1
169987,-86.9565217391304,4,1,1,80,0,1
170078,-86.9565217391304,4,2,1,100,0,1
171441,-43.4782608695652,4,2,1,100,0,1
171442,-43.4782608695652,4,1,1,80,0,1
171624,-43.4782608695652,4,2,1,100,0,1
171805,-86.9565217391304,4,2,1,100,0,1
172169,-86.9565217391304,4,1,1,80,0,1
172214,-86.9565217391304,4,2,1,100,0,1
172897,-86.9565217391304,4,1,1,80,0,1
172942,-86.9565217391304,4,2,1,100,0,1
173624,-86.9565217391304,4,1,1,80,0,1
173714,-86.9565217391304,4,2,1,100,0,1
174351,-86.9565217391304,4,1,1,80,0,1
174396,-86.9565217391304,4,2,1,100,0,1
175078,-86.9565217391304,4,1,1,80,0,1
175260,-86.9565217391304,4,2,1,100,0,1
175805,-43.4782608695652,4,1,1,80,0,1
176169,-86.9565217391304,4,2,1,100,0,1
176532,-86.9565217391304,4,1,1,80,0,1
176623,-86.9565217391304,4,2,1,100,0,1
177259,-43.4782608695652,4,2,1,100,0,1
177260,-43.4782608695652,4,1,1,80,0,1
177305,-43.4782608695652,4,2,1,100,0,1
177623,-86.9565217391304,4,2,1,100,0,1
177987,-86.9565217391304,4,1,1,80,0,1
178032,-86.9565217391304,4,2,1,100,0,1
178714,-86.9565217391304,4,1,1,80,0,1
178759,-86.9565217391304,4,2,1,100,0,1
179441,-86.9565217391304,4,1,1,80,0,1
179487,-86.9565217391304,4,2,1,100,0,1
180169,-86.9565217391304,4,1,1,80,0,1
180214,-86.9565217391304,4,2,1,100,0,1
180896,-86.9565217391304,4,1,1,80,0,1
180987,-86.9565217391304,4,2,1,100,0,1
181623,-86.9565217391304,4,1,1,80,0,1
181714,-86.9565217391304,4,2,1,100,0,1
183078,-43.4782608695652,4,1,1,80,0,1
183260,-43.4782608695652,4,2,1,100,0,1
183441,-86.9565217391304,4,2,1,100,0,1
183805,-86.9565217391304,4,1,1,80,0,1
183850,-86.9565217391304,4,2,1,100,0,1
184533,-86.9565217391304,4,1,1,80,0,1
184578,-86.9565217391304,4,2,1,100,0,1
185260,-86.9565217391304,4,1,1,80,0,1
185350,-86.9565217391304,4,2,1,100,0,1
185987,-86.9565217391304,4,1,1,80,0,1
186350,-86.9565217391304,4,2,1,90,0,0
186714,-86.9565217391304,4,1,1,75,0,0
186896,-86.9565217391304,4,2,1,90,0,0
187441,-43.4782608695652,4,1,1,75,0,0
187623,-43.4782608695652,4,2,1,90,0,0
187805,-86.9565217391304,4,2,1,90,0,0
188169,-86.9565217391304,4,1,1,75,0,0
188259,-86.9565217391304,4,2,1,90,0,0
188896,-86.9565217391304,4,1,1,75,0,0
188986,-86.9565217391304,4,2,1,90,0,0
189623,-86.9565217391304,4,1,1,75,0,0
189669,-86.9565217391304,4,2,1,90,0,0
190350,-86.9565217391304,4,1,1,75,0,0
190396,-86.9565217391304,4,2,1,90,0,0
191078,-86.9565217391304,4,1,1,75,0,0
191169,-86.9565217391304,4,2,1,90,0,0
191805,-86.9565217391304,4,1,1,75,0,0
191851,-86.9565217391304,4,2,1,90,0,0
192532,-86.9565217391304,4,1,1,75,0,0
192623,-86.9565217391304,4,2,1,90,0,0
193259,-86.9565217391304,4,1,1,75,0,0
193350,-86.9565217391304,4,2,1,90,0,0
193987,-86.9565217391304,4,1,1,75,0,0
194078,-86.9565217391304,4,2,1,90,0,0
194714,-86.9565217391304,4,1,1,75,0,0
194805,-86.9565217391304,4,2,1,75,0,0
195441,-86.9565217391304,4,1,1,75,0,0
195487,-86.9565217391304,4,2,1,90,0,0
196169,-86.9565217391304,4,1,1,75,0,0
196215,-86.9565217391304,4,2,1,90,0,0
196896,-86.9565217391304,4,1,1,75,0,0
196987,-86.9565217391304,4,2,1,90,0,0
197623,-86.9565217391304,4,1,1,75,0,0
197669,-86.9565217391304,4,2,1,90,0,0
198350,-86.9565217391304,4,1,1,75,0,0
198441,-86.9565217391304,4,2,1,90,0,0
199078,-43.4782608695652,4,1,1,75,0,0
199259,-43.4782608695652,4,2,1,90,0,0
199441,-86.9565217391304,4,2,1,90,0,0
199805,-86.9565217391304,4,1,1,75,0,0
199896,-86.9565217391304,4,2,1,90,0,0
200532,-43.4782608695652,4,1,1,75,0,0
200623,-43.4782608695652,4,2,1,90,0,0
200896,-86.9565217391304,4,2,1,90,0,0
201259,-86.9565217391304,4,1,1,75,0,0
201305,-86.9565217391304,4,2,1,90,0,0
201987,-86.9565217391304,4,1,1,75,0,0
202033,-86.9565217391304,4,2,1,90,0,0
202714,-86.9565217391304,4,1,1,75,0,0
202805,-86.9565217391304,4,2,1,90,0,0
203441,-86.9565217391304,4,1,1,75,0,0
203487,-86.9565217391304,4,2,1,90,0,0
204169,-86.9565217391304,4,1,1,75,0,0
204259,-86.9565217391304,4,2,1,90,0,0
204896,-86.9565217391304,4,1,1,75,0,0
204986,-86.9565217391304,4,2,1,90,0,0
205623,-86.9565217391304,4,1,1,75,0,0
205713,-86.9565217391304,4,2,1,90,0,0
206350,-86.9565217391304,4,1,1,75,0,0
206532,-86.9565217391304,4,2,1,90,0,0
207078,-86.9565217391304,4,1,1,75,0,0
207123,-86.9565217391304,4,2,1,90,0,0
207805,-86.9565217391304,4,1,1,75,0,0
207850,-86.9565217391304,4,2,1,90,0,0
209623,-100,4,2,1,70,0,0
214714,-100,4,2,1,90,0,0
215441,-100,4,2,1,70,0,0
220896,-33.3333333333333,4,2,1,100,0,0
221169,-100,4,2,1,100,0,0
221259,-76.9230769230769,4,2,1,100,0,1
221623,-76.9230769230769,4,1,1,80,0,1
221805,-76.9230769230769,4,2,1,100,0,1
222350,-38.4615384615385,4,1,1,80,0,1
222714,-76.9230769230769,4,2,1,100,0,1
223077,-76.9230769230769,4,1,1,80,0,1
223168,-76.9230769230769,4,2,1,100,0,1
223805,-38.4615384615385,4,1,1,80,0,1
223850,-38.4615384615385,4,2,1,100,0,1
224169,-76.9230769230769,4,2,1,100,0,1
224532,-76.9230769230769,4,1,1,80,0,1
224577,-76.9230769230769,4,2,1,100,0,1
225259,-76.9230769230769,4,1,1,80,0,1
225304,-76.9230769230769,4,2,1,100,0,1
225986,-76.9230769230769,4,1,1,80,0,1
226032,-76.9230769230769,4,2,1,100,0,1
226714,-76.9230769230769,4,1,1,80,0,1
226759,-76.9230769230769,4,2,1,100,0,1
227441,-76.9230769230769,4,1,1,80,0,1
227532,-76.9230769230769,4,2,1,100,0,1
228168,-76.9230769230769,4,1,1,80,0,1
228259,-76.9230769230769,4,2,1,100,0,1
229623,-38.4615384615385,4,1,1,80,0,1
229805,-38.4615384615385,4,2,1,100,0,1
229987,-76.9230769230769,4,2,1,100,0,1
230350,-76.9230769230769,4,1,1,80,0,1
230395,-76.9230769230769,4,2,1,100,0,1
231078,-76.9230769230769,4,1,1,80,0,1
231123,-76.9230769230769,4,2,1,100,0,1
231805,-76.9230769230769,4,1,1,80,0,1
231895,-76.9230769230769,4,2,1,100,0,1
232532,-76.9230769230769,4,1,1,80,0,1
232896,-86.9565217391304,4,1,1,75,0,0
232987,-86.9565217391304,4,2,1,90,0,0
235805,-86.9565217391304,4,1,1,65,0,0
237169,-86.9565217391304,4,2,1,90,0,0
237260,-86.9565217391304,4,1,1,75,0,0
237351,-86.9565217391304,4,2,1,90,0,0
237623,-68.9655172413793,4,2,1,90,0,0
237987,-43.4782608695652,4,2,1,90,0,0
238350,-86.9565217391304,4,2,1,90,0,0
238714,-86.9565217391304,4,1,1,75,0,0
238805,-86.9565217391304,4,2,1,90,0,0
241624,-86.9565217391304,4,1,1,50,0,0
242987,-86.9565217391304,4,2,1,90,0,0
243078,-86.9565217391304,4,1,1,75,0,0
243169,-86.9565217391304,4,2,1,90,0,0

[Colours]
Combo1 : 0,118,174
Combo2 : 163,93,145
Combo3 : 227,45,122
Combo4 : 128,128,255

[HitObjects]
368,192,11805,5,4,0:0:0:0:
80,192,11987,2,0,P|64:128|80:80,1,110,8|0,0:0|0:0,0:0:0:0:
368,80,12350,2,0,L|256:80,2,110,8|2|0,0:0|0:0|0:0,0:0:0:0:
224,112,12896,1,8,0:0:0:0:
160,112,12987,1,0,0:0:0:0:
160,176,13078,1,8,0:0:0:0:
224,176,13169,1,0,0:0:0:0:
400,240,13259,5,4,0:0:0:0:
112,240,13441,2,0,L|48:240,2,55,8|0|0,0:0|0:0|0:0,0:0:0:0:
400,192,13805,1,8,0:0:0:0:
256,192,13987,1,2,0:0:0:0:
112,192,14169,2,0,P|96:128|112:80,1,110,0|8,0:0|0:0,0:0:0:0:
168,192,14441,1,0,0:0:0:0:
112,192,14532,1,8,0:0:0:0:
400,192,14714,5,4,0:0:0:0:
112,192,14896,2,0,P|96:128|112:80,1,110,8|0,0:0|0:0,0:0:0:0:
400,80,15259,2,0,L|288:80,2,110,8|2|0,0:0|0:0|0:0,0:0:0:0:
256,112,15805,1,8,0:0:0:0:
192,112,15896,1,0,0:0:0:0:
192,176,15987,1,8,0:0:0:0:
256,176,16078,1,0,0:0:0:0:
432,240,16169,5,4,0:0:0:0:
144,240,16350,2,0,L|80:240,2,55,8|0|0,0:0|0:0|0:0,0:0:0:0:
432,192,16714,1,8,0:0:0:0:
288,192,16896,1,2,0:0:0:0:
144,192,17078,2,0,P|128:128|144:80,1,110,0|8,0:0|0:0,0:0:0:0:
240,192,17350,1,0,0:0:0:0:
144,192,17441,1,8,0:0:0:0:
416,192,17623,6,0,P|432:128|416:80,1,110,4|0,0:0|0:0,0:0:0:0:
352,80,17896,1,0,0:0:0:0:
416,64,17987,1,8,0:0:0:0:
256,192,18169,2,0,L|368:192,1,110
208,192,18532,2,0,P|192:128|208:80,1,110,0|8,0:0|0:0,0:0:0:0:
272,80,18805,1,0,0:0:0:0:
208,64,18896,1,0,0:0:0:0:
144,80,18987,1,0,0:0:0:0:
304,192,19078,6,0,P|320:128|304:80,1,110,4|0,0:0|0:0,0:0:0:0:
240,80,19350,1,0,0:0:0:0:
304,64,19441,1,8,0:0:0:0:
128,192,19623,2,0,L|240:192,1,110,0|2,0:0|0:0,0:0:0:0:
80,192,19987,2,0,P|64:128|80:80,1,110,0|8,0:0|0:0,0:0:0:0:
144,80,20259,1,0,0:0:0:0:
80,64,20350,1,0,0:0:0:0:
336,192,20532,6,0,L|448:192,1,110,4|0,0:0|0:0,0:0:0:0:
308,128,20896,2,0,L|476:128,1,165.000006294251,8|0,0:0|0:0,0:0:0:0:
160,192,21259,1,8,0:0:0:0:
80,192,21350,1,0,0:0:0:0:
80,112,21441,1,0,0:0:0:0:
160,112,21532,1,0,0:0:0:0:
240,112,21623,1,8,0:0:0:0:
160,112,21714,1,0,0:0:0:0:
80,112,21805,1,0,0:0:0:0:
160,112,21896,1,0,0:0:0:0:
240,112,21987,6,0,L|176:112,1,55,4|0,0:0|0:0,0:0:0:0:
240,192,22169,2,0,L|176:192,1,55,0|0,0:0|0:0,0:0:0:0:
247,112,22350,2,0,L|175:112,1,65.9999979858399,2|0,0:0|0:0,0:0:0:0:
247,192,22532,2,0,L|175:192,1,65.9999979858399,2|0,0:0|0:0,0:0:0:0:
253,112,22714,2,0,L|173:112,1,76.9999976501466,2|0,0:0|0:0,0:0:0:0:
253,192,22896,2,0,L|160:192,1,76.9999976501466,2|0,0:0|0:0,0:0:0:0:
336,48,23078,2,0,P|416:128|368:320,1,330,6|0,0:0|0:0,0:0:0:0:
144,112,23441,6,0,L|128:176,1,55,4|0,0:0|0:0,0:0:0:0:
224,112,23623,2,0,L|208:176,1,55,0|0,0:0|0:0,0:0:0:0:
48,192,23805,2,0,L|160:192,1,110,2|0,0:0|0:0,0:0:0:0:
320,192,24078,2,0,L|208:192,1,110,2|0,0:0|0:0,0:0:0:0:
368,192,24350,2,0,L|480:192,1,110,2|0,0:0|0:0,0:0:0:0:
320,192,24623,1,0,0:0:0:0:
256,192,24714,2,0,L|256:128,1,55,2|0,0:0|0:0,0:0:0:0:
416,192,24896,6,0,L|416:128,1,55,8|0,0:0|0:0,0:0:0:0:
192,128,25078,1,2,0:0:0:0:
144,128,25123,2,0,L|144:160,1,27.5,0|0,0:0|0:0,0:0:0:0:
368,192,25259,2,0,L|256:192,1,110,2|0,0:0|0:0,0:0:0:0:
216,192,25487,1,0,0:0:0:0:
216,256,25532,1,0,0:0:0:0:
256,256,25578,1,0,0:0:0:0:
368,192,25623,2,0,L|368:128,1,55,8|0,0:0|0:0,0:0:0:0:
144,128,25805,2,0,B|254:130|254:130|144:128,1,220,2|0,0:0|0:0,0:0:0:0:
208,128,26259,1,2,0:0:0:0:
368,128,26350,5,8,0:0:0:0:
304,128,26441,1,0,0:0:0:0:
368,128,26532,1,0,0:0:0:0:
208,192,26714,1,0,0:0:0:0:
368,256,26896,1,0,0:0:0:0:
192,192,27078,1,0,0:0:0:0:
352,192,27259,1,0,0:0:0:0:
112,192,27441,1,0,0:0:0:0:
176,192,27532,1,0,0:0:0:0:
336,192,27623,1,0,0:0:0:0:
272,192,27714,1,2,0:0:0:0:
112,192,27805,6,0,P|80:144|112:120,1,110,4|0,0:0|0:0,0:0:0:0:
176,112,28078,1,0,0:0:0:0:
336,112,28169,2,0,L|224:112,1,110,6|0,0:0|0:0,0:0:0:0:
479,192,28532,2,0,L|335:192,1,142.99999345398,6|0,0:0|0:0,0:0:0:0:
96,192,28896,2,0,L|96:160,1,27.5,6|0,0:0|0:0,0:0:0:0:
144,192,28987,2,0,L|144:160,1,27.5,0|0,0:0|0:0,0:0:0:0:
96,192,29078,2,0,L|96:160,1,27.5,0|0,0:0|0:0,0:0:0:0:
144,192,29169,1,0,0:0:0:0:
368,112,29259,6,0,L|384:176,1,55,4|0,0:0|0:0,0:0:0:0:
288,112,29441,2,0,L|304:176,1,55,0|0,0:0|0:0,0:0:0:0:
464,192,29623,2,0,L|352:192,1,110,2|0,0:0|0:0,0:0:0:0:
192,192,29896,2,0,L|304:192,1,110,2|0,0:0|0:0,0:0:0:0:
144,192,30169,2,0,L|32:192,1,110,2|0,0:0|0:0,0:0:0:0:
192,192,30441,1,0,0:0:0:0:
256,192,30532,2,0,L|256:128,1,55,2|0,0:0|0:0,0:0:0:0:
96,192,30714,6,0,L|96:128,1,55,8|0,0:0|0:0,0:0:0:0:
320,128,30896,1,2,0:0:0:0:
368,128,30941,2,0,L|368:160,1,27.5,0|0,0:0|0:0,0:0:0:0:
144,192,31078,2,0,L|256:192,1,110,2|0,0:0|0:0,0:0:0:0:
296,192,31305,1,0,0:0:0:0:
296,256,31350,1,0,0:0:0:0:
256,256,31396,1,0,0:0:0:0:
144,192,31441,2,0,L|144:128,1,55,8|0,0:0|0:0,0:0:0:0:
368,128,31623,2,0,B|258:130|258:130|368:128,1,220,2|0,0:0|0:0,0:0:0:0:
304,128,32078,1,2,0:0:0:0:
144,128,32169,5,0,0:0:0:0:
208,128,32259,1,0,0:0:0:0:
144,128,32350,1,0,0:0:0:0:
304,192,32532,1,0,0:0:0:0:
144,256,32714,1,0,0:0:0:0:
320,192,32896,1,0,0:0:0:0:
160,192,33078,1,0,0:0:0:0:
400,192,33259,1,0,0:0:0:0:
336,192,33350,1,0,0:0:0:0:
176,192,33441,1,0,0:0:0:0:
240,192,33532,1,2,0:0:0:0:
400,192,33623,6,0,P|448:160|448:112,1,110,4|0,0:0|0:0,0:0:0:0:
440,80,33850,1,0,0:0:0:0:
408,80,33896,1,0,0:0:0:0:
368,80,33941,1,0,0:0:0:0:
240,112,33987,1,8,0:0:0:0:
480,48,34169,1,8,0:0:0:0:
32,48,34532,2,0,B|197:47|197:47|32:48,1,330.000012588501,8|2,0:0|0:0,0:0:0:0:
272,192,35078,6,0,P|288:132|272:88,1,110,4|0,0:0|0:0,0:0:0:0:
128,80,35441,1,8,0:0:0:0:
368,80,35623,1,0,0:0:0:0:
224,192,35805,2,0,P|208:132|224:88,1,110,2|0,0:0|0:0,0:0:0:0:
368,192,36169,2,0,L|256:192,1,110,8|2,0:0|0:0,0:0:0:0:
400,192,36532,6,0,P|416:132|400:88,1,110,2|2,0:0|0:0,0:0:0:0:
160,96,36896,2,0,L|272:96,1,110,8|0,0:0|0:0,0:0:0:0:
32,192,37259,2,0,L|144:192,1,110,2|0,0:0|0:0,0:0:0:0:
288,192,37623,1,8,0:0:0:0:
144,192,37805,1,2,0:0:0:0:
384,192,37987,6,0,P|400:132|384:88,1,110,2|0,0:0|0:0,0:0:0:0:
240,80,38350,1,8,0:0:0:0:
480,80,38532,1,0,0:0:0:0:
336,192,38714,2,0,P|320:132|336:88,1,110,2|0,0:0|0:0,0:0:0:0:
480,80,39078,1,8,0:0:0:0:
336,80,39259,1,2,0:0:0:0:
192,192,39441,6,0,P|176:252|192:296,1,110,0|0,0:0|0:0,0:0:0:0:
336,304,39805,1,8,0:0:0:0:
96,304,39987,1,0,0:0:0:0:
240,192,40169,2,0,L|128:192,1,110,2|0,0:0|0:0,0:0:0:0:
272,304,40532,1,8,0:0:0:0:
32,304,40714,1,2,0:0:0:0:
176,304,40896,6,0,P|192:244|176:200,1,110,0|0,0:0|0:0,0:0:0:0:
32,192,41259,1,8,0:0:0:0:
304,192,41441,1,0,0:0:0:0:
160,80,41623,2,0,P|144:140|160:184,1,110,2|0,0:0|0:0,0:0:0:0:
304,192,41987,1,8,0:0:0:0:
64,192,42169,1,2,0:0:0:0:
208,192,42350,6,0,P|224:132|208:88,1,110,2|0,0:0|0:0,0:0:0:0:
64,80,42714,1,8,0:0:0:0:
304,80,42896,1,0,0:0:0:0:
160,192,43078,2,0,L|272:192,1,110,2|0,0:0|0:0,0:0:0:0:
128,80,43441,1,8,0:0:0:0:
464,80,43623,5,0,0:0:0:0:
473,105,43669,1,0,0:0:0:0:
480,132,43714,1,0,0:0:0:0:
482,159,43759,1,0,0:0:0:0:
480,187,43805,1,0,0:0:0:0:
475,214,43850,1,0,0:0:0:0:
465,239,43896,1,0,0:0:0:0:
452,264,43941,1,0,0:0:0:0:
436,286,43987,1,0,0:0:0:0:
416,305,44032,1,0,0:0:0:0:
394,321,44078,1,0,0:0:0:0:
370,335,44123,1,0,0:0:0:0:
344,344,44169,1,0,0:0:0:0:
317,350,44214,1,0,0:0:0:0:
290,352,44259,1,0,0:0:0:0:
96,192,44350,6,0,B|352:192|352:192|352:64,1,379.500007238388,4|0,0:0|0:0,0:0:0:0:
160,192,44714,2,0,B|416:192|416:192|416:320,1,379.500007238388,4|0,0:0|0:0,0:0:0:0:
224,192,45078,2,0,B|480:192|480:192|480:64,1,379.500007238388,4|0,0:0|0:0,0:0:0:0:
288,192,45441,6,0,B|32:192|32:192|32:68,1,379.500007238388,4|0,0:0|0:0,0:0:0:0:
224,192,45805,2,0,L|480:192,1,253.000004825592,4|0,0:0|0:0,0:0:0:0:
477,192,46032,1,0,0:0:0:0:
464,144,46078,1,0,0:0:0:0:
416,112,46123,1,0,0:0:0:0:
272,112,46169,2,0,B|19:114|19:114|272:112,1,506.000009651184,2|2,0:0|0:0,0:0:0:0:
496,192,46896,5,0,0:0:0:0:
352,192,47078,1,8,0:0:0:0:
112,192,47259,2,0,P|96:132|112:88,1,110,2|0,0:0|0:0,0:0:0:0:
352,80,47623,1,0,0:0:0:0:
400,80,47669,1,0,0:0:0:0:
352,80,47714,1,0,0:0:0:0:
400,80,47759,1,0,0:0:0:0:
352,80,47805,1,0,0:0:0:0:
208,80,47987,1,2,0:0:0:0:
352,192,48169,6,0,P|368:252|352:296,1,110,2|0,0:0|0:0,0:0:0:0:
112,192,48532,2,0,L|224:192,1,110,8|0,0:0|0:0,0:0:0:0:
464,192,48896,2,0,L|352:192,1,110,2|0,0:0|0:0,0:0:0:0:
112,192,49259,1,8,0:0:0:0:
352,192,49441,1,2,0:0:0:0:
208,192,49623,6,0,P|192:252|208:296,1,110,2|0,0:0|0:0,0:0:0:0:
352,304,49987,1,8,0:0:0:0:
80,192,50169,2,0,P|64:132|80:88,1,110,2|0,0:0|0:0,0:0:0:0:
320,192,50532,1,0,0:0:0:0:
368,192,50578,1,0,0:0:0:0:
320,192,50623,1,0,0:0:0:0:
368,192,50669,1,0,0:0:0:0:
320,192,50714,1,0,0:0:0:0:
176,192,50896,1,2,0:0:0:0:
320,192,51078,6,0,P|336:132|320:88,1,110,2|0,0:0|0:0,0:0:0:0:
80,96,51441,2,0,L|192:96,1,110,8|0,0:0|0:0,0:0:0:0:
432,192,51805,1,2,0:0:0:0:
288,192,51987,1,0,0:0:0:0:
144,192,52169,1,8,0:0:0:0:
384,192,52350,1,2,0:0:0:0:
240,192,52532,6,0,P|224:132|240:88,1,110,2|0,0:0|0:0,0:0:0:0:
384,96,52896,1,8,0:0:0:0:
48,96,53078,1,2,0:0:0:0:
192,96,53259,1,0,0:0:0:0:
432,96,53441,1,0,0:0:0:0:
480,96,53487,1,0,0:0:0:0:
432,96,53532,1,0,0:0:0:0:
480,96,53578,1,0,0:0:0:0:
432,96,53623,1,0,0:0:0:0:
48,96,53805,6,0,P|16:192|48:304,1,220,4|0,0:0|0:0,0:0:0:0:
352,192,54350,1,2,0:0:0:0:
208,192,54532,1,0,0:0:0:0:
464,192,54714,2,0,L|352:192,1,110,2|0,0:0|0:0,0:0:0:0:
48,192,55078,1,0,0:0:0:0:
464,32,55259,6,0,B|480:304|32:304|48:32|48:32|160:32|160:32|48:32|48:32,1,880,2|0,0:0|0:0,0:0:0:0:
336,32,57078,5,0,0:0:0:0:
256,32,57169,1,0,0:0:0:0:
336,32,57259,1,0,0:0:0:0:
176,192,57441,1,0,0:0:0:0:
240,192,57532,1,0,0:0:0:0:
176,192,57623,1,0,0:0:0:0:
336,352,57805,1,0,0:0:0:0:
288,352,57896,1,0,0:0:0:0:
336,352,57987,1,0,0:0:0:0:
176,352,58169,1,0,0:0:0:0:
176,352,58259,1,0,0:0:0:0:
336,192,58350,6,0,L|448:192,2,110,4|0|8,0:0|0:0|0:0,0:0:0:0:
272,192,58805,1,0,0:0:0:0:
96,192,58896,1,0,0:0:0:0:
240,192,59078,2,0,L|272:176,2,36.6666666666667,2|0|0,0:0|0:0|0:0,0:0:0:0:
192,192,59259,2,0,L|160:176,2,36.6666666666667,0|0|0,0:0|0:0|0:0,0:0:0:0:
256,128,59441,2,0,L|304:128,2,47.6666644846599,8|0|0,0:0|0:0|0:0,0:0:0:0:
192,128,59623,2,0,L|144:128,2,47.6666644846599,0|0|0,0:0|0:0|0:0,0:0:0:0:
336,192,59805,6,0,L|448:192,2,110,2|0|8,0:0|0:0|0:0,0:0:0:0:
272,192,60259,1,0,0:0:0:0:
96,192,60350,1,0,0:0:0:0:
224,192,60532,2,0,L|112:192,1,110,2|0,0:0|0:0,0:0:0:0:
400,192,60896,1,8,0:0:0:0:
160,192,61078,1,0,0:0:0:0:
304,192,61259,6,0,L|416:192,2,110,2|0|8,0:0|0:0|0:0,0:0:0:0:
64,192,61805,2,0,L|176:192,2,110,0|2|0,0:0|0:0|0:0,0:0:0:0:
304,192,62350,1,8,0:0:0:0:
32,192,62532,1,2,0:0:0:0:
176,192,62714,6,0,L|64:192,1,110,2|0,0:0|0:0,0:0:0:0:
208,192,63078,1,8,0:0:0:0:
448,192,63259,1,0,0:0:0:0:
176,192,63441,2,0,L|288:192,1,110,2|0,0:0|0:0,0:0:0:0:
112,192,63805,1,8,0:0:0:0:
288,192,63987,1,0,0:0:0:0:
48,80,64169,6,0,L|160:80,1,110,2|0,0:0|0:0,0:0:0:0:
16,80,64532,2,0,L|16:144,1,55,8|0,0:0|0:0,0:0:0:0:
192,192,64714,1,0,0:0:0:0:
48,192,64896,2,0,L|160:192,1,110,2|0,0:0|0:0,0:0:0:0:
16,304,65259,2,0,L|16:240,1,55,8|0,0:0|0:0,0:0:0:0:
80,192,65441,1,0,0:0:0:0:
16,192,65532,1,0,0:0:0:0:
192,192,65623,6,0,L|80:192,1,110,2|0,0:0|0:0,0:0:0:0:
224,192,65987,1,8,0:0:0:0:
464,192,66169,1,0,0:0:0:0:
320,192,66350,2,0,L|432:192,1,110,2|0,0:0|0:0,0:0:0:0:
96,192,66714,1,8,0:0:0:0:
432,192,66896,6,0,P|480:96|432:0,1,220,2|0,0:0|0:0,0:0:0:0:
176,0,67441,2,0,L|288:0,1,110,2|0,0:0|0:0,0:0:0:0:
32,192,67805,1,2,0:0:0:0:
96,192,67896,1,0,0:0:0:0:
272,192,67987,1,0,0:0:0:0:
208,192,68078,1,0,0:0:0:0:
32,192,68169,1,0,0:0:0:0:
352,304,68350,6,0,B|400:224|400:224|448:340|448:340|448:192|448:192|448:28|448:28|400:160|400:160|352:80|352:80|104:80|104:80|352:80|352:80|352:336|352:336|272:240|272:240|192:336|192:336|192:64,1,2024.00003860474,2|0,0:0|0:0,0:0:0:0:
496,192,69987,6,0,L|384:192,2,110,4|0|8,0:0|0:0|0:0,0:0:0:0:
432,192,70441,1,0,0:0:0:0:
256,192,70532,1,0,0:0:0:0:
400,144,70714,2,0,L|400:96,1,36.6666666666667,2|0,0:0|0:0,0:0:0:0:
360,64,70835,1,0,0:0:0:0:
320,144,70896,2,0,L|320:96,1,36.6666666666667,0|0,0:0|0:0,0:0:0:0:
360,64,71017,1,0,0:0:0:0:
400,144,71078,2,0,L|400:96,1,36.6666666666667,8|0,0:0|0:0,0:0:0:0:
344,64,71199,1,0,0:0:0:0:
288,144,71259,2,0,L|288:96,1,36.6666666666667,0|0,0:0|0:0,0:0:0:0:
344,64,71381,1,0,0:0:0:0:
496,192,71441,6,0,L|384:192,2,110,2|0|8,0:0|0:0|0:0,0:0:0:0:
432,192,71896,1,0,0:0:0:0:
256,192,71987,1,0,0:0:0:0:
400,192,72169,2,0,L|288:192,1,110,2|0,0:0|0:0,0:0:0:0:
16,192,72532,1,8,0:0:0:0:
256,192,72714,1,0,0:0:0:0:
112,192,72896,6,0,L|224:192,2,110,2|0|8,0:0|0:0|0:0,0:0:0:0:
352,192,73441,2,0,L|240:192,2,110,0|2|0,0:0|0:0|0:0,0:0:0:0:
80,192,73987,1,8,0:0:0:0:
384,192,74169,1,2,0:0:0:0:
240,192,74350,6,0,L|352:192,1,110,2|0,0:0|0:0,0:0:0:0:
208,192,74714,1,8,0:0:0:0:
480,192,74896,1,0,0:0:0:0:
240,192,75078,2,0,L|352:192,1,110,2|0,0:0|0:0,0:0:0:0:
176,192,75441,1,8,0:0:0:0:
320,192,75623,1,0,0:0:0:0:
48,48,75805,6,0,L|160:48,2,110,4|0|8,0:0|0:0|0:0,0:0:0:0:
192,48,76350,1,0,0:0:0:0:
432,48,76532,1,2,0:0:0:0:
290,48,76714,2,0,L|400:48,1,110,0|8,0:0|0:0,0:0:0:0:
160,48,77078,1,0,0:0:0:0:
464,192,77259,6,0,L|352:192,2,110,4|0|8,0:0|0:0|0:0,0:0:0:0:
320,192,77805,1,0,0:0:0:0:
80,192,77987,1,2,0:0:0:0:
224,192,78169,1,0,0:0:0:0:
464,192,78350,1,8,0:0:0:0:
80,192,78532,5,4,0:0:0:0:
256,192,78714,12,8,79987,0:0:0:0:
208,192,80169,6,0,L|304:192,1,96.25,0|0,0:0|0:0,0:0:0:0:
304,192,80350,2,0,L|160:192,1,144.375005507469,2|0,0:0|0:0,0:0:0:0:
160,192,80532,2,0,L|352:192,1,192.5,2|0,0:0|0:0,0:0:0:0:
352,192,80714,2,0,L|64:192,1,288.750011014939,2|0,0:0|0:0,0:0:0:0:
64,192,80896,5,4,0:0:0:0:
304,64,81078,1,0,0:0:0:0:
328,96,81123,1,0,0:0:0:0:
304,128,81169,1,0,0:0:0:0:
256,128,81214,1,0,0:0:0:0:
80,192,81259,1,4,0:0:0:0:
384,192,81441,1,0,0:0:0:0:
80,64,81623,6,0,L|208:64,1,126.500002412796,4|0,0:0|0:0,0:0:0:0:
48,192,81987,2,0,L|176:192,1,126.500002412796,8|0,0:0|0:0,0:0:0:0:
432,64,82350,6,0,L|304:64,1,126.500002412796,2|0,0:0|0:0,0:0:0:0:
464,192,82714,2,0,L|208:192,1,253.000004825592,8|0,0:0|0:0,0:0:0:0:
464,64,83078,5,2,0:0:0:0:
272,64,83169,2,0,P|248:128|272:176,1,126.500002412796,0|0,0:0|0:0,0:0:0:0:
464,192,83441,2,0,L|464:128,1,63.250001206398,8|0,0:0|0:0,0:0:0:0:
272,64,83623,1,0,0:0:0:0:
224,64,83669,1,0,0:0:0:0:
224,64,83714,1,0,0:0:0:0:
416,64,83805,5,2,0:0:0:0:
448,112,83850,1,2,0:0:0:0:
448,160,83896,1,2,0:0:0:0:
416,208,83941,1,2,0:0:0:0:
306,208,83987,1,2,0:0:0:0:
48,208,84169,2,0,L|304:208,1,253.000004825592,8|0,0:0|0:0,0:0:0:0:
336,176,84396,1,0,0:0:0:0:
304,144,84441,1,0,0:0:0:0:
112,144,84532,6,0,L|96:16,1,126.500002412796,4|0,0:0|0:0,0:0:0:0:
352,32,84896,1,8,0:0:0:0:
342,85,84941,1,2,0:0:0:0:
314,132,84987,1,2,0:0:0:0:
272,167,85032,1,2,0:0:0:0:
230,132,85078,1,0,0:0:0:0:
201,86,85123,1,0,0:0:0:0:
192,32,85169,1,0,0:0:0:0:
384,144,85259,6,0,L|400:16,1,126.500002412796,4|0,0:0|0:0,0:0:0:0:
144,32,85623,1,8,0:0:0:0:
104,32,85669,1,2,0:0:0:0:
144,32,85714,1,2,0:0:0:0:
104,32,85759,1,2,0:0:0:0:
144,32,85805,1,0,0:0:0:0:
104,32,85850,1,0,0:0:0:0:
144,32,85896,1,0,0:0:0:0:
336,32,85987,6,0,L|336:96,1,63.250001206398,2|0,0:0|0:0,0:0:0:0:
144,192,86169,2,0,L|80:192,1,63.250001206398,2|0,0:0|0:0,0:0:0:0:
272,32,86350,2,0,L|272:96,1,63.250001206398,8|0,0:0|0:0,0:0:0:0:
80,96,86532,2,0,L|144:96,1,63.250001206398,2|0,0:0|0:0,0:0:0:0:
336,32,86714,6,0,L|272:32,1,63.250001206398,2|0,0:0|0:0,0:0:0:0:
464,32,86896,2,0,L|464:96,1,63.250001206398,2|0,0:0|0:0,0:0:0:0:
208,32,87078,1,8,0:0:0:0:
176,64,87123,1,2,0:0:0:0:
208,32,87169,1,2,0:0:0:0:
240,64,87214,1,2,0:0:0:0:
208,32,87259,1,0,0:0:0:0:
168,80,87305,1,0,0:0:0:0:
144,128,87350,1,0,0:0:0:0:
400,304,87441,6,0,L|272:304,1,126.500002412796,4|0,0:0|0:0,0:0:0:0:
336,304,87714,1,0,0:0:0:0:
400,192,87805,2,0,L|336:192,3,63.250001206398,0|0|0|0,0:0|0:0|0:0|0:0,0:0:0:0:
144,192,88169,6,0,L|80:192,1,63.250001206398,2|0,0:0|0:0,0:0:0:0:
272,128,88350,2,0,L|272:192,1,63.250001206398,2|0,0:0|0:0,0:0:0:0:
80,80,88532,2,0,L|144:80,1,63.250001206398,8|0,0:0|0:0,0:0:0:0:
336,80,88714,2,0,L|400:80,1,63.250001206398,2|0,0:0|0:0,0:0:0:0:
208,192,88896,5,4,0:0:0:0:
399,78,88987,2,0,P|424:134|399:191,1,126.500002412796,0|0,0:0|0:0,0:0:0:0:
208,192,89259,2,0,L|144:192,1,63.250001206398,4|0,0:0|0:0,0:0:0:0:
336,96,89441,1,0,0:0:0:0:
336,144,89487,1,0,0:0:0:0:
320,192,89532,1,0,0:0:0:0:
128,48,89623,5,4,0:0:0:0:
96,96,89669,1,2,0:0:0:0:
96,144,89714,1,2,0:0:0:0:
128,192,89759,1,2,0:0:0:0:
238,192,89805,1,2,0:0:0:0:
496,192,89987,2,0,L|240:192,1,253.000004825592,8|0,0:0|0:0,0:0:0:0:
496,48,90350,6,0,L|368:48,1,126.500002412796,4|0,0:0|0:0,0:0:0:0:
112,192,90714,1,8,0:0:0:0:
88,144,90759,1,2,0:0:0:0:
112,96,90805,1,2,0:0:0:0:
144,144,90850,1,2,0:0:0:0:
112,192,90896,1,0,0:0:0:0:
72,144,90941,1,0,0:0:0:0:
112,96,90987,1,0,0:0:0:0:
304,96,91078,6,0,L|176:96,1,126.500002412796,4|0,0:0|0:0,0:0:0:0:
432,144,91441,1,8,0:0:0:0:
472,96,91487,1,2,0:0:0:0:
432,144,91532,1,2,0:0:0:0:
392,96,91578,1,2,0:0:0:0:
432,144,91623,1,0,0:0:0:0:
472,96,91669,1,0,0:0:0:0:
432,144,91714,1,0,0:0:0:0:
240,144,91805,6,0,L|240:208,1,63.250001206398,4|0,0:0|0:0,0:0:0:0:
432,224,91987,2,0,L|448:160,1,63.250001206398,2|0,0:0|0:0,0:0:0:0:
256,240,92169,2,0,L|320:240,1,63.250001206398
128,224,92350,2,0,L|112:160,1,63.250001206398,2|0,0:0|0:0,0:0:0:0:
304,144,92532,6,0,L|240:144,1,63.250001206398,4|0,0:0|0:0,0:0:0:0:
432,144,92714,1,0,0:0:0:0:
112,64,92896,1,8,0:0:0:0:
72,64,92941,1,2,0:0:0:0:
112,112,92987,1,2,0:0:0:0:
72,112,93032,1,2,0:0:0:0:
72,160,93078,1,0,0:0:0:0:
112,160,93123,1,0,0:0:0:0:
152,160,93169,1,0,0:0:0:0:
400,64,93259,6,0,L|400:128,1,63.250001206398,4|0,0:0|0:0,0:0:0:0:
320,64,93441,1,0,0:0:0:0:
480,192,93623,2,0,L|352:192,1,126.500002412796,8|0,0:0|0:0,0:0:0:0:
96,64,93987,5,2,0:0:0:0:
176,64,94078,1,0,0:0:0:0:
176,64,94169,1,0,0:0:0:0:
32,192,94350,2,0,L|288:192,1,253.000004825592,8|0,0:0|0:0,0:0:0:0:
32,64,94714,5,2,0:0:0:0:
224,64,94805,2,0,L|224:192,1,126.500002412796,0|0,0:0|0:0,0:0:0:0:
416,192,95078,2,0,L|416:128,1,63.250001206398,8|0,0:0|0:0,0:0:0:0:
224,192,95259,1,0,0:0:0:0:
224,144,95305,1,0,0:0:0:0:
240,96,95350,1,0,0:0:0:0:
432,192,95441,5,2,0:0:0:0:
464,144,95487,1,2,0:0:0:0:
464,96,95532,1,2,0:0:0:0:
432,48,95578,1,2,0:0:0:0:
322,48,95623,1,2,0:0:0:0:
160,48,95714,1,0,0:0:0:0:
320,192,95805,2,0,L|64:192,1,253.000004825592,8|0,0:0|0:0,0:0:0:0:
96,160,96032,1,0,0:0:0:0:
128,128,96078,1,0,0:0:0:0:
320,192,96169,6,0,P|352:160|352:80,1,126.500002412796,4|0,0:0|0:0,0:0:0:0:
96,80,96532,1,8,0:0:0:0:
64,80,96578,1,2,0:0:0:0:
96,80,96623,1,2,0:0:0:0:
128,80,96669,1,2,0:0:0:0:
96,80,96714,1,0,0:0:0:0:
64,80,96759,1,0,0:0:0:0:
96,80,96805,1,0,0:0:0:0:
288,304,96896,6,0,L|160:288,1,126.500002412796,4|0,0:0|0:0,0:0:0:0:
416,192,97259,1,8,0:0:0:0:
448,192,97305,1,2,0:0:0:0:
464,128,97350,1,2,0:0:0:0:
432,128,97396,1,2,0:0:0:0:
400,128,97441,1,0,0:0:0:0:
416,64,97487,1,0,0:0:0:0:
448,64,97532,1,0,0:0:0:0:
256,192,97623,6,0,L|192:192,1,63.250001206398,2|0,0:0|0:0,0:0:0:0:
384,192,97805,2,0,L|384:128,1,63.250001206398,2|0,0:0|0:0,0:0:0:0:
192,112,97987,2,0,L|256:112,1,63.250001206398,8|0,0:0|0:0,0:0:0:0:
448,112,98169,2,0,L|384:112,1,63.250001206398,2|0,0:0|0:0,0:0:0:0:
192,112,98350,6,0,L|256:112,1,63.250001206398,2|0,0:0|0:0,0:0:0:0:
64,112,98532,1,2,0:0:0:0:
384,192,98714,2,0,L|384:224,1,31.625000603199,8|2,0:0|0:0,0:0:0:0:
336,192,98805,2,0,L|336:224,1,31.625000603199,2|2,0:0|0:0,0:0:0:0:
384,192,98896,2,0,L|384:224,1,31.625000603199,0|0,0:0|0:0,0:0:0:0:
336,192,98987,1,0,0:0:0:0:
80,192,99078,6,0,P|48:128|80:96,1,126.500002412796,4|0,0:0|0:0,0:0:0:0:
144,96,99350,1,0,0:0:0:0:
208,96,99441,2,0,L|144:96,3,63.250001206398,0|0|0|0,0:0|0:0|0:0|0:0,0:0:0:0:
336,96,99805,6,0,L|400:96,1,63.250001206398,2|0,0:0|0:0,0:0:0:0:
208,96,99987,2,0,L|208:160,1,63.250001206398,2|0,0:0|0:0,0:0:0:0:
400,192,100169,2,0,L|336:192,1,63.250001206398,8|0,0:0|0:0,0:0:0:0:
144,192,100350,2,0,L|80:192,1,63.250001206398,2|0,0:0|0:0,0:0:0:0:
272,192,100532,5,4,0:0:0:0:
80,192,100623,2,0,P|48:128|80:96,1,126.500002412796,0|0,0:0|0:0,0:0:0:0:
272,96,100896,2,0,L|336:96,1,63.250001206398,4|0,0:0|0:0,0:0:0:0:
144,192,101078,1,0,0:0:0:0:
144,240,101123,1,0,0:0:0:0:
160,288,101169,1,0,0:0:0:0:
352,192,101259,5,4,0:0:0:0:
384,240,101305,1,2,0:0:0:0:
384,288,101350,1,2,0:0:0:0:
352,336,101396,1,2,0:0:0:0:
242,336,101441,1,2,0:0:0:0:
496,192,101623,2,0,L|240:192,1,253.000004825592,8|0,0:0|0:0,0:0:0:0:
243,192,101896,1,0,0:0:0:0:
432,96,101987,6,0,L|304:96,1,126.500002412796,4|0,0:0|0:0,0:0:0:0:
48,32,102350,1,8,0:0:0:0:
16,88,102396,1,2,0:0:0:0:
16,152,102441,1,2,0:0:0:0:
48,208,102487,1,2,0:0:0:0:
80,256,102532,1,0,0:0:0:0:
120,296,102578,1,0,0:0:0:0:
80,336,102623,1,0,0:0:0:0:
272,336,102714,6,0,L|144:336,1,126.500002412796,4|0,0:0|0:0,0:0:0:0:
400,256,103078,1,8,0:0:0:0:
440,208,103123,1,2,0:0:0:0:
440,144,103169,1,2,0:0:0:0:
400,96,103214,1,2,0:0:0:0:
352,96,103259,1,0,0:0:0:0:
400,96,103305,1,0,0:0:0:0:
448,96,103350,1,0,0:0:0:0:
256,96,103441,6,0,L|192:96,1,63.250001206398,4|0,0:0|0:0,0:0:0:0:
384,192,103623,2,0,L|384:256,1,63.250001206398,2|0,0:0|0:0,0:0:0:0:
192,96,103805,2,0,L|256:96,1,63.250001206398,0|0,0:0|0:0,0:0:0:0:
64,192,103987,2,0,L|128:192,1,63.250001206398,2|0,0:0|0:0,0:0:0:0:
320,192,104169,5,4,0:0:0:0:
352,144,104214,1,0,0:0:0:0:
352,96,104259,1,0,0:0:0:0:
320,48,104305,1,0,0:0:0:0:
192,128,104350,1,0,0:0:0:0:
152,176,104396,1,0,0:0:0:0:
152,240,104441,1,0,0:0:0:0:
192,288,104487,1,0,0:0:0:0:
320,288,104532,1,8,0:0:0:0:
400,288,104623,1,0,0:0:0:0:
192,128,104714,1,0,0:0:0:0:
112,128,104805,1,0,0:0:0:0:
336,128,104896,6,0,L|352:192,1,55,4|0,0:0|0:0,0:0:0:0:
256,128,105078,2,0,L|272:192,1,55,0|0,0:0|0:0,0:0:0:0:
432,208,105259,2,0,L|320:208,1,110,2|0,0:0|0:0,0:0:0:0:
480,192,105532,2,0,L|368:192,1,110,2|0,0:0|0:0,0:0:0:0:
208,192,105805,2,0,L|320:192,1,110,2|0,0:0|0:0,0:0:0:0:
160,224,106078,1,0,0:0:0:0:
96,224,106169,2,0,L|96:160,1,55,2|0,0:0|0:0,0:0:0:0:
256,128,106350,6,0,L|256:64,1,55,8|0,0:0|0:0,0:0:0:0:
96,64,106532,2,0,L|96:96,1,27.5,2|0,0:0|0:0,0:0:0:0:
144,128,106623,1,0,0:0:0:0:
304,192,106714,2,0,L|192:192,1,110,2|0,0:0|0:0,0:0:0:0:
176,160,106941,1,0,0:0:0:0:
192,128,106987,1,0,0:0:0:0:
240,128,107032,1,0,0:0:0:0:
352,192,107078,2,0,L|352:256,1,55,8|0,0:0|0:0,0:0:0:0:
128,256,107259,2,0,B|238:254|238:254|128:256,1,220,2|0,0:0|0:0,0:0:0:0:
192,256,107714,1,2,0:0:0:0:
352,256,107805,5,8,0:0:0:0:
288,256,107896,1,0,0:0:0:0:
352,256,107987,1,0,0:0:0:0:
208,192,108169,2,0,L|320:192,1,110,0|0,0:0|0:0,0:0:0:0:
144,80,108532,2,0,L|288:80,1,142.99999345398,0|0,0:0|0:0,0:0:0:0:
48,192,108896,2,0,L|112:192,1,55,0|0,0:0|0:0,0:0:0:0:
272,192,109078,2,0,L|336:192,1,55,0|2,0:0|0:0,0:0:0:0:
160,192,109259,6,0,L|272:192,1,110,4|0,0:0|0:0,0:0:0:0:
208,112,109532,1,0,0:0:0:0:
32,112,109623,2,0,L|144:112,1,110,6|0,0:0|0:0,0:0:0:0:
400,192,109987,2,0,L|257:192,1,142.99999345398,6|0,0:0|0:0,0:0:0:0:
496,192,110350,1,6,0:0:0:0:
456,192,110396,1,0,0:0:0:0:
432,192,110441,1,0,0:0:0:0:
456,192,110487,1,0,0:0:0:0:
496,192,110532,1,0,0:0:0:0:
472,192,110578,1,0,0:0:0:0:
432,192,110623,1,0,0:0:0:0:
176,128,110714,6,0,L|160:192,1,55,4|0,0:0|0:0,0:0:0:0:
256,128,110896,2,0,L|240:192,1,55,0|0,0:0|0:0,0:0:0:0:
80,208,111078,2,0,L|192:208,1,110,2|0,0:0|0:0,0:0:0:0:
32,192,111350,2,0,L|144:192,1,110,2|0,0:0|0:0,0:0:0:0:
304,192,111623,2,0,L|192:192,1,110,2|0,0:0|0:0,0:0:0:0:
352,224,111896,1,0,0:0:0:0:
416,224,111987,2,0,L|416:160,1,55,2|0,0:0|0:0,0:0:0:0:
256,128,112169,6,0,L|256:64,1,55,8|0,0:0|0:0,0:0:0:0:
416,64,112350,2,0,L|416:96,1,27.5,2|0,0:0|0:0,0:0:0:0:
368,128,112441,1,0,0:0:0:0:
208,192,112532,2,0,L|320:192,1,110,2|0,0:0|0:0,0:0:0:0:
336,160,112759,1,0,0:0:0:0:
320,128,112805,1,0,0:0:0:0:
272,128,112850,1,0,0:0:0:0:
160,192,112896,2,0,L|160:256,1,55,8|0,0:0|0:0,0:0:0:0:
384,256,113078,2,0,B|274:254|274:254|384:256,1,220,2|0,0:0|0:0,0:0:0:0:
320,256,113532,1,2,0:0:0:0:
160,256,113623,5,0,0:0:0:0:
224,256,113714,1,0,0:0:0:0:
160,256,113805,1,0,0:0:0:0:
304,192,113987,2,0,L|192:192,1,110,0|0,0:0|0:0,0:0:0:0:
368,80,114350,2,0,L|224:80,1,142.99999345398,0|0,0:0|0:0,0:0:0:0:
464,192,114714,2,0,L|400:192,1,55,0|0,0:0|0:0,0:0:0:0:
240,192,114896,2,0,L|176:192,1,55,0|2,0:0|0:0,0:0:0:0:
352,192,115078,6,0,P|400:160|400:112,1,110,4|0,0:0|0:0,0:0:0:0:
392,80,115305,1,0,0:0:0:0:
360,80,115350,1,0,0:0:0:0:
320,80,115396,1,0,0:0:0:0:
192,112,115441,1,8,0:0:0:0:
480,48,115623,1,8,0:0:0:0:
32,48,115987,2,0,B|197:47|197:47|32:48,1,330.000012588501,8|2,0:0|0:0,0:0:0:0:
272,48,116532,5,4,0:0:0:0:
384,80,124896,5,8,0:0:0:0:
48,80,125078,5,0,0:0:0:0:
39,105,125123,1,0,0:0:0:0:
32,132,125169,1,0,0:0:0:0:
30,159,125214,1,0,0:0:0:0:
32,187,125259,1,0,0:0:0:0:
37,214,125305,1,0,0:0:0:0:
47,239,125350,1,0,0:0:0:0:
60,264,125396,1,0,0:0:0:0:
76,286,125441,1,0,0:0:0:0:
96,305,125487,1,0,0:0:0:0:
118,321,125532,1,0,0:0:0:0:
142,335,125578,1,0,0:0:0:0:
168,344,125623,1,0,0:0:0:0:
195,350,125669,1,0,0:0:0:0:
222,352,125714,1,0,0:0:0:0:
416,192,125805,6,0,B|160:192|160:192|160:64,1,379.500007238388,4|0,0:0|0:0,0:0:0:0:
352,192,126169,2,0,B|96:192|96:192|96:320,1,379.500007238388,4|0,0:0|0:0,0:0:0:0:
288,192,126532,2,0,B|32:192|32:192|32:64,1,379.500007238388,4|0,0:0|0:0,0:0:0:0:
224,192,126896,6,0,B|480:192|480:192|480:68,1,379.500007238388,4|0,0:0|0:0,0:0:0:0:
288,192,127259,2,0,L|32:192,1,253.000004825592,4|0,0:0|0:0,0:0:0:0:
35,192,127487,1,0,0:0:0:0:
48,144,127532,1,0,0:0:0:0:
96,112,127578,1,0,0:0:0:0:
240,112,127623,2,0,B|493:114|493:114|240:112,1,506.000009651184,2|2,0:0|0:0,0:0:0:0:
16,192,128350,5,0,0:0:0:0:
352,192,128532,1,8,0:0:0:0:
112,192,128714,2,0,P|96:132|112:88,1,110,2|0,0:0|0:0,0:0:0:0:
352,80,129078,1,0,0:0:0:0:
400,80,129123,1,0,0:0:0:0:
352,80,129169,1,0,0:0:0:0:
400,80,129214,1,0,0:0:0:0:
352,80,129259,1,0,0:0:0:0:
208,80,129441,1,2,0:0:0:0:
352,192,129623,6,0,P|368:252|352:296,1,110,2|0,0:0|0:0,0:0:0:0:
80,192,129987,2,0,L|192:192,1,110,8|0,0:0|0:0,0:0:0:0:
432,192,130350,2,0,L|320:192,1,110,2|0,0:0|0:0,0:0:0:0:
80,192,130714,1,8,0:0:0:0:
320,192,130896,1,2,0:0:0:0:
176,192,131078,6,0,P|160:252|176:296,1,110,2|0,0:0|0:0,0:0:0:0:
448,304,131441,1,8,0:0:0:0:
176,192,131623,2,0,P|160:132|176:88,1,110,2|0,0:0|0:0,0:0:0:0:
416,192,131987,1,0,0:0:0:0:
464,192,132032,1,0,0:0:0:0:
416,192,132078,1,0,0:0:0:0:
464,192,132123,1,0,0:0:0:0:
416,192,132169,1,0,0:0:0:0:
272,192,132350,1,2,0:0:0:0:
416,192,132532,6,0,P|432:132|416:88,1,110,2|0,0:0|0:0,0:0:0:0:
176,96,132896,1,8,0:0:0:0:
320,96,133078,1,0,0:0:0:0:
80,192,133259,1,2,0:0:0:0:
224,192,133441,1,0,0:0:0:0:
368,192,133623,1,0,0:0:0:0:
128,192,133805,1,2,0:0:0:0:
272,192,133987,6,0,P|288:132|272:88,1,110,2|0,0:0|0:0,0:0:0:0:
16,96,134350,1,8,0:0:0:0:
352,96,134532,1,2,0:0:0:0:
208,96,134714,1,0,0:0:0:0:
448,96,134896,1,0,0:0:0:0:
496,96,134941,1,0,0:0:0:0:
448,96,134987,1,0,0:0:0:0:
496,96,135032,1,0,0:0:0:0:
448,96,135078,1,0,0:0:0:0:
48,96,135259,6,0,P|16:192|48:304,1,220,4|0,0:0|0:0,0:0:0:0:
384,192,135805,2,0,P|408:240|384:288,1,110,2|0,0:0|0:0,0:0:0:0:
128,192,136169,2,0,P|104:240|128:288,1,110,2|0,0:0|0:0,0:0:0:0:
464,192,136532,1,0,0:0:0:0:
48,32,136714,6,0,B|32:304|480:304|464:32|464:32|352:32|352:32|464:32|464:32,1,880,2|0,0:0|0:0,0:0:0:0:
176,32,138532,5,0,0:0:0:0:
96,32,138623,1,0,0:0:0:0:
176,32,138714,1,0,0:0:0:0:
336,192,138896,1,0,0:0:0:0:
272,192,138987,1,0,0:0:0:0:
336,192,139078,1,0,0:0:0:0:
176,352,139259,1,0,0:0:0:0:
128,352,139350,1,0,0:0:0:0:
176,352,139441,1,0,0:0:0:0:
336,352,139623,2,0,L|336:288,1,55,0|0,0:0|0:0,0:0:0:0:
176,192,139805,6,0,L|64:192,2,110,4|0|8,0:0|0:0|0:0,0:0:0:0:
240,192,140259,1,0,0:0:0:0:
64,192,140350,1,0,0:0:0:0:
208,192,140532,2,0,L|240:176,2,36.6666666666667,2|0|0,0:0|0:0|0:0,0:0:0:0:
160,192,140714,2,0,L|128:176,2,36.6666666666667,0|0|0,0:0|0:0|0:0,0:0:0:0:
224,128,140896,2,0,L|272:128,2,47.6666644846599,8|0|0,0:0|0:0|0:0,0:0:0:0:
160,128,141078,2,0,L|112:128,2,47.6666644846599,0|0|0,0:0|0:0|0:0,0:0:0:0:
304,192,141259,6,0,L|416:192,2,110,2|0|8,0:0|0:0|0:0,0:0:0:0:
240,192,141714,1,0,0:0:0:0:
416,192,141805,1,0,0:0:0:0:
288,192,141987,2,0,L|400:192,1,110,2|0,0:0|0:0,0:0:0:0:
112,192,142350,1,8,0:0:0:0:
352,192,142532,1,0,0:0:0:0:
208,192,142714,6,0,L|96:192,2,110,2|0|8,0:0|0:0|0:0,0:0:0:0:
448,192,143259,1,0,0:0:0:0:
304,192,143441,1,2,0:0:0:0:
160,192,143623,1,0,0:0:0:0:
400,192,143805,1,8,0:0:0:0:
112,192,143987,1,2,0:0:0:0:
256,192,144169,6,0,L|144:192,1,110,2|0,0:0|0:0,0:0:0:0:
288,192,144532,1,8,0:0:0:0:
48,192,144714,1,0,0:0:0:0:
336,192,144896,2,0,L|224:192,1,110,2|0,0:0|0:0,0:0:0:0:
384,192,145259,1,8,0:0:0:0:
208,192,145441,1,0,0:0:0:0:
448,80,145623,6,0,L|336:80,1,110,2|0,0:0|0:0,0:0:0:0:
480,80,145987,2,0,L|416:80,1,55,8|0,0:0|0:0,0:0:0:0:
256,192,146169,1,0,0:0:0:0:
400,192,146350,2,0,L|288:192,1,110,2|0,0:0|0:0,0:0:0:0:
432,304,146714,1,8,0:0:0:0:
496,304,146805,1,0,0:0:0:0:
496,192,146896,1,0,0:0:0:0:
432,192,146987,1,0,0:0:0:0:
256,192,147078,6,0,L|368:192,1,110,2|0,0:0|0:0,0:0:0:0:
224,192,147441,2,0,L|288:192,1,55,8|0,0:0|0:0,0:0:0:0:
464,192,147623,1,0,0:0:0:0:
320,192,147805,2,0,L|432:192,1,110,2|0,0:0|0:0,0:0:0:0:
96,192,148169,1,8,0:0:0:0:
432,192,148350,6,0,P|480:96|432:0,1,220,2|0,0:0|0:0,0:0:0:0:
176,0,148896,2,0,L|288:0,1,110,2|0,0:0|0:0,0:0:0:0:
32,192,149259,1,2,0:0:0:0:
96,192,149350,1,0,0:0:0:0:
272,192,149441,1,0,0:0:0:0:
336,192,149532,1,0,0:0:0:0:
160,192,149623,1,0,0:0:0:0:
128,144,149669,1,0,0:0:0:0:
128,96,149714,1,0,0:0:0:0:
160,48,149759,1,0,0:0:0:0:
336,48,149805,6,0,B|384:184|384:184|432:52|432:52|432:196|432:196|432:192|432:192|432:332|432:332|384:200|384:200|336:336|336:336|48:336|48:336|336:336|336:336|336:56|336:56|256:176|256:176|176:56|176:56|424:200,1,2287.99989526368,2|0,0:0|0:0,0:0:0:0:
176,192,151441,6,0,L|288:192,2,110,4|0|8,0:0|0:0|0:0,0:0:0:0:
240,192,151896,1,0,0:0:0:0:
64,192,151987,1,0,0:0:0:0:
208,144,152169,2,0,L|208:96,1,36.6666666666667,2|0,0:0|0:0,0:0:0:0:
168,64,152290,1,0,0:0:0:0:
128,144,152350,2,0,L|128:96,1,36.6666666666667,0|0,0:0|0:0,0:0:0:0:
168,64,152472,1,0,0:0:0:0:
208,144,152532,2,0,L|208:96,1,36.6666666666667,8|0,0:0|0:0,0:0:0:0:
152,64,152653,1,0,0:0:0:0:
96,144,152714,2,0,L|96:96,1,36.6666666666667,0|0,0:0|0:0,0:0:0:0:
152,64,152835,1,0,0:0:0:0:
304,192,152896,6,0,L|416:192,2,110,2|0|8,0:0|0:0|0:0,0:0:0:0:
368,192,153350,1,0,0:0:0:0:
192,192,153441,1,0,0:0:0:0:
336,192,153623,2,0,L|224:192,1,110,2|0,0:0|0:0,0:0:0:0:
496,192,153987,1,8,0:0:0:0:
256,192,154169,1,0,0:0:0:0:
400,192,154350,6,0,L|288:192,2,110,2|0|8,0:0|0:0|0:0,0:0:0:0:
160,192,154896,2,0,L|272:192,2,110,0|2|0,0:0|0:0|0:0,0:0:0:0:
432,192,155441,1,8,0:0:0:0:
128,192,155623,1,2,0:0:0:0:
272,192,155805,6,0,L|160:192,1,110,2|0,0:0|0:0,0:0:0:0:
304,192,156169,1,8,0:0:0:0:
32,192,156350,1,0,0:0:0:0:
272,192,156532,2,0,L|160:192,1,110,2|0,0:0|0:0,0:0:0:0:
336,192,156896,1,8,0:0:0:0:
192,192,157078,1,0,0:0:0:0:
464,48,157259,6,0,L|352:48,2,110,4|0|8,0:0|0:0|0:0,0:0:0:0:
320,48,157805,1,0,0:0:0:0:
80,48,157987,1,2,0:0:0:0:
222,48,158169,2,0,L|112:48,1,110,0|8,0:0|0:0,0:0:0:0:
352,48,158532,1,0,0:0:0:0:
48,192,158714,6,0,L|160:192,2,110,4|0|8,0:0|0:0|0:0,0:0:0:0:
192,192,159259,1,0,0:0:0:0:
432,192,159441,1,2,0:0:0:0:
288,192,159623,1,0,0:0:0:0:
48,192,159805,1,8,0:0:0:0:
432,192,159987,5,4,0:0:0:0:
256,192,160169,12,8,161441,0:0:0:0:
256,96,161623,6,0,L|160:96,1,96.25,0|0,0:0|0:0,0:0:0:0:
160,96,161805,2,0,L|16:96,1,144.375005507469,2|0,0:0|0:0,0:0:0:0:
16,160,161987,2,0,L|208:160,1,192.5,2|0,0:0|0:0,0:0:0:0:
209,160,162169,2,0,L|497:160,1,288.750011014939,2|0,0:0|0:0,0:0:0:0:
497,160,162350,5,4,0:0:0:0:
256,64,162532,1,0,0:0:0:0:
224,96,162578,1,0,0:0:0:0:
224,144,162623,1,0,0:0:0:0:
256,176,162669,1,0,0:0:0:0:
432,192,162714,1,4,0:0:0:0:
128,192,162896,1,0,0:0:0:0:
432,192,163078,6,0,L|304:192,1,126.500002412796,4|0,0:0|0:0,0:0:0:0:
144,192,163441,1,8,0:0:0:0:
336,192,163623,1,0,0:0:0:0:
80,192,163805,6,0,L|208:192,1,126.500002412796,2|0,0:0|0:0,0:0:0:0:
48,80,164169,2,0,L|304:80,1,253.000004825592,8|0,0:0|0:0,0:0:0:0:
48,192,164532,5,2,0:0:0:0:
240,192,164623,2,0,L|112:192,1,126.500002412796,0|0,0:0|0:0,0:0:0:0:
304,192,164896,2,0,L|368:192,1,63.250001206398,8|0,0:0|0:0,0:0:0:0:
176,128,165078,2,0,L|176:96,1,31.625000603199,0|0,0:0|0:0,0:0:0:0:
224,80,165169,1,0,0:0:0:0:
416,80,165259,5,2,0:0:0:0:
464,80,165305,1,2,0:0:0:0:
480,128,165350,1,2,0:0:0:0:
464,176,165396,1,2,0:0:0:0:
352,192,165441,1,2,0:0:0:0:
97,192,165623,2,0,L|350:192,1,253.000004825592,8|0,0:0|0:0,0:0:0:0:
384,192,165850,1,0,0:0:0:0:
352,192,165896,1,0,0:0:0:0:
160,192,165987,6,0,P|144:176|144:80,1,126.500002412796,4|0,0:0|0:0,0:0:0:0:
400,80,166350,1,8,0:0:0:0:
368,80,166396,1,2,0:0:0:0:
343,97,166441,1,2,0:0:0:0:
333,127,166487,1,2,0:0:0:0:
342,156,166532,1,0,0:0:0:0:
368,176,166578,1,0,0:0:0:0:
400,176,166623,1,0,0:0:0:0:
208,304,166714,6,0,P|192:244|223:191,1,126.500002412796,4|0,0:0|0:0,0:0:0:0:
488,80,167078,1,8,0:0:0:0:
444,80,167123,1,2,0:0:0:0:
400,80,167169,1,2,0:0:0:0:
356,80,167214,1,2,0:0:0:0:
312,80,167259,1,0,0:0:0:0:
268,80,167305,1,0,0:0:0:0:
224,80,167350,1,0,0:0:0:0:
416,192,167441,6,0,L|480:192,1,63.250001206398,2|0,0:0|0:0,0:0:0:0:
288,192,167623,2,0,L|288:128,1,63.250001206398,2|0,0:0|0:0,0:0:0:0:
480,128,167805,2,0,L|416:128,1,63.250001206398,8|0,0:0|0:0,0:0:0:0:
224,128,167987,2,0,L|160:128,1,63.250001206398,2|0,0:0|0:0,0:0:0:0:
352,192,168169,6,0,L|288:192,1,63.250001206398,2|0,0:0|0:0,0:0:0:0:
480,128,168350,2,0,L|480:192,1,63.250001206398,2|0,0:0|0:0,0:0:0:0:
288,192,168532,1,8,0:0:0:0:
244,192,168578,1,2,0:0:0:0:
200,192,168623,1,2,0:0:0:0:
244,192,168669,1,2,0:0:0:0:
288,192,168714,1,0,0:0:0:0:
244,192,168759,1,0,0:0:0:0:
200,192,168805,1,0,0:0:0:0:
400,80,168896,6,0,L|336:80,1,63.250001206398,4|0,0:0|0:0,0:0:0:0:
400,80,169078,2,0,L|464:80,1,63.250001206398,0|0,0:0|0:0,0:0:0:0:
400,144,169259,2,0,L|336:144,3,63.250001206398,0|0|0|0,0:0|0:0|0:0|0:0,0:0:0:0:
144,192,169623,6,0,L|208:192,1,63.250001206398,2|0,0:0|0:0,0:0:0:0:
400,192,169805,2,0,L|336:192,1,63.250001206398,2|0,0:0|0:0,0:0:0:0:
144,192,169987,2,0,L|144:128,1,63.250001206398,8|0,0:0|0:0,0:0:0:0:
336,128,170169,2,0,L|272:128,1,63.250001206398,2|0,0:0|0:0,0:0:0:0:
80,128,170350,5,4,0:0:0:0:
272,79,170441,1,0,0:0:0:0:
336,80,170532,2,0,L|336:144,1,63.250001206398,0|0,0:0|0:0,0:0:0:0:
144,192,170714,2,0,L|80:192,1,63.250001206398,4|0,0:0|0:0,0:0:0:0:
272,128,170896,2,0,L|272:96,1,31.625000603199,0|0,0:0|0:0,0:0:0:0:
224,80,170987,1,0,0:0:0:0:
416,80,171078,5,4,0:0:0:0:
464,80,171123,1,2,0:0:0:0:
464,128,171169,1,2,0:0:0:0:
416,128,171214,1,2,0:0:0:0:
304,192,171259,1,2,0:0:0:0:
48,192,171441,2,0,L|301:192,1,253.000004825592,8|0,0:0|0:0,0:0:0:0:
48,64,171805,6,0,L|176:64,1,126.500002412796,4|0,0:0|0:0,0:0:0:0:
432,64,172169,1,8,0:0:0:0:
464,64,172214,1,2,0:0:0:0:
416,128,172259,1,2,0:0:0:0:
464,128,172305,1,2,0:0:0:0:
432,192,172350,1,0,0:0:0:0:
464,192,172396,1,0,0:0:0:0:
416,192,172441,1,0,0:0:0:0:
224,192,172532,6,0,L|352:192,1,126.500002412796,4|0,0:0|0:0,0:0:0:0:
96,192,172896,1,8,0:0:0:0:
48,192,172941,1,2,0:0:0:0:
96,128,172987,1,2,0:0:0:0:
128,128,173032,1,2,0:0:0:0:
96,64,173078,1,0,0:0:0:0:
48,64,173123,1,0,0:0:0:0:
96,0,173169,1,0,0:0:0:0:
288,80,173259,6,0,L|288:144,1,63.250001206398,4|0,0:0|0:0,0:0:0:0:
96,192,173441,2,0,L|32:192,1,63.250001206398,2|0,0:0|0:0,0:0:0:0:
224,192,173623,2,0,L|288:192,1,63.250001206398,0|0,0:0|0:0,0:0:0:0:
96,192,173805,2,0,L|160:192,1,63.250001206398,2|0,0:0|0:0,0:0:0:0:
352,192,173987,6,0,L|288:192,1,63.250001206398,4|0,0:0|0:0,0:0:0:0:
480,192,174169,1,0,0:0:0:0:
160,368,174350,1,8,0:0:0:0:
128,320,174396,1,2,0:0:0:0:
128,272,174441,1,2,0:0:0:0:
160,224,174487,1,2,0:0:0:0:
208,192,174532,1,0,0:0:0:0:
160,160,174578,1,0,0:0:0:0:
128,112,174623,1,0,0:0:0:0:
384,64,174714,6,0,L|384:128,1,63.250001206398,4|0,0:0|0:0,0:0:0:0:
304,64,174896,1,0,0:0:0:0:
144,192,175078,1,8,0:0:0:0:
336,192,175259,1,0,0:0:0:0:
80,64,175441,5,2,0:0:0:0:
160,64,175532,1,0,0:0:0:0:
160,64,175623,1,0,0:0:0:0:
16,192,175805,2,0,L|272:192,1,253.000004825592,8|0,0:0|0:0,0:0:0:0:
16,192,176169,5,2,0:0:0:0:
208,192,176259,2,0,L|80:192,1,126.500002412796,0|0,0:0|0:0,0:0:0:0:
272,192,176532,2,0,L|336:192,1,63.250001206398,8|0,0:0|0:0,0:0:0:0:
144,128,176714,1,0,0:0:0:0:
96,96,176759,2,0,L|96:64,1,31.625000603199,0|0,0:0|0:0,0:0:0:0:
288,80,176896,5,2,0:0:0:0:
336,80,176941,1,2,0:0:0:0:
352,128,176987,1,2,0:0:0:0:
336,176,177032,1,2,0:0:0:0:
224,192,177078,1,2,0:0:0:0:
64,192,177169,1,0,0:0:0:0:
224,192,177259,2,0,L|480:192,1,253.000004825592,8|0,0:0|0:0,0:0:0:0:
477,192,177487,1,0,0:0:0:0:
432,128,177532,1,0,0:0:0:0:
240,128,177623,6,0,P|208:80|224:16,1,126.500002412796,4|0,0:0|0:0,0:0:0:0:
480,48,177987,1,8,0:0:0:0:
480,96,178032,1,2,0:0:0:0:
432,144,178078,1,2,0:0:0:0:
400,192,178123,1,2,0:0:0:0:
432,240,178169,1,0,0:0:0:0:
480,288,178214,1,0,0:0:0:0:
480,336,178259,1,0,0:0:0:0:
288,336,178350,6,0,L|416:336,1,126.500002412796,4|0,0:0|0:0,0:0:0:0:
160,48,178714,1,8,0:0:0:0:
144,96,178759,1,2,0:0:0:0:
176,144,178805,1,2,0:0:0:0:
224,192,178850,1,2,0:0:0:0:
272,240,178896,1,0,0:0:0:0:
304,288,178941,1,0,0:0:0:0:
288,336,178987,1,0,0:0:0:0:
96,336,179078,6,0,L|96:272,1,63.250001206398,2|0,0:0|0:0,0:0:0:0:
288,192,179259,2,0,L|352:192,1,63.250001206398,2|0,0:0|0:0,0:0:0:0:
160,192,179441,2,0,L|224:192,1,63.250001206398,8|0,0:0|0:0,0:0:0:0:
416,112,179623,2,0,L|352:112,1,63.250001206398,2|0,0:0|0:0,0:0:0:0:
160,112,179805,6,0,L|224:112,1,63.250001206398,2|0,0:0|0:0,0:0:0:0:
32,112,179987,1,2,0:0:0:0:
352,192,180169,2,0,L|360:224,1,31.625000603199,8|2,0:0|0:0,0:0:0:0:
312,192,180259,2,0,L|304:224,1,31.625000603199,2|2,0:0|0:0,0:0:0:0:
352,192,180350,2,0,L|360:224,1,31.625000603199,0|0,0:0|0:0,0:0:0:0:
312,192,180441,1,0,0:0:0:0:
112,192,180532,6,0,L|176:192,1,63.250001206398,4|0,0:0|0:0,0:0:0:0:
240,192,180714,2,0,L|176:192,1,63.250001206398,0|0,0:0|0:0,0:0:0:0:
112,192,180896,2,0,L|176:192,3,63.250001206398,0|0|0|0,0:0|0:0|0:0|0:0,0:0:0:0:
368,96,181259,6,0,L|432:96,1,63.250001206398,2|0,0:0|0:0,0:0:0:0:
176,96,181441,2,0,L|240:96,1,63.250001206398,2|0,0:0|0:0,0:0:0:0:
432,96,181623,2,0,L|432:160,1,63.250001206398,8|0,0:0|0:0,0:0:0:0:
240,160,181805,2,0,L|176:160,1,63.250001206398,2|0,0:0|0:0,0:0:0:0:
368,128,181987,5,4,0:0:0:0:
176,79,182078,1,0,0:0:0:0:
112,80,182169,2,0,L|112:144,1,63.250001206398,0|0,0:0|0:0,0:0:0:0:
304,192,182350,2,0,L|368:192,1,63.250001206398,4|0,0:0|0:0,0:0:0:0:
176,256,182532,1,0,0:0:0:0:
128,288,182578,2,0,L|128:320,1,31.625000603199,0|0,0:0|0:0,0:0:0:0:
320,304,182714,5,4,0:0:0:0:
368,304,182759,1,2,0:0:0:0:
368,256,182805,1,2,0:0:0:0:
320,256,182850,1,2,0:0:0:0:
208,192,182896,1,2,0:0:0:0:
464,192,183078,2,0,L|211:192,1,253.000004825592,8|0,0:0|0:0,0:0:0:0:
464,48,183441,6,0,L|336:48,1,126.500002412796,4|0,0:0|0:0,0:0:0:0:
80,48,183805,1,8,0:0:0:0:
40,48,183850,1,2,0:0:0:0:
80,96,183896,1,2,0:0:0:0:
96,96,183941,1,2,0:0:0:0:
80,144,183987,1,0,0:0:0:0:
40,144,184032,1,0,0:0:0:0:
80,192,184078,1,0,0:0:0:0:
272,240,184169,6,0,L|144:240,1,126.500002412796,4|0,0:0|0:0,0:0:0:0:
416,48,184532,1,8,0:0:0:0:
456,48,184578,1,2,0:0:0:0:
416,96,184623,1,2,0:0:0:0:
376,96,184669,1,2,0:0:0:0:
416,144,184714,1,0,0:0:0:0:
456,144,184759,1,0,0:0:0:0:
416,192,184805,1,0,0:0:0:0:
224,192,184896,6,0,L|160:192,1,63.250001206398,4|0,0:0|0:0,0:0:0:0:
352,192,185078,2,0,L|416:192,1,63.250001206398,2|0,0:0|0:0,0:0:0:0:
224,96,185259,2,0,L|160:96,1,63.250001206398,0|0,0:0|0:0,0:0:0:0:
352,96,185441,2,0,L|288:96,1,63.250001206398,2|0,0:0|0:0,0:0:0:0:
96,96,185623,5,4,0:0:0:0:
48,96,185669,1,0,0:0:0:0:
32,144,185714,1,0,0:0:0:0:
48,192,185759,1,0,0:0:0:0:
176,96,185805,1,0,0:0:0:0:
224,96,185850,1,0,0:0:0:0:
240,144,185896,1,0,0:0:0:0:
224,192,185941,1,0,0:0:0:0:
96,240,185987,1,8,0:0:0:0:
176,240,186078,1,0,0:0:0:0:
368,240,186169,1,0,0:0:0:0:
288,240,186259,1,0,0:0:0:0:
96,240,186350,6,0,P|20:148|96:64,1,253.000004825592,4|8,0:0|0:0,0:0:0:0:
256,64,186896,2,0,L|192:64,1,63.250001206398,0|0,0:0|0:0,0:0:0:0:
384,64,187078,6,0,L|384:128,1,63.250001206398,2|0,0:0|0:0,0:0:0:0:
304,144,187259,1,0,0:0:0:0:
464,192,187441,2,0,L|208:192,1,253.000004825592,8|0,0:0|0:0,0:0:0:0:
464,64,187805,6,0,L|400:64,1,63.250001206398,2|0,0:0|0:0,0:0:0:0:
208,64,187987,2,0,L|272:64,1,63.250001206398,2|0,0:0|0:0,0:0:0:0:
464,64,188169,2,0,L|464:128,1,63.250001206398,8|0,0:0|0:0,0:0:0:0:
272,128,188350,2,0,L|272:96,1,31.625000603199,0|0,0:0|0:0,0:0:0:0:
320,64,188441,1,0,0:0:0:0:
128,64,188532,5,2,0:0:0:0:
112,128,188578,1,2,0:0:0:0:
128,192,188623,1,2,0:0:0:0:
176,192,188669,1,2,0:0:0:0:
304,192,188714,2,0,L|368:192,1,63.250001206398,0|0,0:0|0:0,0:0:0:0:
176,128,188896,2,0,L|112:128,1,63.250001206398,8|0,0:0|0:0,0:0:0:0:
304,192,189078,2,0,L|304:224,1,31.625000603199,0|0,0:0|0:0,0:0:0:0:
256,256,189169,1,0,0:0:0:0:
64,256,189259,6,0,L|64:192,1,63.250001206398,2|0,0:0|0:0,0:0:0:0:
144,128,189441,1,0,0:0:0:0:
400,128,189623,1,8,0:0:0:0:
424,128,189669,1,2,0:0:0:0:
400,128,189714,1,2,0:0:0:0:
424,128,189759,1,2,0:0:0:0:
400,128,189805,1,0,0:0:0:0:
424,128,189850,1,0,0:0:0:0:
400,128,189896,1,0,0:0:0:0:
208,128,189987,6,0,L|144:128,2,63.250001206398,2|0|0,0:0|0:0|0:0,0:0:0:0:
464,192,190350,1,8,0:0:0:0:
496,192,190396,1,2,0:0:0:0:
464,192,190441,1,2,0:0:0:0:
496,192,190487,1,2,0:0:0:0:
464,192,190532,1,0,0:0:0:0:
496,192,190578,1,0,0:0:0:0:
464,192,190623,1,0,0:0:0:0:
272,192,190714,6,0,L|256:128,1,63.250001206398,2|0,0:0|0:0,0:0:0:0:
448,192,190896,2,0,L|464:128,1,63.250001206398,2|0,0:0|0:0,0:0:0:0:
272,192,191078,2,0,L|208:192,1,63.250001206398,8|0,0:0|0:0,0:0:0:0:
400,192,191259,2,0,L|464:192,1,63.250001206398,2|0,0:0|0:0,0:0:0:0:
272,192,191441,6,0,L|336:192,1,63.250001206398,2|0,0:0|0:0,0:0:0:0:
144,192,191623,2,0,L|144:128,1,63.250001206398,2|0,0:0|0:0,0:0:0:0:
336,128,191805,1,8,0:0:0:0:
304,128,191850,1,2,0:0:0:0:
272,128,191896,1,2,0:0:0:0:
304,128,191941,1,2,0:0:0:0:
336,128,191987,1,0,0:0:0:0:
352,192,192032,1,0,0:0:0:0:
336,256,192078,1,0,0:0:0:0:
144,256,192169,6,0,L|144:192,1,63.250001206398,4|0,0:0|0:0,0:0:0:0:
208,192,192350,2,0,L|144:192,1,63.250001206398,0|0,0:0|0:0,0:0:0:0:
208,192,192532,2,0,L|272:192,3,63.250001206398,8|0|0|0,0:0|0:0|0:0|0:0,0:0:0:0:
464,96,192896,6,0,L|400:96,1,63.250001206398,2|0,0:0|0:0,0:0:0:0:
336,32,193078,2,0,L|400:32,1,63.250001206398,0|0,0:0|0:0,0:0:0:0:
208,32,193259,2,0,L|144:32,1,63.250001206398,8|0,0:0|0:0,0:0:0:0:
336,32,193441,2,0,L|336:96,1,63.250001206398,0|0,0:0|0:0,0:0:0:0:
144,192,193623,5,2,0:0:0:0:
336,192,193714,2,0,L|400:192,1,63.250001206398,0|0,0:0|0:0,0:0:0:0:
208,128,193896,2,0,L|208:192,1,63.250001206398,2|8,0:0|0:0,0:0:0:0:
272,192,194078,1,0,0:0:0:0:
464,192,194169,2,0,L|400:192,1,63.250001206398,2|0,0:0|0:0,0:0:0:0:
208,128,194350,6,0,L|208:96,1,31.625000603199,0|0,0:0|0:0,0:0:0:0:
256,64,194441,1,0,0:0:0:0:
448,64,194532,1,2,0:0:0:0:
464,128,194578,1,0,0:0:0:0:
448,192,194623,1,0,0:0:0:0:
400,192,194669,1,0,0:0:0:0:
272,192,194714,1,8,0:0:0:0:
16,192,194896,2,0,L|80:192,1,63.250001206398,2|0,0:0|0:0,0:0:0:0:
272,192,195078,6,0,P|288:144|288:64,1,126.500002412796,4|0,0:0|0:0,0:0:0:0:
32,80,195441,1,8,0:0:0:0:
16,112,195487,1,2,0:0:0:0:
48,144,195532,1,2,0:0:0:0:
80,192,195578,1,2,0:0:0:0:
48,240,195623,1,0,0:0:0:0:
16,272,195669,1,0,0:0:0:0:
32,304,195714,1,0,0:0:0:0:
224,304,195805,6,0,L|96:304,1,126.500002412796,4|0,0:0|0:0,0:0:0:0:
352,304,196169,1,8,0:0:0:0:
400,256,196214,1,2,0:0:0:0:
416,192,196259,1,2,0:0:0:0:
400,128,196305,1,2,0:0:0:0:
352,80,196350,1,0,0:0:0:0:
400,80,196396,1,0,0:0:0:0:
448,80,196441,1,0,0:0:0:0:
256,80,196532,6,0,L|256:144,1,63.250001206398,2|0,0:0|0:0,0:0:0:0:
448,192,196714,2,0,L|384:192,1,63.250001206398,2|0,0:0|0:0,0:0:0:0:
192,192,196896,2,0,L|128:192,1,63.250001206398,8|0,0:0|0:0,0:0:0:0:
320,128,197078,2,0,L|384:128,1,63.250001206398,2|0,0:0|0:0,0:0:0:0:
192,128,197259,6,0,L|256:128,1,63.250001206398,2|0,0:0|0:0,0:0:0:0:
64,128,197441,1,2,0:0:0:0:
384,192,197623,1,8,0:0:0:0:
384,128,197669,1,2,0:0:0:0:
352,64,197714,1,2,0:0:0:0:
296,64,197759,1,2,0:0:0:0:
240,64,197805,1,0,0:0:0:0:
208,128,197850,1,0,0:0:0:0:
208,192,197896,1,0,0:0:0:0:
464,192,197987,5,4,0:0:0:0:
400,192,198078,1,0,0:0:0:0:
368,128,198169,1,0,0:0:0:0:
400,64,198259,1,0,0:0:0:0:
464,64,198350,1,8,0:0:0:0:
400,64,198441,1,0,0:0:0:0:
208,192,198532,2,0,L|208:128,1,63.250001206398,0|0,0:0|0:0,0:0:0:0:
288,128,198714,5,2,0:0:0:0:
368,192,198805,2,0,L|368:128,1,63.250001206398,0|0,0:0|0:0,0:0:0:0:
288,128,198987,1,0,0:0:0:0:
96,192,199078,2,0,L|352:192,1,253.000004825592,8|0,0:0|0:0,0:0:0:0:
96,192,199441,5,2,0:0:0:0:
288,192,199532,2,0,L|288:128,1,63.250001206398,0|0,0:0|0:0,0:0:0:0:
96,128,199714,2,0,L|32:128,2,63.250001206398,0|8|0,0:0|0:0|0:0,0:0:0:0:
288,128,199987,2,0,L|352:128,1,63.250001206398,0|0,0:0|0:0,0:0:0:0:
160,64,200169,5,2,0:0:0:0:
144,128,200214,1,2,0:0:0:0:
160,192,200259,1,2,0:0:0:0:
208,192,200305,1,2,0:0:0:0:
336,192,200350,2,0,L|400:192,1,63.250001206398,0|0,0:0|0:0,0:0:0:0:
208,128,200532,2,0,L|464:128,1,253.000004825592,8|0,0:0|0:0,0:0:0:0:
448,128,200759,1,0,0:0:0:0:
419,80,200805,1,0,0:0:0:0:
227,80,200896,6,0,L|163:80,2,63.250001206398,2|0|0,0:0|0:0|0:0,0:0:0:0:
64,192,201169,1,0,0:0:0:0:
227,192,201259,1,8,0:0:0:0:
259,224,201305,1,2,0:0:0:0:
275,272,201350,1,2,0:0:0:0:
259,320,201396,1,2,0:0:0:0:
227,352,201441,1,0,0:0:0:0:
179,352,201487,1,0,0:0:0:0:
227,352,201532,1,0,0:0:0:0:
384,352,201623,5,2,0:0:0:0:
224,332,201714,2,0,L|160:320,2,63.250001206398
384,192,201987,1,8,0:0:0:0:
352,224,202032,1,2,0:0:0:0:
336,272,202078,1,2,0:0:0:0:
352,320,202123,1,2,0:0:0:0:
384,352,202169,1,0,0:0:0:0:
432,352,202214,1,0,0:0:0:0:
384,352,202259,1,0,0:0:0:0:
192,192,202350,6,0,L|176:128,1,63.250001206398,2|0,0:0|0:0,0:0:0:0:
368,192,202532,2,0,L|384:128,1,63.250001206398,2|0,0:0|0:0,0:0:0:0:
192,192,202714,2,0,L|128:192,1,63.250001206398,8|0,0:0|0:0,0:0:0:0:
320,192,202896,2,0,L|384:192,1,63.250001206398,2|0,0:0|0:0,0:0:0:0:
192,192,203078,6,0,L|256:192,1,63.250001206398,2|0,0:0|0:0,0:0:0:0:
64,192,203259,2,0,L|64:128,1,63.250001206398,2|0,0:0|0:0,0:0:0:0:
256,128,203441,1,8,0:0:0:0:
224,128,203487,1,2,0:0:0:0:
192,128,203532,1,2,0:0:0:0:
224,128,203578,1,2,0:0:0:0:
256,128,203623,1,0,0:0:0:0:
272,192,203669,1,0,0:0:0:0:
256,256,203714,1,0,0:0:0:0:
64,256,203805,6,0,L|64:192,1,63.250001206398,4|0,0:0|0:0,0:0:0:0:
128,256,203987,2,0,L|128:192,1,63.250001206398,0|0,0:0|0:0,0:0:0:0:
64,128,204169,2,0,L|128:128,3,63.250001206398,8|0|0|0,0:0|0:0|0:0|0:0,0:0:0:0:
320,64,204532,6,0,L|256:64,1,63.250001206398,4|0,0:0|0:0,0:0:0:0:
320,64,204714,2,0,L|384:64,1,63.250001206398,0|0,0:0|0:0,0:0:0:0:
192,32,204896,2,0,L|128:32,1,63.250001206398,8|0,0:0|0:0,0:0:0:0:
320,32,205078,2,0,L|320:96,1,63.250001206398,0|0,0:0|0:0,0:0:0:0:
160,192,205259,5,4,0:0:0:0:
320,192,205350,2,0,L|384:192,1,63.250001206398,0|0,0:0|0:0,0:0:0:0:
192,128,205532,2,0,L|192:192,1,63.250001206398,0|8,0:0|0:0,0:0:0:0:
256,192,205714,1,0,0:0:0:0:
448,192,205805,2,0,L|384:192,1,63.250001206398
192,128,205987,6,0,L|192:96,1,31.625000603199,2|2,0:0|0:0,0:0:0:0:
240,64,206078,1,2,0:0:0:0:
432,64,206169,1,2,0:0:0:0:
472,64,206214,1,0,0:0:0:0:
472,120,206259,1,0,0:0:0:0:
432,120,206305,1,0,0:0:0:0:
304,192,206350,1,8,0:0:0:0:
48,192,206532,1,0,0:0:0:0:
208,192,206623,1,0,0:0:0:0:
368,192,206714,6,0,L|240:192,1,126.500002412796,4|0,0:0|0:0,0:0:0:0:
400,192,206987,1,0,0:0:0:0:
240,192,207078,1,8,0:0:0:0:
208,160,207123,1,0,0:0:0:0:
192,112,207169,1,0,0:0:0:0:
208,64,207214,1,0,0:0:0:0:
240,32,207259,1,0,0:0:0:0:
288,32,207305,1,0,0:0:0:0:
336,32,207350,1,0,0:0:0:0:
144,192,207441,6,0,L|272:192,1,126.500002412796,2|0,0:0|0:0,0:0:0:0:
112,192,207714,1,0,0:0:0:0:
272,192,207805,1,8,0:0:0:0:
304,160,207850,1,0,0:0:0:0:
304,112,207896,1,0,0:0:0:0:
112,112,207987,1,0,0:0:0:0:
112,160,208032,1,0,0:0:0:0:
144,192,208078,1,0,0:0:0:0:
336,64,208169,6,0,L|272:64,1,63.250001206398,2|0,0:0|0:0,0:0:0:0:
80,64,208350,2,0,L|16:64,1,63.250001206398,2|0,0:0|0:0,0:0:0:0:
208,192,208532,2,0,L|272:192,1,63.250001206398,8|0,0:0|0:0,0:0:0:0:
80,192,208714,2,0,L|144:192,1,63.250001206398,2|0,0:0|0:0,0:0:0:0:
336,192,208896,5,2,0:0:0:0:
360,128,208941,1,0,0:0:0:0:
336,64,208987,1,0,0:0:0:0:
288,64,209032,1,0,0:0:0:0:
160,64,209078,1,0,0:0:0:0:
112,64,209123,1,0,0:0:0:0:
88,128,209169,1,0,0:0:0:0:
112,192,209214,1,0,0:0:0:0:
240,256,209259,1,8,0:0:0:0:
320,256,209350,1,8,0:0:0:0:
128,320,209441,1,8,0:0:0:0:
208,320,209532,1,8,0:0:0:0:
16,256,209623,5,4,0:0:0:0:
256,192,209805,12,0,212350,0:0:0:0:
112,192,212532,5,4,0:0:0:0:
480,192,213259,1,4,0:0:0:0:
32,192,213987,5,4,0:0:0:0:
400,192,214714,1,2,0:0:0:0:
32,192,215078,1,2,0:0:0:0:
480,192,215441,5,4,0:0:0:0:
320,192,215623,1,0,0:0:0:0:
320,192,215987,1,0,0:0:0:0:
32,192,216169,1,4,0:0:0:0:
192,192,216350,1,0,0:0:0:0:
192,192,216714,1,0,0:0:0:0:
480,192,216896,5,4,0:0:0:0:
320,192,217078,1,0,0:0:0:0:
320,192,217441,1,0,0:0:0:0:
32,192,217623,1,4,0:0:0:0:
192,192,217805,1,0,0:0:0:0:
32,192,217987,1,2,0:0:0:0:
192,192,218169,1,2,0:0:0:0:
480,192,218350,5,4,0:0:0:0:
192,128,218532,1,0,0:0:0:0:
256,128,218623,1,0,0:0:0:0:
416,128,218714,1,2,0:0:0:0:
128,256,218896,1,0,0:0:0:0:
192,256,218987,1,0,0:0:0:0:
352,256,219078,5,2,0:0:0:0:
64,128,219259,1,0,0:0:0:0:
128,128,219350,1,0,0:0:0:0:
288,128,219441,1,2,0:0:0:0:
352,128,219532,1,0,0:0:0:0:
392,128,219578,1,0,0:0:0:0:
352,128,219623,1,0,0:0:0:0:
392,128,219669,1,0,0:0:0:0:
352,128,219714,1,0,0:0:0:0:
392,128,219759,1,0,0:0:0:0:
352,192,219805,5,4,0:0:0:0:
304,192,219850,1,0,0:0:0:0:
256,192,219896,1,0,0:0:0:0:
208,192,219941,1,0,0:0:0:0:
160,192,219987,1,0,0:0:0:0:
208,192,220032,1,0,0:0:0:0:
256,192,220078,1,0,0:0:0:0:
304,192,220123,1,0,0:0:0:0:
352,192,220169,1,2,0:0:0:0:
160,192,220350,2,0,L|160:128,1,55,2|0,0:0|0:0,0:0:0:0:
256,192,220532,6,0,P|272:128|256:32,1,165,4|0,0:0|0:0,0:0:0:0:
32,32,220896,2,0,L|368:32,1,330.000012588501,2|0,0:0|0:0,0:0:0:0:
362,32,221123,1,0,0:0:0:0:
344,80,221169,1,0,0:0:0:0:
312,80,221214,1,0,0:0:0:0:
144,192,221259,6,0,L|288:192,1,142.99999345398,4|0,0:0|0:0,0:0:0:0:
112,112,221623,2,0,L|192:112,2,71.4999967269899,8|0|0,0:0|0:0|0:0,0:0:0:0:
400,192,221987,5,2,0:0:0:0:
328,192,222078,2,0,L|328:120,1,71.4999967269899,0|0,0:0|0:0,0:0:0:0:
480,112,222350,2,0,L|192:112,1,285.99998690796,8|0,0:0|0:0,0:0:0:0:
480,192,222714,5,2,0:0:0:0:
272,112,222805,2,0,L|272:192,1,71.4999967269899,0|0,0:0|0:0,0:0:0:0:
480,112,222987,2,0,L|480:192,1,71.4999967269899,0|8,0:0|0:0,0:0:0:0:
400,192,223169,1,0,0:0:0:0:
192,112,223259,1,0,0:0:0:0:
160,128,223305,1,0,0:0:0:0:
192,144,223350,1,0,0:0:0:0:
400,192,223441,5,2,0:0:0:0:
448,192,223487,1,2,0:0:0:0:
480,128,223532,1,2,0:0:0:0:
448,64,223578,1,2,0:0:0:0:
320,64,223623,1,2,0:0:0:0:
112,64,223714,1,0,0:0:0:0:
320,192,223805,2,0,L|32:192,1,285.99998690796,8|0,0:0|0:0,0:0:0:0:
34,192,224032,1,0,0:0:0:0:
64,144,224078,1,0,0:0:0:0:
272,304,224169,6,0,P|304:264|304:176,1,142.99999345398,4|0,0:0|0:0,0:0:0:0:
32,64,224532,1,8,0:0:0:0:
64,96,224578,1,2,0:0:0:0:
80,144,224623,1,2,0:0:0:0:
64,192,224669,1,2,0:0:0:0:
32,224,224714,1,0,0:0:0:0:
80,224,224759,1,0,0:0:0:0:
128,224,224805,1,0,0:0:0:0:
336,224,224896,6,0,L|192:224,1,142.99999345398,4|0,0:0|0:0,0:0:0:0:
464,64,225259,1,8,0:0:0:0:
424,96,225305,1,2,0:0:0:0:
404,144,225350,1,2,0:0:0:0:
424,192,225396,1,2,0:0:0:0:
464,224,225441,1,0,0:0:0:0:
408,224,225487,1,0,0:0:0:0:
352,224,225532,1,0,0:0:0:0:
144,192,225623,6,0,L|80:256,1,71.4999967269899,2|0,0:0|0:0,0:0:0:0:
304,192,225805,2,0,L|368:256,1,71.4999967269899,2|0,0:0|0:0,0:0:0:0:
144,192,225987,2,0,L|64:192,1,71.4999967269899,8|0,0:0|0:0,0:0:0:0:
288,192,226169,2,0,L|368:192,1,71.4999967269899,2|0,0:0|0:0,0:0:0:0:
144,128,226350,6,0,L|224:128,1,71.4999967269899,2|0,0:0|0:0,0:0:0:0:
432,128,226532,1,2,0:0:0:0:
80,128,226714,1,8,0:0:0:0:
256,128,226805,1,2,0:0:0:0:
432,128,226896,1,0,0:0:0:0:
256,128,226987,1,0,0:0:0:0:
80,144,227078,6,0,L|80:224,1,71.4999967269899,4|0,0:0|0:0,0:0:0:0:
292,256,227259,2,0,L|212:256,1,71.4999967269899,0|0,0:0|0:0,0:0:0:0:
432,240,227441,2,0,L|432:160,1,71.4999967269899,0|0,0:0|0:0,0:0:0:0:
220,128,227623,2,0,L|300:128,1,71.4999967269899,0|0,0:0|0:0,0:0:0:0:
80,96,227805,6,0,L|160:96,1,71.4999967269899,2|0,0:0|0:0,0:0:0:0:
360,96,227987,2,0,L|432:96,1,71.4999967269899,2|0,0:0|0:0,0:0:0:0:
224,192,228169,2,0,L|153:192,1,71.4999967269899,8|0,0:0|0:0,0:0:0:0:
360,192,228350,2,0,L|288:192,1,71.4999967269899,2|0,0:0|0:0,0:0:0:0:
80,192,228532,5,4,0:0:0:0:
288,192,228623,2,0,L|368:192,2,71.4999967269899,0|0|0,0:0|0:0|0:0,0:0:0:0:
80,96,228896,2,0,L|151:96,1,71.4999967269899,4|0,0:0|0:0,0:0:0:0:
368,96,229078,2,0,L|368:144,1,35.749998363495,0|0,0:0|0:0,0:0:0:0:
320,160,229169,1,0,0:0:0:0:
112,96,229259,5,4,0:0:0:0:
64,96,229305,1,2,0:0:0:0:
40,144,229350,1,2,0:0:0:0:
64,192,229396,1,2,0:0:0:0:
192,192,229441,1,2,0:0:0:0:
478,192,229623,2,0,L|192:192,1,285.99998690796,8|0,0:0|0:0,0:0:0:0:
264,192,229896,1,0,0:0:0:0:
61,238,229987,6,0,P|21:180|32:112,1,142.99999345398,4|0,0:0|0:0,0:0:0:0:
304,96,230350,1,8,0:0:0:0:
304,144,230396,1,2,0:0:0:0:
272,192,230441,1,2,0:0:0:0:
224,224,230487,1,2,0:0:0:0:
176,192,230532,1,0,0:0:0:0:
144,144,230578,1,0,0:0:0:0:
144,96,230623,1,0,0:0:0:0:
352,96,230714,6,0,L|208:96,1,142.99999345398,4|0,0:0|0:0,0:0:0:0:
480,64,231078,1,8,0:0:0:0:
496,112,231123,1,2,0:0:0:0:
464,160,231169,1,2,0:0:0:0:
416,192,231214,1,2,0:0:0:0:
464,224,231259,1,0,0:0:0:0:
496,272,231305,1,0,0:0:0:0:
480,320,231350,1,0,0:0:0:0:
272,320,231441,6,0,L|192:320,1,71.4999967269899,4|0,0:0|0:0,0:0:0:0:
416,320,231623,2,0,L|336:320,1,71.4999967269899,2|0,0:0|0:0,0:0:0:0:
128,256,231805,2,0,L|48:256,1,71.4999967269899,0|0,0:0|0:0,0:0:0:0:
272,256,231987,2,0,L|352:256,1,71.4999967269899,2|0,0:0|0:0,0:0:0:0:
128,192,232169,6,0,L|128:144,1,35.749998363495,4|0,0:0|0:0,0:0:0:0:
256,192,232259,2,0,L|256:144,1,35.749998363495,0|0,0:0|0:0,0:0:0:0:
128,192,232350,1,0,0:0:0:0:
80,160,232396,1,0,0:0:0:0:
80,112,232441,1,0,0:0:0:0:
128,80,232487,1,0,0:0:0:0:
256,192,232532,1,8,0:0:0:0:
352,192,232623,1,0,0:0:0:0:
144,272,232714,1,0,0:0:0:0:
48,272,232805,1,0,0:0:0:0:
256,192,232896,6,0,L|272:256,1,63.250001206398,4|0,0:0|0:0,0:0:0:0:
192,192,233078,2,0,L|208:256,1,63.250001206398,0|0,0:0|0:0,0:0:0:0:
400,192,233259,2,0,P|432:160|400:96,1,126.500002412796,2|0,0:0|0:0,0:0:0:0:
208,96,233532,2,0,L|336:96,1,126.500002412796,2|0,0:0|0:0,0:0:0:0:
144,192,233805,2,0,L|272:192,1,126.500002412796,2|0,0:0|0:0,0:0:0:0:
80,192,234078,2,0,L|80:128,1,63.250001206398,0|2,0:0|0:0,0:0:0:0:
144,96,234259,1,0,0:0:0:0:
336,96,234350,6,0,L|336:160,1,63.250001206398,8|0,0:0|0:0,0:0:0:0:
144,96,234532,1,2,0:0:0:0:
96,112,234578,2,0,L|96:144,1,31.625000603199,0|0,0:0|0:0,0:0:0:0:
288,192,234714,2,0,L|160:192,1,126.500002412796,2|0,0:0|0:0,0:0:0:0:
112,192,234941,1,0,0:0:0:0:
112,144,234987,1,0,0:0:0:0:
160,144,235032,1,0,0:0:0:0:
288,144,235078,2,0,L|288:208,1,63.250001206398,8|0,0:0|0:0,0:0:0:0:
96,272,235259,2,0,B|223:273|223:273|96:272,1,253.000004825592,2|0,0:0|0:0,0:0:0:0:
160,272,235714,1,2,0:0:0:0:
352,272,235805,6,0,L|288:272,2,63.250001206398,8|0|0,0:0|0:0|0:0,0:0:0:0:
192,192,236169,2,0,L|320:192,1,126.500002412796,0|0,0:0|0:0,0:0:0:0:
64,80,236532,1,0,0:0:0:0:
320,80,236714,1,0,0:0:0:0:
64,80,236896,1,0,0:0:0:0:
144,80,236987,1,0,0:0:0:0:
336,80,237078,1,0,0:0:0:0:
256,80,237169,1,2,0:0:0:0:
64,80,237259,6,0,L|192:80,1,126.500002412796,4|0,0:0|0:0,0:0:0:0:
128,80,237532,1,0,0:0:0:0:
288,192,237623,2,0,L|128:192,1,159.500004867554,2|0,0:0|0:0,0:0:0:0:
384,80,237987,2,0,L|128:80,1,253.000004825592,2|0,0:0|0:0,0:0:0:0:
384,80,238350,1,2,0:0:0:0:
432,80,238396,1,0,0:0:0:0:
464,128,238441,1,0,0:0:0:0:
464,176,238487,1,0,0:0:0:0:
424,128,238532,1,0,0:0:0:0:
464,128,238578,1,0,0:0:0:0:
424,176,238623,1,0,0:0:0:0:
256,192,238714,6,0,L|240:256,1,63.250001206398,4|0,0:0|0:0,0:0:0:0:
320,192,238896,2,0,L|304:256,1,63.250001206398,0|0,0:0|0:0,0:0:0:0:
112,192,239078,2,0,P|80:160|112:96,1,126.500002412796,2|0,0:0|0:0,0:0:0:0:
304,96,239350,2,0,L|176:96,1,126.500002412796,2|0,0:0|0:0,0:0:0:0:
368,192,239623,2,0,L|240:192,1,126.500002412796,2|0,0:0|0:0,0:0:0:0:
48,192,239896,1,0,0:0:0:0:
240,96,239987,2,0,L|304:96,1,63.250001206398,2|0,0:0|0:0,0:0:0:0:
112,96,240169,6,0,L|112:160,1,63.250001206398,8|0,0:0|0:0,0:0:0:0:
304,96,240350,1,2,0:0:0:0:
352,112,240396,2,0,L|352:144,1,31.625000603199,0|0,0:0|0:0,0:0:0:0:
160,192,240532,2,0,L|288:192,1,126.500002412796,2|0,0:0|0:0,0:0:0:0:
336,192,240759,1,0,0:0:0:0:
352,168,240805,1,0,0:0:0:0:
336,144,240850,1,0,0:0:0:0:
208,144,240896,2,0,L|208:208,1,63.250001206398,8|0,0:0|0:0,0:0:0:0:
400,272,241078,2,0,B|273:273|273:273|400:272,1,253.000004825592,2|0,0:0|0:0,0:0:0:0:
336,272,241532,1,2,0:0:0:0:
144,272,241623,6,0,L|208:272,2,63.250001206398,0|0|0,0:0|0:0|0:0,0:0:0:0:
304,192,241987,2,0,L|176:192,1,126.500002412796,0|0,0:0|0:0,0:0:0:0:
432,80,242350,1,0,0:0:0:0:
176,80,242532,1,0,0:0:0:0:
432,80,242714,1,0,0:0:0:0:
352,80,242805,1,0,0:0:0:0:
160,80,242896,1,0,0:0:0:0:
240,80,242987,1,2,0:0:0:0:
432,80,243078,5,4,0:0:0:0:
456,99,243123,1,0,0:0:0:0:
472,126,243169,1,0,0:0:0:0:
475,157,243214,1,0,0:0:0:0:
465,187,243259,1,0,0:0:0:0:
444,210,243305,1,0,0:0:0:0:
415,223,243350,1,0,0:0:0:0:
384,224,243396,1,0,0:0:0:0:
240,224,243441,1,8,0:0:0:0:
480,224,243623,1,8,0:0:0:0:
32,192,243987,6,0,B|160:192|160:192|264:192|264:32|160:32,1,379.500007238388,8|0,0:0|0:0,0:0:0:0:
112,32,244578,1,0,0:0:0:0:
80,64,244623,1,0,0:0:0:0:
72,112,244669,1,0,0:0:0:0:
80,160,244714,1,0,0:0:0:0:
112,192,244759,1,0,0:0:0:0:
160,192,244805,1,0,0:0:0:0:
224,192,244850,1,0,0:0:0:0:
384,192,244896,1,8,0:0:0:0:
128,192,245078,1,8,0:0:0:0:
384,192,245259,1,8,0:0:0:0:
48,192,245441,5,8,0:0:0:0:
256,192,245623,12,0,247441,0:0:0:0:
