osu file format v14

[General]
AudioFilename: audio.mp3
AudioLeadIn: 0
PreviewTime: 81532
Countdown: 0
SampleSet: Normal
StackLeniency: 0.7
Mode: 2
LetterboxInBreaks: 0
WidescreenStoryboard: 1

[Editor]
Bookmarks: 23441,35078,58350,81623,104896,116532,139805,163078,186350,209623,221259,232896
DistanceSpacing: 1.6
BeatDivisor: 4
GridSize: 8
TimelineZoom: 2.1

[Metadata]
Title:Bloody Night
TitleUnicode:Bloody Night
Artist:A-One feat. Shihori
ArtistUnicode:A-One feat. Shihori
Creator:ZiRoX
Version:Cup
Source:東方妖々夢 ~ Perfect Cherry Blossom.
Tags:Deif GIGACHAD Dako Featured Artist FA Mappers' Guild MG 東方Project Touhou Youyoumu Team Shanghai Alice ZUN TOHO EUROBEAT VOL. 4 アリス・マーガトロイド Alice Margatroid ブクレシュティの人形師 The Doll Maker of Bucuresti Video Game English
BeatmapID:3217243
BeatmapSetID:1543564

[Difficulty]
HPDrainRate:3
CircleSize:2.5
OverallDifficulty:6
ApproachRate:6
SliderMultiplier:1.3
SliderTickRate:1

[Events]
//Background and Video events
0,0,"bg_bloodynight.png",0,0
//Break Periods
2,105096,115300
//Storyboard Layer 0 (Background)
//Storyboard Layer 1 (Fail)
//Storyboard Layer 2 (Pass)
//Storyboard Layer 3 (Foreground)
//Storyboard Layer 4 (Overlay)
//Storyboard Sound Samples

[TimingPoints]
169,363.636363636364,4,2,1,85,1,0
11805,-100,4,1,1,75,0,0
12169,-100,4,2,1,90,0,0
12350,-100,4,1,1,75,0,0
12532,-100,4,2,1,90,0,0
12896,-100,4,1,1,65,0,0
13259,-100,4,1,1,75,0,0
13532,-100,4,2,1,90,0,0
13805,-100,4,1,1,75,0,0
13987,-100,4,2,1,90,0,0
14350,-100,4,1,1,65,0,0
14714,-100,4,1,1,75,0,0
15078,-100,4,2,1,90,0,0
15259,-100,4,1,1,75,0,0
15441,-100,4,2,1,90,0,0
15805,-100,4,1,1,65,0,0
16169,-100,4,1,1,75,0,0
16441,-100,4,2,1,90,0,0
16714,-100,4,1,1,75,0,0
16896,-100,4,2,1,90,0,0
17259,-100,4,1,1,65,0,0
17623,-100,4,1,1,75,0,0
17805,-100,4,2,1,90,0,0
17987,-100,4,1,1,65,0,0
18169,-100,4,2,1,90,0,0
18714,-100,4,1,1,65,0,0
18805,-100,4,2,1,90,0,0
19441,-100,4,1,1,65,0,0
19623,-100,4,2,1,90,0,0
20169,-100,4,1,1,65,0,0
20259,-100,4,2,1,90,0,0
20896,-100,4,1,1,65,0,0
21078,-100,4,2,1,90,0,0
21259,-100,4,1,1,65,0,0
21350,-100,4,2,1,90,0,0
21623,-100,4,1,1,65,0,0
21714,-100,4,2,1,90,0,0
23441,-100,4,1,1,85,0,0
23532,-100,4,2,1,90,0,0
26350,-100,4,1,1,85,0,0
27714,-100,4,2,1,90,0,0
27805,-100,4,1,1,75,0,0
27896,-100,4,2,1,90,0,0
28169,-100,4,2,1,90,0,0
29259,-100,4,1,1,85,0,0
29350,-100,4,2,1,90,0,0
32169,-100,4,1,1,85,0,0
33532,-100,4,2,1,90,0,0
33623,-100,4,1,1,85,0,0
33714,-100,4,2,1,90,0,0
35441,-100,4,1,1,65,0,0
35623,-100,4,2,1,90,0,0
36169,-100,4,1,1,65,0,0
36350,-100,4,2,1,90,0,0
36896,-100,4,1,1,65,0,0
37078,-100,4,2,1,90,0,0
37623,-100,4,1,1,65,0,0
37805,-100,4,2,1,90,0,0
38350,-100,4,1,1,65,0,0
38532,-100,4,2,1,90,0,0
39078,-100,4,1,1,65,0,0
39259,-100,4,2,1,90,0,0
39805,-100,4,1,1,65,0,0
39987,-100,4,2,1,90,0,0
40532,-100,4,1,1,65,0,0
40714,-100,4,2,1,90,0,0
41259,-100,4,1,1,65,0,0
41441,-100,4,2,1,90,0,0
41987,-100,4,1,1,65,0,0
42169,-100,4,2,1,90,0,0
42714,-100,4,1,1,65,0,0
42896,-100,4,2,1,90,0,0
43441,-100,4,1,1,65,0,0
43623,-100,4,2,1,90,0,0
44350,-100,4,2,1,85,0,0
46532,-100,4,2,1,90,0,0
47078,-100,4,1,1,65,0,0
47259,-100,4,2,1,90,0,0
48532,-100,4,1,1,65,0,0
48714,-100,4,2,1,90,0,0
49259,-100,4,1,1,65,0,0
49441,-100,4,2,1,90,0,0
49987,-100,4,1,1,65,0,0
50169,-100,4,2,1,90,0,0
51441,-100,4,1,1,65,0,0
51623,-100,4,2,1,90,0,0
52169,-100,4,1,1,65,0,0
52350,-100,4,2,1,90,0,0
52896,-100,4,1,1,65,0,0
53078,-100,4,2,1,90,0,0
58714,-100,4,1,1,75,0,0
58805,-100,4,2,1,90,0,0
59441,-100,4,1,1,75,0,0
59502,-100,4,2,1,90,0,0
60169,-100,4,1,1,75,0,0
60259,-100,4,2,1,90,0,0
60896,-100,4,1,1,75,0,0
61078,-100,4,2,1,90,0,0
61623,-100,4,1,1,75,0,0
61805,-100,4,2,1,90,0,0
62350,-100,4,1,1,75,0,0
62532,-100,4,2,1,90,0,0
63078,-100,4,1,1,75,0,0
63441,-100,4,2,1,90,0,0
63623,-100,4,1,1,75,0,0
64169,-100,4,2,1,90,0,0
64532,-100,4,1,1,75,0,0
64623,-100,4,2,1,90,0,0
65259,-100,4,1,1,75,0,0
65350,-100,4,2,1,90,0,0
65987,-100,4,1,1,75,0,0
66169,-100,4,2,1,90,0,0
66714,-100,4,1,1,75,0,0
66896,-100,4,2,1,90,0,0
70351,-100,4,1,1,75,0,0
70442,-100,4,2,1,90,0,0
71078,-100,4,1,1,75,0,0
71139,-100,4,2,1,90,0,0
71806,-100,4,1,1,75,0,0
71896,-100,4,2,1,90,0,0
72533,-100,4,1,1,75,0,0
72715,-100,4,2,1,90,0,0
73260,-100,4,1,1,75,0,0
73442,-100,4,2,1,90,0,0
73987,-100,4,1,1,75,0,0
74169,-100,4,2,1,90,0,0
74715,-100,4,1,1,75,0,0
75078,-100,4,2,1,90,0,0
75260,-100,4,1,1,75,0,0
75805,-100,4,2,1,90,0,0
76169,-100,4,1,1,75,0,0
76350,-100,4,2,1,90,0,0
76896,-100,4,1,1,75,0,0
77259,-100,4,2,1,90,0,0
77623,-100,4,1,1,75,0,0
77805,-100,4,2,1,90,0,0
78350,-100,4,1,1,75,0,0
78532,-100,4,2,1,90,0,0
80896,-100,4,2,1,80,0,0
81623,-100,4,2,1,100,0,1
81987,-100,4,1,1,80,0,1
82169,-100,4,2,1,100,0,1
82714,-100,4,1,1,80,0,1
83078,-100,4,2,1,100,0,1
83441,-100,4,1,1,80,0,1
83532,-100,4,2,1,100,0,1
84169,-100,4,1,1,80,0,1
84214,-100,4,2,1,100,0,1
84896,-100,4,1,1,80,0,1
84941,-100,4,2,1,100,0,1
85623,-100,4,1,1,80,0,1
85668,-100,4,2,1,100,0,1
86350,-100,4,1,1,80,0,1
86396,-100,4,2,1,100,0,1
87078,-100,4,1,1,80,0,1
87123,-100,4,2,1,100,0,1
87805,-100,4,1,1,80,0,1
87896,-100,4,2,1,100,0,1
88532,-100,4,1,1,80,0,1
88623,-100,4,2,1,100,0,1
89987,-100,4,1,1,80,0,1
90169,-100,4,2,1,100,0,1
90714,-100,4,1,1,80,0,1
90759,-100,4,2,1,100,0,1
91442,-100,4,1,1,80,0,1
91487,-100,4,2,1,100,0,1
92169,-100,4,1,1,80,0,1
92259,-100,4,2,1,100,0,1
92896,-100,4,1,1,80,0,1
92941,-100,4,2,1,100,0,1
93623,-100,4,1,1,80,0,1
93805,-100,4,2,1,100,0,1
94350,-100,4,1,1,80,0,1
94714,-100,4,2,1,100,0,1
95077,-100,4,1,1,80,0,1
95168,-100,4,2,1,100,0,1
95805,-100,4,1,1,80,0,1
95850,-100,4,2,1,100,0,1
96532,-100,4,1,1,80,0,1
96577,-100,4,2,1,100,0,1
97259,-100,4,1,1,80,0,1
97304,-100,4,2,1,100,0,1
97986,-100,4,1,1,80,0,1
98032,-100,4,2,1,100,0,1
98714,-100,4,1,1,80,0,1
98759,-100,4,2,1,100,0,1
99441,-100,4,1,1,80,0,1
99532,-100,4,2,1,100,0,1
100168,-100,4,1,1,80,0,1
100259,-100,4,2,1,100,0,1
101623,-100,4,1,1,80,0,1
101805,-100,4,2,1,100,0,1
102350,-100,4,1,1,80,0,1
102395,-100,4,2,1,100,0,1
103078,-100,4,1,1,80,0,1
103123,-100,4,2,1,100,0,1
103805,-100,4,1,1,80,0,1
103895,-100,4,2,1,100,0,1
104532,-100,4,1,1,80,0,1
104896,-100,4,1,1,75,0,0
104987,-100,4,2,1,90,0,0
107805,-100,4,1,1,50,0,0
109169,-100,4,2,1,90,0,0
109260,-100,4,1,1,75,0,0
109351,-100,4,2,1,90,0,0
110714,-100,4,1,1,75,0,0
110805,-100,4,2,1,90,0,0
113624,-100,4,1,1,50,0,0
114987,-100,4,2,1,90,0,0
115078,-100,4,1,1,75,0,0
115169,-100,4,2,1,90,0,0
116895,-100,4,1,1,65,0,0
117077,-100,4,2,1,90,0,0
117623,-100,4,1,1,65,0,0
117804,-100,4,2,1,90,0,0
118350,-100,4,1,1,65,0,0
118532,-100,4,2,1,90,0,0
119077,-100,4,1,1,65,0,0
119259,-100,4,2,1,90,0,0
119804,-100,4,1,1,65,0,0
119986,-100,4,2,1,90,0,0
120532,-100,4,1,1,65,0,0
120713,-100,4,2,1,90,0,0
121259,-100,4,1,1,65,0,0
121441,-100,4,2,1,90,0,0
121986,-100,4,1,1,65,0,0
122168,-100,4,2,1,90,0,0
122713,-100,4,1,1,65,0,0
122895,-100,4,2,1,90,0,0
123441,-100,4,1,1,65,0,0
123623,-100,4,2,1,90,0,0
124168,-100,4,1,1,65,0,0
124350,-100,4,2,1,90,0,0
124895,-100,4,1,1,65,0,0
125077,-100,4,2,1,90,0,0
125804,-100,4,2,1,65,0,0
127986,-100,4,2,1,90,0,0
128532,-100,4,1,1,65,0,0
128713,-100,4,2,1,90,0,0
129986,-100,4,1,1,65,0,0
130168,-100,4,2,1,90,0,0
130713,-100,4,1,1,65,0,0
130895,-100,4,2,1,90,0,0
131441,-100,4,1,1,65,0,0
131623,-100,4,2,1,90,0,0
132895,-100,4,1,1,65,0,0
133077,-100,4,2,1,90,0,0
133623,-100,4,1,1,65,0,0
133804,-100,4,2,1,90,0,0
134350,-100,4,1,1,65,0,0
134532,-100,4,2,1,90,0,0
139896,-100,4,1,1,75,0,0
139987,-100,4,2,1,90,0,0
140169,-100,4,1,1,75,0,0
140260,-100,4,2,1,90,0,0
140896,-100,4,1,1,75,0,0
140957,-100,4,2,1,90,0,0
141624,-100,4,1,1,75,0,0
141714,-100,4,2,1,90,0,0
142351,-100,4,1,1,75,0,0
142533,-100,4,2,1,90,0,0
142805,-100,4,1,1,75,0,0
143260,-100,4,2,1,90,0,0
143805,-100,4,1,1,75,0,0
143987,-100,4,2,1,90,0,0
144260,-100,4,1,1,75,0,0
144351,-100,4,2,1,90,0,0
144533,-100,4,1,1,75,0,0
144896,-100,4,2,1,90,0,0
145078,-100,4,1,1,75,0,0
145351,-100,4,2,1,90,0,0
145714,-100,4,1,1,75,0,0
145805,-100,4,2,1,90,0,0
145987,-100,4,1,1,75,0,0
146078,-100,4,2,1,90,0,0
146714,-100,4,1,1,75,0,0
146805,-100,4,2,1,90,0,0
147442,-100,4,1,1,75,0,0
147624,-100,4,2,1,90,0,0
148169,-100,4,1,1,75,0,0
148351,-100,4,2,1,90,0,0
148624,-100,4,1,1,75,0,0
149987,-100,4,2,1,90,0,0
150078,-100,4,1,1,75,0,0
150169,-100,4,2,1,90,0,0
151806,-100,4,1,1,75,0,0
151897,-100,4,2,1,90,0,0
152533,-100,4,1,1,75,0,0
152594,-100,4,2,1,90,0,0
153261,-100,4,1,1,75,0,0
153351,-100,4,2,1,90,0,0
153988,-100,4,1,1,75,0,0
154170,-100,4,2,1,90,0,0
154715,-100,4,1,1,75,0,0
154897,-100,4,2,1,90,0,0
155442,-100,4,1,1,75,0,0
155624,-100,4,2,1,90,0,0
156170,-100,4,1,1,75,0,0
156533,-100,4,2,1,90,0,0
156715,-100,4,1,1,75,0,0
157260,-100,4,2,1,90,0,0
157624,-100,4,1,1,75,0,0
157805,-100,4,2,1,90,0,0
158351,-100,4,1,1,75,0,0
158714,-100,4,2,1,90,0,0
159078,-100,4,1,1,75,0,0
159260,-100,4,2,1,90,0,0
159805,-100,4,1,1,75,0,0
159987,-100,4,2,1,90,0,0
162351,-100,4,2,1,80,0,0
163078,-100,4,2,1,100,0,1
163442,-100,4,1,1,80,0,1
163624,-100,4,2,1,100,0,1
164169,-100,4,1,1,80,0,1
164533,-100,4,2,1,100,0,1
164896,-100,4,1,1,80,0,1
164987,-100,4,2,1,100,0,1
165624,-100,4,1,1,80,0,1
165669,-100,4,2,1,100,0,1
166351,-100,4,1,1,80,0,1
166396,-100,4,2,1,100,0,1
167078,-100,4,1,1,80,0,1
167123,-100,4,2,1,100,0,1
167805,-100,4,1,1,80,0,1
167851,-100,4,2,1,100,0,1
168533,-100,4,1,1,80,0,1
168578,-100,4,2,1,100,0,1
169260,-100,4,1,1,80,0,1
169351,-100,4,2,1,100,0,1
169987,-100,4,1,1,80,0,1
170078,-100,4,2,1,100,0,1
171442,-100,4,1,1,80,0,1
171624,-100,4,2,1,100,0,1
172169,-100,4,1,1,80,0,1
172214,-100,4,2,1,100,0,1
172897,-100,4,1,1,80,0,1
172942,-100,4,2,1,100,0,1
173624,-100,4,1,1,80,0,1
173714,-100,4,2,1,100,0,1
174351,-100,4,1,1,80,0,1
174396,-100,4,2,1,100,0,1
175078,-100,4,1,1,80,0,1
175260,-100,4,2,1,100,0,1
175805,-100,4,1,1,80,0,1
176169,-100,4,2,1,100,0,1
176532,-100,4,1,1,80,0,1
176623,-100,4,2,1,100,0,1
177260,-100,4,1,1,80,0,1
177305,-100,4,2,1,100,0,1
177987,-100,4,1,1,80,0,1
178032,-100,4,2,1,100,0,1
178714,-100,4,1,1,80,0,1
178759,-100,4,2,1,100,0,1
179441,-100,4,1,1,80,0,1
179487,-100,4,2,1,100,0,1
180169,-100,4,1,1,80,0,1
180214,-100,4,2,1,100,0,1
180896,-100,4,1,1,80,0,1
180987,-100,4,2,1,100,0,1
181623,-100,4,1,1,80,0,1
181714,-100,4,2,1,100,0,1
183078,-100,4,1,1,80,0,1
183260,-100,4,2,1,100,0,1
183805,-100,4,1,1,80,0,1
183850,-100,4,2,1,100,0,1
184533,-100,4,1,1,80,0,1
184578,-100,4,2,1,100,0,1
185260,-100,4,1,1,80,0,1
185350,-100,4,2,1,100,0,1
185987,-100,4,1,1,80,0,1
186350,-100,4,2,1,90,0,0
186714,-100,4,1,1,75,0,0
186896,-100,4,2,1,90,0,0
187441,-100,4,1,1,75,0,0
187623,-100,4,2,1,90,0,0
188169,-100,4,1,1,75,0,0
188259,-100,4,2,1,90,0,0
188896,-100,4,1,1,75,0,0
188986,-100,4,2,1,90,0,0
189623,-100,4,1,1,75,0,0
189669,-100,4,2,1,90,0,0
190350,-100,4,1,1,75,0,0
190396,-100,4,2,1,90,0,0
191078,-100,4,1,1,75,0,0
191169,-100,4,2,1,90,0,0
191805,-100,4,1,1,75,0,0
191851,-100,4,2,1,90,0,0
192532,-100,4,1,1,75,0,0
192623,-100,4,2,1,90,0,0
193259,-100,4,1,1,75,0,0
193350,-100,4,2,1,90,0,0
193987,-100,4,1,1,75,0,0
194078,-100,4,2,1,90,0,0
194714,-100,4,1,1,75,0,0
194805,-100,4,2,1,75,0,0
195441,-100,4,1,1,75,0,0
195487,-100,4,2,1,90,0,0
196169,-100,4,1,1,75,0,0
196215,-100,4,2,1,90,0,0
196896,-100,4,1,1,75,0,0
196987,-100,4,2,1,90,0,0
197623,-100,4,1,1,75,0,0
197669,-100,4,2,1,90,0,0
198350,-100,4,1,1,75,0,0
198441,-100,4,2,1,90,0,0
199078,-100,4,1,1,75,0,0
199259,-100,4,2,1,90,0,0
199805,-100,4,1,1,75,0,0
199896,-100,4,2,1,90,0,0
200532,-100,4,1,1,75,0,0
200623,-100,4,2,1,90,0,0
201259,-100,4,1,1,75,0,0
201305,-100,4,2,1,90,0,0
201987,-100,4,1,1,75,0,0
202033,-100,4,2,1,90,0,0
202714,-100,4,1,1,75,0,0
202805,-100,4,2,1,90,0,0
203441,-100,4,1,1,75,0,0
203487,-100,4,2,1,90,0,0
204169,-100,4,1,1,75,0,0
204259,-100,4,2,1,90,0,0
204896,-100,4,1,1,75,0,0
204986,-100,4,2,1,90,0,0
205623,-100,4,1,1,75,0,0
205713,-100,4,2,1,90,0,0
206350,-100,4,1,1,75,0,0
206532,-100,4,2,1,90,0,0
207078,-100,4,1,1,75,0,0
207123,-100,4,2,1,90,0,0
207805,-100,4,1,1,75,0,0
207850,-100,4,2,1,90,0,0
209623,-100,4,2,1,70,0,0
214714,-100,4,2,1,90,0,0
215441,-100,4,2,1,70,0,0
220896,-100,4,2,1,100,0,0
221259,-100,4,2,1,100,0,1
221623,-100,4,1,1,80,0,1
221805,-100,4,2,1,100,0,1
222350,-100,4,1,1,80,0,1
222714,-100,4,2,1,100,0,1
223077,-100,4,1,1,80,0,1
223168,-100,4,2,1,100,0,1
223805,-100,4,1,1,80,0,1
223850,-100,4,2,1,100,0,1
224532,-100,4,1,1,80,0,1
224577,-100,4,2,1,100,0,1
225259,-100,4,1,1,80,0,1
225304,-100,4,2,1,100,0,1
225986,-100,4,1,1,80,0,1
226032,-100,4,2,1,100,0,1
226714,-100,4,1,1,80,0,1
226759,-100,4,2,1,100,0,1
227441,-100,4,1,1,80,0,1
227532,-100,4,2,1,100,0,1
228168,-100,4,1,1,80,0,1
228259,-100,4,2,1,100,0,1
229623,-100,4,1,1,80,0,1
229805,-100,4,2,1,100,0,1
230350,-100,4,1,1,80,0,1
230395,-100,4,2,1,100,0,1
231078,-100,4,1,1,80,0,1
231123,-100,4,2,1,100,0,1
231805,-100,4,1,1,80,0,1
231895,-100,4,2,1,100,0,1
232532,-100,4,1,1,80,0,1
232896,-100,4,1,1,75,0,0
232987,-100,4,2,1,90,0,0
235805,-100,4,1,1,65,0,0
237169,-100,4,2,1,90,0,0
237260,-100,4,1,1,75,0,0
237351,-100,4,2,1,90,0,0
238714,-100,4,1,1,75,0,0
238805,-100,4,2,1,90,0,0
241624,-100,4,1,1,50,0,0
242987,-100,4,2,1,90,0,0
243078,-100,4,1,1,75,0,0
243169,-100,4,2,1,90,0,0

[Colours]
Combo1 : 0,118,174
Combo2 : 163,93,145
Combo3 : 227,45,122
Combo4 : 128,128,255

[HitObjects]
384,248,169,6,0,L|472:248,2,65,6|0|0,0:0|0:0|0:0,0:0:0:0:
248,248,896,2,0,L|248:112,1,130,0|0,0:0|0:0,0:0:0:0:
308,112,1441,1,2,0:0:0:0:
444,112,1805,1,0,0:0:0:0:
440,272,1987,6,0,L|296:272,1,130,0|0,0:0|0:0,0:0:0:0:
184,256,2714,2,0,L|184:164,1,65,0|2,0:0|0:0,0:0:0:0:
48,104,3259,1,0,0:0:0:0:
116,272,3441,6,0,L|248:272,1,130
384,272,4169,2,0,L|384:180,1,65,0|2,0:0|0:0,0:0:0:0:
256,104,4714,1,0,0:0:0:0:
192,104,4896,6,0,L|192:240,1,130
328,200,5623,2,0,L|328:296,1,65,0|2,0:0|0:0,0:0:0:0:
196,216,6169,6,0,L|196:308,1,65,0|0,0:0|0:0,0:0:0:0:
128,312,6532,2,0,L|44:312,1,65,0|0,0:0|0:0,0:0:0:0:
192,240,7078,2,0,L|192:144,1,65,0|2,0:0|0:0,0:0:0:0:
324,124,7623,6,0,L|324:216,1,65,0|0,0:0|0:0,0:0:0:0:
392,208,7987,2,0,L|392:300,1,65,0|0,0:0|0:0,0:0:0:0:
264,280,8532,2,0,L|184:280,1,65,0|2,0:0|0:0,0:0:0:0:
344,240,9078,6,0,L|344:332,1,65,0|0,0:0|0:0,0:0:0:0:
276,328,9441,2,0,L|192:328,1,65,0|0,0:0|0:0,0:0:0:0:
84,280,9987,2,0,L|84:184,1,65,0|2,0:0|0:0,0:0:0:0:
232,224,10532,6,0,L|232:136,1,65,0|0,0:0|0:0,0:0:0:0:
304,160,10896,2,0,L|304:88,1,65
232,96,11259,2,0,L|232:0,1,65
384,40,11805,5,4,0:0:0:0:
384,88,12350,2,0,L|384:288,1,195,8|8,0:0|0:0,0:0:0:0:
248,80,13259,5,4,0:0:0:0:
248,184,13805,2,0,L|248:392,1,195,8|8,0:0|0:0,0:0:0:0:
376,80,14714,5,4,0:0:0:0:
184,72,15259,2,0,L|184:288,1,195,8|8,0:0|0:0,0:0:0:0:
312,288,16169,5,4,0:0:0:0:
488,288,16714,2,0,L|488:72,1,195,8|8,0:0|0:0,0:0:0:0:
352,80,17623,5,4,0:0:0:0:
352,80,17987,1,8,0:0:0:0:
352,80,18350,1,0,0:0:0:0:
352,80,18714,1,8,0:0:0:0:
216,80,19078,5,4,0:0:0:0:
216,80,19441,1,8,0:0:0:0:
216,80,19805,1,2,0:0:0:0:
216,80,20169,1,8,0:0:0:0:
336,152,20532,6,0,L|336:232,1,65,4|0,0:0|0:0,0:0:0:0:
272,248,20896,1,8,0:0:0:0:
128,240,21259,2,0,L|128:336,1,65,8|0,0:0|0:0,0:0:0:0:
192,320,21623,1,8,0:0:0:0:
336,328,21987,5,4,0:0:0:0:
392,288,22169,1,0,0:0:0:0:
424,232,22350,1,2,0:0:0:0:
432,152,22532,1,2,0:0:0:0:
400,88,22714,5,2,0:0:0:0:
344,40,22896,1,2,0:0:0:0:
280,24,23078,1,6,0:0:0:0:
136,24,23441,5,4,0:0:0:0:
32,96,23805,2,0,L|32:200,1,97.5,2|2,0:0|0:0,0:0:0:0:
128,208,24350,2,0,L|240:208,1,97.5,2|0,0:0|0:0,0:0:0:0:
328,208,24896,1,8,0:0:0:0:
392,208,25078,5,2,0:0:0:0:
392,208,25259,1,2,0:0:0:0:
272,104,25623,1,8,0:0:0:0:
272,104,25805,1,2,0:0:0:0:
112,112,26259,6,0,L|112:224,1,97.5,2|0,0:0|0:0,0:0:0:0:
176,224,26714,1,0,0:0:0:0:
312,224,27078,2,0,L|312:312,1,65,0|0,0:0|0:0,0:0:0:0:
248,328,27441,1,0,0:0:0:0:
144,320,27714,6,0,L|144:208,1,97.5,2|0,0:0|0:0,0:0:0:0:
208,184,28169,1,6,0:0:0:0:
344,184,28532,1,6,0:0:0:0:
208,184,28896,1,6,0:0:0:0:
344,184,29259,5,4,0:0:0:0:
480,184,29623,2,0,L|480:288,1,97.5,2|2,0:0|0:0,0:0:0:0:
384,288,30169,2,0,L|272:288,1,97.5,2|0,0:0|0:0,0:0:0:0:
184,288,30714,1,8,0:0:0:0:
112,288,30896,5,2,0:0:0:0:
112,288,31078,1,2,0:0:0:0:
240,184,31441,1,8,0:0:0:0:
240,184,31623,1,2,0:0:0:0:
96,192,32078,6,0,L|96:312,1,97.5,2|0,0:0|0:0,0:0:0:0:
168,304,32532,1,0,0:0:0:0:
304,232,32896,2,0,L|304:160,1,65,0|0,0:0|0:0,0:0:0:0:
304,96,33259,1,0,0:0:0:0:
184,96,33532,5,2,0:0:0:0:
328,96,33987,2,0,L|328:32,1,65,8|8,0:0|0:0,0:0:0:0:
184,32,34532,1,8,0:0:0:0:
328,32,34896,6,0,P|360:96|328:156,1,130,2|0,0:0|0:0,0:0:0:0:
272,168,35441,1,8,0:0:0:0:
208,176,35623,2,0,P|184:240|220:312,1,130,0|0,0:0|0:0,0:0:0:0:
336,296,36350,6,0,L|188:296,1,130,2|2,0:0|0:0,0:0:0:0:
200,224,36896,1,8,0:0:0:0:
320,120,37259,1,2,0:0:0:0:
200,120,37623,1,8,0:0:0:0:
128,120,37805,6,0,L|128:272,1,130,2|0,0:0|0:0,0:0:0:0:
192,248,38350,1,8,0:0:0:0:
256,248,38532,2,0,P|284:312|256:384,1,130,0|0,0:0|0:0,0:0:0:0:
120,312,39259,6,0,L|120:168,1,130,2|0,0:0|0:0,0:0:0:0:
184,160,39805,1,8,0:0:0:0:
320,160,40169,1,2,0:0:0:0:
200,64,40532,1,8,0:0:0:0:
136,64,40714,6,0,L|136:216,1,130,2|0,0:0|0:0,0:0:0:0:
200,192,41259,1,8,0:0:0:0:
264,192,41441,2,0,L|264:344,1,130,0|0,0:0|0:0,0:0:0:0:
136,352,42169,6,0,L|284:352,1,130,2|0,0:0|0:0,0:0:0:0:
336,352,42714,1,8,0:0:0:0:
208,240,43078,1,2,0:0:0:0:
344,240,43441,1,8,0:0:0:0:
416,240,43623,6,0,L|416:84,1,130,0|0,0:0|0:0,0:0:0:0:
280,80,44350,2,0,L|280:232,1,130,4|4,0:0|0:0,0:0:0:0:
144,144,45078,2,0,L|144:296,1,130,4|4,0:0|0:0,0:0:0:0:
296,168,45805,2,0,L|296:312,1,130,4|2,0:0|0:0,0:0:0:0:
144,160,46532,6,0,L|144:20,1,130,2|0,0:0|0:0,0:0:0:0:
208,32,47078,1,8,0:0:0:0:
272,32,47259,2,0,L|272:180,1,130,2|0,0:0|0:0,0:0:0:0:
160,168,47987,6,0,L|8:168,1,130,2|0,0:0|0:0,0:0:0:0:
24,240,48532,1,8,0:0:0:0:
24,304,48714,1,0,0:0:0:0:
96,304,48896,1,2,0:0:0:0:
240,304,49259,1,8,0:0:0:0:
312,304,49441,6,0,L|312:152,1,130,2|0,0:0|0:0,0:0:0:0:
248,168,49987,1,8,0:0:0:0:
180,164,50169,2,0,L|180:12,1,130,2|0,0:0|0:0,0:0:0:0:
44,300,50896,6,0,L|44:148,1,130,2|0,0:0|0:0,0:0:0:0:
112,160,51441,2,0,L|200:160,1,65,8|0,0:0|0:0,0:0:0:0:
248,160,51805,1,2,0:0:0:0:
376,160,52169,1,8,0:0:0:0:
448,160,52350,6,0,L|448:304,1,130,2|0,0:0|0:0,0:0:0:0:
380,284,52896,1,8,0:0:0:0:
312,288,53078,2,0,L|168:288,1,130,2|0,0:0|0:0,0:0:0:0:
48,216,53805,6,0,L|188:216,1,130,4|0,0:0|0:0,0:0:0:0:
240,208,54350,1,2,0:0:0:0:
356,132,54714,2,0,L|220:132,1,130,2|0,0:0|0:0,0:0:0:0:
160,128,55259,6,0,P|136:184|168:328,1,195,2|0,0:0|0:0,0:0:0:0:
348,236,56381,2,0,L|420:276,2,65
180,236,57259,1,0,0:0:0:0:
180,236,57623,1,0,0:0:0:0:
316,164,57987,1,0,0:0:0:0:
316,108,58169,1,0,0:0:0:0:
248,112,58350,6,0,L|88:112,1,130,4|8,0:0|0:0,0:0:0:0:
240,112,59078,1,2,0:0:0:0:
304,112,59259,1,0,0:0:0:0:
240,112,59441,1,8,0:0:0:0:
112,160,59805,6,0,L|304:248,2,195,2|0|8,0:0|0:0|0:0,0:0:0:0:
48,168,61078,6,0,L|48:304,1,130,0|0,0:0|0:0,0:0:0:0:
168,328,61805,2,0,L|304:328,1,130,0|0,0:0|0:0,0:0:0:0:
432,312,62532,6,0,L|432:176,1,130,2|0,0:0|0:0,0:0:0:0:
368,176,63078,1,8,0:0:0:0:
240,176,63441,1,2,0:0:0:0:
112,176,63805,1,8,0:0:0:0:
248,176,64169,6,0,L|56:264,2,195,2|0|8,0:0|0:0|0:0,0:0:0:0:
384,272,65623,6,0,L|384:56,1,195,2|0,0:0|0:0,0:0:0:0:
192,48,66714,1,8,0:0:0:0:
120,48,66896,6,0,L|120:208,1,130,2|0,0:0|0:0,0:0:0:0:
248,184,67623,1,0,0:0:0:0:
376,184,67987,1,0,0:0:0:0:
240,184,68350,6,0,L|240:328,1,130,2|0,0:0|0:0,0:0:0:0:
240,352,68896,1,2,0:0:0:0:
368,352,69259,1,2,0:0:0:0:
240,352,69623,1,2,0:0:0:0:
376,352,69987,6,0,L|376:208,1,130,4|8,0:0|0:0,0:0:0:0:
240,216,70714,1,2,0:0:0:0:
176,216,70896,1,0,0:0:0:0:
240,216,71078,1,8,0:0:0:0:
368,216,71441,6,0,L|176:304,2,195,2|0|8,0:0|0:0|0:0,0:0:0:0:
432,216,72714,6,0,L|432:64,1,130,0|0,0:0|0:0,0:0:0:0:
304,88,73441,2,0,L|152:88,1,130,0|0,0:0|0:0,0:0:0:0:
304,192,74169,6,0,L|160:192,1,130,2|0,0:0|0:0,0:0:0:0:
112,192,74714,1,8,0:0:0:0:
240,192,75078,1,2,0:0:0:0:
112,192,75441,1,8,0:0:0:0:
240,272,75805,6,0,L|440:272,1,195,4|0,0:0|0:0,0:0:0:0:
288,112,76896,1,8,0:0:0:0:
160,120,77259,6,0,B|32:144|32:144|32:224,1,195,4|0,0:0|0:0,0:0:0:0:
232,288,78350,1,8,0:0:0:0:
296,288,78532,6,0,L|296:144,1,130,4|0,0:0|0:0,0:0:0:0:
296,104,79078,1,2,0:0:0:0:
224,104,79259,1,2,0:0:0:0:
88,104,79623,1,2,0:0:0:0:
224,104,79987,6,0,L|224:256,1,130,8|2,0:0|0:0,0:0:0:0:
224,312,80532,1,2,0:0:0:0:
368,304,80896,2,0,L|368:216,1,65,4|0,0:0|0:0,0:0:0:0:
304,240,81259,1,4,0:0:0:0:
152,192,81623,6,0,L|152:112,1,65,4|0,0:0|0:0,0:0:0:0:
216,120,81987,1,8,0:0:0:0:
344,184,82350,2,0,L|344:88,1,65,2|0,0:0|0:0,0:0:0:0:
280,88,82714,1,8,0:0:0:0:
136,88,83078,5,2,0:0:0:0:
280,88,83441,1,8,0:0:0:0:
424,168,83805,2,0,L|340:168,1,65,2|2,0:0|0:0,0:0:0:0:
288,168,84169,1,8,0:0:0:0:
136,208,84532,6,0,L|136:296,1,65,4|0,0:0|0:0,0:0:0:0:
208,288,84896,2,0,L|296:288,1,65,8|0,0:0|0:0,0:0:0:0:
344,296,85259,2,0,L|344:384,1,65,4|0,0:0|0:0,0:0:0:0:
272,360,85623,1,8,0:0:0:0:
128,360,85987,6,0,L|128:264,1,65,2|2,0:0|0:0,0:0:0:0:
200,280,86350,2,0,L|200:208,1,65,8|2,0:0|0:0,0:0:0:0:
120,208,86714,2,0,L|120:128,1,65,2|2,0:0|0:0,0:0:0:0:
192,96,87078,1,8,0:0:0:0:
368,160,87441,6,0,L|368:248,1,65,4|0,0:0|0:0,0:0:0:0:
296,240,87805,1,0,0:0:0:0:
176,216,88169,2,0,L|176:308,1,65,2|2,0:0|0:0,0:0:0:0:
248,280,88532,1,8,0:0:0:0:
376,280,88896,5,4,0:0:0:0:
248,280,89259,1,4,0:0:0:0:
112,280,89623,1,4,0:0:0:0:
112,216,89805,1,2,0:0:0:0:
176,184,89987,1,8,0:0:0:0:
312,184,90350,6,0,L|312:96,1,65,4|0,0:0|0:0,0:0:0:0:
240,104,90714,2,0,L|144:104,1,65,8|0,0:0|0:0,0:0:0:0:
104,176,91078,2,0,L|104:264,1,65,4|0,0:0|0:0,0:0:0:0:
176,264,91441,1,8,0:0:0:0:
312,256,91805,6,0,L|312:168,1,65,4|2,0:0|0:0,0:0:0:0:
248,192,92169,1,0,0:0:0:0:
248,112,92350,1,2,0:0:0:0:
312,112,92532,2,0,L|232:112,1,65,4|0,0:0|0:0,0:0:0:0:
184,112,92896,1,8,0:0:0:0:
352,192,93259,6,0,L|352:112,1,65,4|0,0:0|0:0,0:0:0:0:
288,120,93623,1,8,0:0:0:0:
152,184,93987,2,0,L|152:88,1,65,2|0,0:0|0:0,0:0:0:0:
224,88,94350,1,8,0:0:0:0:
376,88,94714,5,2,0:0:0:0:
224,88,95078,1,8,0:0:0:0:
80,168,95441,2,0,L|164:168,1,65,2|2,0:0|0:0,0:0:0:0:
208,168,95805,1,8,0:0:0:0:
360,208,96169,6,0,L|360:296,1,65,4|0,0:0|0:0,0:0:0:0:
288,288,96532,2,0,L|200:288,1,65,8|0,0:0|0:0,0:0:0:0:
152,296,96896,2,0,L|152:384,1,65,4|0,0:0|0:0,0:0:0:0:
224,360,97259,1,8,0:0:0:0:
368,360,97623,6,0,L|368:272,1,65,2|2,0:0|0:0,0:0:0:0:
288,272,97987,2,0,L|288:192,1,65,8|2,0:0|0:0,0:0:0:0:
368,200,98350,2,0,L|368:120,1,65,2|2,0:0|0:0,0:0:0:0:
288,112,98714,1,8,0:0:0:0:
136,120,99078,6,0,L|136:208,1,65,4|0,0:0|0:0,0:0:0:0:
208,200,99441,1,0,0:0:0:0:
344,216,99805,2,0,L|344:292,1,65,2|2,0:0|0:0,0:0:0:0:
272,280,100169,1,8,0:0:0:0:
136,280,100532,5,4,0:0:0:0:
264,280,100896,1,4,0:0:0:0:
400,280,101259,1,4,0:0:0:0:
400,216,101441,1,2,0:0:0:0:
336,184,101623,1,8,0:0:0:0:
200,184,101987,6,0,L|200:96,1,65,4|0,0:0|0:0,0:0:0:0:
272,104,102350,2,0,L|368:104,1,65,8|0,0:0|0:0,0:0:0:0:
408,176,102714,2,0,L|408:264,1,65,4|0,0:0|0:0,0:0:0:0:
336,264,103078,1,8,0:0:0:0:
200,256,103441,6,0,L|200:164,1,65,4|2,0:0|0:0,0:0:0:0:
272,192,103805,1,0,0:0:0:0:
272,112,103987,1,2,0:0:0:0:
192,112,104169,2,0,L|192:40,1,65,4|0,0:0|0:0,0:0:0:0:
272,112,104532,1,8,0:0:0:0:
448,112,104896,5,4,0:0:0:0:
144,136,116350,6,0,L|144:277,1,130,2|0,0:0|0:0,0:0:0:0:
208,272,116896,1,8,0:0:0:0:
272,272,117078,2,0,L|408:272,1,130,0|0,0:0|0:0,0:0:0:0:
272,224,117805,6,0,L|272:80,1,130,2|2,0:0|0:0,0:0:0:0:
272,40,118350,1,8,0:0:0:0:
144,40,118714,1,2,0:0:0:0:
272,40,119078,1,8,0:0:0:0:
344,40,119259,6,0,L|344:184,1,130,2|0,0:0|0:0,0:0:0:0:
280,168,119805,1,8,0:0:0:0:
216,168,119987,2,0,L|76:168,1,130,0|0,0:0|0:0,0:0:0:0:
224,312,120714,6,0,L|224:160,1,130,2|0,0:0|0:0,0:0:0:0:
160,160,121259,1,8,0:0:0:0:
32,160,121623,1,2,0:0:0:0:
160,160,121987,1,8,0:0:0:0:
224,160,122169,6,0,L|380:160,1,130,2|0,0:0|0:0,0:0:0:0:
416,160,122714,1,8,0:0:0:0:
480,160,122896,2,0,L|480:312,1,130,0|0,0:0|0:0,0:0:0:0:
352,304,123623,6,0,L|212:304,1,130,2|0,0:0|0:0,0:0:0:0:
160,304,124169,1,8,0:0:0:0:
288,176,124532,1,2,0:0:0:0:
160,176,124896,1,8,0:0:0:0:
88,184,125078,6,0,L|88:336,1,130,0|0,0:0|0:0,0:0:0:0:
152,320,125623,1,0,0:0:0:0:
224,320,125805,2,0,L|224:184,1,130,4|4,0:0|0:0,0:0:0:0:
360,224,126532,2,0,L|360:88,1,130,4|4,0:0|0:0,0:0:0:0:
496,160,127259,2,0,L|496:24,1,130,4|2,0:0|0:0,0:0:0:0:
352,32,127987,6,0,L|200:32,1,130,2|0,0:0|0:0,0:0:0:0:
160,32,128532,1,8,0:0:0:0:
96,32,128714,2,0,L|96:172,1,130,2|0,0:0|0:0,0:0:0:0:
224,280,129441,6,0,L|368:280,1,130,2|0,0:0|0:0,0:0:0:0:
416,280,129987,1,8,0:0:0:0:
416,208,130169,1,0,0:0:0:0:
360,144,130350,1,2,0:0:0:0:
232,96,130714,1,8,0:0:0:0:
168,96,130896,6,0,L|168:248,1,130,2|0,0:0|0:0,0:0:0:0:
232,224,131441,1,8,0:0:0:0:
296,224,131623,2,0,L|296:376,1,130,2|0,0:0|0:0,0:0:0:0:
160,344,132350,6,0,L|160:184,1,130,2|0,0:0|0:0,0:0:0:0:
160,152,132896,2,0,L|248:152,1,65,8|0,0:0|0:0,0:0:0:0:
288,152,133259,1,2,0:0:0:0:
408,152,133623,1,0,0:0:0:0:
472,152,133805,6,0,L|472:312,1,130,2|0,0:0|0:0,0:0:0:0:
408,288,134350,1,8,0:0:0:0:
344,288,134532,2,0,L|344:128,1,130,2|0,0:0|0:0,0:0:0:0:
208,160,135259,6,0,L|48:160,1,130,4|0,0:0|0:0,0:0:0:0:
80,240,135805,1,2,0:0:0:0:
208,296,136169,2,0,L|348:296,1,130,2|0,0:0|0:0,0:0:0:0:
408,296,136714,6,0,P|456:192|408:104,1,195,2|0,0:0|0:0,0:0:0:0:
224,128,137737,2,0,L|164:184,2,65,0|0|0,0:0|0:0|0:0,0:0:0:0:
416,128,138714,1,0,0:0:0:0:
288,128,139078,5,0,0:0:0:0:
416,128,139441,1,0,0:0:0:0:
480,128,139623,1,0,0:0:0:0:
408,128,139805,6,0,L|200:128,2,195,4|0|8,0:0|0:0|0:0,0:0:0:0:
288,216,141259,6,0,L|80:216,2,195,2|0|8,0:0|0:0|0:0,0:0:0:0:
352,216,142532,6,0,L|352:80,1,130,0|0,0:0|0:0,0:0:0:0:
224,88,143259,2,0,L|80:88,1,130,0|0,0:0|0:0,0:0:0:0:
224,88,143987,6,0,L|224:244,1,130,2|0,0:0|0:0,0:0:0:0:
176,256,144532,1,8,0:0:0:0:
48,256,144896,1,2,0:0:0:0:
176,256,145259,1,8,0:0:0:0:
48,320,145623,6,0,L|272:320,2,195,2|0|8,0:0|0:0|0:0,0:0:0:0:
168,216,147078,2,0,L|392:216,2,195,2|0|8,0:0|0:0|0:0,0:0:0:0:
104,288,148350,6,0,L|248:288,1,130,2|0,0:0|0:0,0:0:0:0:
368,288,149078,1,0,0:0:0:0:
240,160,149441,1,0,0:0:0:0:
376,160,149805,6,0,L|376:304,1,130,2|0,0:0|0:0,0:0:0:0:
328,288,150350,1,2,0:0:0:0:
200,288,150714,1,2,0:0:0:0:
328,288,151078,1,2,0:0:0:0:
192,192,151441,6,0,L|347:192,1,130,4|8,0:0|0:0,0:0:0:0:
448,200,152169,1,2,0:0:0:0:
448,264,152350,1,0,0:0:0:0:
392,304,152532,1,8,0:0:0:0:
256,304,152896,6,0,L|48:304,2,195,2|0|8,0:0|0:0|0:0,0:0:0:0:
320,304,154169,6,0,L|320:168,1,130,0|0,0:0|0:0,0:0:0:0:
192,160,154896,2,0,L|34:160,1,130,0|0,0:0|0:0,0:0:0:0:
192,248,155623,6,0,L|336:248,1,130,2|0,0:0|0:0,0:0:0:0:
384,240,156169,1,8,0:0:0:0:
256,184,156532,1,2,0:0:0:0:
392,128,156896,1,8,0:0:0:0:
256,184,157259,6,0,L|472:184,2,195,4|0|8,0:0|0:0|0:0,0:0:0:0:
392,288,158714,6,0,L|176:288,2,195,4|0|8,0:0|0:0|0:0,0:0:0:0:
456,288,159987,6,0,L|456:133,1,130,4|0,0:0|0:0,0:0:0:0:
392,144,160532,1,2,0:0:0:0:
328,144,160714,1,2,0:0:0:0:
200,144,161078,1,2,0:0:0:0:
328,232,161441,6,0,L|176:232,1,130,8|2,0:0|0:0,0:0:0:0:
136,232,161987,1,2,0:0:0:0:
272,240,162350,2,0,L|272:152,1,65,4|0,0:0|0:0,0:0:0:0:
272,104,162714,1,4,0:0:0:0:
128,192,163078,6,0,L|128:104,1,65,4|0,0:0|0:0,0:0:0:0:
200,112,163441,1,8,0:0:0:0:
72,136,163805,2,0,L|72:48,1,65,2|0,0:0|0:0,0:0:0:0:
144,56,164168,1,8,0:0:0:0:
272,56,164532,5,2,0:0:0:0:
400,56,164896,1,8,0:0:0:0:
272,160,165259,2,0,L|272:224,1,65,2|2,0:0|0:0,0:0:0:0:
336,240,165623,1,8,0:0:0:0:
464,304,165987,6,0,L|392:304,1,65,4|0,0:0|0:0,0:0:0:0:
336,304,166350,2,0,L|256:304,1,65,8|0,0:0|0:0,0:0:0:0:
208,296,166714,2,0,L|208:216,1,65,4|0,0:0|0:0,0:0:0:0:
272,200,167078,1,8,0:0:0:0:
408,200,167441,6,0,L|408:120,1,65,2|2,0:0|0:0,0:0:0:0:
328,176,167805,2,0,L|328:112,1,65,8|2,0:0|0:0,0:0:0:0:
408,135,168169,2,0,L|408:55,1,65,2|2,0:0|0:0,0:0:0:0:
328,64,168532,1,8,0:0:0:0:
184,160,168896,6,0,L|182:253,1,65,4|0,0:0|0:0,0:0:0:0:
248,248,169259,1,0,0:0:0:0:
376,264,169623,2,0,L|376:352,1,65,2|2,0:0|0:0,0:0:0:0:
304,352,169987,1,8,0:0:0:0:
168,352,170350,5,4,0:0:0:0:
304,256,170714,1,4,0:0:0:0:
168,248,171078,1,4,0:0:0:0:
104,232,171259,1,2,0:0:0:0:
168,248,171441,1,8,0:0:0:0:
296,152,171805,6,0,L|296:240,1,65,4|0,0:0|0:0,0:0:0:0:
233,248,172169,2,0,L|145:248,1,65,8|0,0:0|0:0,0:0:0:0:
104,256,172532,2,0,L|104:344,1,65,4|0,0:0|0:0,0:0:0:0:
168,344,172896,1,8,0:0:0:0:
312,264,173259,6,0,L|312:172,1,65,4|2,0:0|0:0,0:0:0:0:
248,192,173623,1,0,0:0:0:0:
184,192,173805,1,2,0:0:0:0:
120,192,173987,2,0,L|200:192,1,65,4|0,0:0|0:0,0:0:0:0:
248,192,174350,1,8,0:0:0:0:
384,192,174714,6,0,L|384:104,1,65,4|0,0:0|0:0,0:0:0:0:
312,112,175077,1,8,0:0:0:0:
440,136,175441,2,0,L|440:48,1,65,2|0,0:0|0:0,0:0:0:0:
368,56,175804,1,8,0:0:0:0:
240,56,176168,5,2,0:0:0:0:
112,56,176532,1,8,0:0:0:0:
240,160,176896,2,0,L|240:224,1,65,2|2,0:0|0:0,0:0:0:0:
176,240,177259,1,8,0:0:0:0:
48,304,177623,6,0,L|120:304,1,65,4|0,0:0|0:0,0:0:0:0:
176,304,177987,2,0,L|256:304,1,65,8|0,0:0|0:0,0:0:0:0:
304,296,178350,2,0,L|304:216,1,65,4|0,0:0|0:0,0:0:0:0:
240,200,178714,1,8,0:0:0:0:
104,200,179077,6,0,L|104:120,1,65,2|2,0:0|0:0,0:0:0:0:
184,176,179441,2,0,L|184:112,1,65,8|2,0:0|0:0,0:0:0:0:
104,135,179805,2,0,L|104:55,1,65,2|2,0:0|0:0,0:0:0:0:
184,64,180168,1,8,0:0:0:0:
328,160,180532,6,0,L|330:253,1,65,4|0,0:0|0:0,0:0:0:0:
264,248,180895,1,0,0:0:0:0:
136,264,181259,2,0,L|136:352,1,65,2|2,0:0|0:0,0:0:0:0:
208,352,181623,1,8,0:0:0:0:
344,352,181986,5,4,0:0:0:0:
208,256,182350,1,4,0:0:0:0:
344,248,182714,1,4,0:0:0:0:
408,232,182895,1,2,0:0:0:0:
344,248,183077,1,8,0:0:0:0:
216,152,183441,6,0,L|216:240,1,65,4|0,0:0|0:0,0:0:0:0:
279,248,183805,2,0,L|367:248,1,65,8|0,0:0|0:0,0:0:0:0:
408,256,184168,2,0,L|408:344,1,65,4|0,0:0|0:0,0:0:0:0:
344,344,184532,1,8,0:0:0:0:
200,264,184896,6,0,L|200:172,1,65,4|2,0:0|0:0,0:0:0:0:
272,192,185259,1,0,0:0:0:0:
272,128,185441,1,2,0:0:0:0:
200,112,185623,2,0,L|272:112,1,65,4|0,0:0|0:0,0:0:0:0:
328,112,185986,1,8,0:0:0:0:
192,104,186350,6,0,L|192:304,1,195,4|0,0:0|0:0,0:0:0:0:
256,296,187078,2,0,L|392:296,1,130,2|8,0:0|0:0,0:0:0:0:
504,184,187805,6,0,L|428:184,1,65,2|2,0:0|0:0,0:0:0:0:
376,184,188169,2,0,L|296:184,1,65,8|0,0:0|0:0,0:0:0:0:
248,184,188532,2,0,L|248:256,1,65,2|0,0:0|0:0,0:0:0:0:
312,288,188896,1,8,0:0:0:0:
440,344,189259,6,0,L|440:128,1,195,2|0,0:0|0:0,0:0:0:0:
376,144,189987,2,0,L|224:144,1,130,2|8,0:0|0:0,0:0:0:0:
120,288,190714,6,0,L|256:288,1,130,2|8,0:0|0:0,0:0:0:0:
328,282,191259,2,0,L|328:126,1,130,2|2,0:0|0:0,0:0:0:0:
264,152,191805,1,8,0:0:0:0:
128,304,192169,6,0,L|328:304,1,195,4|0,0:0|0:0,0:0:0:0:
384,304,192896,2,0,L|456:304,1,65,2|0,0:0|0:0,0:0:0:0:
384,176,193259,1,8,0:0:0:0:
248,176,193623,6,0,L|128:176,2,97.5,2|2|2,0:0|0:0|0:0,0:0:0:0:
312,176,194350,2,0,L|312:40,1,130,0|8,0:0|0:0,0:0:0:0:
176,96,195078,6,0,L|384:96,1,195,4|0,0:0|0:0,0:0:0:0:
440,96,195805,1,4,0:0:0:0:
312,184,196169,1,8,0:0:0:0:
184,192,196532,6,0,P|204:264|428:184,1,390,2|8,0:0|0:0,0:0:0:0:
296,176,197987,6,0,L|184:176,2,97.5,4|0|0,0:0|0:0|0:0,0:0:0:0:
360,152,198714,2,0,L|360:56,1,65,2|0,0:0|0:0,0:0:0:0:
296,64,199078,1,8,0:0:0:0:
168,64,199441,6,0,L|56:64,2,97.5,2|0|0,0:0|0:0|0:0,0:0:0:0:
240,112,200169,2,0,L|240:200,1,65,2|0,0:0|0:0,0:0:0:0:
176,200,200532,1,8,0:0:0:0:
64,72,200896,6,0,L|184:73,2,97.5,2|0|0,0:0|0:0|0:0,0:0:0:0:
200,112,201805,2,0,L|200:200,1,65,0|8,0:0|0:0,0:0:0:0:
136,200,202169,1,0,0:0:0:0:
72,200,202350,6,0,P|64:256|156:352,1,195,2|2,0:0|0:0,0:0:0:0:
216,352,203078,2,0,L|352:352,1,130,2|8,0:0|0:0,0:0:0:0:
208,96,203805,6,0,L|92:96,2,97.5,4|0|0,0:0|0:0|0:0,0:0:0:0:
272,96,204532,2,0,L|336:96,1,65,4|0,0:0|0:0,0:0:0:0:
400,96,204896,1,8,0:0:0:0:
272,264,205259,6,0,L|116:264,1,130,4|8,0:0|0:0,0:0:0:0:
16,256,205987,2,0,L|16:168,1,65,2|2,0:0|0:0,0:0:0:0:
80,160,206350,1,8,0:0:0:0:
224,120,206714,6,0,L|352:120,2,97.5,4|0|0,0:0|0:0|0:0,0:0:0:0:
160,192,207441,2,0,L|32:192,2,97.5,2|0|0,0:0|0:0|0:0,0:0:0:0:
224,192,208169,6,0,P|290:218|328:344,1,195,2|2,0:0|0:0,0:0:0:0:
256,328,208896,2,0,P|208:256|256:144,1,195,2|8,0:0|0:0,0:0:0:0:
304,120,209623,5,4,0:0:0:0:
256,192,209987,12,0,211805,0:0:0:0:
252,192,212532,5,4,0:0:0:0:
252,192,213259,1,4,0:0:0:0:
252,192,213987,1,4,0:0:0:0:
252,192,214714,1,2,0:0:0:0:
252,192,215078,1,2,0:0:0:0:
376,184,215441,6,0,L|376:320,1,130,4|0,0:0|0:0,0:0:0:0:
240,304,216169,2,0,L|240:168,1,130,4|0,0:0|0:0,0:0:0:0:
112,120,216896,5,4,0:0:0:0:
240,120,217259,1,0,0:0:0:0:
368,120,217623,1,4,0:0:0:0:
264,120,217987,1,2,0:0:0:0:
140,120,218350,6,0,L|140:208,1,65,4|0,0:0|0:0,0:0:0:0:
216,288,218714,1,2,0:0:0:0:
368,120,219078,6,0,L|368:208,1,65,2|0,0:0|0:0,0:0:0:0:
296,292,219441,1,2,0:0:0:0:
168,96,219805,6,0,L|104:96,1,65,4|0,0:0|0:0,0:0:0:0:
168,184,220169,2,0,L|256:184,1,65,2|2,0:0|0:0,0:0:0:0:
296,224,220532,2,0,L|296:380,1,130,4|2,0:0|0:0,0:0:0:0:
128,192,221259,6,0,L|208:192,1,65,4|0,0:0|0:0,0:0:0:0:
256,192,221623,1,8,0:0:0:0:
384,192,221987,2,0,L|304:192,1,65,2|0,0:0|0:0,0:0:0:0:
256,192,222351,1,8,0:0:0:0:
120,88,222714,5,2,0:0:0:0:
256,88,223078,1,8,0:0:0:0:
392,88,223441,2,0,L|296:88,1,65,2|2,0:0|0:0,0:0:0:0:
256,88,223805,1,8,0:0:0:0:
120,192,224169,6,0,L|192:192,1,65,4|0,0:0|0:0,0:0:0:0:
256,192,224532,2,0,L|352:192,1,65,8|0,0:0|0:0,0:0:0:0:
392,272,224896,2,0,L|304:272,1,65,4|0,0:0|0:0,0:0:0:0:
264,272,225259,1,8,0:0:0:0:
392,160,225623,6,0,L|308:160,1,65,2|2,0:0|0:0,0:0:0:0:
256,160,225987,2,0,L|172:160,1,65,8|2,0:0|0:0,0:0:0:0:
128,160,226350,2,0,L|128:240,1,65,2|2,0:0|0:0,0:0:0:0:
192,280,226714,1,8,0:0:0:0:
328,256,227078,6,0,L|328:192,1,65,4|0,0:0|0:0,0:0:0:0:
256,192,227442,1,0,0:0:0:0:
128,192,227806,2,0,L|208:192,1,65,2|0,0:0|0:0,0:0:0:0:
256,192,228170,1,0,0:0:0:0:
392,88,228533,5,4,0:0:0:0:
256,88,228897,1,0,0:0:0:0:
120,88,229260,2,0,L|216:88,1,65,4|2,0:0|0:0,0:0:0:0:
256,88,229624,1,8,0:0:0:0:
392,192,229988,6,0,L|320:192,1,65,0|0,0:0|0:0,0:0:0:0:
256,192,230351,2,0,L|160:192,1,65,8|0,0:0|0:0,0:0:0:0:
120,272,230715,2,0,L|208:272,1,65,4|0,0:0|0:0,0:0:0:0:
248,272,231078,1,8,0:0:0:0:
120,160,231442,6,0,L|204:160,1,65,4|2,0:0|0:0,0:0:0:0:
256,160,231806,2,0,L|340:160,1,65,0|0,0:0|0:0,0:0:0:0:
392,176,232169,2,0,L|392:248,1,65,4|0,0:0|0:0,0:0:0:0:
320,312,232533,1,8,0:0:0:0:
160,304,232896,5,4,0:0:0:0:
296,232,233259,2,0,L|296:128,1,97.5,2|2,0:0|0:0,0:0:0:0:
192,176,233805,2,0,L|192:64,1,97.5,2|0,0:0|0:0,0:0:0:0:
288,80,234350,1,8,0:0:0:0:
360,80,234532,5,2,0:0:0:0:
360,136,234714,1,2,0:0:0:0:
232,208,235078,1,8,0:0:0:0:
232,208,235259,1,2,0:0:0:0:
392,264,235714,6,0,L|268:264,1,97.5,2|0,0:0|0:0,0:0:0:0:
224,264,236169,1,0,0:0:0:0:
352,344,236532,2,0,L|256:344,1,65,0|0,0:0|0:0,0:0:0:0:
204,340,236896,1,0,0:0:0:0:
96,344,237169,6,0,L|96:237,1,97.5,2|0,0:0|0:0,0:0:0:0:
160,224,237623,1,2,0:0:0:0:
280,160,237987,1,2,0:0:0:0:
160,120,238350,1,2,0:0:0:0:
320,304,238714,5,4,0:0:0:0:
216,232,239077,2,0,L|216:128,1,97.5,2|2,0:0|0:0,0:0:0:0:
320,176,239623,2,0,L|320:64,1,97.5,2|0,0:0|0:0,0:0:0:0:
224,80,240168,1,8,0:0:0:0:
152,80,240350,5,2,0:0:0:0:
152,136,240532,1,2,0:0:0:0:
280,208,240896,1,8,0:0:0:0:
280,208,241077,1,2,0:0:0:0:
120,264,241532,6,0,L|244:264,1,97.5,2|0,0:0|0:0,0:0:0:0:
280,264,241987,1,0,0:0:0:0:
160,344,242350,2,0,L|256:344,1,65,0|0,0:0|0:0,0:0:0:0:
296,344,242714,1,0,0:0:0:0:
408,176,242987,6,0,L|288:176,1,97.5,2|0,0:0|0:0,0:0:0:0:
240,176,243441,2,0,L|168:176,1,65,8|8,0:0|0:0,0:0:0:0:
320,248,243987,2,0,L|168:248,1,130,8|2,0:0|0:0,0:0:0:0:
32,272,244896,5,8,0:0:0:0:
32,208,245078,1,8,0:0:0:0:
80,176,245259,1,8,0:0:0:0:
136,168,245441,2,0,P|396:92|264:360,1,715,8|0,0:0|0:0,0:0:0:0:
