osu file format v14

[General]
AudioFilename: audio.mp3
AudioLeadIn: 0
PreviewTime: 186809
Countdown: 0
SampleSet: Normal
StackLeniency: 0.4
Mode: 0
LetterboxInBreaks: 0
WidescreenStoryboard: 1

[Editor]
Bookmarks: 12991,24627,36264,47900,59536,85718,97355,108991,120627,132264,158445,170082,187536,219536,231173,242809
DistanceSpacing: 1.4
BeatDivisor: 4
GridSize: 8
TimelineZoom: 2.2

[Metadata]
Title:Darkish
TitleUnicode:Darkish
Artist:A-One feat. Aki
ArtistUnicode:A-One feat. あき
Creator:- Ex -
Version:Hard
Source:東方風神録 ~ Mountain of Faith.
Tags:CARPAL TUNNEL CUP 3 CTC3 CTC SF DT5 鍵山 雛 kagiyama hina 運命のダークサイド 厄神様の通り道 dark road featured artist fa project eurobeat japanese electronic Toho touhou team shanghai alice zun of the apotropaic misfortune god 東方Project unmei no darkside of fate yakujinsama no toorimichi mof fuujinroku wind god chronicles th10 -_ex_- - Ex niii_san dasdwqdf mariko sakuragi Reiji Maigo
BeatmapID:4496465
BeatmapSetID:2112194

[Difficulty]
HPDrainRate:5
CircleSize:3.8
OverallDifficulty:6.5
ApproachRate:8
SliderMultiplier:1.4
SliderTickRate:1

[Events]
//Background and Video events
0,0,"bg.jpg",0,0
//Break Periods
2,24827,34059
2,87373,96605
2,170282,180968
//Storyboard Layer 0 (Background)
//Storyboard Layer 1 (Fail)
//Storyboard Layer 2 (Pass)
//Storyboard Layer 3 (Foreground)
//Storyboard Layer 4 (Overlay)
//Storyboard Sound Samples

[TimingPoints]
1355,363.636363636364,4,2,1,60,1,0
1355,-125,4,2,1,60,0,0
7173,-111.111111111111,4,2,1,60,0,0
12991,-100,4,2,1,80,0,0
36264,-111.111111111111,4,2,1,60,0,0
47900,-111.111111111111,4,2,1,70,0,0
59536,-100,4,1,1,80,0,1
85718,-100,4,1,1,80,0,0
97355,-125,4,2,1,60,0,0
108991,-111.111111111111,4,2,1,60,0,0
120627,-111.111111111111,4,2,1,70,0,0
132264,-100,4,1,1,80,0,1
158445,-100,4,1,1,80,0,0
181718,-111.111111111111,4,2,1,70,0,0
187536,-100,4,1,1,80,0,1
216627,-125,4,1,1,80,0,0
219536,-100,4,2,1,80,0,0
242900,-100,4,1,1,50,0,0
245718,-100,4,1,1,5,0,0

[Colours]
Combo1 : 17,254,176
Combo2 : 173,255,95
Combo3 : 255,88,100
Combo4 : 255,94,55

[HitObjects]
96,212,7173,6,0,P|56:205|17:195,2,62.9999980773926,6|0|0,1:2|0:2|3:2,0:2:0:0:
163,169,7718,1,0,0:2:0:0:
163,169,7900,1,2,0:2:0:0:
238,213,8082,2,0,P|233:277|225:355,1,125.999996154785,0|0,1:2|0:2,0:2:0:0:
325,341,8627,6,0,P|371:363|453:345,1,125.999996154785,2|0,1:2|3:2,0:2:0:0:
490,276,9173,1,0,1:2:0:0:
413,231,9355,2,0,P|372:237|330:243,1,62.9999980773926,2|0,0:2|0:2,0:2:0:0:
441,149,9718,2,0,P|461:145|482:142,3,31.4999990386963,2|2|2|2,1:2|3:2|3:2|3:2,0:0:0:0:
488,118,10082,6,0,P|504:68|448:8,1,125.999996154785,6|0,1:2|3:2,0:2:0:0:
301,82,10809,1,2,3:2:0:0:
213,96,10991,2,0,P|159:88|139:84,1,62.9999980773926,0|0,1:2|0:2,0:2:0:0:
76,38,11355,1,0,0:2:0:0:
15,132,11536,5,6,1:2:0:0:
15,132,12264,1,2,0:2:0:0:
340,296,12991,5,6,1:2:0:0:
340,296,13173,1,2,1:2:0:0:
278,219,13355,2,0,P|219:229|199:233,1,70,10|2,0:2|0:2,0:0:0:0:
197,248,13627,1,2,0:2:0:0:
182,262,13718,2,0,P|123:252|103:248,1,70,2|2,1:2|0:2,0:2:0:0:
22,210,14082,2,0,P|13:169|12:155,3,35,10|2|2|2,0:2|0:2|0:2|0:2,0:0:0:0:
37,159,14445,6,0,P|41:114|41:80,1,70,2|0,1:1|0:2,0:0:0:0:
135,45,14809,2,0,L|182:56,3,35,10|2|2|2,0:2|0:2|0:2|0:2,0:2:0:0:
200,44,15173,2,0,P|245:48|279:48,1,70,0|2,1:2|0:2,0:2:0:0:
353,99,15536,1,10,0:2:0:0:
353,99,15718,1,0,0:2:0:0:
436,151,15900,6,0,B|473:161|516:166,1,70,2|0,1:1|1:0,0:2:0:0:
373,255,16264,2,0,B|410:245|453:240,1,70,10|2,0:2|0:2,0:0:0:0:
456,256,16536,1,2,0:2:0:0:
470,270,16627,1,2,1:2:0:0:
441,363,16809,1,2,0:2:0:0:
343,352,16991,2,0,B|317:345|288:341,3,35,10|2|2|2,0:2|0:2|0:2|0:2,0:0:0:0:
278,368,17355,5,2,1:1:0:0:
197,231,17718,2,0,L|208:181,1,35,10|2,0:2|0:2,0:0:0:0:
237,185,17900,2,0,L|226:135,1,35,2|2,0:2|0:2,0:0:0:0:
197,139,18082,2,0,L|208:89,1,35,2|2,1:2|0:2,0:0:0:0:
237,93,18264,1,2,0:2:0:0:
168,24,18445,1,2,1:1:0:0:
81,70,18627,1,2,1:1:0:0:
105,165,18809,6,0,P|93:238|77:319,1,140,6|10,1:2|0:2,0:2:0:0:
186,348,19355,1,2,0:2:0:0:
186,348,19536,2,0,P|179:311|172:271,1,70,2|2,1:2|0:2,0:0:0:0:
271,295,19900,1,10,0:2:0:0:
288,292,19990,1,2,0:2:0:0:
305,289,20081,1,2,0:2:0:0:
322,286,20172,1,2,0:2:0:0:
339,282,20263,5,2,1:1:0:0:
478,143,20627,2,0,L|485:99,3,35,10|2|2|2,0:2|0:2|0:2|0:2,0:0:0:0:
459,94,20991,2,0,L|466:50,3,35,2|2|2|2,1:2|0:2|0:2|0:2,0:0:0:0:
440,45,21355,2,0,P|386:56|351:68,1,70,10|0,0:1|0:0,0:2:0:0:
287,8,21718,6,0,P|256:53|240:87,1,70,2|0,1:1|0:2,0:2:0:0:
152,90,22082,1,10,0:2:0:0:
152,90,22173,1,2,0:2:0:0:
152,90,22264,2,0,P|162:144|174:179,1,70,2|0,1:1|1:2,0:2:0:0:
280,226,22627,2,0,P|269:171|257:136,1,70,2|8,1:1|0:2,0:2:0:0:
147,193,22991,5,6,1:0:0:0:
147,193,23355,1,0,1:2:0:0:
78,261,23536,2,0,P|87:308|99:353,1,70,10|2,0:1|1:1,0:0:0:0:
190,332,23900,2,0,P|121:330|62:396,1,140,2|4,1:1|0:3,0:0:0:0:
11,187,24627,5,6,1:2:0:0:
256,192,34809,12,0,35900,0:0:0:0:
471,202,36264,6,0,B|506:137|455:68,1,125.999996154785,6|0,1:2|1:2,0:2:0:0:
394,55,36809,1,0,3:2:0:0:
394,55,36900,1,0,3:2:0:0:
394,55,36991,2,0,P|349:62|319:69,1,62.9999980773926,2|2,1:2|0:2,0:2:0:0:
273,16,37355,2,0,P|235:41|210:60,1,62.9999980773926,2|0,1:2|0:2,0:2:0:0:
123,131,37718,6,0,B|122:64|149:8,2,125.999996154785,2|2|0,1:2|1:2|1:2,0:0:0:0:
270,253,38809,2,0,B|303:249|340:238,1,62.9999980773926,2|0,1:2|3:2,0:0:0:0:
345,253,39082,1,0,0:0:0:0:
358,266,39173,6,0,B|391:270|428:281,2,62.9999980773926,2|0|2,1:2|0:2|1:2,0:2:0:0:
339,343,39718,2,0,B|272:367|205:317,1,125.999996154785,2|2,0:2|0:2,0:2:0:0:
161,271,40264,1,2,1:2:0:0:
72,351,40445,5,2,0:2:0:0:
72,351,40627,2,0,B|48:284|98:217,1,125.999996154785,2|2,1:2|1:2,0:0:0:0:
107,154,41173,2,0,B|72:149|32:134,1,62.9999980773926,2|0,0:2|1:2,0:0:0:0:
20,65,41536,1,0,0:2:0:0:
129,57,41718,2,0,B|155:46|190:41,1,62.9999980773926,0|0,1:2|3:2,0:0:0:0:
265,104,42082,6,0,B|335:87|391:147,1,125.999996154785,2|0,1:2|1:2,0:2:0:0:
489,119,42627,2,0,B|481:179|458:267,1,125.999996154785,2|0,1:2|0:2,0:2:0:0:
400,321,43173,1,2,1:2:0:0:
316,255,43355,5,0,3:2:0:0:
316,255,43445,1,0,3:2:0:0:
316,255,43536,2,0,B|343:186|300:113,1,125.999996154785,2|2,1:2|1:2,0:0:0:0:
213,182,44082,2,0,B|186:113|229:40,1,125.999996154785,2|0,3:2|0:2,0:2:0:0:
116,103,44627,2,0,B|83:103|36:89,1,62.9999980773926,2|2,1:2|0:2,0:2:0:0:
62,196,44991,6,0,B|29:196|-18:210,2,62.9999980773926,6|2|10,1:1|0:2|0:1,0:2:0:0:
142,259,45536,2,0,B|135:295|120:338,1,62.9999980773926,8|8,1:2|0:2,0:0:0:0:
249,367,45900,2,0,B|240:342|233:306,1,62.9999980773926,10|0,0:1|1:2,0:2:0:0:
347,305,46264,6,0,B|412:298|412:329|489:305,1,125.999996154785,10|0,0:1|3:2,0:0:0:0:
436,213,46809,2,0,B|444:188|451:152,1,62.9999980773926,0|0,1:2|1:2,0:2:0:0:
441,52,47173,2,0,P|404:57|389:60,3,31.4999990386963,2|2|2|2,1:2|1:2|1:2|1:2,0:0:0:0:
397,29,47536,2,0,P|360:34|345:37,3,31.4999990386963,2|2|2|2,1:2|1:2|1:2|1:2,0:2:0:0:
341,57,47900,6,0,B|271:52|196:26,1,125.999996154785,6|2,1:2|1:2,0:2:0:0:
102,177,48627,2,0,B|67:179|29:192,1,62.9999980773926,2|0,1:2|0:2,0:2:0:0:
182,214,48991,2,0,B|184:249|197:286,1,62.9999980773926,0|0,1:2|0:2,0:2:0:0:
270,224,49355,6,0,B|305:221|342:208,1,62.9999980773926,2|0,1:2|3:2,0:2:0:0:
344,224,49627,1,0,3:2:0:0:
357,237,49718,2,0,B|392:240|429:253,1,62.9999980773926,2|0,1:2|3:2,0:0:0:0:
382,347,50082,2,0,B|430:342|481:324,2,94.499997116089,2|0|0,1:2|3:2|3:2,0:2:0:0:
284,312,50809,5,2,1:2:0:0:
284,312,50991,1,2,0:2:0:0:
195,312,51173,2,0,B|192:347|179:384,1,62.9999980773926,0|0,1:2|3:2,0:0:0:0:
96,308,51536,2,0,B|93:343|80:380,1,62.9999980773926,2|0,1:2|0:0,0:2:0:0:
0,332,51900,1,2,1:2:0:0:
44,232,52082,6,0,B|38:166|17:87,1,125.999996154785,2|0,0:2|0:2,0:0:0:0:
16,19,52627,2,0,B|50:22|90:32,1,62.9999980773926,2|2,1:2|0:2,0:2:0:0:
120,107,52991,2,0,B|154:110|194:120,1,62.9999980773926,0|0,1:2|0:2,0:0:0:0:
268,62,53355,1,0,1:2:0:0:
365,110,53536,1,0,1:2:0:0:
448,29,53718,5,6,1:2:0:0:
448,29,54082,2,0,B|459:61|467:102,1,62.9999980773926,2|2,1:2|0:2,0:0:0:0:
499,180,54445,2,0,B|427:164|378:217,1,125.999996154785,2|0,1:2|1:2,0:2:0:0:
383,211,54991,1,0,0:2:0:0:
280,238,55173,6,0,B|283:203|296:166,1,62.9999980773926,2|0,1:2|3:2,0:2:0:0:
280,164,55445,1,0,3:2:0:0:
267,151,55536,2,0,B|264:116|251:79,1,62.9999980773926,2|0,1:2|3:2,0:0:0:0:
150,112,55900,2,0,B|155:64|173:13,2,94.499997116089,2|0|2,1:2|3:2|0:2,0:2:0:0:
95,202,56627,6,0,P|51:195|16:186,1,62.9999980773926,2|0,1:2|0:2,0:2:0:0:
139,288,56991,2,0,P|95:295|60:304,1,62.9999980773926,2|0,1:2|0:2,0:2:0:0:
207,369,57355,1,2,1:2:0:0:
207,369,57445,1,2,1:2:0:0:
207,369,57536,1,2,1:2:0:0:
296,310,57718,2,0,L|333:318,1,31.4999990386963,2|2,1:2|1:2,0:0:0:0:
349,295,57900,2,0,L|386:303,1,31.4999990386963,2|2,1:2|1:2,0:0:0:0:
413,285,58082,5,6,0:2:0:0:
413,285,58809,2,0,P|419:244|424:214,1,62.9999980773926,2|0,1:2|1:2,0:2:0:0:
502,144,59173,2,0,P|508:103|513:73,1,62.9999980773926,2|2,1:1|1:1,0:0:0:0:
412,28,59536,6,0,B|357:13|312:40|312:40|276:18,1,140,6|8,0:0|0:0,0:0:0:0:
268,125,60082,1,2,0:0:0:0:
377,122,60264,2,0,B|412:127|462:118,1,70,2|0,0:0|0:0,0:0:0:0:
476,104,60536,2,0,B|466:160|491:222,1,105,10|2,0:0|0:0,0:0:0:0:
428,299,60991,6,0,B|433:334|424:384,1,70,2|0,0:0|0:0,0:0:0:0:
395,366,61264,2,0,B|347:385|291:375,1,105,10|2,0:0|0:0,0:0:0:0:
216,293,61718,2,0,L|210:249,3,35,2|0|0|2,0:0|0:0|0:0|0:0,0:0:0:0:
226,228,62082,2,0,B|232:193|227:158,1,70,8|2,0:0|0:0,0:0:0:0:
147,86,62445,5,2,0:0:0:0:
147,86,62809,2,0,B|153:51|148:16,1,70,10|2,0:0|0:0,0:0:0:0:
47,134,63173,2,0,B|28:78|51:25,2,105,2|2|2,0:0|0:0|0:0,0:0:0:0:
10,237,63900,5,2,0:0:0:0:
10,237,63991,1,0,0:0:0:0:
10,237,64082,1,0,0:0:0:0:
93,303,64264,2,0,P|134:297|152:294,3,35,8|0|0|0,0:0|0:0|0:0|0:0,0:0:0:0:
160,275,64627,2,0,B|149:308|149:308|161:341,1,70
255,298,64991,2,0,P|296:304|314:307,1,35,10|0,0:0|0:0,0:0:0:0:
312,330,65173,2,0,P|353:336|371:339,1,35,2|0,0:0|0:0,0:0:0:0:
377,349,65355,6,0,B|452:340|538:304,1,140,6|8,0:2|0:0,0:0:0:0:
377,248,65900,2,0,B|452:239|538:203,1,140,0|2,0:0|0:0,0:0:0:0:
451,122,66445,1,10,0:0:0:0:
345,166,66627,5,0,0:0:0:0:
345,166,66718,1,0,0:0:0:0:
345,166,66809,2,0,B|299:160|248:138,1,70,2|2,0:0|0:0,0:0:0:0:
293,255,67173,2,0,B|247:249|196:227,1,70,10|2,0:0|0:0,0:0:0:0:
149,315,67536,2,0,B|101:303|101:303|56:318|56:318|-4:304,1,140,2|10,0:0|0:0,0:0:0:0:
138,144,68264,6,0,B|206:137|202:168|287:146,1,140,2|8,0:0|0:0,0:0:0:0:
384,172,68809,2,0,B|422:103|371:29,1,140,2|2,0:0|0:0,0:0:0:0:
280,64,69355,1,10,0:0:0:0:
280,64,69536,1,2,0:0:0:0:
180,31,69718,5,6,0:2:0:0:
103,169,69991,1,2,0:0:0:0:
267,194,70264,1,2,0:0:0:0:
350,263,70445,1,2,0:0:0:0:
367,260,70535,1,0,0:0:0:0:
384,257,70626,1,0,0:0:0:0:
401,255,70717,1,0,0:0:0:0:
419,252,70808,1,8,0:0:0:0:
491,351,70991,5,0,0:0:0:0:
491,351,71082,1,0,0:0:0:0:
491,351,71173,2,0,B|410:318|349:381,1,140,6|8,0:2|0:0,0:0:0:0:
295,285,71718,1,2,0:0:0:0:
207,344,71900,2,0,B|166:347|120:365,1,70,2|0,0:0|0:0,0:0:0:0:
126,380,72173,2,0,B|72:376|12:352,1,105,10|2,0:0|0:0,0:0:0:0:
103,265,72627,6,0,B|100:224|82:178,1,70,2|0,0:0|0:0,0:0:0:0:
67,184,72900,2,0,B|70:130|94:70,1,105,10|2,0:0|0:0,0:0:0:0:
198,80,73355,2,0,L|246:90,3,35,2|0|0|2,0:0|0:0|0:0|0:0,0:0:0:0:
265,86,73718,2,0,B|306:83|352:65,1,70,8|2,0:0|0:0,0:0:0:0:
431,141,74082,5,2,0:0:0:0:
431,141,74445,2,0,B|472:144|518:162,1,70,10|2,0:0|0:0,0:0:0:0:
384,254,74809,2,0,B|442:249|508:223,2,105,2|2|2,0:0|0:0|0:0,0:0:0:0:
304,311,75536,5,2,0:0:0:0:
304,311,75627,1,0,0:0:0:0:
304,311,75718,1,0,0:0:0:0:
222,244,75900,2,0,L|228:201,3,35,8|0|0|0,0:0|0:0|0:0|0:0,0:0:0:0:
249,194,76264,2,0,B|246:153|228:107,1,70
199,21,76627,2,0,L|155:14,1,35,10|0,0:0|0:0,0:0:0:0:
142,38,76809,2,0,L|98:31,1,35,2|0,0:0|0:0,0:0:0:0:
65,13,76991,6,0,B|86:50|86:50|84:103|42:162,1,140,6|8,0:2|0:0,0:0:0:0:
2,235,77536,2,0,B|-19:272|-19:272|-17:325|25:384,1,140,0|2,0:0|0:0,0:0:0:0:
98,295,78082,1,10,0:0:0:0:
196,357,78264,5,2,0:0:0:0:
196,357,78355,1,0,0:0:0:0:
196,357,78445,2,0,B|236:355|275:338,1,70,2|0,0:0|0:0,0:0:0:0:
367,377,78809,2,0,B|393:347|409:307,1,70,10|2,0:0|0:0,0:0:0:0:
370,213,79173,2,0,B|309:202|260:232|260:232|233:216,1,140,2|10,0:0|0:0,0:0:0:0:
41,199,79900,6,0,B|1:135|51:47,1,140,2|8,0:0|0:0,0:0:0:0:
146,85,80445,2,0,B|216:80|299:48,1,140,2|2,0:0|0:0,0:0:0:0:
334,147,80991,1,10,0:0:0:0:
334,147,81173,1,2,0:0:0:0:
382,240,81355,5,6,0:2:0:0:
505,137,81627,1,2,0:0:0:0:
393,25,81900,1,2,0:0:0:0:
299,73,82082,1,2,0:0:0:0:
281,70,82172,1,0,0:0:0:0:
264,67,82263,1,0,0:0:0:0:
247,63,82354,1,0,0:0:0:0:
230,57,82445,1,8,0:0:0:0:
174,159,82627,5,0,0:0:0:0:
174,159,82718,1,0,0:0:0:0:
174,159,82809,2,0,B|181:231|207:313,1,140,6|10,0:2|0:0,0:0:0:0:
310,341,83355,2,0,B|299:308|296:272,1,70,2|0,0:0|0:0,0:0:0:0:
413,365,83718,2,0,B|402:332|399:296,1,70,2|8,0:0|0:0,0:0:0:0:
480,209,84082,6,0,B|514:142|459:54,1,140,6|2,0:2|0:0,0:0:0:0:
366,104,84627,1,2,0:0:0:0:
269,47,84809,1,2,0:0:0:0:
191,127,84991,2,0,B|196:166|209:213,1,70,2|0,0:0|0:0,0:0:0:0:
219,210,85264,1,0,0:0:0:0:
233,224,85355,2,0,B|228:263|215:310,1,70,2|0,0:0|0:0,0:0:0:0:
105,246,85718,5,4,0:2:0:0:
256,192,85809,12,6,87173,1:0:0:0:
103,38,97355,6,0,B|100:89|86:149,1,112,6|8,1:2|0:2,0:2:0:0:
9,285,98082,2,0,B|12:320|22:356,1,56,2|2,0:2|0:2,0:2:0:0:
94,317,98445,2,0,B|97:352|107:388,1,56,10|0,0:2|1:2,0:2:0:0:
188,335,98809,6,0,B|240:322|298:352|298:352|332:313|414:304,1,224,2|0,1:2|1:2,0:2:0:0:
493,183,99900,2,0,B|499:152|498:103,1,56,10|0,0:2|3:2,0:2:0:0:
435,79,100264,6,0,B|372:63|320:110,1,112,2|10,1:2|0:2,0:2:0:0:
261,68,100809,2,0,B|292:122|295:194,1,112,2|2,0:2|0:2,0:2:0:0:
247,240,101355,1,10,0:2:0:0:
247,240,101536,1,2,1:2:0:0:
156,216,101718,5,6,1:2:0:0:
156,216,102082,1,8,0:2:0:0:
108,280,102264,2,0,B|50:272|-11:249,1,112,0|0,3:2|1:2,0:2:0:0:
25,179,102809,2,8,B|22:145|11:107,1,56,8|8,0:2|3:2,0:2:0:0:
56,57,103173,5,2,1:2:0:0:
269,154,103718,1,2,0:2:0:0:
490,74,104264,2,0,B|495:42|492:4,1,56,10|0,0:2|0:0,0:0:0:0:
398,44,104627,6,0,B|366:39|328:42,1,56,2|0,1:2|0:2,0:2:0:0:
368,136,104991,2,0,B|363:168|366:206,1,56,8|0,0:2|0:2,0:2:0:0:
461,219,105355,2,0,B|466:251|463:289,1,56,0|0,1:2|1:2,0:2:0:0:
384,351,105718,1,10,0:2:0:0:
384,351,105900,1,2,0:2:0:0:
296,302,106082,5,2,1:2:0:0:
296,302,106445,1,10,0:2:0:0:
237,355,106627,2,0,B|178:359|112:377,1,112,2|0,0:2|3:2,0:2:0:0:
127,295,107173,2,0,B|68:291|2:273,1,112,10|6,0:2|1:2,0:2:0:0:
256,192,107627,12,0,108627,1:2:0:0:
128,124,108991,6,0,B|198:105|259:158,1,125.999996154785,6|0,1:2|1:2,0:2:0:0:
294,218,109536,1,0,3:2:0:0:
294,218,109627,1,0,3:2:0:0:
294,218,109718,2,0,B|332:211|363:201,1,62.9999980773926,2|2,1:2|0:2,0:2:0:0:
419,249,110082,2,0,B|457:242|488:232,1,62.9999980773926,2|0,1:2|0:2,0:2:0:0:
472,144,110445,6,0,B|486:82|506:20,2,125.999996154785,2|2|0,1:2|1:2|1:2,0:0:0:0:
322,55,111536,2,0,B|289:58|236:74,1,62.9999980773926,2|0,1:2|3:2,0:0:0:0:
246,80,111809,1,0,0:0:0:0:
229,89,111900,6,0,B|196:86|143:70,2,62.9999980773926,2|0|2,1:2|0:2|1:2,0:2:0:0:
249,167,112445,2,0,B|277:226|247:305,1,125.999996154785,2|2,0:2|0:2,0:2:0:0:
209,358,112991,1,2,1:2:0:0:
123,309,113173,5,2,0:2:0:0:
123,309,113355,2,0,B|64:317|-7:337,1,125.999996154785,2|2,1:2|1:2,0:0:0:0:
68,228,113900,2,0,B|38:224|3:214,1,62.9999980773926,2|0,0:2|1:2,0:0:0:0:
12,135,114264,1,0,0:2:0:0:
114,131,114445,2,0,B|84:135|49:145,1,62.9999980773926,0|0,1:2|3:2,0:0:0:0:
30,29,114809,6,0,B|97:3|162:63,1,125.999996154785,2|0,1:2|1:2,0:2:0:0:
245,11,115355,2,0,B|254:62|259:160,1,125.999996154785,2|0,0:2|1:2,0:2:0:0:
339,191,115900,1,2,1:2:0:0:
366,84,116082,5,0,3:2:0:0:
366,84,116173,1,0,3:2:0:0:
366,84,116264,2,0,B|438:61|500:128,1,125.999996154785,2|2,1:2|1:2,0:0:0:0:
507,217,116809,2,0,B|504:280|487:345,1,125.999996154785,2|0,3:2|0:2,0:2:0:0:
391,380,117355,2,0,B|389:348|381:317,1,62.9999980773926,2|2,1:2|0:2,0:2:0:0:
295,248,117718,6,0,B|296:216|304:185,2,62.9999980773926,6|2|10,1:1|0:2|0:1,0:2:0:0:
203,192,118264,2,0,B|170:198|128:210,1,62.9999980773926,8|8,1:2|0:2,0:0:0:0:
274,104,118627,2,0,B|241:98|199:86,1,62.9999980773926,10|0,0:1|1:2,0:2:0:0:
114,21,118991,6,0,B|34:12|0:85,1,125.999996154785,10|0,0:1|3:2,0:0:0:0:
39,173,119536,2,0,B|33:206|21:248,1,62.9999980773926,0|0,1:2|1:2,0:2:0:0:
11,342,119900,2,0,P|46:338|58:335,3,31.4999990386963,2|2|2|2,1:2|1:2|1:2|1:2,0:0:0:0:
68,355,120264,2,0,P|103:351|115:348,3,31.4999990386963,2|2|2|2,1:2|1:2|1:2|1:2,0:2:0:0:
121,330,120627,6,0,B|186:331|265:364,1,125.999996154785,6|2,1:2|1:2,0:2:0:0:
432,338,121355,2,0,B|462:343|516:363,1,62.9999980773926,2|0,1:2|0:2,0:2:0:0:
444,254,121718,2,0,B|474:249|528:229,1,62.9999980773926,0|0,1:2|0:2,0:2:0:0:
354,226,122082,6,0,B|357:191|370:154,1,62.9999980773926,2|0,1:2|3:2,0:2:0:0:
354,152,122354,1,0,3:2:0:0:
341,139,122445,2,0,B|338:104|325:67,1,62.9999980773926,2|0,1:2|3:2,0:0:0:0:
231,114,122809,2,0,B|236:66|254:15,2,94.499997116089,2|0|0,1:2|3:2|3:2,0:2:0:0:
227,212,123536,5,2,1:2:0:0:
227,212,123718,1,2,0:2:0:0:
142,250,123900,2,0,B|112:245|58:225,1,62.9999980773926,0|0,1:2|3:2,0:0:0:0:
74,140,124264,2,0,B|44:135|-10:115,1,62.9999980773926,2|0,1:2|0:0,0:2:0:0:
22,30,124627,1,2,1:2:0:0:
127,42,124809,6,0,B|191:39|277:15,1,125.999996154785,2|0,0:2|0:2,0:0:0:0:
313,91,125355,2,0,B|348:92|397:106,1,62.9999980773926,2|2,1:2|0:2,0:2:0:0:
263,161,125718,2,0,B|236:153|200:151,1,62.9999980773926,0|0,1:2|0:2,0:0:0:0:
313,237,126082,1,0,1:2:0:0:
238,312,126264,1,0,1:2:0:0:
347,367,126445,5,6,1:2:0:0:
347,367,126809,2,0,B|374:375|410:377,1,62.9999980773926,2|2,1:2|0:2,0:0:0:0:
500,345,127173,2,0,B|523:296|502:242|502:242|475:260,1,125.999996154785,2|0,1:2|1:2,0:2:0:0:
399,208,127718,1,0,0:2:0:0:
310,252,127900,6,0,B|275:249|238:236,1,62.9999980773926,2|0,1:2|3:2,0:2:0:0:
236,252,128172,1,0,3:2:0:0:
223,265,128263,2,0,B|188:268|151:281,1,62.9999980773926,2|0,1:2|3:2,0:0:0:0:
59,253,128627,2,0,B|54:301|36:352,2,94.499997116089,2|0|2,1:2|3:2|0:2,0:2:0:0:
68,144,129355,6,0,B|33:141|-4:128,1,62.9999980773926,2|0,1:2|0:2,0:2:0:0:
109,56,129718,2,0,B|135:65|170:68,1,62.9999980773926,2|0,1:2|0:2,0:2:0:0:
267,12,130082,1,2,1:2:0:0:
267,12,130173,1,2,1:2:0:0:
267,12,130264,1,2,1:2:0:0:
358,75,130445,2,0,L|395:67,1,31.4999990386963,2|2,1:2|1:2,0:0:0:0:
411,90,130627,2,0,L|448:82,1,31.4999990386963,2|2,1:2|1:2,0:0:0:0:
475,100,130809,5,6,0:2:0:0:
475,100,131536,2,0,B|485:137|482:187,1,62.9999980773926,2|0,1:2|1:2,0:2:0:0:
389,251,131900,2,0,B|391:225|381:188,1,62.9999980773926,2|2,1:1|1:1,0:0:0:0:
312,98,132264,6,0,B|244:55|156:102,1,140,6|8,0:0|0:0,0:0:0:0:
102,17,132809,1,2,0:0:0:0:
39,97,132991,2,0,B|44:132|34:199,1,70,2|0,0:0|0:0,0:0:0:0:
5,175,133264,2,0,B|-8:225|10:288,1,105,10|2,0:0|0:0,0:0:0:0:
46,370,133718,6,0,B|81:375|148:365,1,70,2|0,0:0|0:0,0:0:0:0:
142,355,133991,2,0,B|195:340|255:360,1,105,10|2,0:0|0:0,0:0:0:0:
329,294,134445,2,0,L|378:309,3,35,2|0|0|2,0:0|0:0|0:0|0:0,0:0:0:0:
393,296,134809,2,0,B|428:302|463:297,1,70,8|2,0:0|0:0,0:0:0:0:
505,197,135173,5,2,0:0:0:0:
505,197,135536,2,0,B|514:160|510:105,1,70,10|2,0:0|0:0,0:0:0:0:
401,213,135900,2,0,B|414:159|408:82,2,105,2|2|2,0:0|0:0|0:0,0:0:0:0:
319,257,136627,5,2,0:0:0:0:
319,257,136718,1,0,0:0:0:0:
319,257,136809,1,0,0:0:0:0:
212,278,136991,2,0,L|209:238,3,35,8|0|0|0,0:0|0:0|0:0|0:0,0:0:0:0:
170,239,137355,2,0,B|175:199|191:145,1,70
287,147,137718,2,0,P|283:104|280:83,1,35,10|0,0:0|0:0,0:0:0:0:
309,90,137900,2,0,P|294:49|285:29,1,35,2|0,0:0|0:0,0:0:0:0:
318,19,138082,6,0,B|255:47|154:31,1,140,6|8,0:2|0:0,0:0:0:0:
48,8,138627,2,0,B|-8:61|21:149,1,140,0|2,0:0|0:0,0:0:0:0:
107,189,139173,1,10,0:0:0:0:
69,291,139355,5,0,0:0:0:0:
69,291,139445,1,0,0:0:0:0:
69,291,139536,2,0,B|34:296|-33:286,1,70,2|2,0:0|0:0,0:0:0:0:
153,371,139900,2,0,B|148:336|158:269,1,70,10|2,0:0|0:0,0:0:0:0:
261,294,140264,2,0,B|288:224|256:146,1,140,2|10,0:0|0:0,0:0:0:0:
311,10,140991,6,0,B|383:13|469:46,1,140,2|8,0:0|0:0,0:0:0:0:
354,146,141536,2,0,B|426:143|512:110,1,140,2|2,0:0|0:0,0:0:0:0:
510,225,142082,1,10,0:0:0:0:
510,225,142264,1,2,0:0:0:0:
413,265,142445,5,6,0:2:0:0:
267,325,142718,1,2,0:0:0:0:
113,287,142991,1,2,0:0:0:0:
73,187,143173,1,2,0:0:0:0:
90,183,143263,1,0,0:0:0:0:
107,180,143354,1,0,0:0:0:0:
124,177,143445,1,0,0:0:0:0:
141,173,143536,1,8,0:0:0:0:
220,115,143718,5,0,0:0:0:0:
220,115,143809,1,0,0:0:0:0:
220,115,143900,2,0,B|234:180|234:263,1,140,6|8,0:2|0:0,0:0:0:0:
208,357,144445,1,2,0:0:0:0:
308,320,144627,2,0,B|349:323|395:341,1,70,2|0,0:0|0:0,0:0:0:0:
389,356,144900,2,0,B|443:352|503:328,1,105,10|2,0:0|0:0,0:0:0:0:
421,250,145355,6,0,B|424:209|442:163,1,70,2|0,0:0|0:0,0:0:0:0:
457,169,145628,2,0,B|453:115|429:55,1,105,10|2,0:0|0:0,0:0:0:0:
313,38,146082,2,0,L|324:100,3,35,2|0|0|2,0:0|0:0|0:0|0:0,0:0:0:0:
317,103,146445,2,0,B|314:144|296:190,1,70,8|2,0:0|0:0,0:0:0:0:
278,280,146809,5,2,0:0:0:0:
278,280,147173,2,0,B|281:321|299:367,1,70,10|2,0:0|0:0,0:0:0:0:
187,322,147536,2,0,B|132:325|71:349,2,105,2|2|2,0:0|0:0|0:0,0:0:0:0:
183,212,148264,5,2,0:0:0:0:
183,212,148355,1,0,0:0:0:0:
183,212,148445,1,0,0:0:0:0:
80,235,148627,2,0,L|40:228,3,35,8|0|0|0,0:0|0:0|0:0|0:0,0:0:0:0:
16,251,148991,2,0,B|28:218|28:218|13:167,1,70
2,77,149355,2,0,L|42:68,1,35,10|0,0:0|0:0,0:0:0:0:
53,36,149536,2,0,L|90:51,1,35,2|0,0:0|0:0,0:0:0:0:
112,72,149718,6,0,B|185:98|267:44,1,140,6|8,0:2|0:0,0:0:0:0:
346,13,150264,2,0,B|419:-13|501:41,1,140,0|2,0:0|0:0,0:0:0:0:
492,139,150809,1,10,0:0:0:0:
373,110,150991,5,2,0:0:0:0:
373,110,151082,1,0,0:0:0:0:
373,110,151173,2,0,B|331:116|276:134,1,70,2|0,0:0|0:0,0:0:0:0:
200,94,151536,2,0,B|169:123|134:169,1,70,10|2,0:0|0:0,0:0:0:0:
42,62,151900,2,0,B|4:130|48:205,1,140,2|10,0:0|0:0,0:0:0:0:
138,318,152627,6,0,B|211:324|288:356,1,140,2|8,0:0|0:0,0:0:0:0:
377,378,153173,2,0,B|450:372|527:340,1,140,2|2,0:0|0:0,0:0:0:0:
512,244,153718,1,10,0:0:0:0:
512,244,153900,1,2,0:0:0:0:
425,183,154082,5,6,0:2:0:0:
266,220,154355,1,2,0:0:0:0:
115,174,154627,1,2,0:0:0:0:
15,206,154809,1,2,0:0:0:0:
13,188,154899,1,0,0:0:0:0:
11,171,154990,1,0,0:0:0:0:
9,153,155081,1,0,0:0:0:0:
7,136,155172,1,8,0:0:0:0:
63,46,155355,5,0,0:0:0:0:
63,46,155445,1,0,0:0:0:0:
63,46,155536,2,0,B|111:41|159:62|159:62|196:41,1,140,6|10,0:2|0:0,0:0:0:0:
296,89,156082,2,0,P|302:47|311:18,1,70,2|0,0:0|0:0,0:0:0:0:
213,154,156445,2,0,P|171:148|142:139,1,70,2|8,0:0|0:0,0:0:0:0:
278,237,156809,6,0,P|272:296|250:377,1,140,6|2,0:2|0:0,0:0:0:0:
156,322,157355,1,2,0:0:0:0:
55,368,157536,1,2,0:0:0:0:
1,285,157718,2,0,B|6:246|19:199,1,70,2|0,0:0|0:0,0:0:0:0:
29,202,157991,1,0,0:0:0:0:
43,188,158082,2,0,B|38:149|25:102,1,70,2|0,0:0|0:0,0:0:0:0:
144,189,158445,6,0,B|183:194|230:207,1,70,6|2,0:2|0:2,0:2:0:0:
292,274,158809,2,0,L|334:267,3,35,10|2|2|2,0:2|0:2|0:2|0:2,0:0:0:0:
347,247,159173,2,0,B|386:252|433:265,1,70,2|2,0:2|0:2,0:2:0:0:
476,183,159536,2,0,L|486:134,1,35,10|2,0:2|0:2,0:0:0:0:
457,128,159718,2,0,L|467:79,1,35,2|2,0:2|0:2,0:0:0:0:
486,62,159900,6,0,B|421:97|340:73,1,140,2|10,0:1|0:2,0:0:0:0:
269,20,160445,1,2,0:2:0:0:
204,93,160627,2,0,L|211:142,3,35,8|2|2|2,0:2|0:2|0:2|0:2,0:0:0:0:
192,156,160991,2,0,B|153:155|94:144,1,70,10|0,0:2|0:2,0:0:0:0:
15,180,161355,5,2,0:1:0:0:
15,180,161536,1,0,0:2:0:0:
86,264,161718,2,0,B|125:263|184:252,1,70,10|2,0:2|0:2,0:2:0:0:
170,271,161991,1,2,0:2:0:0:
184,285,162082,2,0,B|223:286|282:297,1,70,2|2,0:2|0:2,0:0:0:0:
322,361,162445,2,0,B|346:360|383:353,3,35,10|2|2|2,0:2|0:2|0:2|0:2,0:2:0:0:
386,346,162809,5,2,0:1:0:0:
489,179,163173,2,0,L|440:170,3,35,2|2|2|2,0:2|0:2|0:2|0:2,0:0:0:0:
444,138,163536,2,0,L|395:147,3,35,10|2|2|2,0:2|0:2|0:2|0:2,0:0:0:0:
368,122,163900,2,0,B|382:161|369:218,1,70,2|2,0:1|0:1,0:0:0:0:
277,169,164264,6,0,B|238:183|181:170,1,70,6|2,0:2|0:2,0:2:0:0:
132,112,164627,1,10,0:2:0:0:
49,157,164809,1,2,0:2:0:0:
49,157,164900,1,0,0:2:0:0:
49,157,164991,2,0,L|56:215,3,35,2|2|2|0,0:2|0:2|0:2|0:2,0:2:0:0:
31,216,165355,2,0,L|38:274,3,35,10|2|2|2,0:2|0:2|0:2|0:2,0:2:0:0:
19,282,165718,5,2,0:1:0:0:
201,355,166082,2,0,L|210:311,3,35,10|2|2|2,0:2|0:2|0:2|0:2,0:2:0:0:
194,289,166445,2,0,B|231:285|271:273,1,70,2|2,0:2|0:2,0:2:0:0:
357,301,166809,2,0,B|359:275|368:247,3,35,10|0|0|0,0:1|0:0|0:2|0:2,0:0:0:0:
392,247,167173,6,0,B|423:184|383:95,1,140,2|10,0:1|0:2,0:2:0:0:
289,79,167718,2,0,B|279:117|273:176,1,70,2|0,0:1|0:2,0:2:0:0:
172,119,168082,2,0,B|162:157|156:216,1,70,2|8,0:1|0:2,0:2:0:0:
141,293,168445,6,2,B|56:318|-4:272,1,140,2|0,0:1|0:2,0:1:0:0:
12,180,168991,2,0,B|5:142|6:97,1,70,10|2,0:1|0:1,0:0:0:0:
63,30,169355,1,2,0:1:0:0:
247,94,169718,1,4,0:3:0:0:
429,21,170082,1,6,0:2:0:0:
429,335,181718,6,0,B|373:299|301:311,2,125.999996154785,6|0|0,1:2|1:2|1:2,0:0:0:0:
498,183,182809,2,0,B|503:148|510:117,1,62.9999980773926,2|0,1:2|0:2,0:0:0:0:
405,160,183173,6,0,B|401:95|419:27,1,125.999996154785,2|2,1:2|1:2,0:0:0:0:
338,44,183718,2,0,B|273:48|205:30,1,125.999996154785,2|2,0:2|3:2,0:2:0:0:
151,76,184264,2,0,B|116:78|80:68,1,62.9999980773926,0|0,0:0|0:2,0:0:0:0:
62,161,184627,6,0,B|27:158|-8:168,2,62.9999980773926,0|8|0,1:2|0:2|1:2,0:0:0:0:
123,219,185173,1,8,0:2:0:0:
123,219,185355,2,0,B|151:226|185:224,1,62.9999980773926,0|8,1:2|0:2,0:0:0:0:
241,171,185718,1,0,1:2:0:0:
345,210,185900,5,6,1:2:0:0:
345,210,186809,2,0,B|339:158|324:90,2,94.499997116089,6|6|6,1:0|1:0|1:0,0:0:0:0:
448,237,187536,6,0,B|481:302|445:374,1,140,6|8,0:0|0:0,0:0:0:0:
346,326,188082,1,2,0:0:0:0:
247,372,188264,2,0,B|212:377|162:368,1,70,2|0,0:0|0:0,0:0:0:0:
158,344,188536,2,0,B|102:334|40:359,1,105,10|2,0:0|0:0,0:0:0:0:
0,266,188991,6,0,B|-5:231|4:181,1,70,2|0,0:0|0:0,0:0:0:0:
28,177,189263,2,0,B|38:121|13:59,1,105,10|2,0:0|0:0,0:0:0:0:
108,21,189718,2,0,L|151:28,3,35,2|0|0|2,0:0|0:0|0:0|0:0,0:0:0:0:
164,50,190082,2,0,B|199:55|249:46,1,70,8|2,0:0|0:0,0:0:0:0:
293,141,190445,5,2,0:0:0:0:
293,141,190809,2,0,B|258:146|208:137,1,70,10|2,0:0|0:0,0:0:0:0:
114,221,191173,2,0,B|95:165|115:118,2,105,2|2|2,0:0|0:0|0:0,0:0:0:0:
183,301,191900,5,2,0:0:0:0:
183,301,191991,1,0,0:0:0:0:
183,301,192082,1,0,0:0:0:0:
285,267,192264,2,0,L|336:278,3,35,8|0|0|0,0:0|0:0|0:0|0:0,0:0:0:0:
341,298,192627,2,0,B|376:296|427:284,1,70
487,211,192991,2,0,L|496:161,1,35,10|0,0:0|0:0,0:0:0:0:
470,151,193173,2,0,L|479:101,1,35,2|0,0:0|0:0,0:0:0:0:
498,81,193355,6,0,B|430:116|336:71,1,140,6|8,0:2|0:0,0:0:0:0:
260,12,193900,2,0,B|225:80|270:174,1,140,0|2,0:0|0:0,0:0:0:0:
339,223,194445,1,10,0:0:0:0:
254,299,194627,5,0,0:0:0:0:
254,299,194718,1,0,0:0:0:0:
254,299,194809,2,0,B|243:339|236:389,1,70,2|2,0:0|0:0,0:0:0:0:
172,243,195173,2,0,B|145:274|117:316,1,70,10|2,0:0|0:0,0:0:0:0:
127,157,195536,2,0,B|65:185|-5:229,1,140,2|10,0:0|0:0,0:0:0:0:
43,31,196264,6,0,B|112:-2|196:52,1,140,2|8,0:0|0:0,0:0:0:0:
258,147,196809,2,0,B|327:180|411:126,1,140,2|2,0:0|0:0,0:0:0:0:
430,235,197355,1,10,0:0:0:0:
430,235,197536,1,2,0:0:0:0:
503,309,197718,5,6,0:2:0:0:
364,377,197991,1,2,0:0:0:0:
223,305,198264,1,2,0:0:0:0:
298,229,198445,1,2,0:0:0:0:
300,211,198535,1,0,0:0:0:0:
302,194,198626,1,0,0:0:0:0:
304,176,198717,1,0,0:0:0:0:
306,159,198808,1,8,0:0:0:0:
331,51,198991,5,0,0:0:0:0:
331,51,199082,1,0,0:0:0:0:
331,51,199173,2,0,B|271:32|219:62|219:62|190:41,1,140,6|8,0:2|0:0,0:0:0:0:
97,5,199718,1,2,0:0:0:0:
15,76,199900,2,0,B|10:111|20:178,1,70,2|0,0:0|0:0,0:0:0:0:
49,154,200173,2,0,B|62:204|44:267,1,105,10|2,0:0|0:0,0:0:0:0:
146,311,200627,6,0,B|141:276|151:209,1,70,2|0,0:0|0:0,0:0:0:0:
180,233,200900,2,0,B|193:183|175:120,1,105,10|2,0:0|0:0,0:0:0:0:
282,130,201355,2,0,L|328:139,3,35,2|0|0|2,0:0|0:0|0:0|0:0,0:0:0:0:
332,164,201718,2,0,B|367:159|429:132,1,70,8|2,0:0|0:0,0:0:0:0:
444,239,202082,5,2,0:0:0:0:
444,239,202445,2,0,B|479:243|541:270,1,70,10|2,0:0|0:0,0:0:0:0:
367,272,202809,2,0,B|362:311|332:380,2,105,2|2|2,0:0|0:0|0:0,0:0:0:0:
275,231,203536,5,2,0:0:0:0:
275,231,203627,1,0,0:0:0:0:
275,231,203718,1,0,0:0:0:0:
209,314,203900,2,0,L|168:322,3,35,8|0|0|0,0:0|0:0|0:0|0:0,0:0:0:0:
155,347,204264,2,0,B|119:342|57:315,1,70
3,263,204627,2,0,L|11:213,1,35,10|0,0:0|0:0,0:0:0:0:
38,218,204809,2,0,L|46:168,1,35,2|0,0:0|0:0,0:0:0:0:
10,149,204991,6,0,B|79:175|153:127,1,140,6|8,0:2|0:0,0:0:0:0:
53,37,205536,2,0,B|122:11|196:59,1,140,0|2,0:0|0:0,0:0:0:0:
269,119,206082,1,10,0:0:0:0:
356,47,206264,5,2,0:0:0:0:
356,47,206355,1,0,0:0:0:0:
356,47,206445,2,0,B|392:39|447:36,1,70,2|0,0:0|0:0,0:0:0:0:
442,148,206809,2,0,B|478:156|533:159,1,70,10|2,0:0|0:0,0:0:0:0:
445,247,207173,2,0,B|368:265|307:209,1,140,2|10,0:0|0:0,0:0:0:0:
187,53,207900,6,0,B|110:35|49:91,1,140,2|8,0:0|0:0,0:0:0:0:
0,178,208445,2,0,B|8:250|38:326,1,140,2|2,0:0|0:0,0:0:0:0:
121,275,208991,1,10,0:0:0:0:
121,275,209173,1,2,0:0:0:0:
198,345,209355,5,6,0:2:0:0:
342,283,209627,1,2,0:0:0:0:
209,197,209900,1,2,0:0:0:0:
290,131,210082,1,2,0:0:0:0:
287,113,210172,1,0,0:0:0:0:
285,96,210263,1,0,0:0:0:0:
282,79,210354,1,0,0:0:0:0:
280,61,210445,1,8,0:0:0:0:
374,15,210627,5,0,0:0:0:0:
374,15,210718,1,0,0:0:0:0:
374,15,210809,2,0,B|457:-2|495:78,1,140,6|10,0:2|0:0,0:0:0:0:
475,180,211355,2,0,B|438:176|394:165,1,70,2|0,0:0|0:0,0:0:0:0:
495,281,211718,2,0,B|458:277|414:266,1,70,2|8,0:0|0:0,0:0:0:0:
348,338,212082,5,6,0:2:0:0:
348,338,212445,1,2,0:0:0:0:
267,277,212627,2,0,B|230:281|186:292,1,70,2|2,0:0|0:0,0:0:0:0:
123,212,212991,2,0,B|179:165|263:197,1,140,2|2,0:0|0:0,0:0:0:0:
366,200,213536,5,0,0:0:0:0:
366,200,213627,1,0,0:0:0:0:
366,200,213718,2,0,B|381:129|376:53,1,140,6|2,0:2|0:0,0:0:0:0:
274,82,214264,2,0,B|265:39|268:-5,1,70,2|0,0:0|0:0,0:0:0:0:
177,115,214627,2,0,B|168:72|171:27,1,70,2|0,0:0|0:0,0:0:0:0:
67,13,214991,5,2,0:0:0:0:
67,13,215355,1,2,0:0:0:0:
2,101,215536,2,0,B|0:128|8:170,1,70,2|2,0:0|0:0,0:0:0:0:
12,275,215900,2,0,B|39:277|81:269,1,70,2|0,0:0|0:0,0:0:0:0:
155,197,216264,2,0,L|210:207,3,35,2|0|0|0,0:0|0:0|0:0|0:0,0:0:0:0:
222,213,216627,5,6,0:2:0:0:
222,213,217173,2,0,B|209:151|207:86,2,112,4|4|4,1:2|1:2|0:2,0:0:0:0:
159,368,218264,5,2,1:0:0:0:
159,368,218445,1,2,1:0:0:0:
231,337,218627,1,2,1:0:0:0:
306,367,218809,2,0,B|338:371|370:377,1,56,2|0,1:0|1:2,0:0:0:0:
445,304,219173,2,0,B|477:308|509:314,1,56,2|0,1:0|1:2,0:0:0:0:
384,227,219536,6,0,B|389:186|396:146,1,70,6|2,1:2|1:2,0:2:0:0:
398,59,219900,2,0,L|354:51,3,35,10|2|2|2,0:2|0:2|0:2|0:2,0:0:0:0:
353,31,220264,2,0,B|312:36|272:43,1,70,2|2,1:2|0:2,0:2:0:0:
186,29,220627,2,0,L|180:66,1,35,10|2,0:2|0:2,0:0:0:0:
158,83,220809,2,0,L|164:120,1,35,2|2,0:2|0:2,0:0:0:0:
189,135,220991,6,0,B|224:200|196:284,1,140,2|10,1:1|0:2,0:0:0:0:
142,350,221536,1,2,0:2:0:0:
56,304,221718,2,0,L|21:311,3,35,0|2|2|2,1:2|0:2|0:2|0:2,0:0:0:0:
8,284,222082,2,0,B|12:247|23:202,1,70,10|0,0:2|0:2,0:0:0:0:
0,109,222445,5,2,1:1:0:0:
0,109,222627,1,0,1:2:0:0:
90,50,222809,2,0,B|129:51|188:62,1,70,10|2,0:2|0:2,0:2:0:0:
174,43,223082,1,2,0:2:0:0:
188,29,223173,2,0,B|227:28|286:17,1,70,2|2,1:2|0:2,0:0:0:0:
357,29,223536,2,0,L|348:83,3,35,10|2|2|2,0:2|0:2|0:2|0:2,0:2:0:0:
366,88,223900,5,2,1:1:0:0:
217,215,224264,2,0,L|168:206,3,35,8|2|2|2,0:2|0:2|0:2|0:2,0:0:0:0:
172,174,224627,2,0,L|123:183,3,35,2|2|2|2,1:2|0:2|0:2|0:2,0:0:0:0:
96,158,224991,2,0,B|110:197|97:254,1,70,2|2,1:1|1:1,0:0:0:0:
12,288,225355,6,0,B|-2:327|11:384,1,70,6|2,1:2|1:2,0:2:0:0:
107,324,225718,1,10,0:2:0:0:
187,378,225900,1,2,0:2:0:0:
187,378,225991,1,2,0:2:0:0:
187,378,226082,2,0,L|234:371,3,35,2|2|2|0,1:2|0:2|0:2|0:2,0:2:0:0:
241,351,226445,2,0,L|288:358,3,35,10|2|2|2,0:2|0:2|0:2|0:2,0:2:0:0:
311,361,226809,5,2,1:1:0:0:
480,261,227173,2,0,L|471:217,3,35,10|2|2|2,0:2|0:2|0:2|0:2,0:2:0:0:
487,195,227536,2,0,B|450:191|410:179,1,70,2|2,1:2|0:2,0:2:0:0:
329,224,227900,2,0,L|285:233,3,35,10|0|0|0,0:1|0:0|3:2|3:2,0:0:0:0:
265,253,228264,6,0,B|193:252|115:230,1,140,2|10,1:1|0:2,0:2:0:0:
69,153,228809,2,0,B|33:153|-5:164,1,70,2|0,1:1|0:2,0:2:0:0:
133,58,229173,2,0,B|97:57|58:46,1,70,2|8,1:1|0:2,0:2:0:0:
163,138,229536,5,6,1:0:0:0:
163,138,229900,1,0,1:2:0:0:
261,138,230082,2,0,B|295:138|330:129,1,70,10|2,0:1|0:1,0:0:0:0:
421,79,230445,1,2,1:2:0:0:
421,79,230536,1,0,3:2:0:0:
421,79,230627,1,0,1:2:0:0:
421,79,230718,1,0,3:2:0:0:
421,79,230809,2,0,B|455:78|490:87,1,70,10|0,0:2|3:2,0:2:0:0:
483,196,231173,5,6,1:2:0:0:
483,196,231355,1,2,1:2:0:0:
378,213,231536,2,0,B|343:222|309:221,1,70,10|2,0:2|0:2,0:0:0:0:
288,214,231809,1,2,0:2:0:0:
267,209,231900,2,0,B|276:244|275:278,1,70,2|2,1:2|0:2,0:2:0:0:
209,359,232264,2,0,L|161:371,3,35,10|2|2|2,0:2|0:2|0:2|0:2,0:0:0:0:
149,363,232627,6,0,B|114:354|80:355,1,70,2|0,1:1|0:2,0:0:0:0:
6,284,232991,2,0,L|-4:234,3,35,10|2|2|2,0:2|0:2|0:2|0:2,0:2:0:0:
10,219,233355,2,0,B|1:184|2:150,1,70,0|2,1:2|0:2,0:2:0:0:
112,154,233718,1,10,0:2:0:0:
112,154,233900,1,0,0:2:0:0:
207,93,234082,6,0,B|216:58|215:24,1,70,2|0,1:1|1:0,0:2:0:0:
323,3,234445,2,0,B|322:37|331:72,1,70,10|2,0:2|0:2,0:0:0:0:
346,87,234718,1,2,0:2:0:0:
360,101,234809,1,2,1:2:0:0:
445,153,234991,1,2,0:2:0:0:
402,248,235173,2,0,L|410:298,3,35,10|2|2|2,0:2|0:2|0:2|0:2,0:0:0:0:
415,314,235536,5,2,1:1:0:0:
224,359,235900,2,0,L|178:367,1,35,10|2,0:2|0:2,0:0:0:0:
166,344,236082,2,0,L|120:352,1,35,2|2,0:2|0:2,0:0:0:0:
108,329,236264,2,0,L|62:337,1,35,2|2,1:2|0:2,0:0:0:0:
43,313,236445,1,2,0:2:0:0:
93,228,236627,1,2,1:1:0:0:
190,237,236809,1,2,1:1:0:0:
276,298,236991,6,0,B|347:315|438:314,1,140,6|10,1:2|0:2,0:2:0:0:
479,241,237536,1,2,0:2:0:0:
479,241,237718,2,0,P|485:187|488:159,1,70,2|2,1:2|0:2,0:0:0:0:
491,72,238082,1,10,0:2:0:0:
474,74,238172,1,2,0:2:0:0:
456,76,238263,1,2,0:2:0:0:
439,78,238354,1,2,0:2:0:0:
421,80,238445,5,2,1:1:0:0:
239,7,238809,2,0,L|195:0,3,35,10|2|2|2,0:2|0:2|0:2|0:2,0:0:0:0:
190,26,239173,2,0,L|146:19,3,35,0|2|2|2,1:2|0:2|0:2|0:2,0:0:0:0:
131,41,239537,2,0,P|120:95|108:130,1,70,10|0,0:1|0:0,0:2:0:0:
14,121,239900,6,0,P|25:175|37:210,1,70,2|0,1:1|0:2,0:2:0:0:
8,298,240264,1,10,0:2:0:0:
8,298,240355,1,2,0:2:0:0:
8,298,240445,2,0,B|42:303|99:323,1,70,2|0,1:1|0:2,0:2:0:0:
127,221,240809,2,0,B|161:216|218:196,1,70,2|8,1:1|0:2,0:2:0:0:
275,272,241173,5,6,1:0:0:0:
275,272,241536,1,0,1:2:0:0:
326,187,241718,2,0,P|317:140|305:95,1,70,10|2,0:1|1:1,0:0:0:0:
214,116,242082,2,0,P|283:118|342:52,1,140,2|4,1:1|0:3,0:0:0:0:
140,8,242809,5,6,0:2:0:0:
256,192,242900,12,0,245718,2:2:0:0:
