osu file format v14

[General]
AudioFilename: audio.mp3
AudioLeadIn: 0
PreviewTime: 262416
Countdown: 0
SampleSet: Soft
StackLeniency: 0.4
Mode: 0
LetterboxInBreaks: 0
WidescreenStoryboard: 1

[Editor]
Bookmarks: 15099,28270,39977,63391,86806,110221,121928,133635,157050,180465,203879,215587,227294,239001,262416,285831,297538,320952
DistanceSpacing: 0.7
BeatDivisor: 4
GridSize: 32
TimelineZoom: 2.799999

[Metadata]
Title:Drive Your Fire
TitleUnicode:Drive Your Fire
Artist:A-One feat. Aki & Rute
ArtistUnicode:A-One feat. あき & Rute
Creator:HyperPigeon
Version:Ignite Your Immortal Heart like a Phoenix
Source:東方永夜抄 ~ Imperishable Night.
Tags:fa featured artist 東方Touhou Project TOHO EUROBEAT VOL.16 永夜抄 Comiket 92 エクステンドアッシュ ~ 蓬莱人 Extend Ash ~ Hourai Victim Extra Stage Theme 月まで届け、不死の煙 Reach for the Moon Immortal Smoke Fujiwara no Mokou Boss 藤原 妹紅 越田 隆人 あき Aki Rute AbsoRute Zero Koshida Takahito Yassie DJ Command ZUN 上海アリス幻樂団 Team Shanghai Alice video game electronic rock japanese
BeatmapID:4049167
BeatmapSetID:1955038

[Difficulty]
HPDrainRate:5.2
CircleSize:4
OverallDifficulty:8.8
ApproachRate:9
SliderMultiplier:1.8
SliderTickRate:1

[Events]
//Background and Video events
0,0,"WhenLifeGetsMokou.png",0,0
//Break Periods
//Storyboard Layer 0 (Background)
//Storyboard Layer 1 (Fail)
//Storyboard Layer 2 (Pass)
//Storyboard Layer 3 (Foreground)
//Storyboard Layer 4 (Overlay)
//Storyboard Sound Samples

[TimingPoints]
3392,365.853658536585,4,2,0,70,1,0
3392,-133.333333333333,4,2,0,50,0,0
15099,-125,4,2,1,60,0,0
28270,-100,4,2,1,70,0,0
38513,-90.9090909090909,4,2,1,70,0,0
39977,-100,4,2,1,70,0,0
47385,-100,4,2,1,5,0,0
47477,-100,4,2,1,70,0,0
50312,-100,4,2,1,5,0,0
50404,-100,4,2,1,70,0,0
59093,-100,4,2,1,5,0,0
59184,-100,4,2,1,70,0,0
83879,-90.9090909090909,4,2,1,70,0,0
86166,-90.9090909090909,4,2,1,5,0,0
86257,-100,4,2,1,70,0,0
86806,-83.3333333333333,4,2,1,80,0,1
94032,-83.3333333333333,4,2,1,5,0,1
94123,-83.3333333333333,4,2,1,80,0,1
105739,-83.3333333333333,4,2,1,5,0,1
105831,-83.3333333333333,4,2,1,80,0,1
121928,-100,4,2,1,70,0,0
132172,-90.9090909090909,4,2,1,70,0,0
133635,-100,4,2,1,70,0,0
141044,-100,4,2,1,5,0,0
141135,-100,4,2,1,70,0,0
152751,-100,4,2,1,5,0,0
152843,-100,4,2,1,70,0,0
177538,-90.9090909090909,4,2,1,70,0,0
179824,-90.9090909090909,4,2,1,5,0,0
179916,-100,4,2,1,70,0,0
180465,-83.3333333333333,4,2,1,80,0,1
187690,-83.3333333333333,4,2,1,5,0,1
187782,-83.3333333333333,4,2,1,80,0,1
199398,-83.3333333333333,4,2,1,5,0,1
199489,-83.3333333333333,4,2,1,80,0,1
215587,-90.9090909090909,4,2,1,70,0,0
227294,-100,4,2,1,70,0,0
239001,-125,4,2,0,55,0,0
240373,-125,4,2,0,5,0,0
240465,-125,4,2,0,55,0,0
243300,-125,4,2,0,5,0,0
243391,-125,4,2,0,55,0,0
246227,-125,4,2,0,5,0,0
246318,-125,4,2,0,55,0,0
252081,-125,4,2,0,5,0,0
252172,-125,4,2,0,55,0,0
255007,-125,4,2,0,5,0,0
255099,-125,4,2,0,55,0,0
257934,-125,4,2,0,5,0,0
258026,-125,4,2,0,55,0,0
259489,-90.9090909090908,4,2,1,70,0,0
261776,-90.9090909090908,4,2,1,5,0,0
261867,-100,4,2,1,70,0,0
262416,-83.3333333333333,4,2,1,80,0,1
269641,-83.3333333333333,4,2,1,5,0,1
269733,-83.3333333333333,4,2,1,80,0,1
281349,-83.3333333333333,4,2,1,5,0,1
281440,-83.3333333333333,4,2,1,80,0,1
297538,-100,4,2,1,70,0,0
307782,-90.9090909090909,4,2,1,70,0,0
309245,-100,4,2,1,70,0,0
319489,-90.9090909090909,4,2,1,70,0,0
320952,-400,4,2,1,70,0,0
329733,-400,4,2,1,10,0,0

[Colours]
Combo1 : 220,220,220
Combo2 : 210,75,80
Combo3 : 210,210,110
Combo4 : 70,115,165

[HitObjects]
256,192,831,12,0,3209,0:0:0:0:
71,241,3392,6,0,B|55:274|55:274|74:327,1,67.5000025749208,6|0,0:0|0:0,0:0:0:0:
74,317,3666,1,0,0:0:0:0:
74,317,3757,2,0,B|110:310|110:310|112:308|112:308|155:301,1,67.5000025749208,8|0,0:0|0:0,0:0:0:0:
231,349,4123,1,0,0:0:0:0:
231,349,4215,1,0,0:0:0:0:
231,349,4306,1,0,0:0:0:0:
199,231,4489,1,8,0:0:0:0:
329,267,4672,1,0,0:0:0:0:
329,267,4763,1,0,0:0:0:0:
329,267,4855,6,0,B|365:273|365:273|367:275|367:275|410:282,1,67.5000025749208
411,283,5129,1,0,0:0:0:0:
411,283,5221,2,0,P|432:253|426:218,1,67.5000025749208,8|0,0:0|0:0,0:0:0:0:
421,208,5495,1,0,0:0:0:0:
421,208,5587,2,0,L|373:198,2,33.7500012874604
365,99,5952,1,8,0:0:0:0:
248,166,6135,1,2,0:0:0:0:
248,166,6227,1,0,0:0:0:0:
248,166,6318,6,0,L|185:171,1,33.7500012874604,2|0,0:0|0:0,0:0:0:0:
122,249,6593,2,0,L|117:186,1,33.7500012874604,2|8,0:0|0:0,0:0:0:0:
45,118,6867,2,0,L|108:113,1,33.7500012874604,2|0,0:0|0:0,0:0:0:0:
175,41,7142,2,0,L|180:104,1,33.7500012874604,2|0,0:0|0:0,0:0:0:0:
127,242,7416,2,0,L|122:179,1,33.7500012874604,10|0,0:0|0:0,0:0:0:0:
39,204,7599,1,2,0:0:0:0:
39,204,7690,1,0,0:0:0:0:
39,204,7782,6,0,L|49:297,1,67.5000025749208
48,287,8056,1,0,0:0:0:0:
48,287,8148,1,8,0:0:0:0:
179,318,8331,1,0,0:0:0:0:
179,318,8422,1,0,0:0:0:0:
179,318,8513,2,0,L|186:370,2,33.7500012874604
280,228,8879,1,8,0:0:0:0:
282,244,8971,1,0,0:0:0:0:
285,260,9062,2,0,L|294:312,1,33.7500012874604,10|0,0:0|0:0,0:0:0:0:
410,272,9245,6,0,B|417:306|417:306|415:308|415:308|422:345,1,67.5000025749208,6|0,0:0|0:0,0:0:0:0:
422,354,9520,1,0,0:0:0:0:
422,354,9611,2,0,B|393:375|393:375|350:360,1,67.5000025749208,8|0,0:0|0:0,0:0:0:0:
290,293,9977,1,0,0:0:0:0:
290,293,10068,1,0,0:0:0:0:
290,293,10160,1,0,0:0:0:0:
172,323,10343,1,8,0:0:0:0:
218,197,10526,1,0,0:0:0:0:
218,197,10617,1,0,0:0:0:0:
218,197,10709,6,0,P|186:181|145:191,1,67.5000025749208
141,194,10983,1,0,0:0:0:0:
141,194,11074,2,0,P|106:210|63:192,1,67.5000025749208,8|0,0:0|0:0,0:0:0:0:
66,192,11349,1,0,0:0:0:0:
66,192,11440,2,0,L|60:147,2,33.7500012874604
139,289,11806,1,8,0:0:0:0:
227,187,11989,1,0,0:0:0:0:
227,187,12081,1,0,0:0:0:0:
227,187,12172,5,2,0:0:0:0:
342,301,12355,2,0,L|336:348,1,33.7500012874604,2|0,0:0|0:0,0:0:0:0:
384,145,12629,2,0,L|427:126,1,33.7500012874604,2|0,0:0|0:0,0:0:0:0:
227,187,12904,2,0,L|189:158,1,33.7500012874604,2|0,0:0|0:0,0:0:0:0:
350,298,13178,2,0,L|344:345,1,33.7500012874604,2|8,0:0|0:0,0:0:0:0:
256,273,13452,1,2,0:0:0:0:
256,273,13544,1,0,0:0:0:0:
256,273,13635,6,0,L|245:359,1,67.5000025749208,2|0,0:0|0:0,0:0:0:0:
245,356,13910,1,2,0:0:0:0:
245,356,14001,1,8,0:0:0:0:
133,308,14184,1,2,0:0:0:0:
133,308,14276,1,0,0:0:0:0:
20,263,14459,1,2,0:0:0:0:
20,263,14550,2,0,L|18:291,3,16.8750006437302
27,257,14733,5,10,0:0:0:0:
44,228,14824,1,8,0:0:0:0:
29,197,14916,1,10,0:0:0:0:
50,171,15007,1,8,0:0:0:0:
32,139,15099,6,0,B|37:105|37:105|40:102|40:102|46:64,1,72,6|0,1:2|0:0,0:0:0:0:
112,154,15465,2,0,B|117:120|117:120|120:117|120:117|126:79,1,72,8|0,0:0|0:0,0:0:0:0:
220,135,15831,2,0,B|254:140|254:140|257:143|257:143|295:149,1,72,0|0,1:0|0:0,0:0:0:0:
233,51,16197,2,0,B|267:56|267:56|270:59|270:59|308:65,1,72,8|0,0:0|0:0,0:0:0:0:
391,125,16562,6,0,B|387:161|387:161|385:163|385:163|381:201,1,72,0|0,1:0|0:0,0:0:0:0:
373,207,16837,1,0,0:0:0:0:
373,207,16928,2,0,B|376:243|376:243|378:245|378:245|382:283,1,72,8|0,0:0|0:0,0:0:0:0:
389,290,17202,1,0,0:0:0:0:
389,290,17294,1,0,1:0:0:0:
282,363,17477,1,0,0:0:0:0:
282,363,17568,1,0,0:0:0:0:
282,363,17660,1,8,0:0:0:0:
255,221,17843,1,2,0:0:0:0:
155,325,18026,6,0,B|116:319|116:319|114:320|114:320|59:313,1,72,2|0,1:2|0:0,0:0:0:0:
70,313,18300,1,2,0:0:0:0:
70,313,18391,1,8,0:0:0:0:
147,237,18574,1,2,0:0:0:0:
147,237,18666,1,0,0:0:0:0:
42,209,18849,1,2,0:0:0:0:
42,209,18940,1,0,0:0:0:0:
120,134,19123,1,10,0:0:0:0:
16,104,19306,1,2,0:0:0:0:
16,104,19398,1,0,0:0:0:0:
16,104,19489,6,0,B|10:68|10:68|35:34,1,72,0|0,1:0|0:0,0:0:0:0:
137,62,19855,2,0,B|143:98|143:98|118:132,1,72,8|8,0:0|0:0,0:0:0:0:
113,138,20129,1,8,0:0:0:0:
113,138,20221,5,8,0:0:0:0:
238,169,20404,1,8,0:0:0:0:
255,172,20495,1,8,0:0:0:0:
272,175,20587,2,0,L|326:183,1,36,8|0,0:0|0:0,0:0:0:0:
289,80,20770,2,0,L|324:85,1,36,8|0,0:0|0:0,0:0:0:0:
413,158,20952,6,0,P|421:201|407:230,1,72,4|0,1:2|0:0,0:0:0:0:
335,332,21318,2,0,B|369:340|369:340|371:339|371:339|404:347,1,72,8|0,0:0|0:0,0:0:0:0:
245,281,21684,2,0,B|211:289|211:289|209:288|209:288|176:296,1,72,0|0,1:0|0:0,0:0:0:0:
161,301,21959,1,0,0:0:0:0:
161,301,22050,1,8,0:0:0:0:
31,365,22233,1,0,0:0:0:0:
31,365,22324,1,0,0:0:0:0:
31,365,22416,6,0,B|10:334|10:334|18:292,1,72,0|0,1:0|0:0,0:0:0:0:
94,195,22782,2,0,B|87:157|87:157|89:154|89:154|83:112,1,72,8|0,0:0|0:0,0:0:0:0:
214,108,23148,2,0,B|218:137|218:137|216:140|216:140|223:178,1,72,0|0,1:0|0:0,0:0:0:0:
227,192,23422,1,0,0:0:0:0:
227,192,23513,1,8,0:0:0:0:
340,103,23696,1,0,0:0:0:0:
340,103,23788,1,0,0:0:0:0:
340,103,23879,6,0,P|381:96|416:116,1,72,0|0,1:0|0:0,0:0:0:0:
397,252,24245,2,0,P|370:219|370:179,1,72,8|0,0:0|0:0,0:0:0:0:
498,129,24611,2,0,P|483:168|448:188,1,72,0|0,1:0|0:0,0:0:0:0:
446,191,24885,1,0,0:0:0:0:
446,191,24977,1,8,0:0:0:0:
345,313,25160,1,8,0:0:0:0:
345,313,25251,1,8,0:0:0:0:
345,313,25343,6,0,L|343:342,3,18,8|8|8|8,1:2|0:0|0:0|0:0,0:0:0:0:
333,323,25526,1,8,0:0:0:0:
315,325,25617,1,8,0:0:0:0:
297,328,25709,2,0,L|248:336,1,36,8|0,0:0|0:0,0:0:0:0:
208,254,25891,2,0,L|159:262,1,36,8|0,0:0|0:0,0:0:0:0:
135,350,26074,6,0,L|86:358,3,36,8|0|8|0,0:0|0:0|0:0|0:0,0:0:0:0:
43,279,26440,5,8,0:0:0:0:
15,250,26532,1,8,0:0:0:0:
25,211,26623,1,8,0:0:0:0:
3,177,26715,1,8,0:0:0:0:
12,138,26806,5,12,0:0:0:0:
256,192,26898,12,0,28087,0:0:0:0:
432,99,28270,6,0,B|425:144|425:144|423:146|423:146|416:187,1,90,6|0,1:2|0:0,0:0:0:0:
414,205,28544,1,0,0:0:0:0:
414,205,28635,2,0,B|369:216|369:216|322:183,1,90,10|0,0:0|0:0,0:0:0:0:
236,59,29001,1,2,1:2:0:0:
236,59,29093,2,0,L|231:111,1,45,2|0,0:0|0:0,0:0:0:0:
222,184,29276,1,2,0:0:0:0:
222,184,29367,1,8,0:0:0:0:
102,49,29550,1,2,0:0:0:0:
100,35,29641,1,2,0:0:0:0:
99,21,29733,5,2,1:2:0:0:
55,12,29824,1,2,0:0:0:0:
13,30,29916,1,2,0:0:0:0:
2,73,30007,2,0,L|8:124,1,45,2|8,0:0|0:0,0:0:0:0:
83,195,30190,1,2,0:0:0:0:
86,181,30282,1,2,0:0:0:0:
89,167,30373,1,2,0:0:0:0:
93,154,30465,5,0,1:0:0:0:
137,132,30556,1,0,0:0:0:0:
185,141,30648,1,2,0:0:0:0:
212,182,30739,1,2,0:0:0:0:
208,231,30831,5,10,0:0:0:0:
175,267,30922,1,2,0:0:0:0:
180,311,31013,1,2,0:0:0:0:
207,334,31105,1,2,0:0:0:0:
237,341,31196,6,0,B|280:334|280:334|282:335|282:335|328:328,1,90,2|0,1:2|0:0,0:0:0:0:
344,328,31471,1,0,0:0:0:0:
344,328,31562,2,0,P|363:288|331:248,1,90,10|0,0:0|0:0,0:0:0:0:
198,172,31928,1,2,1:2:0:0:
198,172,32020,2,0,L|248:167,1,45,2|0,0:0|0:0,0:0:0:0:
317,159,32203,1,2,0:0:0:0:
317,159,32294,1,8,0:0:0:0:
437,24,32477,1,2,0:0:0:0:
439,37,32568,1,2,0:0:0:0:
441,50,32660,5,2,1:2:0:0:
429,93,32751,1,2,0:0:0:0:
454,130,32843,1,2,0:0:0:0:
437,171,32934,1,2,0:0:0:0:
459,210,33026,2,0,L|465:261,1,45,10|2,0:0|0:0,0:0:0:0:
372,327,33209,2,0,L|366:282,1,45,2|2,0:0|0:0,0:0:0:0:
261,246,33391,5,10,1:2:0:0:
216,223,33483,1,10,0:0:0:0:
167,232,33574,1,10,0:0:0:0:
139,273,33666,1,10,0:0:0:0:
92,288,33757,1,10,0:0:0:0:
45,269,33849,1,10,0:0:0:0:
27,222,33940,1,10,0:0:0:0:
42,174,34032,1,10,0:0:0:0:
85,151,34123,6,0,P|107:111|78:64,1,90,6|0,1:2|0:0,0:0:0:0:
76,61,34397,1,0,0:0:0:0:
76,61,34488,2,0,B|124:56|124:56|127:57|127:57|177:52,1,90,10|0,0:0|0:0,0:0:0:0:
286,162,34854,1,2,1:2:0:0:
286,162,34946,2,0,L|278:96,1,45,2|0,0:0|0:0,0:0:0:0:
274,36,35129,1,2,0:0:0:0:
274,36,35220,1,8,0:0:0:0:
446,88,35403,1,2,0:0:0:0:
460,86,35494,1,2,0:0:0:0:
472,85,35586,5,2,1:2:0:0:
503,117,35677,1,2,0:0:0:0:
500,162,35769,1,2,0:0:0:0:
464,189,35860,2,0,L|406:184,1,45,2|8,0:0|0:0,0:0:0:0:
338,255,36043,1,2,0:0:0:0:
326,257,36135,1,2,0:0:0:0:
313,259,36226,1,2,0:0:0:0:
300,261,36318,5,0,1:2:0:0:
270,300,36409,1,0,0:0:0:0:
221,310,36501,1,2,0:0:0:0:
176,287,36592,1,2,0:0:0:0:
160,239,36684,5,10,0:0:0:0:
177,193,36775,1,2,0:0:0:0:
219,179,36866,1,2,0:0:0:0:
249,198,36958,1,2,0:0:0:0:
252,229,37049,6,0,B|211:245|211:245|162:222,1,90,2|0,1:2|0:0,0:0:0:0:
152,217,37324,1,0,0:0:0:0:
152,217,37416,2,0,B|157:169|157:169|156:166|156:166|161:116,1,90,10|0,0:0|0:0,0:0:0:0:
42,14,37782,1,2,1:2:0:0:
42,14,37874,2,0,L|35:80,1,45,2|0,0:0|0:0,0:0:0:0:
30,140,38057,1,2,0:0:0:0:
30,140,38148,1,8,0:0:0:0:
172,29,38331,1,8,0:0:0:0:
202,33,38422,1,8,0:0:0:0:
236,36,38513,6,0,B|284:32|284:32|287:30|287:30|338:26,1,99.0000030212403,14|8,1:2|0:0,0:0:0:0:
354,24,38788,1,10,0:0:0:0:
447,221,38971,1,10,0:0:0:0:
256,117,39154,1,10,0:0:0:0:
472,89,39337,1,10,0:0:0:0:
315,238,39520,1,10,0:0:0:0:
268,254,39611,1,10,0:0:0:0:
220,241,39702,1,8,0:0:0:0:
196,197,39794,1,8,0:0:0:0:
208,149,39885,1,8,0:0:0:0:
247,124,39977,6,0,P|271:87|257:28,1,90,6|2,1:2|0:0,0:0:0:0:
179,68,40343,1,10,0:0:0:0:
309,192,40526,1,2,0:0:0:0:
173,74,40709,1,2,1:2:0:0:
134,230,40891,2,0,B|180:224|180:224|183:222|183:222|230:216,1,90,2|8,0:0|0:0,0:0:0:0:
334,359,41257,6,0,B|316:274|316:274|323:262|323:262|306:181,1,180,2|0,0:0|0:0,0:0:0:0:
386,42,41806,1,10,0:0:0:0:
228,130,41989,1,2,0:0:0:0:
388,157,42172,1,2,1:2:0:0:
280,35,42355,2,0,B|237:14|237:14|185:32,1,90,2|8,0:0|0:0,0:0:0:0:
53,103,42721,1,0,0:0:0:0:
53,103,42812,1,0,0:0:0:0:
53,103,42904,6,0,B|59:151|59:151|57:153|57:153|65:208,1,90,2|0,1:2|0:0,0:0:0:0:
171,290,43270,1,10,0:0:0:0:
225,119,43452,1,2,0:0:0:0:
361,204,43635,1,2,1:2:0:0:
219,127,43818,2,0,B|225:175|225:175|223:177|223:177|231:232,1,90,2|8,0:0|0:0,0:0:0:0:
372,292,44184,6,0,P|420:282|444:241,1,90,2|0,0:0|1:2,0:0:0:0:
350,115,44550,2,0,L|344:60,1,45,2|0,0:0|0:0,0:0:0:0:
476,21,44733,2,0,L|470:76,1,45,10|0,0:0|0:0,0:0:0:0:
343,121,44916,2,0,L|337:66,1,45,2|0,0:0|0:0,0:0:0:0:
495,175,45099,5,2,1:2:0:0:
495,175,45190,1,0,0:0:0:0:
495,175,45282,2,0,L|425:165,1,45,2|0,0:0|0:0,0:0:0:0:
338,127,45465,1,10,0:0:0:0:
297,130,45556,1,0,0:0:0:0:
256,133,45648,1,0,0:0:0:0:
215,136,45739,1,0,0:0:0:0:
174,140,45831,6,0,B|153:185|153:185|182:232,1,90,6|2,1:2|0:0,0:0:0:0:
271,349,46196,1,10,0:0:0:0:
109,270,46379,1,2,0:0:0:0:
243,179,46562,1,2,1:2:0:0:
266,339,46745,2,0,B|220:345|220:345|217:343|217:343|158:350,1,90,2|8,0:0|0:0,0:0:0:0:
159,350,47020,1,0,0:0:0:0:
159,350,47111,6,0,P|92:313|126:261,1,135,2|0,0:0|0:0,0:0:0:0:
122,260,47477,1,2,0:0:0:0:
186,111,47660,1,10,0:0:0:0:
31,160,47843,2,0,B|79:167|79:167|81:169|81:169|135:177,1,90,2|0,0:0|1:0,0:0:0:0:
136,179,48117,1,0,0:0:0:0:
136,179,48209,2,0,L|197:191,1,45
314,190,48391,5,8,0:0:0:0:
349,161,48483,1,0,0:0:0:0:
389,180,48574,1,0,0:0:0:0:
426,155,48666,1,0,0:0:0:0:
466,175,48757,5,2,1:2:0:0:
374,41,48940,2,0,L|379:104,1,45,2|0,0:0|0:0,0:0:0:0:
251,151,49123,2,0,L|257:91,1,45,10|0,0:0|0:0,0:0:0:0:
380,37,49306,2,0,L|386:97,1,45,2|0,0:0|0:0,0:0:0:0:
245,157,49489,1,2,1:2:0:0:
393,194,49672,2,0,B|400:240|400:240|398:243|398:243|408:296,1,90,2|8,0:0|0:0,0:0:0:0:
243,363,50038,6,0,P|173:353|198:287,1,135,2|0,0:0|0:0,0:0:0:0:
191,291,50404,2,0,L|255:279,1,45,2|0,0:0|0:0,0:0:0:0:
66,200,50587,2,0,L|2:188,1,45,10|0,0:0|0:0,0:0:0:0:
188,99,50770,1,10,0:0:0:0:
218,66,50861,1,8,0:0:0:0:
262,58,50952,1,10,0:0:0:0:
305,70,51044,1,8,0:0:0:0:
330,106,51135,2,0,L|323:159,1,45,8|0,0:0|0:0,0:0:0:0:
354,279,51318,5,10,0:0:0:0:
392,302,51410,1,8,0:0:0:0:
436,295,51501,1,8,0:0:0:0:
471,267,51593,1,8,0:0:0:0:
473,222,51684,6,0,B|465:177|465:177|466:174|466:174|459:128,1,90,6|2,1:2|0:0,0:0:0:0:
348,13,52050,1,10,0:0:0:0:
317,190,52233,1,0,0:0:0:0:
466,127,52416,1,2,1:2:0:0:
306,97,52599,2,0,B|258:103|258:103|255:102|255:102|200:110,1,90,2|8,0:0|0:0,0:0:0:0:
45,165,52965,6,0,B|92:132|142:172|125:189|173:226|221:194,1,180,2|2,0:0|0:0,0:0:0:0:
194,113,53513,1,10,0:0:0:0:
75,248,53696,1,0,0:0:0:0:
232,284,53879,1,2,1:2:0:0:
69,253,54062,2,0,P|57:299|90:349,1,90,2|8,0:0|0:0,0:0:0:0:
244,275,54428,1,0,0:0:0:0:
244,275,54520,1,0,0:0:0:0:
244,275,54611,5,2,1:2:0:0:
381,360,54794,1,2,0:0:0:0:
413,182,54977,1,10,0:0:0:0:
374,368,55160,1,2,0:0:0:0:
310,199,55343,1,2,1:2:0:0:
466,239,55526,2,0,B|492:200|492:200|481:150,1,90,2|8,0:0|0:0,0:0:0:0:
350,35,55891,6,0,B|302:39|302:39|298:37|298:37|249:43,1,90,2|0,0:0|1:0,0:0:0:0:
99,21,56257,2,0,L|104:65,1,45,2|0,0:0|0:0,0:0:0:0:
185,163,56440,2,0,L|192:104,1,45,10|0,0:0|0:0,0:0:0:0:
91,16,56623,2,0,L|96:60,1,45,2|0,0:0|0:0,0:0:0:0:
9,153,56806,5,2,1:2:0:0:
91,292,56989,1,10,0:0:0:0:
95,314,57081,1,8,0:0:0:0:
99,335,57172,1,10,0:0:0:0:
190,171,57355,1,8,0:0:0:0:
187,202,57446,1,8,0:0:0:0:
184,233,57538,5,6,1:2:0:0:
109,88,57721,1,2,0:0:0:0:
191,240,57904,2,0,B|241:235|241:235|242:232|242:232|301:227,1,90,10|0,0:0|0:0,0:0:0:0:
384,129,58270,1,2,1:2:0:0:
262,23,58452,2,0,B|239:64|239:64|258:117,1,90,2|8,0:0|0:0,0:0:0:0:
382,231,58818,6,0,P|394:278|317:304,1,135,2|0,0:0|0:0,0:0:0:0:
310,302,59184,2,0,L|255:311,1,45,2|0,0:0|0:0,0:0:0:0:
186,240,59367,2,0,L|131:249,1,45,10|0,0:0|0:0,0:0:0:0:
54,308,59550,2,0,B|28:268|28:268|42:218,1,90,2|0,0:0|1:0,0:0:0:0:
125,89,59916,6,0,L|196:81,1,45,2|0,0:0|0:0,0:0:0:0:
263,30,60099,2,0,B|290:67|290:67|275:115,1,90,10|0,0:0|0:0,0:0:0:0:
270,126,60373,1,0,0:0:0:0:
270,126,60465,1,4,1:2:0:0:
439,65,60648,5,2,0:0:0:0:
408,242,60831,1,10,0:0:0:0:
264,135,61013,1,2,0:0:0:0:
414,234,61196,1,2,1:2:0:0:
271,311,61379,2,0,B|274:263|274:263|277:261|277:261|283:202,1,90,2|8,0:0|0:0,0:0:0:0:
240,46,61745,6,0,B|199:22|199:22|149:35,1,90,2|4,0:0|1:2,0:0:0:0:
175,194,62111,2,0,L|183:140,1,45,2|0,0:0|0:0,0:0:0:0:
72,111,62294,2,0,L|65:155,1,45,10|0,0:0|0:0,0:0:0:0:
48,252,62477,1,8,0:0:0:0:
50,265,62568,1,0,0:0:0:0:
51,278,62660,5,10,0:0:0:0:
95,273,62751,1,8,0:0:0:0:
140,268,62843,1,10,0:0:0:0:
184,263,62934,1,8,0:0:0:0:
229,259,63026,1,10,0:0:0:0:
273,253,63117,1,8,0:0:0:0:
318,248,63209,1,8,0:0:0:0:
362,243,63300,1,8,0:0:0:0:
406,236,63391,6,0,P|427:195|404:146,1,90,6|0,1:2|0:0,0:0:0:0:
400,142,63666,1,0,0:0:0:0:
400,142,63757,1,8,0:0:0:0:
275,37,63940,2,0,B|324:31|324:31|326:33|326:33|388:23,1,90,2|0,0:0|1:0,0:0:0:0:
381,25,64215,1,0,0:0:0:0:
381,25,64306,1,0,0:0:0:0:
202,3,64489,2,0,P|192:49|224:94,1,90,10|0,0:0|0:0,0:0:0:0:
330,196,64855,6,0,B|285:202|285:202|283:205|283:205|239:212,1,90,2|0,1:2|0:0,0:0:0:0:
224,215,65129,1,0,0:0:0:0:
224,215,65221,1,8,0:0:0:0:
88,126,65404,1,2,0:0:0:0:
85,157,65495,1,0,0:0:0:0:
82,188,65587,1,0,1:2:0:0:
79,219,65678,1,0,0:0:0:0:
76,250,65770,1,0,0:0:0:0:
229,304,65952,2,0,B|225:256|225:256|227:253|227:253|222:200,1,90,10|0,0:0|0:0,0:0:0:0:
108,330,66318,6,0,P|65:340|26:319,1,90,2|0,1:2|0:0,0:0:0:0:
16,304,66593,1,0,0:0:0:0:
16,304,66684,1,8,0:0:0:0:
91,160,66867,1,2,0:0:0:0:
125,138,66959,1,0,0:0:0:0:
162,152,67050,1,0,1:0:0:0:
197,132,67141,1,0,0:0:0:0:
234,149,67233,1,0,0:0:0:0:
372,233,67416,2,0,P|408:194|403:154,1,90,10|0,0:0|0:0,0:0:0:0:
395,144,67690,1,0,0:0:0:0:
395,144,67782,6,0,B|353:140|353:140|349:142|349:142|306:138,1,90,2|0,1:2|0:0,0:0:0:0:
158,68,68148,1,8,0:0:0:0:
83,212,68331,1,2,0:0:0:0:
83,212,68422,1,2,0:0:0:0:
83,212,68513,2,0,P|123:242|181:218,1,90,2|0,1:2|0:0,0:0:0:0:
296,146,68879,2,0,B|291:192|291:192|289:194|289:194|283:255,1,90,8|0,0:0|0:0,0:0:0:0:
427,345,69245,5,6,1:2:0:0:
289,259,69428,1,0,0:0:0:0:
289,259,69520,1,0,0:0:0:0:
289,259,69611,1,8,0:0:0:0:
413,155,69794,1,2,0:0:0:0:
434,177,69885,1,0,0:0:0:0:
455,200,69977,1,0,1:0:0:0:
448,230,70068,1,0,0:0:0:0:
438,260,70160,1,0,0:0:0:0:
285,353,70343,2,0,B|289:312|289:312|291:310|291:310|296:264,1,90,10|0,0:0|0:0,0:0:0:0:
351,91,70709,6,0,P|388:58|441:70,1,90,2|0,1:2|0:0,0:0:0:0:
441,69,70983,1,0,0:0:0:0:
441,69,71074,1,8,0:0:0:0:
413,155,71257,1,0,0:0:0:0:
284,28,71440,5,2,1:2:0:0:
232,182,71623,2,0,B|188:176|188:176|186:177|186:177|143:173,1,90,2|8,0:0|0:0,0:0:0:0:
28,84,71989,1,2,0:0:0:0:
71,258,72172,5,2,1:2:0:0:
71,258,72263,1,0,0:0:0:0:
71,258,72355,2,0,L|144:265,1,45
238,174,72538,2,0,P|285:156|321:177,1,90,10|0,0:0|0:0,0:0:0:0:
364,329,72904,5,2,1:2:0:0:
394,355,72995,1,0,0:0:0:0:
434,358,73087,1,0,0:0:0:0:
471,343,73178,1,0,0:0:0:0:
488,306,73270,2,0,L|483:257,1,45,10|0,0:0|0:0,0:0:0:0:
407,187,73452,2,0,L|412:138,1,45,2|0,0:0|0:0,0:0:0:0:
491,56,73635,5,0,1:0:0:0:
413,196,73818,1,0,0:0:0:0:
343,49,74001,1,8,0:0:0:0:
492,148,74184,1,0,0:0:0:0:
337,240,74367,5,2,1:2:0:0:
301,236,74459,1,2,0:0:0:0:
265,232,74550,1,2,0:0:0:0:
229,228,74641,1,2,0:0:0:0:
193,224,74733,5,10,0:0:0:0:
157,242,74824,1,2,0:0:0:0:
136,282,74916,1,2,0:0:0:0:
145,330,75007,1,2,0:0:0:0:
189,361,75099,6,0,B|239:370|239:370|286:333,1,90,6|0,1:2|0:0,0:0:0:0:
283,333,75373,1,0,0:0:0:0:
283,333,75465,1,8,0:0:0:0:
212,276,75648,1,2,0:0:0:0:
73,360,75831,1,0,1:0:0:0:
73,360,75922,1,0,0:0:0:0:
73,360,76013,1,0,0:0:0:0:
7,192,76196,2,0,P|45:159|102:177,1,90,10|0,0:0|0:0,0:0:0:0:
96,173,76471,1,0,0:0:0:0:
96,173,76562,5,2,1:2:0:0:
71,259,76745,1,0,0:0:0:0:
71,259,76837,1,0,0:0:0:0:
71,259,76928,1,8,0:0:0:0:
126,87,77111,1,2,0:0:0:0:
147,64,77202,1,0,0:0:0:0:
177,57,77294,1,0,1:0:0:0:
208,60,77385,1,0,0:0:0:0:
233,78,77477,1,0,0:0:0:0:
385,174,77660,2,0,P|332:181|300:144,1,90,10|0,0:0|0:0,0:0:0:0:
302,141,77934,1,0,0:0:0:0:
302,141,78026,6,0,B|307:96|307:96|310:93|310:93|316:47,1,90,2|0,1:2|0:0,0:0:0:0:
319,35,78300,1,0,0:0:0:0:
319,35,78391,1,8,0:0:0:0:
190,161,78574,1,2,0:0:0:0:
344,253,78757,1,0,1:0:0:0:
344,253,78849,1,0,0:0:0:0:
344,253,78940,1,0,0:0:0:0:
183,170,79123,2,0,B|138:175|138:175|135:178|135:178|89:184,1,90,10|0,0:0|0:0,0:0:0:0:
274,207,79489,6,0,B|291:160|291:160|264:110,1,90,2|0,1:2|0:0,0:0:0:0:
260,110,79763,1,0,0:0:0:0:
260,110,79855,1,8,0:0:0:0:
94,183,80038,1,2,0:0:0:0:
94,183,80129,1,2,0:0:0:0:
94,183,80221,2,0,L|107:234,1,45,2|0,1:2|0:0,0:0:0:0:
136,344,80404,1,0,0:0:0:0:
264,218,80587,5,8,0:0:0:0:
296,201,80678,1,0,0:0:0:0:
332,201,80770,1,0,0:0:0:0:
364,214,80861,1,0,0:0:0:0:
385,242,80952,6,0,P|398:288|364:342,1,90,6|0,1:2|0:0,0:0:0:0:
372,340,81227,1,0,0:0:0:0:
372,340,81318,1,8,0:0:0:0:
264,218,81501,1,2,0:0:0:0:
276,183,81593,1,0,0:0:0:0:
254,154,81684,1,0,1:0:0:0:
269,121,81776,1,0,0:0:0:0:
248,91,81867,1,0,0:0:0:0:
89,176,82050,2,0,B|132:171|132:171|136:172|136:172|184:166,1,90,10|0,0:0|0:0,0:0:0:0:
317,282,82416,6,0,B|274:287|274:287|270:286|270:286|227:291,1,90,2|0,1:2|0:0,0:0:0:0:
101,361,82782,1,8,0:0:0:0:
21,219,82965,2,0,B|-1:177|-1:177|20:137,1,90,2|0,0:0|1:0,0:0:0:0:
155,20,83331,1,8,0:0:0:0:
201,37,83422,1,8,0:0:0:0:
220,82,83513,1,10,0:0:0:0:
207,130,83605,1,8,0:0:0:0:
162,150,83696,1,8,0:0:0:0:
112,142,83788,1,8,0:0:0:0:
83,102,83879,6,0,B|127:68|177:108|159:122|213:162|264:124,1,198.000006042481,14|0,1:2|0:0,0:0:0:0:
434,26,84428,2,0,B|417:23|400:6|400:6|415:81|415:81|411:88|411:88|429:176,1,198.000006042481,14|0,0:0|0:0,0:0:0:0:
294,312,84977,2,0,P|353:320|377:288,1,99.0000030212403,14|0,0:0|0:0,0:0:0:0:
380,274,85251,1,0,0:0:0:0:
380,274,85343,5,14,1:2:0:0:
199,355,85526,1,10,0:0:0:0:
284,176,85709,1,10,0:0:0:0:
415,348,85891,2,0,B|452:338|452:338|477:268|477:268|456:234,1,148.50000453186,14|0,0:0|0:0,0:0:0:0:
456,220,86257,6,0,L|491:213,3,22.5,8|0|0|0,0:0|0:0|0:0|0:0,0:0:0:0:
453,208,86440,5,8,0:0:0:0:
404,198,86532,1,8,0:0:0:0:
355,190,86623,1,8,0:0:0:0:
306,180,86715,1,8,0:0:0:0:
255,170,86806,6,0,B|249:224|249:224|246:227|246:227|241:280,1,107.999996704102,6|0,1:2|3:0,0:0:0:0:
240,298,87081,1,0,0:0:0:0:
240,298,87172,1,8,0:0:0:0:
57,364,87355,1,2,3:2:0:0:
22,338,87446,1,0,0:0:0:0:
7,296,87538,1,0,1:0:0:0:
16,254,87629,1,0,0:0:0:0:
47,224,87721,1,2,3:2:0:0:
174,49,87904,2,0,B|126:19|126:19|57:40,1,107.999996704102,10|0,0:0|3:0,0:0:0:0:
56,42,88178,1,0,0:0:0:0:
56,42,88270,5,2,1:2:0:0:
26,80,88361,1,0,3:0:0:0:
31,128,88452,1,0,3:0:0:0:
69,158,88544,1,0,3:0:0:0:
118,157,88635,2,0,L|182:143,1,53.9999983520508,8|0,0:0|3:0,0:0:0:0:
299,75,88818,1,0,3:0:0:0:
337,44,88910,1,0,3:0:0:0:
385,44,89001,1,0,1:0:0:0:
427,68,89093,1,0,3:0:0:0:
444,113,89184,1,0,3:0:0:0:
432,160,89276,1,0,3:0:0:0:
392,189,89367,6,0,L|329:181,1,53.9999983520508,10|0,0:0|0:0,0:0:0:0:
233,272,89550,2,0,L|286:265,1,53.9999983520508,2|0,3:2|0:0,0:0:0:0:
118,157,89733,6,0,P|91:192|122:249,1,107.999996704102,2|0,1:2|3:0,0:0:0:0:
134,254,90007,1,0,0:0:0:0:
134,254,90099,1,10,0:0:0:0:
307,166,90282,1,0,3:0:0:0:
307,166,90373,1,0,0:0:0:0:
307,166,90465,6,0,B|362:172|362:172|365:169|365:169|424:175,1,107.999996704102,2|0,1:2|3:0,0:0:0:0:
434,177,90739,1,0,0:0:0:0:
469,202,90831,1,10,0:0:0:0:
480,243,90922,1,0,0:0:0:0:
471,285,91013,1,0,3:0:0:0:
441,317,91105,1,0,0:0:0:0:
398,326,91196,6,0,L|404:283,2,35.9999989013672,2|0|0,1:2|0:0|0:0,0:0:0:0:
387,335,91379,2,0,L|325:326,1,53.9999983520508,0|0,3:0|0:0,0:0:0:0:
252,257,91562,1,8,3:2:0:0:
206,240,91654,1,0,3:0:0:0:
157,241,91745,1,0,3:0:0:0:
119,272,91837,1,0,3:0:0:0:
104,318,91928,5,0,1:0:0:0:
81,274,92020,1,0,3:0:0:0:
35,256,92111,1,0,3:0:0:0:
3,219,92202,1,0,3:0:0:0:
2,170,92294,1,8,3:2:0:0:
26,128,92385,1,0,3:0:0:0:
72,112,92477,1,0,3:0:0:0:
119,121,92568,1,0,3:0:0:0:
154,155,92660,6,0,P|201:173|255:131,1,107.999996704102,6|0,1:2|3:0,0:0:0:0:
261,129,92934,1,0,0:0:0:0:
261,129,93026,1,8,0:0:0:0:
444,193,93209,1,2,3:2:0:0:
440,150,93300,1,0,0:0:0:0:
437,107,93391,1,0,1:2:0:0:
434,63,93483,1,0,0:0:0:0:
431,20,93574,1,2,3:2:0:0:
251,140,93757,2,0,P|272:221|333:196,1,161.999995056153,10|0,0:0|0:0,0:0:0:0:
341,186,94123,6,0,P|391:156|446:198,1,107.999996704102,2|0,1:2|3:0,0:0:0:0:
444,193,94398,1,0,0:0:0:0:
444,193,94489,1,8,0:0:0:0:
394,289,94672,1,2,3:2:0:0:
394,289,94763,1,0,0:0:0:0:
394,289,94855,1,0,1:0:0:0:
246,130,95038,6,0,P|217:113|176:129,1,53.9999983520508,2|0,3:2|0:0,0:0:0:0:
109,62,95221,2,0,P|92:90|108:131,1,53.9999983520508,10|0,0:0|0:0,0:0:0:0:
41,199,95404,2,0,P|69:215|110:199,1,53.9999983520508,2|0,3:2|0:0,0:0:0:0:
199,303,95587,5,2,1:2:0:0:
251,115,95770,1,2,3:2:0:0:
192,299,95952,1,10,0:0:0:0:
407,277,96135,2,0,B|365:240|365:240|306:257,1,107.999996704102,2|0,3:2|1:2,0:0:0:0:
294,262,96410,1,0,0:0:0:0:
294,262,96501,1,2,3:2:0:0:
422,116,96684,1,10,0:0:0:0:
248,29,96867,1,2,3:2:0:0:
248,29,96959,1,0,0:0:0:0:
248,29,97050,6,0,P|228:55|227:82,1,53.9999983520508,10|0,1:2|0:0,0:0:0:0:
174,163,97233,2,0,P|187:192|209:206,1,53.9999983520508,10|0,3:2|0:0,0:0:0:0:
286,275,97416,1,10,0:0:0:0:
286,275,97507,1,0,0:0:0:0:
286,275,97599,2,0,P|319:277|341:265,1,53.9999983520508,10|0,3:2|0:0,0:0:0:0:
431,143,97782,5,10,1:2:0:0:
396,101,97873,1,8,0:0:0:0:
342,89,97965,1,8,0:0:0:0:
289,98,98056,1,8,0:0:0:0:
253,138,98148,1,8,0:0:0:0:
208,168,98239,1,8,0:0:0:0:
154,174,98331,1,8,0:0:0:0:
102,158,98422,1,8,0:0:0:0:
67,116,98513,6,0,P|107:76|176:86,1,107.999996704102,6|0,1:2|3:0,0:0:0:0:
175,85,98788,1,0,0:0:0:0:
175,85,98879,1,8,0:0:0:0:
344,181,99062,1,2,3:2:0:0:
340,143,99154,1,0,0:0:0:0:
337,105,99245,1,0,1:0:0:0:
334,67,99337,1,0,0:0:0:0:
331,29,99428,1,2,3:2:0:0:
277,238,99611,2,0,P|323:273|381:266,1,107.999996704102,10|0,0:0|3:0,0:0:0:0:
391,263,99885,1,0,0:0:0:0:
391,263,99977,5,2,1:2:0:0:
432,237,100068,1,0,3:0:0:0:
451,192,100160,1,0,3:0:0:0:
442,144,100251,1,0,3:0:0:0:
405,111,100343,2,0,L|339:117,1,53.9999983520508,8|0,0:0|3:0,0:0:0:0:
224,166,100526,1,0,3:0:0:0:
177,151,100617,1,0,3:0:0:0:
150,109,100709,1,0,1:2:0:0:
156,61,100800,1,0,3:0:0:0:
193,30,100891,6,0,P|212:60|211:82,1,53.9999983520508,2|0,3:2|0:0,0:0:0:0:
275,153,101074,2,0,P|252:180|231:186,1,53.9999983520508,10|0,0:0|0:0,0:0:0:0:
183,268,101257,2,0,P|149:254|137:236,1,53.9999983520508,2|0,3:2|0:0,0:0:0:0:
45,216,101440,6,0,B|21:166|21:166|42:114,1,107.999996704102,2|0,1:2|3:0,0:0:0:0:
49,98,101715,1,0,0:0:0:0:
49,98,101806,1,10,0:0:0:0:
191,260,101989,1,0,3:0:0:0:
191,260,102081,1,0,0:0:0:0:
191,260,102172,6,0,B|248:253|248:253|251:251|251:251|326:240,1,107.999996704102,2|0,1:2|3:0,0:0:0:0:
319,242,102446,1,0,0:0:0:0:
336,196,102538,1,10,0:0:0:0:
302,161,102629,1,0,0:0:0:0:
326,118,102721,1,0,3:0:0:0:
293,82,102812,1,0,0:0:0:0:
320,41,102904,6,0,L|398:34,1,53.9999983520508,2|0,1:2|0:0,0:0:0:0:
221,132,103087,1,0,3:0:0:0:
221,132,103178,1,0,0:0:0:0:
221,132,103270,1,8,0:0:0:0:
96,48,103452,1,0,3:0:0:0:
99,32,103544,1,0,3:0:0:0:
102,16,103635,5,0,1:0:0:0:
145,18,103727,1,0,3:0:0:0:
187,20,103818,1,0,3:0:0:0:
230,22,103910,1,0,3:0:0:0:
272,24,104001,1,8,3:2:0:0:
315,26,104093,1,0,3:0:0:0:
357,28,104184,1,0,3:0:0:0:
400,30,104276,1,0,3:0:0:0:
442,33,104367,6,0,B|439:86|439:86|435:89|435:89|432:160,1,107.999996704102,6|0,1:2|3:0,0:0:0:0:
433,160,104641,1,0,0:0:0:0:
433,160,104733,1,8,0:0:0:0:
240,186,104916,1,2,3:2:0:0:
279,170,105007,1,0,0:0:0:0:
321,177,105099,1,0,1:0:0:0:
354,204,105190,1,0,0:0:0:0:
362,246,105282,1,2,3:2:0:0:
150,291,105465,2,0,B|121:230|121:230|157:137,1,161.999995056153,10|0,0:0|0:0,0:0:0:0:
164,122,105831,6,0,B|186:71|186:71|164:21,1,107.999996704102,2|0,1:2|3:0,0:0:0:0:
153,4,106105,1,0,0:0:0:0:
153,4,106196,1,8,0:0:0:0:
69,72,106379,1,2,3:2:0:0:
69,72,106471,1,0,0:0:0:0:
69,72,106562,1,0,1:0:0:0:
263,66,106745,6,0,B|293:67|293:67|319:85,1,53.9999983520508,2|0,3:2|0:0,0:0:0:0:
338,214,106928,2,0,B|323:187|323:187|326:155,1,53.9999983520508,10|0,0:0|0:0,0:0:0:0:
429,75,107111,2,0,B|412:100|412:100|384:114,1,53.9999983520508,2|0,3:2|0:0,0:0:0:0:
249,168,107294,5,2,1:2:0:0:
423,252,107477,1,2,3:2:0:0:
244,175,107660,1,10,0:0:0:0:
434,67,107843,1,2,3:2:0:0:
434,67,107934,1,0,0:0:0:0:
434,67,108026,5,0,1:0:0:0:
333,226,108209,2,0,L|341:284,1,53.9999983520508,2|0,3:2|0:0,0:0:0:0:
186,97,108391,2,0,B|240:72|240:72|291:93,1,107.999996704102,10|2,0:0|3:2,0:0:0:0:
305,98,108666,1,0,0:0:0:0:
305,98,108757,6,0,L|369:88,1,53.9999983520508,10|0,1:2|0:0,0:0:0:0:
333,226,108940,2,0,L|397:216,1,53.9999983520508,10|0,3:2|0:0,0:0:0:0:
169,206,109123,2,0,L|105:216,1,53.9999983520508,10|0,0:0|0:0,0:0:0:0:
189,332,109306,1,10,3:2:0:0:
189,332,109398,1,8,0:0:0:0:
189,332,109489,2,0,L|125:342,1,53.9999983520508,10|0,1:2|0:0,0:0:0:0:
361,354,109672,5,8,0:0:0:0:
407,381,109763,1,8,0:0:0:0:
461,378,109855,1,8,0:0:0:0:
502,343,109946,1,8,0:0:0:0:
511,289,110038,1,8,0:0:0:0:
486,241,110129,1,8,0:0:0:0:
434,222,110221,6,0,B|380:230|380:230|377:228|377:228|322:236,1,107.999996704102,6|0,1:2|3:0,0:0:0:0:
306,238,110495,1,0,0:0:0:0:
306,238,110587,2,0,P|270:188|299:144,1,107.999996704102,10|0,0:0|3:0,0:0:0:0:
449,7,110952,6,0,B|457:61|457:61|455:64|455:64|463:119,1,107.999996704102,2|0,1:2|3:0,0:0:0:0:
465,134,111227,1,0,0:0:0:0:
465,134,111318,1,10,0:0:0:0:
301,249,111501,1,2,3:2:0:0:
301,249,111593,1,0,0:0:0:0:
301,249,111684,6,0,P|247:264|199:228,1,107.999996704102,0|2,1:2|3:2,0:0:0:0:
268,149,112050,1,10,0:0:0:0:
97,242,112233,1,2,3:2:0:0:
281,353,112416,1,2,1:2:0:0:
102,233,112599,2,0,L|96:175,1,53.9999983520508,0|0,3:0|0:0,0:0:0:0:
181,99,112782,2,0,L|189:27,1,53.9999983520508,8|0,0:0|0:0,0:0:0:0:
22,31,112965,1,0,3:0:0:0:
22,31,113056,1,0,0:0:0:0:
22,31,113148,6,0,P|42:77|104:50,1,107.999996704102,2|0,1:2|3:0,0:0:0:0:
108,56,113422,1,0,0:0:0:0:
108,56,113513,1,10,0:0:0:0:
273,158,113696,1,0,3:0:0:0:
273,158,113788,1,0,0:0:0:0:
273,158,113879,2,0,P|329:167|346:114,1,107.999996704102,2|0,1:2|3:0,0:0:0:0:
197,42,114245,2,0,L|191:95,1,53.9999983520508,10|0,0:0|0:0,0:0:0:0:
178,206,114428,1,2,3:2:0:0:
178,206,114520,1,0,0:0:0:0:
178,206,114611,5,0,1:2:0:0:
306,60,114794,2,0,P|339:48|379:61,1,53.9999983520508,2|0,3:2|0:0,0:0:0:0:
479,144,114977,2,0,P|454:154|427:154,1,53.9999983520508,10|0,0:0|0:0,0:0:0:0:
302,52,115160,2,0,P|335:40|375:53,1,53.9999983520508,2|0,3:2|0:0,0:0:0:0:
484,153,115343,5,2,1:2:0:0:
504,196,115434,1,0,3:0:0:0:
485,241,115526,1,0,3:0:0:0:
440,260,115617,1,0,3:0:0:0:
395,239,115709,1,8,3:2:0:0:
346,239,115800,1,0,3:0:0:0:
317,277,115891,1,0,3:0:0:0:
321,325,115983,1,0,3:0:0:0:
359,354,116074,5,6,1:2:0:0:
410,166,116257,1,2,3:2:0:0:
245,269,116440,1,10,0:0:0:0:
229,53,116623,1,2,3:2:0:0:
406,176,116806,6,0,B|353:172|353:172|349:169|349:169|284:164,1,107.999996704102,2|0,1:2|3:0,0:0:0:0:
277,162,117081,1,0,0:0:0:0:
277,162,117172,1,10,0:0:0:0:
143,303,117355,1,2,3:2:0:0:
143,303,117446,1,0,0:0:0:0:
143,303,117538,6,0,P|125:258|161:206,1,107.999996704102,0|2,1:0|3:2,0:0:0:0:
240,276,117904,1,10,0:0:0:0:
46,259,118087,1,2,3:2:0:0:
186,94,118270,1,2,1:2:0:0:
143,303,118452,2,0,L|148:367,1,53.9999983520508,0|0,3:0|0:0,0:0:0:0:
308,341,118635,2,0,P|338:296|324:235,1,107.999996704102,8|0,0:0|3:0,0:0:0:0:
318,226,118910,1,0,0:0:0:0:
318,226,119001,6,0,P|294:177|313:126,1,107.999996704102,2|0,1:2|3:0,0:0:0:0:
326,114,119276,1,0,0:0:0:0:
326,114,119367,1,8,0:0:0:0:
505,189,119550,1,0,3:0:0:0:
505,189,119641,1,0,0:0:0:0:
505,189,119733,6,0,B|452:186|452:186|449:183|449:183|381:177,1,107.999996704102,2|0,1:2|3:0,0:0:0:0:
376,178,120007,1,0,0:0:0:0:
376,178,120099,1,8,0:0:0:0:
185,137,120282,1,8,3:2:0:0:
168,176,120373,1,8,0:0:0:0:
186,215,120465,5,6,1:2:0:0:
310,335,120648,1,8,0:0:0:0:
330,317,120739,1,8,0:0:0:0:
341,292,120831,2,0,P|339:259|320:229,1,53.9999983520508,0|8,0:0|0:0,0:0:0:0:
263,179,121013,1,8,0:0:0:0:
138,328,121196,5,10,1:2:0:0:
86,309,121288,1,8,0:0:0:0:
64,259,121379,1,8,0:0:0:0:
78,206,121471,1,8,0:0:0:0:
124,178,121562,1,8,0:0:0:0:
165,142,121654,1,8,0:0:0:0:
171,88,121745,1,8,0:0:0:0:
137,45,121837,1,8,0:0:0:0:
83,41,121928,6,0,P|41:66|47:122,1,90,6|0,1:2|0:0,0:0:0:0:
44,119,122202,1,0,0:0:0:0:
44,119,122294,2,0,B|93:113|93:113|96:115|96:115|150:108,1,90,10|0,0:0|0:0,0:0:0:0:
270,23,122660,1,2,1:2:0:0:
270,23,122752,2,0,L|322:28,1,45,2|0,0:0|0:0,0:0:0:0:
396,33,122935,1,2,0:0:0:0:
396,33,123026,1,8,0:0:0:0:
502,178,123209,1,2,0:0:0:0:
500,192,123300,1,2,0:0:0:0:
499,206,123392,5,2,1:2:0:0:
454,202,123483,1,2,0:0:0:0:
409,196,123575,1,2,0:0:0:0:
364,192,123666,2,0,L|315:188,1,45,2|8,0:0|0:0,0:0:0:0:
210,135,123849,1,2,0:0:0:0:
195,134,123941,1,2,0:0:0:0:
181,133,124032,1,2,0:0:0:0:
168,131,124124,5,0,1:0:0:0:
120,144,124215,1,0,0:0:0:0:
99,189,124307,1,2,0:0:0:0:
114,235,124398,1,2,0:0:0:0:
154,263,124490,5,10,0:0:0:0:
169,304,124581,1,2,0:0:0:0:
153,341,124672,1,2,0:0:0:0:
126,357,124764,1,2,0:0:0:0:
99,355,124855,6,0,P|63:329|63:286,1,90,2|0,1:2|0:0,0:0:0:0:
73,271,125130,1,0,0:0:0:0:
73,271,125221,2,0,B|123:275|123:275|125:273|125:273|174:277,1,90,10|0,0:0|0:0,0:0:0:0:
317,226,125587,1,2,1:2:0:0:
317,226,125679,2,0,L|312:276,1,45,2|0,0:0|0:0,0:0:0:0:
304,345,125862,1,2,0:0:0:0:
304,345,125953,1,8,0:0:0:0:
477,297,126136,1,2,0:0:0:0:
479,310,126227,1,2,0:0:0:0:
481,323,126319,5,2,1:2:0:0:
438,336,126410,1,2,0:0:0:0:
395,320,126502,1,2,0:0:0:0:
380,277,126593,1,2,0:0:0:0:
394,234,126685,2,0,L|446:239,1,45,10|2,0:0|0:0,0:0:0:0:
452,110,126868,2,0,L|400:105,1,45,2|2,0:0|0:0,0:0:0:0:
299,139,127050,5,10,1:2:0:0:
262,173,127142,1,10,0:0:0:0:
213,183,127233,1,10,0:0:0:0:
164,171,127324,1,10,0:0:0:0:
132,133,127416,1,10,0:0:0:0:
126,83,127508,1,10,0:0:0:0:
148,38,127599,1,10,0:0:0:0:
194,23,127690,1,10,0:0:0:0:
242,35,127782,6,0,B|246:83|246:83|202:109,1,90,6|0,1:2|0:0,0:0:0:0:
194,112,128056,1,0,0:0:0:0:
194,112,128147,2,0,B|146:107|146:107|143:108|143:108|104:104,1,90,10|0,0:0|0:0,0:0:0:0:
177,249,128513,1,2,1:2:0:0:
177,249,128605,2,0,L|185:183,1,45,2|0,0:0|0:0,0:0:0:0:
189,123,128788,1,2,0:0:0:0:
189,123,128879,1,8,0:0:0:0:
17,179,129062,1,2,0:0:0:0:
15,193,129153,1,2,0:0:0:0:
14,205,129245,5,2,1:2:0:0:
19,249,129336,1,2,0:0:0:0:
61,264,129428,1,2,0:0:0:0:
101,243,129519,2,0,L|106:185,1,45,2|8,0:0|0:0,0:0:0:0:
184,131,129702,1,2,0:0:0:0:
196,133,129794,1,2,0:0:0:0:
209,135,129885,1,2,0:0:0:0:
222,137,129977,5,0,1:2:0:0:
270,131,130068,1,0,0:0:0:0:
319,125,130160,1,2,0:0:0:0:
368,121,130251,1,2,0:0:0:0:
417,114,130343,5,10,0:0:0:0:
443,155,130434,1,2,0:0:0:0:
426,191,130525,1,2,0:0:0:0:
447,213,130617,1,2,0:0:0:0:
436,237,130708,6,0,B|390:243|390:243|388:245|388:245|342:251,1,90,2|0,1:2|0:0,0:0:0:0:
329,251,130983,1,0,0:0:0:0:
329,251,131075,2,0,B|313:296|313:296|345:342,1,90,10|0,0:0|0:0,0:0:0:0:
157,306,131441,1,2,1:2:0:0:
157,306,131533,2,0,L|91:299,1,45,2|0,0:0|0:0,0:0:0:0:
31,294,131716,1,2,0:0:0:0:
31,294,131807,1,8,0:0:0:0:
160,169,131990,1,8,0:0:0:0:
166,138,132081,1,8,0:0:0:0:
172,104,132172,6,0,B|219:111|219:111|222:110|222:110|273:118,1,99.0000030212403,14|8,1:2|0:0,0:0:0:0:
289,122,132447,1,10,0:0:0:0:
310,340,132630,1,10,0:0:0:0:
166,177,132813,1,10,0:0:0:0:
379,225,132996,1,10,0:0:0:0:
180,310,133179,1,10,0:0:0:0:
130,314,133270,1,10,0:0:0:0:
90,284,133361,1,8,0:0:0:0:
87,234,133453,1,8,0:0:0:0:
112,191,133544,1,8,0:0:0:0:
160,182,133635,6,0,B|207:189|207:189|210:188|210:188|258:195,1,90,6|0,1:2|0:0,0:0:0:0:
388,236,134002,1,10,0:0:0:0:
347,60,134185,1,2,0:0:0:0:
248,193,134367,1,2,1:2:0:0:
339,65,134550,2,0,B|299:59|299:59|296:57|296:57|250:51,1,90,2|8,0:0|0:0,0:0:0:0:
69,54,134916,6,0,B|112:20|112:20|106:80|106:80|108:83|108:83|102:147,1,180,2|0,0:0|0:0,0:0:0:0:
159,296,135465,1,10,0:0:0:0:
26,173,135648,1,2,0:0:0:0:
182,130,135831,1,2,1:2:0:0:
153,289,136014,2,0,B|107:296|107:296|104:295|104:295|51:303,1,90,2|8,0:0|0:0,0:0:0:0:
243,321,136380,1,0,0:0:0:0:
243,321,136471,1,0,0:0:0:0:
243,321,136563,6,0,B|255:276|255:276|224:226,1,90,2|0,1:2|0:0,0:0:0:0:
153,289,136929,1,10,0:0:0:0:
300,187,137111,1,2,0:0:0:0:
333,345,137294,1,2,1:2:0:0:
219,228,137477,2,0,B|198:182|198:182|219:127,1,90,2|8,0:0|0:0,0:0:0:0:
393,151,137843,6,0,B|407:197|407:197|381:244,1,90,2|0,0:0|1:2,0:0:0:0:
305,194,138209,2,0,L|311:139,1,45,2|0,0:0|0:0,0:0:0:0:
248,32,138392,2,0,L|254:87,1,45,10|0,0:0|0:0,0:0:0:0:
312,200,138575,2,0,L|318:145,1,45,2|0,0:0|0:0,0:0:0:0:
393,53,138758,5,2,1:2:0:0:
393,53,138849,1,0,0:0:0:0:
393,53,138941,2,0,L|323:63,1,45,2|0,0:0|0:0,0:0:0:0:
240,29,139124,1,10,0:0:0:0:
199,32,139215,1,0,0:0:0:0:
158,35,139307,1,0,0:0:0:0:
117,38,139398,1,0,0:0:0:0:
76,42,139490,6,0,P|57:86|84:134,1,90,6|2,1:2|0:0,0:0:0:0:
149,245,139855,1,10,0:0:0:0:
276,117,140038,1,2,0:0:0:0:
141,236,140221,1,2,1:2:0:0:
292,294,140404,2,0,P|341:298|377:260,1,90,2|8,0:0|0:0,0:0:0:0:
381,258,140679,1,0,0:0:0:0:
381,258,140770,6,0,P|441:237|455:295,1,135,2|0,0:0|0:0,0:0:0:0:
448,307,141135,1,2,0:0:0:0:
311,218,141319,1,10,0:0:0:0:
455,144,141502,2,0,B|451:95|451:95|449:93|449:93|445:39,1,90,2|0,0:0|1:0,0:0:0:0:
443,37,141776,1,0,0:0:0:0:
443,37,141868,2,0,L|382:43,1,45
265,58,142050,5,8,0:0:0:0:
230,87,142142,1,0,0:0:0:0:
190,68,142233,1,0,0:0:0:0:
153,93,142325,1,0,0:0:0:0:
113,73,142416,5,2,1:2:0:0:
200,209,142599,2,0,L|195:146,1,45,2|0,0:0|0:0,0:0:0:0:
272,53,142782,2,0,L|276:97,1,45,10|0,0:0|0:0,0:0:0:0:
194,214,142965,2,0,L|188:154,1,45,2|0,0:0|0:0,0:0:0:0:
103,66,143148,1,2,1:2:0:0:
24,207,143331,2,0,B|70:200|70:200|73:202|73:202|126:192,1,90,2|8,0:0|0:0,0:0:0:0:
293,202,143697,6,0,P|355:235|309:288,1,135,2|0,0:0|0:0,0:0:0:0:
317,287,144063,2,0,L|252:276,1,45,2|0,0:0|0:0,0:0:0:0:
189,221,144246,2,0,L|125:233,1,45,10|0,0:0|0:0,0:0:0:0:
60,290,144429,1,10,0:0:0:0:
21,266,144520,1,8,0:0:0:0:
3,224,144611,1,10,0:0:0:0:
12,179,144703,1,8,0:0:0:0:
46,150,144794,2,0,L|101:142,1,45,8|0,0:0|0:0,0:0:0:0:
225,127,144977,5,10,0:0:0:0:
270,123,145069,1,8,0:0:0:0:
314,120,145160,1,8,0:0:0:0:
359,116,145252,1,8,0:0:0:0:
403,113,145343,5,6,1:2:0:0:
261,33,145526,1,0,0:0:0:0:
303,208,145709,2,0,B|308:161|308:161|311:158|311:158|315:102,1,90,10|0,0:0|0:0,0:0:0:0:
419,20,146075,1,2,1:2:0:0:
461,176,146258,2,0,P|427:206|380:194,1,90,2|8,0:0|0:0,0:0:0:0:
239,270,146623,6,0,P|312:248|302:324,1,180,2|2,0:0|0:0,0:0:0:0:
217,356,147172,1,10,0:0:0:0:
146,190,147355,1,0,0:0:0:0:
42,314,147538,1,2,1:2:0:0:
153,196,147721,2,0,B|146:242|146:242|143:245|143:245|137:295,1,90,2|8,0:0|0:0,0:0:0:0:
312,333,148087,1,0,0:0:0:0:
312,333,148179,1,0,0:0:0:0:
312,333,148270,6,0,P|340:295|320:242,1,90,2|0,1:2|0:0,0:0:0:0:
245,280,148636,1,10,0:0:0:0:
419,324,148819,1,2,0:0:0:0:
367,170,149002,1,2,1:2:0:0:
239,269,149185,2,0,B|192:262|192:262|189:263|189:263|126:253,1,90,2|8,0:0|0:0,0:0:0:0:
332,255,149550,6,0,P|339:298|312:333,1,90,2|0,0:0|1:0,0:0:0:0:
265,176,149916,2,0,L|271:132,1,45,2|0,0:0|0:0,0:0:0:0:
394,85,150099,2,0,L|400:41,1,45,10|0,0:0|0:0,0:0:0:0:
256,182,150282,2,0,L|262:138,1,45,2|0,0:0|0:0,0:0:0:0:
226,25,150465,5,2,1:2:0:0:
103,131,150648,1,10,0:0:0:0:
99,110,150739,1,8,0:0:0:0:
95,88,150831,1,10,0:0:0:0:
250,188,151014,1,8,0:0:0:0:
253,157,151105,1,8,0:0:0:0:
256,126,151197,5,6,1:2:0:0:
141,241,151380,1,2,0:0:0:0:
91,69,151562,1,10,0:0:0:0:
135,248,151745,1,2,0:0:0:0:
248,131,151929,1,2,1:2:0:0:
288,287,152111,2,0,B|336:281|336:281|339:278|339:278|385:272,1,90,2|8,0:0|0:0,0:0:0:0:
478,124,152477,6,0,P|490:77|413:51,1,135,2|0,0:0|0:0,0:0:0:0:
406,53,152843,2,0,L|402:103,1,45,2|0,0:0|0:0,0:0:0:0:
338,167,153026,2,0,L|343:229,1,45,10|0,0:0|0:0,0:0:0:0:
458,229,153209,2,0,B|479:269|479:269|457:315,1,90,2|0,0:0|1:0,0:0:0:0:
279,293,153575,6,0,L|284:343,1,45,2|0,0:0|0:0,0:0:0:0:
151,269,153758,2,0,B|130:314|130:314|153:354,1,90,10|0,0:0|0:0,0:0:0:0:
160,364,154032,1,0,0:0:0:0:
160,364,154124,1,4,1:2:0:0:
232,199,154307,5,2,0:0:0:0:
62,138,154490,1,10,0:0:0:0:
225,207,154672,1,2,0:0:0:0:
60,281,154855,1,2,1:2:0:0:
155,149,155038,2,0,B|158:105|158:105|161:101|161:101|165:56,1,90,2|8,0:0|0:0,0:0:0:0:
338,10,155404,6,0,B|333:58|333:58|330:61|330:61|324:115,1,90,2|4,0:0|1:2,0:0:0:0:
301,259,155770,2,0,L|360:270,1,45,2|0,0:0|0:0,0:0:0:0:
433,218,155953,2,0,L|477:225,1,45,10|0,0:0|0:0,0:0:0:0:
489,352,156136,1,8,0:0:0:0:
487,365,156227,1,8,0:0:0:0:
486,378,156319,5,10,0:0:0:0:
441,374,156410,1,8,0:0:0:0:
396,369,156502,1,10,0:0:0:0:
352,364,156593,1,8,0:0:0:0:
307,360,156685,1,10,0:0:0:0:
263,354,156776,1,8,0:0:0:0:
218,349,156868,1,8,0:0:0:0:
174,344,156959,1,8,0:0:0:0:
130,337,157050,6,0,B|110:294|110:294|132:247,1,90,6|0,1:2|0:0,0:0:0:0:
137,239,157325,1,0,0:0:0:0:
137,239,157416,1,8,0:0:0:0:
256,129,157599,2,0,B|262:80|262:80|260:78|260:78|270:16,1,90,2|0,0:0|1:0,0:0:0:0:
268,23,157874,1,0,0:0:0:0:
268,23,157965,1,0,0:0:0:0:
206,192,158148,2,0,B|246:215|246:215|292:202,1,90,10|0,0:0|0:0,0:0:0:0:
430,123,158514,6,0,B|423:167|423:167|421:170|421:170|414:214,1,90,2|0,1:2|0:0,0:0:0:0:
411,229,158788,1,0,0:0:0:0:
411,229,158880,1,8,0:0:0:0:
280,325,159063,1,2,0:0:0:0:
285,294,159154,1,0,0:0:0:0:
289,263,159246,1,0,1:2:0:0:
294,232,159337,1,0,0:0:0:0:
299,201,159429,1,0,0:0:0:0:
181,90,159611,2,0,B|133:81|133:81|130:83|130:83|78:73,1,90,10|0,0:0|0:0,0:0:0:0:
254,59,159977,6,0,P|264:102|243:141,1,90,2|0,1:2|0:0,0:0:0:0:
228,151,160252,1,0,0:0:0:0:
228,151,160343,1,8,0:0:0:0:
74,204,160526,1,2,0:0:0:0:
53,228,160618,1,0,0:0:0:0:
46,259,160709,1,0,1:0:0:0:
52,289,160800,1,0,0:0:0:0:
69,315,160892,1,0,0:0:0:0:
229,293,161075,2,0,P|199:257|147:265,1,90,10|0,0:0|0:0,0:0:0:0:
145,269,161349,1,0,0:0:0:0:
145,269,161441,6,0,B|149:311|149:311|147:315|147:315|151:358,1,90,2|0,1:2|0:0,0:0:0:0:
66,322,161807,1,8,0:0:0:0:
227,303,161990,1,2,0:0:0:0:
227,303,162081,1,2,0:0:0:0:
227,303,162172,2,0,P|267:333|325:309,1,90,2|0,1:2|0:0,0:0:0:0:
447,249,162538,2,0,B|442:203|442:203|440:201|440:201|434:140,1,90,8|0,0:0|0:0,0:0:0:0:
409,339,162904,5,6,1:2:0:0:
283,238,163087,1,0,0:0:0:0:
283,238,163179,1,0,0:0:0:0:
283,238,163270,1,8,0:0:0:0:
428,166,163453,1,2,0:0:0:0:
433,135,163544,1,0,0:0:0:0:
438,103,163636,1,0,1:0:0:0:
443,72,163727,1,0,0:0:0:0:
447,40,163819,1,0,0:0:0:0:
271,82,164002,2,0,B|230:78|230:78|228:76|228:76|182:71,1,90,10|0,0:0|0:0,0:0:0:0:
13,136,164368,6,0,B|60:141|60:141|62:144|62:144|124:150,1,90,2|0,1:2|0:0,0:0:0:0:
118,150,164642,1,0,0:0:0:0:
118,150,164733,1,8,0:0:0:0:
174,80,164916,1,0,0:0:0:0:
66,224,165099,5,2,1:2:0:0:
217,165,165282,1,2,0:0:0:0:
189,324,165465,1,10,0:0:0:0:
121,156,165648,1,2,0:0:0:0:
198,318,165831,5,2,1:2:0:0:
198,318,165922,1,0,0:0:0:0:
198,318,166014,2,0,L|271:325,1,45
367,371,166196,2,0,B|388:330|388:330|372:285,1,90,10|0,0:0|0:0,0:0:0:0:
311,137,166563,5,2,1:2:0:0:
293,100,166654,1,0,0:0:0:0:
276,62,166746,1,0,0:0:0:0:
300,30,166837,1,0,0:0:0:0:
329,2,166929,2,0,L|378:7,1,45,10|0,0:0|0:0,0:0:0:0:
450,88,167111,2,0,L|400:84,1,45,2|0,0:0|0:0,0:0:0:0:
319,144,167294,5,0,1:0:0:0:
434,258,167477,1,0,0:0:0:0:
460,79,167660,1,8,0:0:0:0:
355,225,167843,1,0,0:0:0:0:
276,62,168026,5,2,1:2:0:0:
243,45,168118,1,2,0:0:0:0:
207,42,168209,1,2,0:0:0:0:
173,54,168300,1,2,0:0:0:0:
154,84,168392,5,10,0:0:0:0:
123,110,168483,1,2,0:0:0:0:
77,113,168575,1,2,0:0:0:0:
34,87,168666,1,2,0:0:0:0:
21,34,168758,6,0,P|65:8|124:28,1,90,6|0,1:2|0:0,0:0:0:0:
115,24,169032,1,0,0:0:0:0:
115,24,169124,1,8,0:0:0:0:
81,107,169307,1,2,0:0:0:0:
236,152,169490,1,0,1:0:0:0:
236,152,169581,1,0,0:0:0:0:
236,152,169672,1,0,0:0:0:0:
121,291,169855,2,0,B|128:245|128:245|131:242|131:242|138:186,1,90,10|0,0:0|0:0,0:0:0:0:
139,185,170130,1,0,0:0:0:0:
139,185,170221,5,2,1:2:0:0:
23,322,170404,1,0,0:0:0:0:
23,322,170496,1,0,0:0:0:0:
23,322,170587,1,8,0:0:0:0:
199,355,170770,1,2,0:0:0:0:
203,324,170861,1,0,0:0:0:0:
209,293,170953,1,0,1:0:0:0:
213,263,171044,1,0,0:0:0:0:
219,232,171136,1,0,0:0:0:0:
385,163,171319,2,0,P|438:156|470:193,1,90,10|0,0:0|0:0,0:0:0:0:
468,196,171593,1,0,0:0:0:0:
468,196,171685,6,0,B|463:241|463:241|460:244|460:244|454:290,1,90,2|0,1:2|0:0,0:0:0:0:
451,302,171959,1,0,0:0:0:0:
451,302,172050,1,8,0:0:0:0:
301,201,172233,1,2,0:0:0:0:
455,107,172416,1,0,1:0:0:0:
455,107,172508,1,0,0:0:0:0:
455,107,172599,1,0,0:0:0:0:
293,195,172782,2,0,B|288:150|288:150|285:147|285:147|279:101,1,90,10|0,0:0|0:0,0:0:0:0:
262,287,173148,6,0,B|309:304|309:304|359:277,1,90,2|0,1:2|0:0,0:0:0:0:
359,273,173422,1,0,0:0:0:0:
359,273,173514,1,8,0:0:0:0:
214,381,173697,1,2,0:0:0:0:
214,381,173788,1,2,0:0:0:0:
214,381,173880,2,0,L|208:328,1,45,2|0,1:2|0:0,0:0:0:0:
195,216,174063,1,0,0:0:0:0:
44,314,174246,5,8,0:0:0:0:
39,278,174337,1,0,0:0:0:0:
35,241,174429,1,0,0:0:0:0:
32,205,174520,1,0,0:0:0:0:
29,169,174611,6,0,B|68:141|68:141|136:163,1,90,6|0,1:2|0:0,0:0:0:0:
125,160,174886,1,0,0:0:0:0:
125,160,174977,1,8,0:0:0:0:
281,203,175160,1,2,0:0:0:0:
316,215,175252,1,0,0:0:0:0:
345,193,175343,1,0,1:0:0:0:
378,208,175435,1,0,0:0:0:0:
408,187,175526,1,0,0:0:0:0:
363,361,175709,2,0,B|358:318|358:318|359:314|359:314|353:266,1,90,10|0,0:0|0:0,0:0:0:0:
208,163,176075,6,0,B|191:207|191:207|217:253,1,90,2|0,1:2|0:0,0:0:0:0:
290,199,176441,1,8,0:0:0:0:
193,329,176624,2,0,B|150:320|150:320|148:321|148:321|103:309,1,90,2|0,0:0|1:0,0:0:0:0:
286,300,176990,1,8,0:0:0:0:
331,318,177081,1,8,0:0:0:0:
379,313,177172,1,10,0:0:0:0:
420,284,177264,1,8,0:0:0:0:
432,236,177355,1,8,0:0:0:0:
421,187,177447,1,8,0:0:0:0:
378,153,177538,6,0,B|368:239|368:239|350:255|350:255|335:360,1,198.000006042481,14|0,1:2|0:0,0:0:0:0:
146,234,178087,2,0,B|124:246|110:275|110:275|161:246|212:243|266:250,1,198.000006042481,14|0,0:0|0:0,0:0:0:0:
203,53,178636,2,0,B|207:103|207:103|209:105|209:105|211:150,1,99.0000030212403,14|0,0:0|0:0,0:0:0:0:
212,170,178910,1,0,0:0:0:0:
212,170,179002,5,14,1:2:0:0:
74,27,179185,1,10,0:0:0:0:
25,219,179368,1,10,0:0:0:0:
81,19,179550,2,0,B|120:32|131:69|131:69|158:42|199:47,1,148.50000453186,14|0,0:0|0:0,0:0:0:0:
214,56,179916,6,0,L|207:91,3,22.5,8|0|0|0,0:0|0:0|0:0|0:0,0:0:0:0:
222,51,180099,5,8,0:0:0:0:
266,74,180191,1,8,0:0:0:0:
281,120,180282,1,8,0:0:0:0:
265,167,180374,1,8,0:0:0:0:
223,194,180465,6,0,B|169:189|169:189|166:184|166:184|91:178,1,107.999996704102,6|0,1:2|3:0,0:0:0:0:
96,177,180740,1,0,0:0:0:0:
96,177,180831,1,8,0:0:0:0:
217,328,181014,1,2,3:2:0:0:
254,306,181105,1,0,0:0:0:0:
273,267,181197,1,0,1:0:0:0:
265,224,181288,1,0,0:0:0:0:
229,199,181380,1,2,3:2:0:0:
29,117,181563,2,0,B|-1:165|-1:165|20:234,1,107.999996704102,10|0,0:0|3:0,0:0:0:0:
22,235,181837,1,0,0:0:0:0:
22,235,181929,5,2,1:2:0:0:
69,243,182020,1,0,3:0:0:0:
116,250,182111,1,0,3:0:0:0:
164,258,182203,1,0,3:0:0:0:
211,265,182294,2,0,L|283:275,1,53.9999983520508,8|0,3:2|3:0,0:0:0:0:
368,333,182477,1,0,3:0:0:0:
407,303,182569,1,0,3:0:0:0:
419,257,182660,1,0,1:0:0:0:
407,211,182752,1,0,3:0:0:0:
367,182,182843,1,0,3:0:0:0:
319,181,182935,1,0,3:0:0:0:
281,213,183026,6,0,L|272:275,1,53.9999983520508,10|0,0:0|0:0,0:0:0:0:
188,80,183209,2,0,L|195:21,1,53.9999983520508,2|0,3:2|0:0,0:0:0:0:
325,0,183392,6,0,P|352:35|321:92,1,107.999996704102,2|0,1:2|3:0,0:0:0:0:
309,97,183666,1,0,0:0:0:0:
309,97,183758,1,10,0:0:0:0:
106,172,183940,1,0,3:0:0:0:
106,172,184032,1,0,0:0:0:0:
106,172,184124,6,0,B|112:117|112:117|109:114|109:114|115:55,1,107.999996704102,2|0,1:2|3:0,0:0:0:0:
116,44,184398,1,0,0:0:0:0:
78,21,184490,1,10,0:0:0:0:
35,25,184581,1,0,0:0:0:0:
6,57,184672,1,0,3:0:0:0:
4,100,184764,1,0,0:0:0:0:
30,133,184855,6,0,L|26:170,2,35.9999989013672,2|0|0,1:2|0:0|0:0,0:0:0:0:
40,125,185038,2,0,L|109:133,1,53.9999983520508,0|0,3:0|0:0,0:0:0:0:
223,172,185221,1,8,3:2:0:0:
246,214,185313,1,0,3:0:0:0:
234,261,185404,1,0,3:0:0:0:
193,288,185496,1,0,3:0:0:0:
145,281,185587,5,0,1:0:0:0:
178,244,185679,1,0,3:0:0:0:
225,234,185770,1,0,3:0:0:0:
271,248,185861,1,0,3:0:0:0:
297,288,185952,1,8,3:2:0:0:
332,320,186044,1,0,3:0:0:0:
380,329,186136,1,0,3:0:0:0:
426,314,186227,1,0,3:0:0:0:
455,274,186319,6,0,B|449:218|449:218|451:215|451:215|446:156,1,107.999996704102,6|0,1:2|3:0,0:0:0:0:
443,145,186593,1,0,0:0:0:0:
443,145,186685,1,8,0:0:0:0:
304,281,186868,1,2,3:2:0:0:
261,276,186959,1,0,0:0:0:0:
225,251,187050,1,0,1:2:0:0:
216,208,187142,1,0,0:0:0:0:
228,166,187233,1,2,3:2:0:0:
386,19,187416,2,0,P|393:81|309:86,1,161.999995056153,10|0,0:0|0:0,0:0:0:0:
297,72,187782,6,0,P|250:37|192:59,1,107.999996704102,2|0,1:2|3:0,0:0:0:0:
189,62,188057,1,0,0:0:0:0:
189,62,188148,1,8,0:0:0:0:
238,158,188331,1,2,3:2:0:0:
238,158,188422,1,0,0:0:0:0:
238,158,188514,1,0,1:0:0:0:
87,34,188697,6,0,B|75:65|75:65|98:103,1,53.9999983520508,2|0,3:2|0:0,0:0:0:0:
14,154,188880,2,0,B|42:171|42:171|83:155,1,53.9999983520508,10|0,0:0|0:0,0:0:0:0:
96,273,189063,2,0,B|120:252|120:252|119:208,1,53.9999983520508,2|0,3:2|0:0,0:0:0:0:
246,152,189246,5,2,1:2:0:0:
91,281,189429,1,2,3:2:0:0:
267,361,189611,1,10,0:0:0:0:
258,145,189794,2,0,B|314:151|314:151|318:149|318:149|395:156,1,107.999996704102,2|0,3:2|1:2,0:0:0:0:
386,154,190069,1,0,0:0:0:0:
386,154,190160,1,2,3:2:0:0:
220,256,190343,1,10,0:0:0:0:
395,339,190526,1,2,3:2:0:0:
395,339,190618,1,0,0:0:0:0:
395,339,190709,6,0,L|400:286,1,53.9999983520508,10|0,1:2|0:0,0:0:0:0:
512,226,190892,2,0,L|508:284,1,53.9999983520508,10|0,3:2|0:0,0:0:0:0:
396,149,191075,1,10,0:0:0:0:
396,149,191166,1,0,0:0:0:0:
396,149,191258,2,0,L|401:83,1,53.9999983520508,10|0,3:2|0:0,0:0:0:0:
506,32,191441,5,10,1:2:0:0:
460,3,191532,1,8,0:0:0:0:
405,1,191624,1,8,0:0:0:0:
361,31,191715,1,8,0:0:0:0:
348,83,191807,1,8,0:0:0:0:
366,133,191898,1,8,0:0:0:0:
410,164,191990,1,8,0:0:0:0:
463,164,192081,1,8,0:0:0:0:
509,136,192172,6,0,P|481:90|430:88,1,107.999996704102,6|0,1:2|3:0,0:0:0:0:
412,99,192447,1,0,0:0:0:0:
412,99,192538,1,8,0:0:0:0:
242,194,192721,1,2,3:2:0:0:
219,163,192813,1,0,0:0:0:0:
200,130,192904,1,0,1:0:0:0:
213,94,192996,1,0,0:0:0:0:
230,60,193087,1,2,3:2:0:0:
298,264,193270,2,0,B|251:292|251:292|197:271,1,107.999996704102,10|0,0:0|3:0,0:0:0:0:
181,264,193544,1,0,0:0:0:0:
181,264,193635,5,2,1:2:0:0:
135,248,193727,1,0,3:0:0:0:
94,275,193819,1,0,3:0:0:0:
90,323,193910,1,0,3:0:0:0:
122,360,194002,2,0,L|206:348,1,53.9999983520508,8|0,3:2|3:0,0:0:0:0:
305,271,194185,1,0,3:0:0:0:
344,242,194276,1,0,3:0:0:0:
352,193,194368,1,0,1:0:0:0:
332,148,194459,1,0,3:0:0:0:
289,124,194550,6,0,P|270:154|271:176,1,53.9999983520508,2|0,3:2|0:0,0:0:0:0:
404,40,194733,2,0,P|387:8|367:-1,1,53.9999983520508,10|0,0:0|0:0,0:0:0:0:
419,181,194916,2,0,P|454:182|473:170,1,53.9999983520508,2|0,3:2|0:0,0:0:0:0:
313,43,195099,6,0,P|262:32|218:70,1,107.999996704102,2|0,1:2|3:0,0:0:0:0:
211,84,195374,1,0,0:0:0:0:
211,84,195465,2,0,P|175:120|116:112,1,107.999996704102,10|0,0:0|3:0,0:0:0:0:
104,101,195740,1,0,0:0:0:0:
104,101,195831,5,2,1:2:0:0:
294,129,196013,1,0,3:0:0:0:
277,175,196105,1,0,0:0:0:0:
311,210,196197,1,10,0:0:0:0:
296,256,196288,1,0,0:0:0:0:
327,293,196380,1,0,3:0:0:0:
139,241,196562,6,0,L|218:230,1,53.9999983520508,2|0,1:2|0:0,0:0:0:0:
318,206,196746,1,0,3:0:0:0:
318,206,196837,1,0,0:0:0:0:
318,206,196929,1,8,0:0:0:0:
415,373,197111,1,0,3:0:0:0:
431,372,197203,1,0,3:0:0:0:
447,370,197294,5,0,1:0:0:0:
485,349,197386,1,0,3:0:0:0:
503,310,197477,1,0,3:0:0:0:
501,266,197569,1,0,3:0:0:0:
479,228,197660,1,8,3:2:0:0:
438,212,197752,1,0,3:0:0:0:
395,218,197843,1,0,3:0:0:0:
363,247,197935,1,0,3:0:0:0:
352,288,198026,6,0,B|299:294|299:294|295:290|295:290|225:300,1,107.999996704102,6|0,1:2|3:0,0:0:0:0:
225,303,198300,1,0,0:0:0:0:
225,303,198392,1,8,0:0:0:0:
60,199,198575,1,2,3:2:0:0:
33,232,198666,1,0,0:0:0:0:
32,275,198758,1,0,1:0:0:0:
57,309,198849,1,0,0:0:0:0:
98,321,198941,1,2,3:2:0:0:
275,198,199124,2,0,B|303:162|303:162|289:80|289:80|246:56,1,161.999995056153,10|0,0:0|0:0,0:0:0:0:
238,64,199490,6,0,B|186:71|186:71|183:74|183:74|119:83,1,107.999996704102,2|0,1:2|3:0,0:0:0:0:
111,86,199764,1,0,0:0:0:0:
111,86,199855,1,8,0:0:0:0:
265,204,200038,1,2,3:2:0:0:
265,204,200130,1,0,0:0:0:0:
265,204,200221,1,0,1:0:0:0:
377,45,200404,6,0,B|385:105,1,53.9999983520508,2|0,3:2|0:0,0:0:0:0:
475,180,200587,2,0,B|483:117,1,53.9999983520508,10|0,0:0|0:0,0:0:0:0:
369,40,200770,2,0,B|378:111,1,53.9999983520508,2|0,3:2|0:0,0:0:0:0:
482,186,200953,5,2,1:2:0:0:
318,290,201136,1,2,3:2:0:0:
494,372,201319,1,10,0:0:0:0:
372,194,201501,1,2,3:2:0:0:
372,194,201593,1,0,0:0:0:0:
372,194,201685,5,0,1:0:0:0:
486,362,201868,2,0,L|410:370,1,53.9999983520508,2|0,3:2|0:0,0:0:0:0:
261,357,202050,2,0,B|228:310|228:310|239:255,1,107.999996704102,10|2,0:0|3:2,0:0:0:0:
245,239,202325,1,0,0:0:0:0:
245,239,202416,6,0,L|258:175,1,53.9999983520508,10|0,1:2|0:0,0:0:0:0:
122,213,202599,2,0,L|132:160,1,53.9999983520508,10|0,3:2|0:0,0:0:0:0:
221,43,202782,2,0,L|211:108,1,53.9999983520508,10|0,0:0|0:0,0:0:0:0:
98,17,202965,1,10,3:2:0:0:
98,17,203057,1,8,0:0:0:0:
98,17,203148,2,0,L|87:71,1,53.9999983520508,10|0,1:2|0:0,0:0:0:0:
117,220,203331,5,8,0:0:0:0:
161,189,203422,1,8,0:0:0:0:
215,192,203514,1,8,0:0:0:0:
253,229,203605,1,8,0:0:0:0:
260,282,203697,1,8,0:0:0:0:
232,328,203788,1,8,0:0:0:0:
179,343,203880,6,0,B|187:289|187:289|185:286|185:286|193:231,1,107.999996704102,6|0,1:2|3:0,0:0:0:0:
198,216,204154,1,0,0:0:0:0:
198,216,204246,2,0,P|242:180|283:220,1,107.999996704102,10|0,0:0|3:0,0:0:0:0:
417,369,204611,6,0,P|478:373|495:322,1,107.999996704102,2|0,1:2|3:0,0:0:0:0:
497,315,204886,1,0,0:0:0:0:
497,315,204977,1,10,0:0:0:0:
411,140,205160,1,2,3:2:0:0:
411,140,205252,1,0,0:0:0:0:
411,140,205343,6,0,B|407:193|407:193|404:197|404:197|400:261,1,107.999996704102,0|2,1:2|3:2,0:0:0:0:
502,208,205709,1,10,0:0:0:0:
438,24,205892,1,2,3:2:0:0:
307,196,206075,1,2,1:2:0:0:
431,19,206258,2,0,L|364:14,1,53.9999983520508,0|0,3:0|0:0,0:0:0:0:
291,90,206441,2,0,L|231:85,1,53.9999983520508,8|0,0:0|0:0,0:0:0:0:
145,19,206624,1,0,3:0:0:0:
145,19,206715,1,0,0:0:0:0:
145,19,206806,6,0,B|110:63|110:63|134:134,1,107.999996704102,2|0,1:2|3:0,0:0:0:0:
134,132,207081,1,0,0:0:0:0:
134,132,207172,1,10,0:0:0:0:
317,206,207355,1,0,3:0:0:0:
317,206,207447,1,0,0:0:0:0:
317,206,207538,2,0,B|336:259|336:259|306:318,1,107.999996704102,2|0,1:2|3:0,0:0:0:0:
124,250,207904,2,0,L|178:254,1,53.9999983520508,10|0,0:0|0:0,0:0:0:0:
307,317,208087,1,2,3:2:0:0:
307,317,208179,1,0,0:0:0:0:
307,317,208270,5,0,1:2:0:0:
284,123,208453,2,0,P|318:116|355:136,1,53.9999983520508,2|0,3:2|0:0,0:0:0:0:
398,50,208636,2,0,P|419:74|425:107,1,53.9999983520508,10|0,0:0|0:0,0:0:0:0:
509,127,208819,2,0,P|498:157|477:177,1,53.9999983520508,2|0,3:2|0:0,0:0:0:0:
497,261,209001,5,2,1:2:0:0:
448,254,209093,1,0,3:0:0:0:
399,248,209185,1,0,3:0:0:0:
350,243,209276,1,0,3:0:0:0:
301,237,209367,1,8,3:2:0:0:
252,231,209459,1,0,3:0:0:0:
203,225,209550,1,0,3:0:0:0:
154,219,209642,1,0,3:0:0:0:
106,210,209733,5,6,1:2:0:0:
288,141,209916,1,2,3:2:0:0:
109,218,210099,1,10,0:0:0:0:
284,344,210282,1,2,3:2:0:0:
172,159,210465,6,0,B|123:122|123:122|58:148,1,107.999996704102,2|0,1:2|3:0,0:0:0:0:
59,148,210740,1,0,0:0:0:0:
59,148,210831,1,10,0:0:0:0:
98,338,211014,1,2,3:2:0:0:
98,338,211105,1,0,0:0:0:0:
98,338,211197,6,0,B|103:282|103:282|105:279|105:279|111:223,1,107.999996704102,0|2,1:0|3:2,0:0:0:0:
132,36,211563,1,10,0:0:0:0:
301,131,211745,1,2,3:2:0:0:
110,231,211929,1,2,1:2:0:0:
239,59,212111,2,0,L|243:4,1,53.9999983520508,0|0,3:0|0:0,0:0:0:0:
400,107,212294,2,0,P|412:152|379:204,1,107.999996704102,8|0,0:0|3:0,0:0:0:0:
361,209,212569,1,0,0:0:0:0:
361,209,212660,6,0,B|306:206|306:206|301:209|301:209|225:202,1,107.999996704102,2|0,1:2|3:0,0:0:0:0:
232,203,212935,1,0,0:0:0:0:
232,203,213026,1,8,0:0:0:0:
98,344,213209,1,0,3:0:0:0:
98,344,213300,1,0,0:0:0:0:
98,344,213392,6,0,P|160:338|168:289,1,107.999996704102,2|0,1:2|3:0,0:0:0:0:
165,280,213666,1,0,0:0:0:0:
165,280,213758,1,8,0:0:0:0:
28,141,213941,1,8,3:2:0:0:
11,102,214032,1,8,0:0:0:0:
29,63,214124,5,6,1:2:0:0:
197,103,214307,1,8,0:0:0:0:
178,122,214398,1,8,0:0:0:0:
151,125,214490,2,0,P|120:116|105:102,1,53.9999983520508,0|8,0:0|0:0,0:0:0:0:
134,8,214672,1,8,0:0:0:0:
301,50,214855,5,10,1:2:0:0:
351,70,214947,1,8,0:0:0:0:
387,109,215038,1,8,0:0:0:0:
396,162,215130,1,8,0:0:0:0:
379,212,215221,1,8,0:0:0:0:
334,243,215313,1,8,0:0:0:0:
280,240,215404,1,8,0:0:0:0:
247,196,215496,1,8,0:0:0:0:
259,143,215587,5,6,1:2:0:0:
259,143,215678,1,0,0:0:0:0:
259,143,215770,2,0,L|199:137,1,49.5000015106202
186,233,215952,5,10,0:0:0:0:
186,233,216044,1,0,0:0:0:0:
186,233,216135,2,0,L|246:239,1,49.5000015106202
264,339,216318,5,2,1:2:0:0:
264,339,216409,1,0,0:0:0:0:
264,339,216501,2,0,L|310:300,1,49.5000015106202
409,342,216683,5,10,0:0:0:0:
409,342,216775,1,0,0:0:0:0:
409,342,216867,2,0,L|415:281,1,49.5000015106202
480,215,217050,5,2,1:2:0:0:
480,215,217141,2,0,B|502:207|506:192|506:192|498:197|490:198,1,49.5000015106202
333,164,217324,5,2,0:0:0:0:
333,164,217416,2,0,B|328:187|339:198|339:198|339:188|342:181,1,49.5000015106202,8|0,0:0|0:0,0:0:0:0:
450,62,217599,5,2,0:0:0:0:
450,62,217690,2,0,B|432:46|417:50|417:50|426:55|430:61,1,49.5000015106202,0|0,0:0|1:0,0:0:0:0:
300,6,217873,5,2,0:0:0:0:
300,6,217965,2,0,B|276:7|268:20|268:20|278:18|285:19,1,49.5000015106202
186,113,218148,2,10,B|159:160|159:160|181:213,1,99.0000030212403,10|0,0:0|0:0,0:0:0:0:
184,219,218422,1,0,0:0:0:0:
184,219,218513,6,0,B|134:225|134:225|130:223|130:223|79:229,1,99.0000030212403,2|0,1:2|0:0,0:0:0:0:
66,230,218788,1,2,0:0:0:0:
66,230,218879,1,8,0:0:0:0:
209,335,219062,1,2,0:0:0:0:
223,334,219154,1,2,0:0:0:0:
237,333,219245,5,2,1:2:0:0:
280,309,219337,1,0,0:0:0:0:
326,325,219428,1,0,0:0:0:0:
371,303,219520,1,2,0:0:0:0:
415,323,219611,5,8,0:0:0:0:
453,301,219702,1,0,0:0:0:0:
471,260,219794,1,2,0:0:0:0:
455,218,219885,1,0,0:0:0:0:
417,194,219977,5,0,1:0:0:0:
283,68,220160,1,2,0:0:0:0:
256,109,220251,1,0,0:0:0:0:
255,158,220343,1,8,0:0:0:0:
281,199,220434,1,0,0:0:0:0:
325,220,220526,1,2,0:0:0:0:
374,220,220617,1,0,0:0:0:0:
417,194,220709,5,0,1:0:0:0:
297,62,220891,1,10,0:0:0:0:
330,51,220983,1,8,0:0:0:0:
363,58,221074,1,8,0:0:0:0:
175,120,221257,1,8,0:0:0:0:
130,126,221349,1,8,0:0:0:0:
91,104,221440,6,0,P|79:57|127:18,1,99.0000030212403,6|0,1:2|0:0,0:0:0:0:
129,18,221715,1,0,0:0:0:0:
129,18,221806,1,10,0:0:0:0:
260,137,221989,1,0,0:0:0:0:
260,137,222081,1,0,0:0:0:0:
260,137,222172,6,0,B|256:187|256:187|258:190|258:190|253:265,1,99.0000030212403,2|0,1:2|0:0,0:0:0:0:
253,254,222446,1,2,0:0:0:0:
253,254,222538,1,8,0:0:0:0:
171,197,222721,1,2,0:0:0:0:
171,197,222812,1,0,0:0:0:0:
171,197,222904,1,0,1:0:0:0:
329,315,223087,6,0,L|380:317,1,49.5000015106202,2|0,0:0|0:0,0:0:0:0:
463,215,223270,2,0,L|408:212,1,49.5000015106202,8|0,0:0|0:0,0:0:0:0:
322,322,223452,2,0,L|393:323,1,49.5000015106202,2|0,0:0|0:0,0:0:0:0:
469,208,223635,5,0,1:0:0:0:
469,208,223727,1,0,0:0:0:0:
469,208,223818,2,0,L|402:200,1,49.5000015106202,2|0,0:0|0:0,0:0:0:0:
342,103,224001,2,0,P|292:87|262:129,1,99.0000030212403,10|0,0:0|0:0,0:0:0:0:
260,137,224276,1,0,0:0:0:0:
260,137,224367,6,0,L|256:206,2,49.5000015106202,2|0|0,1:2|0:0|0:0,0:0:0:0:
342,241,224641,5,2,0:0:0:0:
342,241,224733,2,0,L|275:258,1,49.5000015106202,8|0,0:0|0:0,0:0:0:0:
268,351,224916,5,2,0:0:0:0:
268,351,225007,2,0,L|230:292,1,49.5000015106202,0|0,0:0|1:0,0:0:0:0:
140,314,225190,5,2,0:0:0:0:
140,314,225282,2,0,L|183:260,1,49.5000015106202
135,180,225465,5,10,0:0:0:0:
191,369,225648,1,0,0:0:0:0:
191,369,225739,1,0,0:0:0:0:
191,369,225831,5,6,1:2:0:0:
343,328,226013,1,2,0:0:0:0:
343,328,226105,1,2,0:0:0:0:
343,328,226196,1,2,0:0:0:0:
495,286,226379,2,0,L|475:223,1,49.5000015106202,2|2,0:0|0:0,0:0:0:0:
453,134,226562,5,8,0:0:0:0:
406,117,226654,1,8,0:0:0:0:
357,122,226745,1,8,0:0:0:0:
310,105,226837,1,8,0:0:0:0:
261,112,226928,1,8,0:0:0:0:
214,95,227020,1,8,0:0:0:0:
165,100,227111,1,8,0:0:0:0:
118,83,227203,1,8,0:0:0:0:
73,89,227294,5,6,1:2:0:0:
202,186,227477,1,2,0:0:0:0:
202,186,227568,1,2,0:0:0:0:
265,36,227751,1,2,0:0:0:0:
197,195,227934,2,0,P|189:239|234:262,1,90,2|2,0:0|0:0,0:0:0:0:
240,263,228209,1,2,0:0:0:0:
240,263,228300,1,2,0:0:0:0:
240,263,228391,2,0,L|284:256,1,45,8|0,0:0|0:0,0:0:0:0:
442,240,228574,1,2,1:2:0:0:
440,227,228665,1,0,0:0:0:0:
439,213,228757,5,2,1:2:0:0:
422,170,228849,1,2,0:0:0:0:
379,155,228940,1,2,0:0:0:0:
335,165,229032,2,0,L|342:239,1,45,2|8,0:0|0:0,0:0:0:0:
357,334,229215,1,2,0:0:0:0:
343,336,229306,1,2,0:0:0:0:
329,339,229398,1,2,0:0:0:0:
316,342,229489,5,0,1:0:0:0:
266,333,229581,1,0,0:0:0:0:
223,357,229672,1,2,0:0:0:0:
174,349,229763,1,2,0:0:0:0:
133,377,229855,5,10,0:0:0:0:
92,357,229946,1,2,0:0:0:0:
80,317,230038,1,2,0:0:0:0:
94,284,230129,1,2,0:0:0:0:
121,267,230221,6,0,B|167:260|167:260|172:262|172:262|230:254,1,90,2|0,1:2|0:0,0:0:0:0:
227,254,230495,1,2,0:0:0:0:
169,83,230678,1,2,0:0:0:0:
314,154,230861,2,0,B|268:161|268:161|263:159|263:159|205:167,1,90,2|0,0:0|0:0,0:0:0:0:
207,168,231135,1,2,0:0:0:0:
207,168,231227,1,2,0:0:0:0:
207,168,231318,2,0,L|137:178,1,45,10|0,0:0|0:0,0:0:0:0:
333,238,231501,2,0,L|403:228,1,45,2|0,1:2|0:0,0:0:0:0:
252,345,231684,5,2,1:2:0:0:
237,302,231776,1,2,0:0:0:0:
254,260,231867,1,2,0:0:0:0:
295,241,231959,1,2,0:0:0:0:
340,244,232050,2,0,L|410:234,1,45,10|2,0:0|0:0,0:0:0:0:
452,133,232233,2,0,L|382:143,1,45,2|2,0:0|0:0,0:0:0:0:
505,271,232416,5,10,1:2:0:0:
456,264,232507,1,10,0:0:0:0:
423,226,232599,1,10,0:0:0:0:
426,176,232690,1,10,0:0:0:0:
460,139,232782,1,10,0:0:0:0:
493,102,232873,1,10,0:0:0:0:
493,52,232965,1,10,0:0:0:0:
463,12,233056,1,10,0:0:0:0:
413,5,233148,5,6,1:2:0:0:
475,154,233331,1,2,0:0:0:0:
475,154,233422,1,2,0:0:0:0:
314,128,233605,1,2,0:0:0:0:
379,276,233788,2,0,B|384:227|384:227|386:225|386:225|391:173,1,90,2|0,0:0|0:0,0:0:0:0:
392,169,234062,1,2,0:0:0:0:
392,169,234154,1,2,0:0:0:0:
392,169,234245,2,0,L|400:107,1,45,10|0,0:0|0:0,0:0:0:0:
287,15,234428,1,2,1:2:0:0:
285,28,234519,1,0,0:0:0:0:
284,42,234611,5,2,1:2:0:0:
239,37,234702,1,2,0:0:0:0:
193,33,234794,1,2,0:0:0:0:
148,29,234885,2,0,L|78:22,1,45,2|8,0:0|0:0,0:0:0:0:
14,116,235068,1,2,0:0:0:0:
12,129,235160,1,2,0:0:0:0:
11,142,235251,1,2,0:0:0:0:
10,155,235343,5,0,1:0:0:0:
41,192,235434,1,0,0:0:0:0:
88,205,235526,1,2,0:0:0:0:
137,201,235617,1,2,0:0:0:0:
179,174,235709,5,10,0:0:0:0:
188,130,235800,1,2,0:0:0:0:
160,100,235891,1,2,0:0:0:0:
128,96,235983,1,2,0:0:0:0:
106,112,236074,6,0,B|94:156|94:156|127:214,1,90,2|0,1:2|0:0,0:0:0:0:
126,209,236349,1,2,0:0:0:0:
291,136,236532,1,2,0:0:0:0:
358,283,236715,2,0,B|310:287|310:287|307:290|307:290|251:295,1,90,2|0,0:0|0:0,0:0:0:0:
251,297,236989,1,2,0:0:0:0:
251,297,237081,1,2,0:0:0:0:
251,297,237172,2,0,L|244:248,1,45,10|0,0:0|0:0,0:0:0:0:
362,195,237355,2,0,L|369:146,1,45,2|0,1:2|0:0,0:0:0:0:
420,345,237538,5,6,1:2:0:0:
257,310,237721,1,10,0:0:0:0:
253,278,237812,1,10,0:0:0:0:
249,246,237904,1,10,0:0:0:0:
245,214,237995,1,10,0:0:0:0:
241,182,238087,1,10,0:0:0:0:
237,150,238178,1,10,0:0:0:0:
75,246,238361,5,10,0:0:0:0:
34,217,238452,1,10,0:0:0:0:
21,168,238544,1,10,0:0:0:0:
48,126,238635,1,10,0:0:0:0:
95,110,238727,1,10,0:0:0:0:
122,69,238818,1,10,0:0:0:0:
108,21,238910,1,10,0:0:0:0:
61,4,239001,6,0,B|41:37|41:37|95:28|95:28|99:30|99:30|166:20,1,144,6|0,0:0|0:0,0:0:0:0:
270,57,239550,2,0,P|326:63|304:1,1,144,2|0,0:0|0:0,0:0:0:0:
196,95,240099,2,0,P|181:142|225:187,1,108,2|0,0:0|0:0,0:0:0:0:
229,185,240465,6,0,B|294:177|294:177|310:162|310:162|387:153,1,144,2|0,0:0|0:0,0:0:0:0:
476,88,241013,2,0,B|510:147|510:147|482:217,1,144,2|0,0:0|0:0,0:0:0:0:
394,292,241562,2,0,B|357:297|357:297|354:300|354:300|302:308,1,72,2|0,0:0|0:0,0:0:0:0:
310,310,241837,1,0,0:0:0:0:
310,310,241928,6,0,B|270:317|243:288|243:288|229:326|188:336,1,144,2|0,0:0|0:0,0:0:0:0:
71,290,242477,2,0,P|80:245|162:257,1,144,2|0,0:0|0:0,0:0:0:0:
302,227,243026,2,0,B|293:174|293:174|295:168|295:168|286:114,1,108,2|0,0:0|0:0,0:0:0:0:
284,106,243391,6,0,B|249:80|212:110|223:119|186:148|150:127,1,144,2|0,0:0|0:0,0:0:0:0:
53,68,243940,1,2,0:0:0:0:
53,68,244032,1,2,0:0:0:0:
53,68,244123,2,0,L|62:146,1,72,2|0,0:0|0:0,0:0:0:0:
150,213,244489,2,0,L|141:291,1,72
36,333,244855,6,0,P|86:271|157:304,1,144,6|0,0:0|0:0,0:0:0:0:
240,368,245404,2,0,B|247:308|247:308|250:306|250:306|256:245|256:245|279:269,1,144,2|0,0:0|0:0,0:0:0:0:
378,355,245952,2,0,B|433:371|433:371|484:341,1,108,2|0,0:0|0:0,0:0:0:0:
489,339,246318,6,0,B|481:270|481:270|487:261|487:261|479:179,1,144,2|0,0:0|0:0,0:0:0:0:
403,92,246867,1,0,0:0:0:0:
403,92,246959,1,0,0:0:0:0:
403,92,247050,5,2,0:0:0:0:
298,14,247233,2,0,B|292:52|292:52|294:56|294:56|290:95,1,72,2|0,0:0|0:0,0:0:0:0:
166,47,247599,1,2,0:0:0:0:
166,47,247690,1,0,0:0:0:0:
166,47,247782,6,0,L|171:6,5,24
157,58,248148,2,0,B|120:53|120:53|117:55|117:55|80:50,1,72
20,162,248513,6,0,L|16:116,3,36
106,234,248879,2,0,L|152:227,1,36
209,164,249062,2,0,L|255:171,1,36
313,233,249245,6,0,B|336:268|336:268|324:310,1,72
224,376,249611,2,0,B|203:342|203:342|214:300,1,72
309,225,249977,6,0,L|315:185,3,36
421,203,250343,2,0,L|416:239,3,36
382,98,250709,6,0,P|358:39|285:57,1,144,6|0,0:0|0:0,0:0:0:0:
203,147,251257,2,0,B|194:83|194:83|200:71|200:71|191:5,1,144,2|0,0:0|0:0,0:0:0:0:
199,155,251806,2,0,B|154:184|154:184|89:161,1,108,2|0,0:0|0:0,0:0:0:0:
88,164,252172,6,0,B|51:172|51:172|25:237|25:237|48:279,1,144,2|0,0:0|0:0,0:0:0:0:
172,261,252721,2,0,B|214:239|244:272|234:281|265:313|310:294,1,144,2|0,0:0|0:0,0:0:0:0:
445,308,253270,2,0,B|441:271|441:271|444:268|444:268|439:226,1,72,2|0,0:0|0:0,0:0:0:0:
438,223,253544,1,0,0:0:0:0:
438,223,253635,6,0,B|400:191|400:191|354:197|354:197|351:196|351:196|296:204,1,144,2|0,0:0|0:0,0:0:0:0:
202,101,254184,2,0,B|183:133|183:133|235:123|235:123|239:126|239:126|287:119,1,144,2|0,0:0|0:0,0:0:0:0:
442,81,254733,2,0,P|416:26|375:34,1,108,2|0,0:0|0:0,0:0:0:0:
367,42,255099,6,0,B|374:105|374:105|368:117|368:117|378:202,1,144,2|0,0:0|0:0,0:0:0:0:
358,313,255648,1,2,0:0:0:0:
358,313,255739,1,2,0:0:0:0:
358,313,255831,2,0,B|399:307|399:307|403:308|403:308|457:302,1,72,2|0,0:0|0:0,0:0:0:0:
297,246,256196,2,0,B|264:252|264:252|259:250|259:250|211:258,1,72
116,325,256562,6,0,P|75:263|109:189,1,144,2|0,0:0|0:0,0:0:0:0:
218,158,257111,2,0,B|227:88|227:88|222:79|222:79|231:8,1,144,2|0,0:0|0:0,0:0:0:0:
85,23,257660,2,0,P|87:70|152:73,1,108,2|0,0:0|0:0,0:0:0:0:
152,76,258026,6,0,B|226:84|226:84|230:88|230:88|316:96,1,144,2|0,0:0|0:0,0:0:0:0:
405,159,258574,2,0,P|472:127|433:79,1,144,2|0,0:0|0:0,0:0:0:0:
302,103,259123,2,0,B|299:139|299:139|297:142|297:142|293:184,1,72,2|0,0:0|0:0,0:0:0:0:
293,189,259398,1,0,0:0:0:0:
293,189,259489,6,0,B|250:165|215:201|228:208|190:249|138:228|138:228|160:227|178:208,1,198.000006042481,14|0,1:2|0:0,0:0:0:0:
42,61,260038,2,0,B|8:85|11:140|61:163|96:140|96:140|63:135|52:106,1,198.000006042481,14|0,0:0|0:0,0:0:0:0:
256,28,260587,2,0,B|307:9|307:9|363:41,1,99.0000030212403,14|0,0:0|0:0,0:0:0:0:
361,42,260861,1,0,0:0:0:0:
361,42,260953,5,14,1:2:0:0:
296,229,261136,1,10,0:0:0:0:
166,79,261319,1,10,0:0:0:0:
109,267,261501,2,0,P|171:290|176:210,1,148.50000453186,14|0,0:0|0:0,0:0:0:0:
182,210,261867,6,0,L|187:182,3,22.5,8|0|0|0,0:0|0:0|0:0|0:0,0:0:0:0:
189,201,262050,5,8,0:0:0:0:
238,208,262142,1,8,0:0:0:0:
286,216,262233,1,8,0:0:0:0:
335,223,262325,1,8,0:0:0:0:
388,231,262416,6,0,B|394:177|394:177|397:174|397:174|402:121,1,107.999996704102,6|0,1:2|3:0,0:0:0:0:
403,103,262690,1,0,0:0:0:0:
403,103,262781,1,8,0:0:0:0:
473,284,262965,1,2,3:2:0:0:
454,323,263055,1,0,2:0:0:0:
415,345,263147,1,0,1:2:0:0:
372,343,263238,1,0,2:0:0:0:
337,318,263330,1,2,3:2:0:0:
173,176,263513,2,0,P|120:166|83:208,1,107.999996704102,10|0,0:0|3:0,0:0:0:0:
79,222,263787,1,0,0:0:0:0:
79,222,263879,5,2,1:2:0:0:
91,268,263970,1,0,3:0:0:0:
133,291,264061,1,0,3:0:0:0:
181,284,264153,1,0,3:0:0:0:
213,248,264245,2,0,P|239:234|281:244,1,53.9999983520508,8|0,3:2|3:0,0:0:0:0:
398,268,264427,1,0,3:0:0:0:
439,242,264519,1,0,3:0:0:0:
452,195,264610,1,0,1:0:0:0:
433,149,264702,1,0,3:0:0:0:
387,132,264793,1,0,3:0:0:0:
365,87,264885,1,0,3:0:0:0:
376,40,264976,6,0,L|444:32,1,53.9999983520508,10|0,0:0|0:0,0:0:0:0:
256,133,265159,2,0,L|203:140,1,53.9999983520508,2|0,3:2|0:0,0:0:0:0:
126,49,265342,6,0,P|85:31|42:74,1,107.999996704102,2|0,1:2|3:0,0:0:0:0:
43,91,265616,1,0,0:0:0:0:
43,91,265708,1,10,0:0:0:0:
185,223,265891,1,0,3:0:0:0:
185,223,265982,1,0,0:0:0:0:
185,223,266074,6,0,B|239:215|239:215|242:217|242:217|301:209,1,107.999996704102,2|0,1:2|3:0,0:0:0:0:
312,211,266348,1,0,0:0:0:0:
352,194,266440,1,10,0:0:0:0:
366,153,266531,1,0,0:0:0:0:
358,110,266623,1,0,3:0:0:0:
323,83,266714,1,0,0:0:0:0:
280,84,266805,6,0,L|285:129,2,35.9999989013672,2|0|0,1:2|0:0|0:0,0:0:0:0:
270,75,266988,2,0,L|208:84,1,53.9999983520508,0|0,3:0|0:0,0:0:0:0:
85,17,267171,1,8,3:2:0:0:
37,26,267263,1,0,3:0:0:0:
12,67,267354,1,0,3:0:0:0:
19,115,267446,1,0,3:0:0:0:
57,143,267538,5,0,1:0:0:0:
105,146,267629,1,0,3:0:0:0:
146,171,267720,1,0,3:0:0:0:
159,217,267811,1,0,3:0:0:0:
152,265,267903,1,8,3:2:0:0:
117,298,267994,1,0,3:0:0:0:
68,298,268086,1,0,3:0:0:0:
34,262,268177,1,0,3:0:0:0:
41,213,268269,6,0,B|96:219|96:219|99:223|99:223|161:229,1,107.999996704102,6|0,1:2|3:0,0:0:0:0:
168,229,268543,1,0,0:0:0:0:
168,229,268635,1,8,0:0:0:0:
323,112,268818,1,2,3:2:0:0:
292,81,268909,1,0,0:0:0:0:
249,70,269001,1,0,1:2:0:0:
208,84,269092,1,0,0:0:0:0:
185,120,269183,1,2,3:2:0:0:
312,294,269366,2,0,B|316:212|316:212|320:204|320:204|323:126,1,161.999995056153,10|0,0:0|0:0,0:0:0:0:
323,112,269732,6,0,P|368:155|429:134,1,107.999996704102,2|0,1:2|3:0,0:0:0:0:
429,140,270007,1,0,0:0:0:0:
429,140,270098,1,8,0:0:0:0:
396,37,270281,1,2,3:2:0:0:
396,37,270372,1,0,0:0:0:0:
396,37,270464,1,0,1:0:0:0:
217,113,270647,6,0,L|228:49,1,53.9999983520508,2|0,3:2|0:0,0:0:0:0:
88,11,270830,2,0,L|99:71,1,53.9999983520508,10|0,0:0|0:0,0:0:0:0:
224,120,271013,2,0,L|238:36,1,53.9999983520508,2|0,3:2|0:0,0:0:0:0:
62,175,271196,5,2,1:2:0:0:
194,317,271379,1,2,3:2:0:0:
69,168,271561,1,10,0:0:0:0:
8,375,271744,2,0,B|61:370|61:370|64:366|64:366|121:361,1,107.999996704102,2|0,3:2|1:2,0:0:0:0:
135,360,272019,1,0,0:0:0:0:
135,360,272110,1,2,3:2:0:0:
273,223,272293,1,10,0:0:0:0:
396,373,272476,1,2,3:2:0:0:
396,373,272568,1,0,0:0:0:0:
396,373,272659,6,0,P|416:347|417:320,1,53.9999983520508,10|0,1:2|0:0,0:0:0:0:
497,277,272842,2,0,P|484:248|462:234,1,53.9999983520508,10|0,3:2|0:0,0:0:0:0:
468,136,273025,1,10,0:0:0:0:
468,136,273116,1,0,0:0:0:0:
468,136,273208,2,0,P|435:132|412:143,1,53.9999983520508,10|0,3:2|0:0,0:0:0:0:
267,218,273391,5,10,1:2:0:0:
216,235,273482,1,8,0:0:0:0:
162,226,273574,1,8,0:0:0:0:
118,194,273665,1,8,0:0:0:0:
102,141,273757,1,8,0:0:0:0:
115,88,273848,1,8,0:0:0:0:
158,55,273940,1,8,0:0:0:0:
211,58,274031,1,8,0:0:0:0:
249,95,274122,6,0,B|209:135|209:135|140:125,1,107.999996704102,6|0,1:2|3:0,0:0:0:0:
136,124,274397,1,0,0:0:0:0:
136,124,274488,1,8,0:0:0:0:
289,5,274671,1,2,3:2:0:0:
325,16,274763,1,0,0:0:0:0:
348,45,274854,1,0,1:0:0:0:
358,81,274946,1,0,0:0:0:0:
349,117,275038,1,2,3:2:0:0:
131,129,275220,2,0,B|102:177|102:177|124:225,1,107.999996704102,10|0,0:0|3:0,0:0:0:0:
133,243,275494,1,0,0:0:0:0:
133,243,275586,5,2,1:2:0:0:
180,235,275677,1,0,3:0:0:0:
220,262,275769,1,0,3:0:0:0:
267,251,275860,1,0,3:0:0:0:
306,280,275952,2,0,L|369:294,1,53.9999983520508,8|0,3:2|3:0,0:0:0:0:
497,314,276135,1,0,3:0:0:0:
493,265,276226,1,0,3:0:0:0:
488,216,276318,1,0,1:0:0:0:
485,167,276409,1,0,3:0:0:0:
481,118,276500,6,0,L|419:124,1,53.9999983520508,2|0,3:2|0:0,0:0:0:0:
338,31,276683,2,0,L|391:35,1,53.9999983520508,10|0,0:0|0:0,0:0:0:0:
263,181,276867,2,0,L|201:187,1,53.9999983520508,2|0,3:2|0:0,0:0:0:0:
336,23,277049,6,0,B|280:18|280:18|276:13|276:13|218:9,1,107.999996704102,2|0,1:2|3:0,0:0:0:0:
210,7,277324,1,0,0:0:0:0:
210,7,277415,1,10,0:0:0:0:
25,119,277598,1,0,3:0:0:0:
25,119,277690,1,0,0:0:0:0:
25,119,277781,6,0,P|59:174|101:164,1,107.999996704102,2|0,1:2|3:0,0:0:0:0:
112,156,278055,1,0,0:0:0:0:
154,132,278147,1,10,0:0:0:0:
200,144,278239,1,0,0:0:0:0:
246,127,278330,1,0,3:0:0:0:
292,139,278421,1,0,0:0:0:0:
337,120,278513,6,0,L|345:184,1,53.9999983520508,2|0,1:2|0:0,0:0:0:0:
364,309,278696,1,0,3:0:0:0:
364,309,278787,1,0,0:0:0:0:
364,309,278879,1,8,0:0:0:0:
193,244,279061,1,0,3:0:0:0:
209,241,279153,1,0,3:0:0:0:
225,238,279245,5,0,1:0:0:0:
257,208,279336,1,0,3:0:0:0:
263,165,279427,1,0,3:0:0:0:
249,123,279519,1,0,3:0:0:0:
212,100,279610,1,8,3:2:0:0:
168,96,279702,1,0,3:0:0:0:
128,112,279794,1,0,3:0:0:0:
107,150,279885,1,0,3:0:0:0:
109,192,279976,6,0,B|120:247|120:247|118:250|118:250|129:303,1,107.999996704102,6|0,1:2|3:0,0:0:0:0:
135,317,280250,1,0,0:0:0:0:
135,317,280342,1,8,0:0:0:0:
316,248,280525,1,2,3:2:0:0:
355,232,280616,1,0,0:0:0:0:
397,239,280708,1,0,1:0:0:0:
430,266,280799,1,0,0:0:0:0:
438,308,280891,1,2,3:2:0:0:
223,285,281074,2,0,B|207:223|207:223|208:218|208:218|194:157|194:157|221:111,1,161.999995056153,10|0,0:0|0:0,0:0:0:0:
224,115,281440,6,0,P|272:107|298:158,1,107.999996704102,2|0,1:2|3:0,0:0:0:0:
296,174,281714,1,0,0:0:0:0:
296,174,281805,1,8,0:0:0:0:
141,55,281989,1,2,3:2:0:0:
141,55,282080,1,0,0:0:0:0:
141,55,282171,1,0,1:0:0:0:
327,0,282354,6,0,B|323:56,1,53.9999983520508,2|0,3:2|0:0,0:0:0:0:
217,122,282537,2,0,B|223:60,1,53.9999983520508,10|0,0:0|0:0,0:0:0:0:
333,5,282720,2,0,B|332:64,1,53.9999983520508,2|0,3:2|0:0,0:0:0:0:
399,154,282903,5,2,1:2:0:0:
230,250,283086,1,2,3:2:0:0:
392,359,283270,1,10,0:0:0:0:
293,168,283452,1,2,3:2:0:0:
293,168,283543,1,0,0:0:0:0:
293,168,283635,5,0,1:0:0:0:
169,318,283818,2,0,L|109:313,1,53.9999983520508,2|0,3:2|0:0,0:0:0:0:
16,239,284000,2,0,P|19:185|69:182,1,107.999996704102,10|2,0:0|3:2,0:0:0:0:
81,191,284275,1,0,0:0:0:0:
81,191,284366,6,0,B|99:208|122:210|122:210|111:202|108:190,1,53.9999983520508,10|0,1:2|0:0,0:0:0:0:
207,46,284550,2,0,B|182:51|167:69|167:69|180:64|191:68,1,53.9999983520508,10|0,3:2|0:0,0:0:0:0:
189,234,284733,2,0,B|205:215|207:192|207:192|199:203|187:206,1,53.9999983520508,10|0,0:0|0:0,0:0:0:0:
92,71,284916,1,10,3:2:0:0:
92,71,285007,1,8,0:0:0:0:
92,71,285099,2,0,B|89:96|102:115|102:115|101:102|109:92,1,53.9999983520508,10|0,1:2|0:0,0:0:0:0:
267,147,285281,5,8,0:0:0:0:
317,127,285372,1,8,0:0:0:0:
370,134,285464,1,8,0:0:0:0:
411,168,285555,1,8,0:0:0:0:
424,220,285647,1,8,0:0:0:0:
410,271,285738,1,8,0:0:0:0:
368,306,285830,6,0,B|314:298|314:298|311:300|311:300|256:292,1,107.999996704102,6|0,1:2|3:0,0:0:0:0:
240,291,286104,1,0,0:0:0:0:
240,291,286196,2,0,P|204:341|233:385,1,107.999996704102,10|0,0:0|3:0,0:0:0:0:
437,365,286561,6,0,B|462:315|462:315|442:252,1,107.999996704102,2|0,1:2|3:0,0:0:0:0:
438,244,286836,1,0,0:0:0:0:
438,244,286928,1,10,0:0:0:0:
319,64,287110,1,2,3:2:0:0:
319,64,287202,1,0,0:0:0:0:
319,64,287294,6,0,P|358:112|426:89,1,107.999996704102,0|2,1:2|3:2,0:0:0:0:
397,1,287659,1,10,0:0:0:0:
242,119,287842,1,2,3:2:0:0:
451,171,288025,1,2,1:2:0:0:
234,126,288208,2,0,L|240:184,1,53.9999983520508,0|0,3:2|0:0,0:0:0:0:
341,266,288391,2,0,L|333:338,1,53.9999983520508,8|0,0:0|0:0,0:0:0:0:
179,332,288574,1,0,3:0:0:0:
179,332,288665,1,0,0:0:0:0:
179,332,288757,6,0,P|188:275|249:284,1,107.999996704102,2|0,1:2|3:0,0:0:0:0:
247,281,289031,1,0,0:0:0:0:
247,281,289122,1,10,0:0:0:0:
33,247,289305,1,0,3:0:0:0:
33,247,289397,1,0,0:0:0:0:
33,247,289488,2,0,B|26:302|26:302|29:307|29:307|23:369,1,107.999996704102,2|0,1:2|3:0,0:0:0:0:
154,207,289854,2,0,L|160:154,1,53.9999983520508,10|0,0:0|0:0,0:0:0:0:
174,40,290037,1,2,3:2:0:0:
174,40,290129,1,0,0:0:0:0:
174,40,290220,5,0,1:2:0:0:
317,137,290404,2,0,L|253:164,1,53.9999983520508,2|0,3:2|0:0,0:0:0:0:
147,213,290586,2,0,L|154:154,1,53.9999983520508,10|0,0:0|0:0,0:0:0:0:
178,32,290769,2,0,L|237:75,1,53.9999983520508,2|0,3:2|0:0,0:0:0:0:
326,143,290952,5,2,1:2:0:0:
358,178,291043,1,0,3:0:0:0:
404,192,291135,1,0,3:0:0:0:
452,187,291226,1,0,3:0:0:0:
493,161,291318,1,8,3:2:0:0:
510,116,291409,1,0,3:0:0:0:
506,67,291500,1,0,3:0:0:0:
481,24,291593,1,0,3:0:0:0:
436,6,291683,5,6,1:2:0:0:
414,199,291866,1,2,3:2:0:0:
257,82,292049,1,10,0:0:0:0:
227,295,292232,1,2,3:2:0:0:
358,123,292415,6,0,B|411:94|411:94|473:121,1,107.999996704102,2|0,1:2|3:2,0:0:0:0:
473,123,292690,1,0,0:0:0:0:
473,123,292781,1,10,0:0:0:0:
288,185,292964,1,2,3:2:0:0:
288,185,293055,1,0,0:0:0:0:
288,185,293147,6,0,B|251:141|251:141|273:71,1,107.999996704102,0|2,1:0|3:2,0:0:0:0:
366,127,293513,1,10,0:0:0:0:
174,163,293696,1,2,3:2:0:0:
342,27,293879,1,2,1:2:0:0:
402,233,294061,2,0,L|398:289,1,53.9999983520508,0|0,3:0|0:0,0:0:0:0:
218,308,294244,2,0,P|259:351|304:302,1,107.999996704102,8|0,0:0|3:0,0:0:0:0:
302,313,294519,1,0,0:0:0:0:
302,313,294610,6,0,B|297:256|297:256|294:253|294:253|289:181,1,107.999996704102,2|0,1:2|3:0,0:0:0:0:
288,185,294885,1,0,0:0:0:0:
288,185,294976,1,8,0:0:0:0:
165,33,295159,1,0,3:0:0:0:
165,33,295250,1,0,0:0:0:0:
165,33,295342,6,0,P|116:20|90:73,1,107.999996704102,2|0,1:2|3:0,0:0:0:0:
95,82,295616,1,0,0:0:0:0:
95,82,295708,1,8,0:0:0:0:
251,189,295891,1,8,3:2:0:0:
290,206,295982,1,8,0:0:0:0:
328,188,296074,5,6,1:2:0:0:
307,16,296257,1,8,0:0:0:0:
286,32,296348,1,8,0:0:0:0:
276,57,296440,2,0,P|277:91|297:120,1,53.9999983520508,0|8,0:0|0:0,0:0:0:0:
382,98,296622,1,8,0:0:0:0:
189,122,296805,5,10,1:2:0:0:
154,164,296897,1,8,0:0:0:0:
158,217,296988,1,8,0:0:0:0:
195,256,297080,1,8,0:0:0:0:
214,306,297171,1,8,0:0:0:0:
191,355,297263,1,8,0:0:0:0:
141,376,297354,1,8,0:0:0:0:
89,360,297446,1,8,0:0:0:0:
63,312,297538,6,0,P|110:289|151:319,1,90,6|0,1:2|0:0,0:0:0:0:
153,316,297812,1,0,0:0:0:0:
153,316,297904,2,0,P|192:339|238:314,1,90,10|0,0:0|0:0,0:0:0:0:
309,181,298270,1,2,1:2:0:0:
309,181,298362,2,0,L|314:233,1,45,2|0,0:0|0:0,0:0:0:0:
319,307,298545,1,2,0:0:0:0:
319,307,298636,1,8,0:0:0:0:
467,243,298819,1,2,0:0:0:0:
453,245,298910,1,2,0:0:0:0:
439,246,299002,5,2,1:2:0:0:
431,201,299093,1,2,0:0:0:0:
425,156,299185,1,2,0:0:0:0:
420,111,299276,2,0,L|414:60,1,45,2|8,0:0|0:0,0:0:0:0:
291,41,299459,1,2,0:0:0:0:
276,42,299551,1,2,0:0:0:0:
262,43,299642,1,2,0:0:0:0:
249,45,299734,5,0,1:0:0:0:
202,29,299825,1,0,0:0:0:0:
153,40,299917,1,2,0:0:0:0:
108,19,300008,1,2,0:0:0:0:
62,38,300100,5,10,0:0:0:0:
39,76,300191,1,2,0:0:0:0:
51,114,300282,1,2,0:0:0:0:
78,128,300374,1,2,0:0:0:0:
104,130,300465,6,0,B|152:123|152:123|155:125|155:125|211:117,1,90,2|0,1:2|0:0,0:0:0:0:
210,118,300740,1,0,0:0:0:0:
210,118,300831,2,0,B|236:160|236:160|218:210,1,90,10|0,0:0|0:0,0:0:0:0:
145,342,301197,1,2,1:2:0:0:
145,342,301289,2,0,L|140:292,1,45,2|0,0:0|0:0,0:0:0:0:
132,223,301472,1,2,0:0:0:0:
132,223,301563,1,8,0:0:0:0:
290,259,301746,1,2,0:0:0:0:
292,272,301837,1,2,0:0:0:0:
294,285,301929,5,2,1:2:0:0:
327,315,302020,1,2,0:0:0:0:
372,315,302112,1,2,0:0:0:0:
413,297,302203,1,2,0:0:0:0:
431,251,302294,1,10,0:0:0:0:
419,203,302385,1,2,0:0:0:0:
377,174,302478,2,0,L|308:178,1,45,2|2,0:0|0:0,0:0:0:0:
215,112,302660,5,10,1:2:0:0:
175,82,302752,1,10,0:0:0:0:
177,32,302843,1,10,0:0:0:0:
217,4,302934,1,10,0:0:0:0:
265,12,303026,1,10,0:0:0:0:
294,51,303118,1,10,0:0:0:0:
340,67,303209,1,10,0:0:0:0:
388,60,303300,1,10,0:0:0:0:
419,21,303392,6,0,B|426:67|426:67|425:70|425:70|436:131,1,90,6|0,1:2|0:0,0:0:0:0:
432,127,303666,1,0,0:0:0:0:
432,127,303757,2,0,P|423:164|370:167,1,90,10|0,0:0|0:0,0:0:0:0:
221,122,304123,1,2,1:2:0:0:
221,122,304215,2,0,L|155:130,1,45,2|0,0:0|0:0,0:0:0:0:
95,134,304398,1,2,0:0:0:0:
95,134,304489,1,8,0:0:0:0:
178,272,304672,1,2,0:0:0:0:
176,258,304763,1,2,0:0:0:0:
175,246,304855,5,2,1:2:0:0:
211,220,304946,1,2,0:0:0:0:
255,224,305038,1,2,0:0:0:0:
280,260,305129,2,0,L|285:318,1,45,2|8,0:0|0:0,0:0:0:0:
377,374,305312,1,2,0:0:0:0:
389,376,305404,1,2,0:0:0:0:
402,378,305495,1,2,0:0:0:0:
415,380,305587,5,0,1:2:0:0:
462,366,305678,1,0,0:0:0:0:
490,325,305770,1,2,0:0:0:0:
485,275,305861,1,2,0:0:0:0:
446,243,305953,5,10,0:0:0:0:
422,205,306044,1,2,0:0:0:0:
439,168,306135,1,2,0:0:0:0:
470,163,306227,1,2,0:0:0:0:
494,174,306318,6,0,P|497:221|444:232,1,90,2|0,1:2|0:0,0:0:0:0:
444,237,306593,1,0,0:0:0:0:
444,237,306685,2,0,B|401:233|401:233|398:230|398:230|342:226,1,90,10|0,0:0|0:0,0:0:0:0:
268,89,307051,1,2,1:2:0:0:
268,89,307141,2,0,L|261:155,1,45,2|0,0:0|0:0,0:0:0:0:
256,215,307324,1,2,0:0:0:0:
256,215,307416,1,8,0:0:0:0:
76,191,307600,1,8,0:0:0:0:
72,222,307691,1,8,0:0:0:0:
68,256,307782,6,0,B|115:263|115:263|118:262|118:262|169:270,1,99.0000030212403,14|8,1:2|0:0,0:0:0:0:
185,274,308057,1,10,0:0:0:0:
274,72,308240,1,10,0:0:0:0:
317,286,308423,1,10,0:0:0:0:
156,137,308606,1,10,0:0:0:0:
371,164,308789,1,10,0:0:0:0:
414,187,308880,1,10,0:0:0:0:
425,234,308971,1,8,0:0:0:0:
408,280,309063,1,8,0:0:0:0:
361,295,309154,1,8,0:0:0:0:
311,279,309245,6,0,P|264:256|223:286,1,90,6|0,1:2|0:0,0:0:0:0:
225,287,309519,1,0,0:0:0:0:
225,287,309611,2,0,B|229:332|229:332|226:336|226:336|232:383,1,90,10|0,0:0|0:0,0:0:0:0:
71,342,309977,1,2,1:2:0:0:
71,342,310069,2,0,L|66:290,1,45,2|0,0:0|0:0,0:0:0:0:
61,216,310252,1,2,0:0:0:0:
61,216,310343,1,8,0:0:0:0:
194,124,310526,1,2,0:0:0:0:
208,126,310617,1,2,0:0:0:0:
222,127,310709,5,2,1:2:0:0:
263,110,310800,1,2,0:0:0:0:
276,66,310892,1,2,0:0:0:0:
256,25,310983,2,0,L|207:21,1,45,2|8,0:0|0:0,0:0:0:0:
71,9,311166,1,2,0:0:0:0:
69,22,311258,1,2,0:0:0:0:
68,35,311349,1,2,0:0:0:0:
66,48,311441,5,0,1:0:0:0:
114,55,311532,1,0,0:0:0:0:
163,59,311624,1,2,0:0:0:0:
211,66,311715,1,2,0:0:0:0:
260,70,311807,5,10,0:0:0:0:
303,61,311898,1,2,0:0:0:0:
336,83,311989,1,2,0:0:0:0:
366,73,312081,1,2,0:0:0:0:
388,86,312172,6,0,B|410:130|410:130|379:176,1,90,2|0,1:2|0:0,0:0:0:0:
375,177,312447,1,0,0:0:0:0:
375,177,312538,2,0,B|350:216|350:216|369:265,1,90,10|0,0:0|0:0,0:0:0:0:
494,357,312904,1,2,1:2:0:0:
494,357,312996,2,0,L|444:352,1,45,2|0,0:0|0:0,0:0:0:0:
375,344,313179,1,2,0:0:0:0:
375,344,313270,1,8,0:0:0:0:
237,258,313453,1,2,0:0:0:0:
224,260,313544,1,2,0:0:0:0:
211,262,313636,5,2,1:2:0:0:
166,256,313727,1,2,0:0:0:0:
133,226,313819,1,2,0:0:0:0:
123,182,313910,1,2,0:0:0:0:
136,139,314001,1,10,0:0:0:0:
173,113,314093,1,2,0:0:0:0:
218,111,314185,2,0,L|223:159,1,45,2|2,0:0|0:0,0:0:0:0:
352,182,314367,5,10,1:2:0:0:
397,201,314459,1,10,0:0:0:0:
446,200,314550,1,10,0:0:0:0:
490,178,314641,1,10,0:0:0:0:
512,124,314733,1,10,0:0:0:0:
506,74,314825,1,10,0:0:0:0:
482,30,314916,1,10,0:0:0:0:
434,15,315007,1,10,0:0:0:0:
384,20,315099,6,0,B|368:66|368:66|398:110,1,90,6|0,1:2|0:0,0:0:0:0:
404,112,315373,1,0,0:0:0:0:
404,112,315464,2,0,B|450:105|450:105|456:106|456:106|511:99,1,90,10|0,0:0|0:0,0:0:0:0:
352,182,315830,1,2,1:2:0:0:
352,182,315922,2,0,L|360:248,1,45,2|0,0:0|0:0,0:0:0:0:
364,308,316105,1,2,0:0:0:0:
364,308,316196,1,8,0:0:0:0:
211,262,316379,1,2,0:0:0:0:
197,264,316470,1,2,0:0:0:0:
185,265,316562,5,2,1:2:0:0:
140,257,316653,1,2,0:0:0:0:
97,272,316745,1,2,0:0:0:0:
52,264,316836,2,0,L|45:205,1,45,2|8,0:0|0:0,0:0:0:0:
106,94,317019,1,2,0:0:0:0:
104,82,317111,1,2,0:0:0:0:
102,69,317202,1,2,0:0:0:0:
100,56,317294,5,0,1:2:0:0:
146,38,317385,1,0,0:0:0:0:
194,48,317477,1,2,0:0:0:0:
223,87,317568,1,2,0:0:0:0:
222,136,317660,5,10,0:0:0:0:
193,170,317751,1,2,0:0:0:0:
153,175,317842,1,2,0:0:0:0:
122,167,317934,1,2,0:0:0:0:
101,149,318025,6,0,B|147:143|147:143|149:141|149:141|195:135,1,90,2|0,1:2|0:0,0:0:0:0:
207,134,318300,1,0,0:0:0:0:
207,134,318392,2,0,P|217:84|189:55,1,90,10|0,0:0|0:0,0:0:0:0:
305,175,318758,1,2,1:2:0:0:
305,175,318848,2,0,L|371:168,1,45,2|0,0:0|0:0,0:0:0:0:
431,163,319031,1,2,0:0:0:0:
431,163,319123,1,8,0:0:0:0:
303,291,319307,1,8,0:0:0:0:
272,297,319398,1,8,0:0:0:0:
238,304,319489,5,6,1:2:0:0:
188,279,319581,1,8,0:0:0:0:
173,226,319672,1,8,0:0:0:0:
194,175,319764,1,10,0:0:0:0:
243,152,319855,1,8,0:0:0:0:
296,165,319947,1,10,0:0:0:0:
349,169,320038,1,8,0:0:0:0:
394,137,320130,1,10,0:0:0:0:
409,85,320221,1,8,0:0:0:0:
389,34,320312,1,10,0:0:0:0:
337,14,320404,1,8,0:0:0:0:
283,24,320496,1,10,0:0:0:0:
256,71,320587,6,0,P|253:108|259:135,1,49.5000015106202,10|0,0:0|0:0,0:0:0:0:
232,295,320770,1,8,0:0:0:0:
190,313,320861,1,8,0:0:0:0:
148,299,320952,6,0,B|108:265|91:218|104:172|130:137|130:137|147:198|201:208|201:208|179:148|204:95|256:70|256:70|247:131|267:156|267:156|287:185|270:223|270:223|317:208|337:172|333:119|333:119|374:207|350:286|293:338|225:337|225:337|238:310|231:293,1,1080,6|0,0:0|0:0,0:0:0:0:
