osu file format v14

[General]
AudioFilename: audio.mp3
AudioLeadIn: 0
PreviewTime: 71019
Countdown: 0
SampleSet: Normal
StackLeniency: 0.7
Mode: 1
LetterboxInBreaks: 0
WidescreenStoryboard: 1

[Editor]
DistanceSpacing: 0.8
BeatDivisor: 4
GridSize: 32
TimelineZoom: 1.4

[Metadata]
Title:Wanna Be My Dream
TitleUnicode:Wanna Be My Dream
Artist:A-One
ArtistUnicode:A-One
Creator:Chromoxx
Version:Oni
Source:東方永夜抄 ~ Imperishable Night.
Tags:Mappers' Guild Featured Artist FA Electronic Video Game Japanese J-Core J Core Reimu Hakurei 東方Project Touhou ZUN 太田順也 Oota Junya 少女綺想曲 ~ Dream Battle Maiden's Capriccio ELEMENTAS Shihori あき Aki しほり FN2 博麗霊夢 Eiyashou Eternal Night Vignette 永夜抄 TOHO EUROBEAT presents THE REVIVAL MIX
BeatmapID:3789980
BeatmapSetID:1840481

[Difficulty]
HPDrainRate:5
CircleSize:5
OverallDifficulty:6
ApproachRate:5
SliderMultiplier:1.4
SliderTickRate:1

[Events]
//Background and Video events
0,0,"47657345_p0.jpg",0,0
//Break Periods
//Storyboard Layer 0 (Background)
//Storyboard Layer 1 (Fail)
//Storyboard Layer 2 (Pass)
//Storyboard Layer 3 (Foreground)
//Storyboard Layer 4 (Overlay)
//Storyboard Sound Samples

[TimingPoints]
1201,363.636363636364,4,1,0,100,1,0
71019,-100,4,1,0,100,0,1
94291,-100,4,1,0,100,0,0
106110,-100,4,1,0,100,0,0
108837,-100,4,1,0,100,0,0
140837,-100,4,1,0,100,0,1
164110,-100,4,1,0,100,0,0
213564,-100,4,1,0,100,0,1
236837,-100,4,1,0,100,0,0

[HitObjects]
314,208,24473,5,4,0:0:0:0:
303,218,24655,1,8,0:0:0:0:
245,171,24746,1,0,0:0:0:0:
265,154,24928,1,0,0:0:0:0:
171,142,25019,1,8,0:0:0:0:
296,192,25201,1,0,0:0:0:0:
244,241,25382,1,8,0:0:0:0:
244,241,25564,1,0,0:0:0:0:
244,241,25746,1,8,0:0:0:0:
225,194,26110,1,0,0:0:0:0:
255,99,26201,1,0,0:0:0:0:
207,135,26291,1,8,0:0:0:0:
216,124,26382,1,8,0:0:0:0:
207,117,26473,1,0,0:0:0:0:
207,117,26655,1,8,0:0:0:0:
207,117,26837,1,8,0:0:0:0:
316,212,27019,1,0,0:0:0:0:
316,212,27201,1,0,0:0:0:0:
330,199,27382,1,8,0:0:0:0:
259,224,27564,1,0,0:0:0:0:
259,248,27655,1,8,0:0:0:0:
211,113,27837,1,8,0:0:0:0:
242,104,27928,1,0,0:0:0:0:
288,121,28110,1,8,0:0:0:0:
288,121,28291,1,8,0:0:0:0:
288,121,28473,1,0,0:0:0:0:
288,121,28655,1,8,0:0:0:0:
278,141,29019,1,0,0:0:0:0:
236,188,29201,1,8,0:0:0:0:
233,173,29291,1,8,0:0:0:0:
248,253,29382,1,0,0:0:0:0:
245,246,29473,1,0,0:0:0:0:
212,212,29564,1,8,0:0:0:0:
340,228,29746,1,0,0:0:0:0:
272,185,29928,1,8,0:0:0:0:
272,185,30019,1,8,0:0:0:0:
224,146,30110,1,8,0:0:0:0:
224,83,30291,1,4,0:0:0:0:
303,218,30473,1,8,0:0:0:0:
245,171,30564,1,0,0:0:0:0:
265,154,30746,1,0,0:0:0:0:
171,142,30837,1,8,0:0:0:0:
296,192,31019,1,0,0:0:0:0:
244,241,31201,1,8,0:0:0:0:
244,241,31382,1,0,0:0:0:0:
244,241,31564,1,8,0:0:0:0:
225,194,31928,1,0,0:0:0:0:
255,99,32019,1,0,0:0:0:0:
207,135,32110,1,8,0:0:0:0:
216,124,32201,1,8,0:0:0:0:
207,117,32291,1,0,0:0:0:0:
207,117,32473,1,8,0:0:0:0:
207,117,32655,1,8,0:0:0:0:
316,212,32837,1,0,0:0:0:0:
316,212,33019,1,0,0:0:0:0:
330,199,33201,1,8,0:0:0:0:
259,224,33382,1,0,0:0:0:0:
259,248,33473,1,8,0:0:0:0:
211,113,33655,1,8,0:0:0:0:
242,104,33746,1,0,0:0:0:0:
288,121,33928,1,8,0:0:0:0:
288,121,34110,1,8,0:0:0:0:
288,121,34291,1,0,0:0:0:0:
404,192,34655,1,8,0:0:0:0:
404,192,34837,1,0,0:0:0:0:
254,125,34928,1,8,0:0:0:0:
272,159,35110,1,0,0:0:0:0:
227,103,35201,1,8,0:0:0:0:
227,138,35382,1,0,0:0:0:0:
370,231,35473,1,8,0:0:0:0:
283,189,35655,1,0,0:0:0:0:
321,178,35746,1,8,0:0:0:0:
288,177,35837,1,0,0:0:0:0:
164,80,35928,1,8,0:0:0:0:
255,218,36110,1,4,0:0:0:0:
341,184,36473,1,8,0:0:0:0:
341,184,36655,1,0,0:0:0:0:
341,184,36746,1,0,0:0:0:0:
213,99,36837,1,0,0:0:0:0:
219,105,37019,1,0,0:0:0:0:
219,105,37201,1,8,0:0:0:0:
321,170,37564,1,0,0:0:0:0:
321,170,37746,1,0,0:0:0:0:
321,170,37928,1,8,0:0:0:0:
321,170,38110,1,8,0:0:0:0:
256,177,38201,1,8,0:0:0:0:
245,191,38291,1,0,0:0:0:0:
245,192,38473,1,0,0:0:0:0:
245,192,38655,1,8,0:0:0:0:
219,112,38837,1,8,0:0:0:0:
219,112,39019,1,0,0:0:0:0:
242,135,39382,1,8,0:0:0:0:
242,135,39564,1,0,0:0:0:0:
333,135,39655,1,0,0:0:0:0:
279,117,39746,1,8,0:0:0:0:
284,127,39928,1,0,0:0:0:0:
284,127,40110,1,8,0:0:0:0:
265,124,40473,1,0,0:0:0:0:
220,178,40655,1,0,0:0:0:0:
265,125,40837,1,8,0:0:0:0:
226,213,41019,1,0,0:0:0:0:
225,168,41110,1,8,0:0:0:0:
212,147,41201,1,0,0:0:0:0:
239,146,41382,1,12,0:0:0:0:
239,146,41564,1,12,0:0:0:0:
255,218,41928,1,4,0:0:0:0:
341,184,42291,1,8,0:0:0:0:
341,184,42473,1,0,0:0:0:0:
341,184,42564,1,0,0:0:0:0:
213,99,42655,1,0,0:0:0:0:
219,105,42837,1,0,0:0:0:0:
219,105,43019,1,8,0:0:0:0:
321,170,43382,1,0,0:0:0:0:
321,170,43564,1,0,0:0:0:0:
321,170,43746,1,8,0:0:0:0:
321,170,43928,1,8,0:0:0:0:
256,177,44019,1,8,0:0:0:0:
245,191,44110,1,0,0:0:0:0:
245,192,44291,1,0,0:0:0:0:
245,192,44473,1,8,0:0:0:0:
219,112,44655,1,8,0:0:0:0:
219,112,44837,1,0,0:0:0:0:
242,135,45201,1,8,0:0:0:0:
242,135,45382,1,0,0:0:0:0:
333,135,45473,1,0,0:0:0:0:
279,117,45564,1,8,0:0:0:0:
284,127,45746,1,0,0:0:0:0:
284,127,45928,1,8,0:0:0:0:
265,124,46291,1,0,0:0:0:0:
207,224,46473,1,8,0:0:0:0:
208,106,46564,1,0,0:0:0:0:
208,106,46746,1,8,0:0:0:0:
208,145,46837,1,0,0:0:0:0:
319,178,47019,1,8,0:0:0:0:
311,123,47110,1,8,0:0:0:0:
221,121,47201,1,0,0:0:0:0:
205,82,47291,1,0,0:0:0:0:
208,81,47382,1,8,0:0:0:0:
208,81,47564,1,0,0:0:0:0:
273,203,47746,1,12,0:0:0:0:
341,184,48110,1,0,0:0:0:0:
341,184,48291,1,8,0:0:0:0:
341,184,48382,1,8,0:0:0:0:
213,99,48473,1,8,0:0:0:0:
219,105,48655,1,8,0:0:0:0:
219,105,48837,1,0,0:0:0:0:
321,170,49201,1,8,0:0:0:0:
321,170,49382,1,8,0:0:0:0:
321,170,49564,1,0,0:0:0:0:
321,170,49746,1,0,0:0:0:0:
256,177,49837,1,0,0:0:0:0:
245,191,49928,1,8,0:0:0:0:
245,192,50110,1,8,0:0:0:0:
245,192,50291,1,0,0:0:0:0:
219,112,50473,1,0,0:0:0:0:
219,112,50655,1,8,0:0:0:0:
242,135,51019,1,0,0:0:0:0:
242,135,51201,1,8,0:0:0:0:
333,135,51291,1,8,0:0:0:0:
279,117,51382,1,0,0:0:0:0:
284,127,51564,1,8,0:0:0:0:
284,127,51746,1,0,0:0:0:0:
265,124,52110,1,8,0:0:0:0:
220,178,52291,1,8,0:0:0:0:
265,125,52473,1,0,0:0:0:0:
226,213,52655,1,8,0:0:0:0:
225,168,52746,1,0,0:0:0:0:
212,147,52837,1,8,0:0:0:0:
239,146,53019,1,4,0:0:0:0:
239,146,53201,1,4,0:0:0:0:
255,218,53564,1,12,0:0:0:0:
341,184,53928,1,0,0:0:0:0:
341,184,54110,1,8,0:0:0:0:
341,184,54201,1,8,0:0:0:0:
213,99,54291,1,8,0:0:0:0:
219,105,54473,1,8,0:0:0:0:
219,105,54655,1,0,0:0:0:0:
321,170,55019,1,8,0:0:0:0:
321,170,55201,1,8,0:0:0:0:
321,170,55382,1,0,0:0:0:0:
321,170,55564,1,0,0:0:0:0:
256,177,55655,1,0,0:0:0:0:
245,191,55746,1,8,0:0:0:0:
245,192,55928,1,8,0:0:0:0:
245,192,56110,1,0,0:0:0:0:
219,112,56291,1,0,0:0:0:0:
219,112,56473,1,8,0:0:0:0:
242,135,56837,1,0,0:0:0:0:
242,135,57019,1,8,0:0:0:0:
333,135,57110,1,8,0:0:0:0:
279,117,57201,1,0,0:0:0:0:
284,127,57382,1,8,0:0:0:0:
284,127,57564,1,0,0:0:0:0:
265,124,57928,1,8,0:0:0:0:
207,224,58110,1,0,0:0:0:0:
208,106,58201,1,8,0:0:0:0:
208,106,58382,1,0,0:0:0:0:
208,145,58473,1,8,0:0:0:0:
319,178,58655,1,0,0:0:0:0:
311,123,58746,1,0,0:0:0:0:
221,121,58837,1,8,0:0:0:0:
205,82,58928,1,8,0:0:0:0:
208,81,59019,1,0,0:0:0:0:
208,81,59201,1,8,0:0:0:0:
273,203,59382,1,4,0:0:0:0:
325,168,59746,1,8,0:0:0:0:
325,168,59928,1,0,0:0:0:0:
325,168,60291,1,0,0:0:0:0:
325,168,60473,1,8,0:0:0:0:
257,108,60655,1,0,0:0:0:0:
257,108,61019,1,0,0:0:0:0:
257,108,61201,1,8,0:0:0:0:
257,108,61382,1,8,0:0:0:0:
278,224,61564,1,0,0:0:0:0:
278,224,61746,1,0,0:0:0:0:
278,224,61928,1,8,0:0:0:0:
301,187,62110,1,8,0:0:0:0:
301,187,62291,1,0,0:0:0:0:
301,187,62655,1,8,0:0:0:0:
301,187,62837,1,0,0:0:0:0:
279,154,63201,1,8,0:0:0:0:
279,154,63382,1,0,0:0:0:0:
279,154,63564,1,8,0:0:0:0:
216,133,63928,1,8,0:0:0:0:
216,133,64110,1,0,0:0:0:0:
216,133,64291,1,0,0:0:0:0:
258,183,64382,1,0,0:0:0:0:
276,252,64473,1,8,0:0:0:0:
276,252,64655,1,0,0:0:0:0:
285,214,64837,1,8,0:0:0:0:
234,101,64928,1,8,0:0:0:0:
185,137,65019,1,0,0:0:0:0:
185,137,65201,1,12,0:0:0:0:
315,134,65564,1,0,0:0:0:0:
315,134,65746,1,8,0:0:0:0:
254,88,65837,1,8,0:0:0:0:
240,157,65928,1,0,0:0:0:0:
240,157,66110,1,8,0:0:0:0:
240,157,66291,1,0,0:0:0:0:
209,166,66382,1,0,0:0:0:0:
189,154,66473,1,8,0:0:0:0:
245,125,66655,1,4,0:0:0:0:
305,137,67019,1,8,0:0:0:0:
305,137,67201,1,0,0:0:0:0:
305,137,67291,1,0,0:0:0:0:
237,167,67382,1,8,0:0:0:0:
237,167,67564,1,0,0:0:0:0:
237,167,67746,1,8,0:0:0:0:
224,129,67837,1,8,0:0:0:0:
253,157,67928,1,0,0:0:0:0:
325,183,68110,1,12,0:0:0:0:
326,109,68473,1,0,0:0:0:0:
326,109,68655,1,8,0:0:0:0:
317,156,68746,1,8,0:0:0:0:
255,82,68837,1,0,0:0:0:0:
255,82,69019,1,8,0:0:0:0:
254,120,69201,1,0,0:0:0:0:
93,155,69291,1,0,0:0:0:0:
228,136,69382,1,8,0:0:0:0:
228,136,69564,1,0,0:0:0:0:
307,152,69746,1,0,0:0:0:0:
307,152,69837,1,0,0:0:0:0:
311,162,69928,1,8,0:0:0:0:
248,195,70019,1,8,0:0:0:0:
311,162,70110,1,0,0:0:0:0:
358,282,70473,1,12,0:0:0:0:
349,264,71019,1,4,0:0:0:0:
256,178,71382,1,8,0:0:0:0:
256,178,71564,1,0,0:0:0:0:
208,120,71655,1,0,0:0:0:0:
256,178,71746,1,0,0:0:0:0:
208,120,71928,1,0,0:0:0:0:
208,120,72110,1,8,0:0:0:0:
264,267,72291,1,8,0:0:0:0:
264,267,72382,1,8,0:0:0:0:
196,217,72473,1,0,0:0:0:0:
196,217,72655,1,0,0:0:0:0:
196,217,72837,1,8,0:0:0:0:
297,172,73019,1,0,0:0:0:0:
297,172,73110,1,0,0:0:0:0:
266,140,73201,1,8,0:0:0:0:
208,113,73382,1,0,0:0:0:0:
208,113,73564,1,8,0:0:0:0:
197,116,73655,1,8,0:0:0:0:
191,164,73746,1,0,0:0:0:0:
274,243,73928,1,8,0:0:0:0:
274,243,74291,1,0,0:0:0:0:
376,250,74473,1,8,0:0:0:0:
376,250,74564,1,8,0:0:0:0:
249,106,74655,1,8,0:0:0:0:
385,173,74837,1,8,0:0:0:0:
385,173,75019,1,0,0:0:0:0:
203,173,75201,1,0,0:0:0:0:
279,188,75291,1,0,0:0:0:0:
273,193,75382,1,8,0:0:0:0:
279,188,75564,1,8,0:0:0:0:
202,226,75746,1,0,0:0:0:0:
289,91,75928,1,8,0:0:0:0:
208,109,76019,1,8,0:0:0:0:
200,124,76110,1,0,0:0:0:0:
232,129,76201,1,0,0:0:0:0:
232,129,76291,1,8,0:0:0:0:
232,129,76382,1,8,0:0:0:0:
230,121,76473,1,0,0:0:0:0:
230,121,76655,1,8,0:0:0:0:
281,170,76837,1,4,0:0:0:0:
256,178,77201,1,8,0:0:0:0:
256,178,77382,1,0,0:0:0:0:
208,120,77473,1,0,0:0:0:0:
256,178,77564,1,0,0:0:0:0:
208,120,77746,1,0,0:0:0:0:
208,120,77928,1,8,0:0:0:0:
264,267,78110,1,8,0:0:0:0:
264,267,78201,1,8,0:0:0:0:
196,217,78291,1,0,0:0:0:0:
196,217,78473,1,0,0:0:0:0:
196,217,78655,1,8,0:0:0:0:
297,172,78837,1,0,0:0:0:0:
297,172,78928,1,0,0:0:0:0:
266,140,79019,1,8,0:0:0:0:
208,113,79201,1,0,0:0:0:0:
208,113,79382,1,8,0:0:0:0:
197,116,79473,1,8,0:0:0:0:
191,164,79564,1,0,0:0:0:0:
274,243,79746,1,8,0:0:0:0:
274,243,80110,1,0,0:0:0:0:
376,250,80291,1,8,0:0:0:0:
376,250,80382,1,8,0:0:0:0:
249,106,80473,1,8,0:0:0:0:
385,173,80655,1,8,0:0:0:0:
385,173,80837,1,0,0:0:0:0:
203,173,81019,1,0,0:0:0:0:
279,188,81110,1,0,0:0:0:0:
273,193,81201,1,8,0:0:0:0:
335,283,81382,1,4,0:0:0:0:
335,283,81564,1,4,0:0:0:0:
247,153,81746,1,8,0:0:0:0:
269,136,81837,1,8,0:0:0:0:
247,153,81928,1,0,0:0:0:0:
260,165,82019,1,0,0:0:0:0:
308,120,82110,1,8,0:0:0:0:
265,152,82201,1,8,0:0:0:0:
272,197,82291,1,0,0:0:0:0:
265,152,82473,1,0,0:0:0:0:
269,136,82655,1,12,0:0:0:0:
256,178,83019,1,0,0:0:0:0:
256,178,83201,1,8,0:0:0:0:
208,120,83291,1,8,0:0:0:0:
256,178,83382,1,8,0:0:0:0:
208,120,83564,1,8,0:0:0:0:
208,120,83746,1,0,0:0:0:0:
264,267,83928,1,0,0:0:0:0:
264,267,84019,1,0,0:0:0:0:
196,217,84110,1,8,0:0:0:0:
196,217,84291,1,8,0:0:0:0:
196,217,84473,1,0,0:0:0:0:
297,172,84655,1,8,0:0:0:0:
297,172,84746,1,8,0:0:0:0:
266,140,84837,1,0,0:0:0:0:
208,113,85019,1,8,0:0:0:0:
208,113,85201,1,0,0:0:0:0:
197,116,85291,1,0,0:0:0:0:
191,164,85382,1,8,0:0:0:0:
274,243,85564,1,0,0:0:0:0:
274,243,85928,1,8,0:0:0:0:
376,250,86110,1,0,0:0:0:0:
376,250,86201,1,0,0:0:0:0:
249,106,86291,1,0,0:0:0:0:
385,173,86473,1,0,0:0:0:0:
385,173,86655,1,8,0:0:0:0:
203,173,86837,1,8,0:0:0:0:
279,188,86928,1,8,0:0:0:0:
273,193,87019,1,0,0:0:0:0:
279,188,87201,1,0,0:0:0:0:
202,226,87382,1,8,0:0:0:0:
289,91,87564,1,0,0:0:0:0:
208,109,87655,1,0,0:0:0:0:
200,124,87746,1,8,0:0:0:0:
232,129,87837,1,8,0:0:0:0:
232,129,87928,1,0,0:0:0:0:
232,129,88019,1,0,0:0:0:0:
230,121,88110,1,8,0:0:0:0:
230,121,88291,1,0,0:0:0:0:
281,170,88473,1,12,0:0:0:0:
256,178,88837,1,0,0:0:0:0:
256,178,89019,1,8,0:0:0:0:
208,120,89110,1,8,0:0:0:0:
256,178,89201,1,8,0:0:0:0:
208,120,89382,1,8,0:0:0:0:
208,120,89564,1,0,0:0:0:0:
264,267,89746,1,0,0:0:0:0:
264,267,89837,1,0,0:0:0:0:
196,217,89928,1,8,0:0:0:0:
196,217,90110,1,8,0:0:0:0:
196,217,90291,1,0,0:0:0:0:
297,172,90473,1,8,0:0:0:0:
297,172,90564,1,8,0:0:0:0:
266,140,90655,1,0,0:0:0:0:
208,113,90837,1,8,0:0:0:0:
208,113,91019,1,0,0:0:0:0:
197,116,91110,1,0,0:0:0:0:
191,164,91201,1,8,0:0:0:0:
274,243,91382,1,0,0:0:0:0:
274,243,91746,1,8,0:0:0:0:
376,250,91928,1,0,0:0:0:0:
376,250,92019,1,0,0:0:0:0:
249,106,92110,1,0,0:0:0:0:
385,173,92291,1,0,0:0:0:0:
385,173,92473,1,8,0:0:0:0:
203,173,92655,1,8,0:0:0:0:
279,188,92746,1,8,0:0:0:0:
273,193,92837,1,0,0:0:0:0:
335,283,93019,1,12,0:0:0:0:
335,283,93201,1,12,0:0:0:0:
269,136,93382,1,0,0:0:0:0:
308,120,93473,1,0,0:0:0:0:
247,153,93564,1,8,0:0:0:0:
260,165,93655,1,8,0:0:0:0:
265,152,93746,1,0,0:0:0:0:
272,197,93837,1,0,0:0:0:0:
186,164,93928,1,8,0:0:0:0:
186,164,94110,1,8,0:0:0:0:
269,136,94291,1,4,0:0:0:0:
303,218,94473,1,8,0:0:0:0:
245,171,94564,1,0,0:0:0:0:
265,154,94746,1,0,0:0:0:0:
171,142,94837,1,8,0:0:0:0:
296,192,95019,1,0,0:0:0:0:
244,241,95201,1,8,0:0:0:0:
244,241,95382,1,0,0:0:0:0:
244,241,95564,1,8,0:0:0:0:
225,194,95928,1,0,0:0:0:0:
255,99,96019,1,0,0:0:0:0:
207,135,96110,1,8,0:0:0:0:
216,124,96201,1,8,0:0:0:0:
207,117,96291,1,0,0:0:0:0:
207,117,96473,1,8,0:0:0:0:
207,117,96655,1,8,0:0:0:0:
316,212,96837,1,0,0:0:0:0:
316,212,97019,1,0,0:0:0:0:
330,199,97201,1,8,0:0:0:0:
259,224,97382,1,0,0:0:0:0:
259,248,97473,1,8,0:0:0:0:
211,113,97655,1,8,0:0:0:0:
242,104,97746,1,0,0:0:0:0:
288,121,97928,1,8,0:0:0:0:
288,121,98110,1,8,0:0:0:0:
288,121,98291,1,0,0:0:0:0:
288,121,98473,1,8,0:0:0:0:
278,141,98837,1,0,0:0:0:0:
236,188,99019,1,8,0:0:0:0:
233,173,99110,1,8,0:0:0:0:
248,253,99201,1,0,0:0:0:0:
245,246,99291,1,0,0:0:0:0:
212,212,99382,1,8,0:0:0:0:
340,228,99564,1,0,0:0:0:0:
272,185,99746,1,8,0:0:0:0:
272,185,99837,1,8,0:0:0:0:
224,146,99928,1,8,0:0:0:0:
224,83,100110,1,4,0:0:0:0:
303,218,100291,1,8,0:0:0:0:
245,171,100382,1,0,0:0:0:0:
265,154,100564,1,0,0:0:0:0:
171,142,100655,1,8,0:0:0:0:
296,192,100837,1,0,0:0:0:0:
244,241,101019,1,8,0:0:0:0:
244,241,101201,1,0,0:0:0:0:
244,241,101382,1,8,0:0:0:0:
225,194,101746,1,0,0:0:0:0:
255,99,101837,1,0,0:0:0:0:
207,135,101928,1,8,0:0:0:0:
216,124,102019,1,8,0:0:0:0:
207,117,102110,1,0,0:0:0:0:
207,117,102291,1,8,0:0:0:0:
207,117,102473,1,8,0:0:0:0:
316,212,102655,1,0,0:0:0:0:
316,212,102837,1,0,0:0:0:0:
330,199,103019,1,8,0:0:0:0:
259,224,103201,1,0,0:0:0:0:
259,248,103291,1,8,0:0:0:0:
211,113,103473,1,8,0:0:0:0:
242,104,103564,1,0,0:0:0:0:
288,121,103746,1,8,0:0:0:0:
288,121,103928,1,8,0:0:0:0:
288,121,104110,1,0,0:0:0:0:
404,192,104473,1,8,0:0:0:0:
404,192,104655,1,0,0:0:0:0:
254,125,104746,1,8,0:0:0:0:
272,159,104928,1,0,0:0:0:0:
227,103,105019,1,8,0:0:0:0:
227,138,105201,1,0,0:0:0:0:
370,231,105291,1,8,0:0:0:0:
283,189,105473,1,0,0:0:0:0:
321,178,105564,1,8,0:0:0:0:
288,177,105655,1,0,0:0:0:0:
164,80,105746,1,8,0:0:0:0:
255,218,105928,1,4,0:0:0:0:
280,236,106655,1,8,0:0:0:0:
280,236,107201,1,0,0:0:0:0:
280,236,107564,1,0,0:0:0:0:
280,236,107746,1,0,0:0:0:0:
260,140,107928,1,8,0:0:0:0:
260,140,108019,1,8,0:0:0:0:
266,206,108110,1,0,0:0:0:0:
262,240,108291,1,8,0:0:0:0:
262,240,108473,1,0,0:0:0:0:
246,209,108564,1,0,0:0:0:0:
194,196,108655,1,8,0:0:0:0:
219,112,108837,1,4,0:0:0:0:
242,135,109201,1,8,0:0:0:0:
242,135,109382,1,0,0:0:0:0:
333,135,109473,1,0,0:0:0:0:
279,117,109564,1,8,0:0:0:0:
284,127,109746,1,0,0:0:0:0:
284,127,109928,1,8,0:0:0:0:
265,124,110291,1,0,0:0:0:0:
220,178,110473,1,0,0:0:0:0:
265,125,110655,1,8,0:0:0:0:
226,213,110837,1,0,0:0:0:0:
225,168,110928,1,8,0:0:0:0:
212,147,111019,1,0,0:0:0:0:
239,146,111201,1,12,0:0:0:0:
239,146,111382,1,12,0:0:0:0:
255,218,111746,1,4,0:0:0:0:
341,184,112110,1,8,0:0:0:0:
341,184,112291,1,0,0:0:0:0:
341,184,112382,1,0,0:0:0:0:
213,99,112473,1,0,0:0:0:0:
219,105,112655,1,0,0:0:0:0:
219,105,112837,1,8,0:0:0:0:
321,170,113201,1,0,0:0:0:0:
321,170,113382,1,0,0:0:0:0:
321,170,113564,1,8,0:0:0:0:
321,170,113746,1,8,0:0:0:0:
256,177,113837,1,8,0:0:0:0:
245,191,113928,1,0,0:0:0:0:
245,192,114110,1,0,0:0:0:0:
245,192,114291,1,8,0:0:0:0:
219,112,114473,1,8,0:0:0:0:
219,112,114655,1,0,0:0:0:0:
242,135,115019,1,8,0:0:0:0:
242,135,115201,1,0,0:0:0:0:
333,135,115291,1,0,0:0:0:0:
279,117,115382,1,8,0:0:0:0:
284,127,115564,1,0,0:0:0:0:
284,127,115746,1,8,0:0:0:0:
265,124,116110,1,0,0:0:0:0:
207,224,116291,1,8,0:0:0:0:
208,106,116382,1,0,0:0:0:0:
208,106,116564,1,8,0:0:0:0:
208,145,116655,1,0,0:0:0:0:
319,178,116837,1,8,0:0:0:0:
311,123,116928,1,8,0:0:0:0:
221,121,117019,1,0,0:0:0:0:
205,82,117110,1,0,0:0:0:0:
208,81,117201,1,8,0:0:0:0:
208,81,117382,1,0,0:0:0:0:
273,203,117564,1,12,0:0:0:0:
341,184,117928,1,0,0:0:0:0:
341,184,118110,1,8,0:0:0:0:
341,184,118201,1,8,0:0:0:0:
213,99,118291,1,8,0:0:0:0:
219,105,118473,1,8,0:0:0:0:
219,105,118655,1,0,0:0:0:0:
321,170,119019,1,8,0:0:0:0:
321,170,119201,1,8,0:0:0:0:
321,170,119382,1,0,0:0:0:0:
321,170,119564,1,0,0:0:0:0:
256,177,119655,1,0,0:0:0:0:
245,191,119746,1,8,0:0:0:0:
245,192,119928,1,8,0:0:0:0:
245,192,120110,1,0,0:0:0:0:
219,112,120291,1,0,0:0:0:0:
219,112,120473,1,8,0:0:0:0:
242,135,120837,1,0,0:0:0:0:
242,135,121019,1,8,0:0:0:0:
333,135,121110,1,8,0:0:0:0:
279,117,121201,1,0,0:0:0:0:
284,127,121382,1,8,0:0:0:0:
284,127,121564,1,0,0:0:0:0:
265,124,121928,1,8,0:0:0:0:
220,178,122110,1,8,0:0:0:0:
265,125,122291,1,0,0:0:0:0:
226,213,122473,1,8,0:0:0:0:
225,168,122564,1,0,0:0:0:0:
212,147,122655,1,8,0:0:0:0:
239,146,122837,1,4,0:0:0:0:
239,146,123019,1,4,0:0:0:0:
255,218,123382,1,12,0:0:0:0:
341,184,123746,1,0,0:0:0:0:
341,184,123928,1,8,0:0:0:0:
341,184,124019,1,8,0:0:0:0:
213,99,124110,1,8,0:0:0:0:
219,105,124291,1,8,0:0:0:0:
219,105,124473,1,0,0:0:0:0:
321,170,124837,1,8,0:0:0:0:
321,170,125019,1,8,0:0:0:0:
321,170,125201,1,0,0:0:0:0:
321,170,125382,1,0,0:0:0:0:
256,177,125473,1,0,0:0:0:0:
245,191,125564,1,8,0:0:0:0:
245,192,125746,1,8,0:0:0:0:
245,192,125928,1,0,0:0:0:0:
219,112,126110,1,0,0:0:0:0:
219,112,126291,1,8,0:0:0:0:
242,135,126655,1,0,0:0:0:0:
242,135,126837,1,8,0:0:0:0:
333,135,126928,1,8,0:0:0:0:
279,117,127019,1,0,0:0:0:0:
284,127,127201,1,8,0:0:0:0:
284,127,127382,1,0,0:0:0:0:
265,124,127746,1,8,0:0:0:0:
207,224,127928,1,0,0:0:0:0:
208,106,128019,1,8,0:0:0:0:
208,106,128201,1,0,0:0:0:0:
208,145,128291,1,8,0:0:0:0:
319,178,128473,1,0,0:0:0:0:
311,123,128564,1,0,0:0:0:0:
221,121,128655,1,8,0:0:0:0:
205,82,128746,1,8,0:0:0:0:
208,81,128837,1,0,0:0:0:0:
208,81,129019,1,8,0:0:0:0:
273,203,129201,1,4,0:0:0:0:
325,168,129564,1,8,0:0:0:0:
325,168,129746,1,0,0:0:0:0:
325,168,130110,1,0,0:0:0:0:
325,168,130291,1,8,0:0:0:0:
257,108,130473,1,0,0:0:0:0:
257,108,130837,1,0,0:0:0:0:
257,108,131019,1,8,0:0:0:0:
257,108,131201,1,8,0:0:0:0:
278,224,131382,1,0,0:0:0:0:
278,224,131564,1,0,0:0:0:0:
278,224,131746,1,8,0:0:0:0:
301,187,131928,1,8,0:0:0:0:
301,187,132110,1,0,0:0:0:0:
301,187,132473,1,8,0:0:0:0:
301,187,132655,1,0,0:0:0:0:
279,154,133019,1,8,0:0:0:0:
279,154,133201,1,0,0:0:0:0:
279,154,133382,1,8,0:0:0:0:
216,133,133746,1,8,0:0:0:0:
216,133,133928,1,0,0:0:0:0:
216,133,134110,1,0,0:0:0:0:
258,183,134201,1,0,0:0:0:0:
276,252,134291,1,8,0:0:0:0:
276,252,134473,1,0,0:0:0:0:
285,214,134655,1,8,0:0:0:0:
234,101,134746,1,8,0:0:0:0:
185,137,134837,1,0,0:0:0:0:
185,137,135019,1,12,0:0:0:0:
315,134,135382,1,0,0:0:0:0:
315,134,135564,1,8,0:0:0:0:
254,88,135655,1,8,0:0:0:0:
240,157,135746,1,0,0:0:0:0:
240,157,135928,1,8,0:0:0:0:
240,157,136110,1,0,0:0:0:0:
209,166,136201,1,0,0:0:0:0:
189,154,136291,1,8,0:0:0:0:
245,125,136473,1,4,0:0:0:0:
305,137,136837,1,8,0:0:0:0:
305,137,137019,1,0,0:0:0:0:
305,137,137110,1,0,0:0:0:0:
237,167,137201,1,8,0:0:0:0:
237,167,137382,1,0,0:0:0:0:
237,167,137564,1,8,0:0:0:0:
224,129,137655,1,8,0:0:0:0:
253,157,137746,1,0,0:0:0:0:
325,183,137928,1,12,0:0:0:0:
326,109,138291,1,0,0:0:0:0:
326,109,138473,1,8,0:0:0:0:
317,156,138564,1,8,0:0:0:0:
255,82,138655,1,0,0:0:0:0:
255,82,138837,1,8,0:0:0:0:
254,120,139019,1,0,0:0:0:0:
93,155,139110,1,0,0:0:0:0:
228,136,139201,1,8,0:0:0:0:
228,136,139382,1,0,0:0:0:0:
307,152,139564,1,0,0:0:0:0:
307,152,139655,1,0,0:0:0:0:
311,162,139746,1,8,0:0:0:0:
248,195,139837,1,8,0:0:0:0:
311,162,139928,1,0,0:0:0:0:
358,282,140291,1,12,0:0:0:0:
349,264,140837,1,4,0:0:0:0:
256,178,141201,1,8,0:0:0:0:
256,178,141382,1,0,0:0:0:0:
208,120,141473,1,0,0:0:0:0:
256,178,141564,1,0,0:0:0:0:
208,120,141746,1,0,0:0:0:0:
208,120,141928,1,8,0:0:0:0:
264,267,142110,1,8,0:0:0:0:
264,267,142201,1,8,0:0:0:0:
196,217,142291,1,0,0:0:0:0:
196,217,142473,1,0,0:0:0:0:
196,217,142655,1,8,0:0:0:0:
297,172,142837,1,0,0:0:0:0:
297,172,142928,1,0,0:0:0:0:
266,140,143019,1,8,0:0:0:0:
208,113,143201,1,0,0:0:0:0:
208,113,143382,1,8,0:0:0:0:
197,116,143473,1,8,0:0:0:0:
191,164,143564,1,0,0:0:0:0:
274,243,143746,1,8,0:0:0:0:
274,243,144110,1,0,0:0:0:0:
376,250,144291,1,8,0:0:0:0:
376,250,144382,1,8,0:0:0:0:
249,106,144473,1,8,0:0:0:0:
385,173,144655,1,8,0:0:0:0:
385,173,144837,1,0,0:0:0:0:
203,173,145019,1,0,0:0:0:0:
279,188,145110,1,0,0:0:0:0:
273,193,145201,1,8,0:0:0:0:
279,188,145382,1,8,0:0:0:0:
202,226,145564,1,0,0:0:0:0:
289,91,145746,1,8,0:0:0:0:
208,109,145837,1,8,0:0:0:0:
200,124,145928,1,0,0:0:0:0:
232,129,146019,1,0,0:0:0:0:
232,129,146110,1,8,0:0:0:0:
232,129,146201,1,8,0:0:0:0:
230,121,146291,1,0,0:0:0:0:
230,121,146473,1,8,0:0:0:0:
281,170,146655,1,4,0:0:0:0:
256,178,147019,1,8,0:0:0:0:
256,178,147201,1,0,0:0:0:0:
208,120,147291,1,0,0:0:0:0:
256,178,147382,1,0,0:0:0:0:
208,120,147564,1,0,0:0:0:0:
208,120,147746,1,8,0:0:0:0:
264,267,147928,1,8,0:0:0:0:
264,267,148019,1,8,0:0:0:0:
196,217,148110,1,0,0:0:0:0:
196,217,148291,1,0,0:0:0:0:
196,217,148473,1,8,0:0:0:0:
297,172,148655,1,0,0:0:0:0:
297,172,148746,1,0,0:0:0:0:
266,140,148837,1,8,0:0:0:0:
208,113,149019,1,0,0:0:0:0:
208,113,149201,1,8,0:0:0:0:
197,116,149291,1,8,0:0:0:0:
191,164,149382,1,0,0:0:0:0:
274,243,149564,1,8,0:0:0:0:
274,243,149928,1,0,0:0:0:0:
376,250,150110,1,8,0:0:0:0:
376,250,150201,1,8,0:0:0:0:
249,106,150291,1,8,0:0:0:0:
385,173,150473,1,8,0:0:0:0:
385,173,150655,1,0,0:0:0:0:
203,173,150837,1,0,0:0:0:0:
279,188,150928,1,0,0:0:0:0:
273,193,151019,1,8,0:0:0:0:
335,283,151201,1,4,0:0:0:0:
335,283,151382,1,4,0:0:0:0:
247,153,151564,1,8,0:0:0:0:
269,136,151655,1,8,0:0:0:0:
247,153,151746,1,0,0:0:0:0:
260,165,151837,1,0,0:0:0:0:
308,120,151928,1,8,0:0:0:0:
265,152,152019,1,8,0:0:0:0:
272,197,152110,1,0,0:0:0:0:
265,152,152291,1,0,0:0:0:0:
269,136,152473,1,12,0:0:0:0:
256,178,152837,1,0,0:0:0:0:
256,178,153019,1,8,0:0:0:0:
208,120,153110,1,8,0:0:0:0:
256,178,153201,1,8,0:0:0:0:
208,120,153382,1,8,0:0:0:0:
208,120,153564,1,0,0:0:0:0:
264,267,153746,1,0,0:0:0:0:
264,267,153837,1,0,0:0:0:0:
196,217,153928,1,8,0:0:0:0:
196,217,154110,1,8,0:0:0:0:
196,217,154291,1,0,0:0:0:0:
297,172,154473,1,8,0:0:0:0:
297,172,154564,1,8,0:0:0:0:
266,140,154655,1,0,0:0:0:0:
208,113,154837,1,8,0:0:0:0:
208,113,155019,1,0,0:0:0:0:
197,116,155110,1,0,0:0:0:0:
191,164,155201,1,8,0:0:0:0:
274,243,155382,1,0,0:0:0:0:
274,243,155746,1,8,0:0:0:0:
376,250,155928,1,0,0:0:0:0:
376,250,156019,1,0,0:0:0:0:
249,106,156110,1,0,0:0:0:0:
385,173,156291,1,0,0:0:0:0:
385,173,156473,1,8,0:0:0:0:
203,173,156655,1,8,0:0:0:0:
279,188,156746,1,8,0:0:0:0:
273,193,156837,1,0,0:0:0:0:
279,188,157019,1,0,0:0:0:0:
202,226,157201,1,8,0:0:0:0:
289,91,157382,1,0,0:0:0:0:
208,109,157473,1,0,0:0:0:0:
200,124,157564,1,8,0:0:0:0:
232,129,157655,1,8,0:0:0:0:
232,129,157746,1,0,0:0:0:0:
232,129,157837,1,0,0:0:0:0:
230,121,157928,1,8,0:0:0:0:
230,121,158110,1,0,0:0:0:0:
281,170,158291,1,12,0:0:0:0:
256,178,158655,1,0,0:0:0:0:
256,178,158837,1,8,0:0:0:0:
208,120,158928,1,8,0:0:0:0:
256,178,159019,1,8,0:0:0:0:
208,120,159201,1,8,0:0:0:0:
208,120,159382,1,0,0:0:0:0:
264,267,159564,1,0,0:0:0:0:
264,267,159655,1,0,0:0:0:0:
196,217,159746,1,8,0:0:0:0:
196,217,159928,1,8,0:0:0:0:
196,217,160110,1,0,0:0:0:0:
297,172,160291,1,8,0:0:0:0:
297,172,160382,1,8,0:0:0:0:
266,140,160473,1,0,0:0:0:0:
208,113,160655,1,8,0:0:0:0:
208,113,160837,1,0,0:0:0:0:
197,116,160928,1,0,0:0:0:0:
191,164,161019,1,8,0:0:0:0:
274,243,161201,1,0,0:0:0:0:
274,243,161564,1,8,0:0:0:0:
376,250,161746,1,0,0:0:0:0:
376,250,161837,1,0,0:0:0:0:
249,106,161928,1,0,0:0:0:0:
385,173,162110,1,0,0:0:0:0:
385,173,162291,1,8,0:0:0:0:
203,173,162473,1,8,0:0:0:0:
279,188,162564,1,8,0:0:0:0:
273,193,162655,1,0,0:0:0:0:
335,283,162837,1,12,0:0:0:0:
335,283,163019,1,12,0:0:0:0:
269,136,163201,1,0,0:0:0:0:
247,153,163291,1,0,0:0:0:0:
247,153,163382,1,8,0:0:0:0:
260,165,163473,1,8,0:0:0:0:
308,120,163564,1,0,0:0:0:0:
265,152,163655,1,0,0:0:0:0:
272,197,163746,1,8,0:0:0:0:
186,164,163928,1,8,0:0:0:0:
269,136,164110,1,4,0:0:0:0:
303,218,164473,1,8,0:0:0:0:
155,253,165201,1,8,0:0:0:0:
155,253,165382,1,0,0:0:0:0:
155,253,165564,1,0,0:0:0:0:
317,107,165928,1,8,0:0:0:0:
317,107,166655,1,8,0:0:0:0:
209,138,167019,1,4,0:0:0:0:
251,253,167382,1,8,0:0:0:0:
251,253,168110,1,8,0:0:0:0:
251,253,168291,1,0,0:0:0:0:
251,253,168473,1,0,0:0:0:0:
259,106,168837,1,8,0:0:0:0:
259,106,169201,1,0,0:0:0:0:
272,127,169382,1,0,0:0:0:0:
272,127,169564,1,8,0:0:0:0:
272,127,169655,1,8,0:0:0:0:
205,205,169746,1,8,0:0:0:0:
76,133,169928,1,4,0:0:0:0:
303,218,170110,1,8,0:0:0:0:
245,171,170201,1,0,0:0:0:0:
265,154,170382,1,0,0:0:0:0:
171,142,170473,1,8,0:0:0:0:
296,192,170655,1,0,0:0:0:0:
244,241,170837,1,8,0:0:0:0:
244,241,171019,1,0,0:0:0:0:
244,241,171201,1,8,0:0:0:0:
225,194,171564,1,0,0:0:0:0:
255,99,171655,1,0,0:0:0:0:
207,135,171746,1,8,0:0:0:0:
216,124,171837,1,8,0:0:0:0:
207,117,171928,1,0,0:0:0:0:
207,117,172110,1,8,0:0:0:0:
207,117,172291,1,8,0:0:0:0:
316,212,172473,1,0,0:0:0:0:
316,212,172655,1,0,0:0:0:0:
330,199,172837,1,8,0:0:0:0:
259,224,173019,1,0,0:0:0:0:
259,248,173110,1,8,0:0:0:0:
211,113,173291,1,8,0:0:0:0:
242,104,173382,1,0,0:0:0:0:
288,121,173564,1,8,0:0:0:0:
288,121,173746,1,8,0:0:0:0:
288,121,173928,1,0,0:0:0:0:
404,192,174291,1,8,0:0:0:0:
404,192,174473,1,0,0:0:0:0:
254,125,174564,1,8,0:0:0:0:
272,159,174746,1,0,0:0:0:0:
227,103,174837,1,8,0:0:0:0:
227,138,175019,1,0,0:0:0:0:
370,231,175110,1,8,0:0:0:0:
283,189,175291,1,0,0:0:0:0:
321,178,175382,1,8,0:0:0:0:
288,177,175473,1,0,0:0:0:0:
164,80,175564,1,8,0:0:0:0:
255,218,175746,1,4,0:0:0:0:
454,282,176110,1,8,0:0:0:0:
454,282,176473,1,0,0:0:0:0:
454,282,176655,1,0,0:0:0:0:
454,282,176837,1,8,0:0:0:0:
454,282,177201,1,0,0:0:0:0:
454,282,177564,1,0,0:0:0:0:
454,282,177928,1,8,0:0:0:0:
454,282,178110,1,8,0:0:0:0:
454,282,178291,1,0,0:0:0:0:
454,282,178655,1,8,0:0:0:0:
454,282,179019,1,0,0:0:0:0:
230,163,179201,1,0,0:0:0:0:
230,163,179382,1,8,0:0:0:0:
230,163,179564,1,8,0:0:0:0:
221,144,179746,1,0,0:0:0:0:
225,133,180110,1,8,0:0:0:0:
252,123,180291,1,0,0:0:0:0:
252,123,180473,1,8,0:0:0:0:
252,123,180655,1,8,0:0:0:0:
252,123,180837,1,0,0:0:0:0:
252,123,181019,1,12,0:0:0:0:
252,123,181201,1,12,0:0:0:0:
331,249,181564,1,4,0:0:0:0:
454,282,181928,1,8,0:0:0:0:
454,282,182291,1,0,0:0:0:0:
454,282,182473,1,0,0:0:0:0:
454,282,182655,1,8,0:0:0:0:
454,282,183019,1,0,0:0:0:0:
454,282,183382,1,0,0:0:0:0:
454,282,183746,1,8,0:0:0:0:
454,282,183928,1,8,0:0:0:0:
454,282,184110,1,0,0:0:0:0:
454,282,184473,1,8,0:0:0:0:
454,282,184837,1,0,0:0:0:0:
230,163,185019,1,0,0:0:0:0:
230,163,185201,1,8,0:0:0:0:
230,163,185382,1,8,0:0:0:0:
221,144,185564,1,0,0:0:0:0:
280,209,185928,1,12,0:0:0:0:
280,209,186473,1,12,0:0:0:0:
317,179,186837,1,0,0:0:0:0:
270,179,187019,1,8,0:0:0:0:
270,179,187110,1,8,0:0:0:0:
244,159,187201,1,8,0:0:0:0:
265,103,187382,1,4,0:0:0:0:
341,184,187746,1,8,0:0:0:0:
341,184,187928,1,0,0:0:0:0:
341,184,188019,1,0,0:0:0:0:
213,99,188110,1,0,0:0:0:0:
219,105,188291,1,0,0:0:0:0:
219,105,188473,1,8,0:0:0:0:
321,170,188837,1,0,0:0:0:0:
321,170,189019,1,0,0:0:0:0:
321,170,189201,1,8,0:0:0:0:
321,170,189382,1,8,0:0:0:0:
256,177,189473,1,8,0:0:0:0:
245,191,189564,1,0,0:0:0:0:
245,192,189746,1,0,0:0:0:0:
245,192,189928,1,8,0:0:0:0:
219,112,190110,1,8,0:0:0:0:
219,112,190291,1,0,0:0:0:0:
242,135,190655,1,8,0:0:0:0:
242,135,190837,1,0,0:0:0:0:
333,135,190928,1,0,0:0:0:0:
279,117,191019,1,8,0:0:0:0:
284,127,191201,1,0,0:0:0:0:
284,127,191382,1,8,0:0:0:0:
265,124,191746,1,0,0:0:0:0:
220,178,191928,1,0,0:0:0:0:
265,125,192110,1,8,0:0:0:0:
226,213,192291,1,0,0:0:0:0:
225,168,192382,1,8,0:0:0:0:
212,147,192473,1,0,0:0:0:0:
239,146,192655,1,12,0:0:0:0:
239,146,192837,1,12,0:0:0:0:
255,218,193201,1,4,0:0:0:0:
341,184,193564,1,8,0:0:0:0:
341,184,193746,1,0,0:0:0:0:
341,184,193837,1,0,0:0:0:0:
213,99,193928,1,0,0:0:0:0:
219,105,194110,1,0,0:0:0:0:
219,105,194291,1,8,0:0:0:0:
321,170,194655,1,0,0:0:0:0:
321,170,194837,1,0,0:0:0:0:
321,170,195019,1,8,0:0:0:0:
321,170,195201,1,8,0:0:0:0:
256,177,195291,1,8,0:0:0:0:
245,191,195382,1,0,0:0:0:0:
245,192,195564,1,0,0:0:0:0:
245,192,195746,1,8,0:0:0:0:
219,112,195928,1,8,0:0:0:0:
219,112,196110,1,0,0:0:0:0:
242,135,196473,1,8,0:0:0:0:
242,135,196655,1,0,0:0:0:0:
333,135,196746,1,0,0:0:0:0:
279,117,196837,1,8,0:0:0:0:
284,127,197019,1,0,0:0:0:0:
284,127,197201,1,8,0:0:0:0:
265,124,197564,1,0,0:0:0:0:
207,224,197746,1,8,0:0:0:0:
208,106,197837,1,0,0:0:0:0:
208,106,198019,1,8,0:0:0:0:
208,145,198110,1,0,0:0:0:0:
319,178,198291,1,8,0:0:0:0:
311,123,198382,1,8,0:0:0:0:
221,121,198473,1,0,0:0:0:0:
205,82,198564,1,0,0:0:0:0:
208,81,198655,1,8,0:0:0:0:
183,264,198837,1,8,0:0:0:0:
273,203,199019,1,4,0:0:0:0:
303,242,199382,1,8,0:0:0:0:
303,242,200110,1,8,0:0:0:0:
268,99,200473,1,0,0:0:0:0:
268,99,200837,1,8,0:0:0:0:
268,99,201201,1,0,0:0:0:0:
268,99,201382,1,0,0:0:0:0:
268,99,201564,1,8,0:0:0:0:
268,99,201928,1,0,0:0:0:0:
341,255,202291,1,8,0:0:0:0:
341,255,202473,1,0,0:0:0:0:
341,255,202837,1,8,0:0:0:0:
266,169,203201,1,8,0:0:0:0:
266,169,203564,1,0,0:0:0:0:
266,169,203928,1,0,0:0:0:0:
294,202,204291,1,8,0:0:0:0:
245,198,204473,1,0,0:0:0:0:
245,198,204655,1,0,0:0:0:0:
185,137,204837,1,12,0:0:0:0:
315,134,205201,1,0,0:0:0:0:
315,134,205382,1,8,0:0:0:0:
254,88,205473,1,8,0:0:0:0:
240,157,205564,1,0,0:0:0:0:
240,157,205746,1,8,0:0:0:0:
240,157,205928,1,0,0:0:0:0:
209,166,206019,1,0,0:0:0:0:
189,154,206110,1,8,0:0:0:0:
245,125,206291,1,4,0:0:0:0:
305,137,206655,1,8,0:0:0:0:
305,137,206837,1,0,0:0:0:0:
305,137,206928,1,0,0:0:0:0:
237,167,207019,1,8,0:0:0:0:
237,167,207201,1,0,0:0:0:0:
237,167,207382,1,8,0:0:0:0:
224,129,207473,1,8,0:0:0:0:
253,157,207564,1,0,0:0:0:0:
325,183,207746,1,12,0:0:0:0:
326,109,208110,1,0,0:0:0:0:
326,109,208291,1,8,0:0:0:0:
317,156,208382,1,8,0:0:0:0:
255,82,208473,1,0,0:0:0:0:
255,82,208655,1,8,0:0:0:0:
254,120,208837,1,0,0:0:0:0:
93,155,208928,1,0,0:0:0:0:
228,136,209019,1,8,0:0:0:0:
228,136,209201,1,0,0:0:0:0:
307,152,209382,1,0,0:0:0:0:
307,152,209473,1,0,0:0:0:0:
311,162,209564,1,8,0:0:0:0:
248,195,209655,1,8,0:0:0:0:
311,162,209746,1,0,0:0:0:0:
358,282,210110,1,12,0:0:0:0:
349,264,213564,1,4,0:0:0:0:
256,178,213928,1,8,0:0:0:0:
256,178,214110,1,0,0:0:0:0:
208,120,214201,1,0,0:0:0:0:
256,178,214291,1,0,0:0:0:0:
208,120,214473,1,0,0:0:0:0:
208,120,214655,1,8,0:0:0:0:
264,267,214837,1,8,0:0:0:0:
264,267,214928,1,8,0:0:0:0:
196,217,215019,1,0,0:0:0:0:
196,217,215201,1,0,0:0:0:0:
196,217,215382,1,8,0:0:0:0:
297,172,215564,1,0,0:0:0:0:
297,172,215655,1,0,0:0:0:0:
266,140,215746,1,8,0:0:0:0:
208,113,215928,1,0,0:0:0:0:
208,113,216110,1,8,0:0:0:0:
197,116,216201,1,8,0:0:0:0:
191,164,216291,1,0,0:0:0:0:
274,243,216473,1,8,0:0:0:0:
274,243,216837,1,0,0:0:0:0:
376,250,217019,1,8,0:0:0:0:
376,250,217110,1,8,0:0:0:0:
249,106,217201,1,8,0:0:0:0:
385,173,217382,1,8,0:0:0:0:
385,173,217564,1,0,0:0:0:0:
203,173,217746,1,0,0:0:0:0:
279,188,217837,1,0,0:0:0:0:
273,193,217928,1,8,0:0:0:0:
279,188,218110,1,8,0:0:0:0:
202,226,218291,1,0,0:0:0:0:
289,91,218473,1,8,0:0:0:0:
208,109,218564,1,8,0:0:0:0:
200,124,218655,1,0,0:0:0:0:
232,129,218746,1,0,0:0:0:0:
232,129,218837,1,8,0:0:0:0:
232,129,218928,1,8,0:0:0:0:
230,121,219019,1,0,0:0:0:0:
230,121,219201,1,8,0:0:0:0:
281,170,219382,1,4,0:0:0:0:
256,178,219746,1,8,0:0:0:0:
256,178,219928,1,0,0:0:0:0:
208,120,220019,1,0,0:0:0:0:
256,178,220110,1,0,0:0:0:0:
208,120,220291,1,0,0:0:0:0:
208,120,220473,1,8,0:0:0:0:
264,267,220655,1,8,0:0:0:0:
264,267,220746,1,8,0:0:0:0:
196,217,220837,1,0,0:0:0:0:
196,217,221019,1,0,0:0:0:0:
196,217,221201,1,8,0:0:0:0:
297,172,221382,1,0,0:0:0:0:
297,172,221473,1,0,0:0:0:0:
266,140,221564,1,8,0:0:0:0:
208,113,221746,1,0,0:0:0:0:
208,113,221928,1,8,0:0:0:0:
197,116,222019,1,8,0:0:0:0:
191,164,222110,1,0,0:0:0:0:
274,243,222291,1,8,0:0:0:0:
274,243,222655,1,0,0:0:0:0:
376,250,222837,1,8,0:0:0:0:
376,250,222928,1,8,0:0:0:0:
249,106,223019,1,8,0:0:0:0:
385,173,223201,1,8,0:0:0:0:
385,173,223382,1,0,0:0:0:0:
203,173,223564,1,0,0:0:0:0:
279,188,223655,1,0,0:0:0:0:
273,193,223746,1,8,0:0:0:0:
335,283,223928,1,4,0:0:0:0:
335,283,224110,1,4,0:0:0:0:
247,153,224291,1,8,0:0:0:0:
269,136,224382,1,8,0:0:0:0:
247,153,224473,1,0,0:0:0:0:
260,165,224564,1,0,0:0:0:0:
308,120,224655,1,8,0:0:0:0:
265,152,224746,1,8,0:0:0:0:
272,197,224837,1,0,0:0:0:0:
265,152,225019,1,0,0:0:0:0:
269,136,225201,1,12,0:0:0:0:
256,178,225564,1,0,0:0:0:0:
256,178,225746,1,8,0:0:0:0:
208,120,225837,1,8,0:0:0:0:
256,178,225928,1,8,0:0:0:0:
208,120,226110,1,8,0:0:0:0:
208,120,226291,1,0,0:0:0:0:
264,267,226473,1,0,0:0:0:0:
264,267,226564,1,0,0:0:0:0:
196,217,226655,1,8,0:0:0:0:
196,217,226837,1,8,0:0:0:0:
196,217,227019,1,0,0:0:0:0:
297,172,227201,1,8,0:0:0:0:
297,172,227291,1,8,0:0:0:0:
266,140,227382,1,0,0:0:0:0:
208,113,227564,1,8,0:0:0:0:
208,113,227746,1,0,0:0:0:0:
197,116,227837,1,0,0:0:0:0:
191,164,227928,1,8,0:0:0:0:
274,243,228110,1,0,0:0:0:0:
274,243,228473,1,8,0:0:0:0:
376,250,228655,1,0,0:0:0:0:
376,250,228746,1,0,0:0:0:0:
249,106,228837,1,0,0:0:0:0:
385,173,229019,1,0,0:0:0:0:
385,173,229201,1,8,0:0:0:0:
203,173,229382,1,8,0:0:0:0:
279,188,229473,1,8,0:0:0:0:
273,193,229564,1,0,0:0:0:0:
279,188,229746,1,0,0:0:0:0:
202,226,229928,1,8,0:0:0:0:
289,91,230110,1,0,0:0:0:0:
208,109,230201,1,0,0:0:0:0:
200,124,230291,1,8,0:0:0:0:
232,129,230382,1,8,0:0:0:0:
232,129,230473,1,0,0:0:0:0:
232,129,230564,1,0,0:0:0:0:
230,121,230655,1,8,0:0:0:0:
230,121,230837,1,0,0:0:0:0:
281,170,231019,1,12,0:0:0:0:
256,178,231382,1,0,0:0:0:0:
256,178,231564,1,8,0:0:0:0:
208,120,231655,1,8,0:0:0:0:
256,178,231746,1,8,0:0:0:0:
208,120,231928,1,8,0:0:0:0:
208,120,232110,1,0,0:0:0:0:
264,267,232291,1,0,0:0:0:0:
264,267,232382,1,0,0:0:0:0:
196,217,232473,1,8,0:0:0:0:
196,217,232655,1,8,0:0:0:0:
196,217,232837,1,0,0:0:0:0:
297,172,233019,1,8,0:0:0:0:
297,172,233110,1,8,0:0:0:0:
266,140,233201,1,0,0:0:0:0:
208,113,233382,1,8,0:0:0:0:
208,113,233564,1,0,0:0:0:0:
197,116,233655,1,0,0:0:0:0:
191,164,233746,1,8,0:0:0:0:
274,243,233928,1,0,0:0:0:0:
274,243,234291,1,8,0:0:0:0:
376,250,234473,1,0,0:0:0:0:
376,250,234564,1,0,0:0:0:0:
249,106,234655,1,0,0:0:0:0:
385,173,234837,1,0,0:0:0:0:
385,173,235019,1,8,0:0:0:0:
203,173,235201,1,8,0:0:0:0:
279,188,235291,1,8,0:0:0:0:
273,193,235382,1,0,0:0:0:0:
335,283,235564,1,12,0:0:0:0:
335,283,235746,1,12,0:0:0:0:
269,136,235928,1,0,0:0:0:0:
247,153,236019,1,0,0:0:0:0:
260,165,236110,1,8,0:0:0:0:
308,120,236201,1,8,0:0:0:0:
265,152,236291,1,0,0:0:0:0:
272,197,236382,1,0,0:0:0:0:
186,164,236473,1,8,0:0:0:0:
186,164,236655,1,8,0:0:0:0:
269,136,236837,1,4,0:0:0:0:
303,218,237019,1,8,0:0:0:0:
245,171,237110,1,0,0:0:0:0:
265,154,237291,1,0,0:0:0:0:
171,142,237382,1,8,0:0:0:0:
296,192,237564,1,0,0:0:0:0:
244,241,237746,1,8,0:0:0:0:
244,241,237928,1,0,0:0:0:0:
244,241,238110,1,8,0:0:0:0:
225,194,238473,1,0,0:0:0:0:
255,99,238564,1,0,0:0:0:0:
207,135,238655,1,8,0:0:0:0:
216,124,238746,1,8,0:0:0:0:
207,117,238837,1,0,0:0:0:0:
207,117,239019,1,8,0:0:0:0:
207,117,239201,1,8,0:0:0:0:
316,212,239382,1,0,0:0:0:0:
316,212,239564,1,0,0:0:0:0:
330,199,239746,1,8,0:0:0:0:
259,224,239928,1,0,0:0:0:0:
259,248,240019,1,8,0:0:0:0:
211,113,240201,1,8,0:0:0:0:
242,104,240291,1,0,0:0:0:0:
288,121,240473,1,8,0:0:0:0:
288,121,240655,1,8,0:0:0:0:
288,121,240837,1,0,0:0:0:0:
288,121,241019,1,8,0:0:0:0:
278,141,241382,1,0,0:0:0:0:
236,188,241564,1,8,0:0:0:0:
233,173,241655,1,8,0:0:0:0:
248,253,241746,1,0,0:0:0:0:
245,246,241837,1,0,0:0:0:0:
212,212,241928,1,8,0:0:0:0:
340,228,242110,1,0,0:0:0:0:
272,185,242291,1,8,0:0:0:0:
272,185,242382,1,8,0:0:0:0:
224,146,242473,1,8,0:0:0:0:
224,83,242655,1,4,0:0:0:0:
303,218,242837,1,8,0:0:0:0:
245,171,242928,1,0,0:0:0:0:
265,154,243110,1,0,0:0:0:0:
171,142,243201,1,8,0:0:0:0:
296,192,243382,1,0,0:0:0:0:
244,241,243564,1,8,0:0:0:0:
244,241,243746,1,0,0:0:0:0:
244,241,243928,1,8,0:0:0:0:
225,194,244291,1,0,0:0:0:0:
255,99,244382,1,0,0:0:0:0:
207,135,244473,1,8,0:0:0:0:
216,124,244564,1,8,0:0:0:0:
207,117,244655,1,0,0:0:0:0:
207,117,244837,1,8,0:0:0:0:
207,117,245019,1,8,0:0:0:0:
316,212,245201,1,0,0:0:0:0:
316,212,245382,1,0,0:0:0:0:
330,199,245564,1,8,0:0:0:0:
259,224,245746,1,0,0:0:0:0:
259,248,245837,1,8,0:0:0:0:
211,113,246019,1,8,0:0:0:0:
242,104,246110,1,0,0:0:0:0:
288,121,246291,1,8,0:0:0:0:
288,121,246473,1,8,0:0:0:0:
288,121,246655,1,0,0:0:0:0:
404,192,247019,1,8,0:0:0:0:
404,192,247201,1,0,0:0:0:0:
254,125,247291,1,8,0:0:0:0:
272,159,247473,1,0,0:0:0:0:
227,103,247564,1,8,0:0:0:0:
145,157,247746,1,4,0:0:0:0:
189,178,247928,1,8,0:0:0:0:
189,178,248019,1,0,0:0:0:0:
189,178,248201,1,8,0:0:0:0:
189,178,248291,1,0,0:0:0:0:
189,178,248473,1,12,0:0:0:0:
279,255,248655,1,0,0:0:0:0:
266,217,248746,1,8,0:0:0:0:
259,201,248928,1,0,0:0:0:0:
251,198,249019,1,8,0:0:0:0:
285,225,249201,1,0,0:0:0:0:
285,225,249382,1,8,0:0:0:0:
200,140,249473,1,8,0:0:0:0:
200,140,249564,1,0,0:0:0:0:
200,140,249655,1,0,0:0:0:0:
200,140,249746,1,8,0:0:0:0:
200,140,249928,1,4,0:0:0:0:
