osu file format v14

[General]
AudioFilename: audio.mp3
AudioLeadIn: 0
PreviewTime: 71019
Countdown: 0
SampleSet: Normal
StackLeniency: 0.7
Mode: 1
LetterboxInBreaks: 0
WidescreenStoryboard: 1

[Editor]
DistanceSpacing: 0.8
BeatDivisor: 4
GridSize: 32
TimelineZoom: 1.4

[Metadata]
Title:Wanna Be My Dream
TitleUnicode:Wanna Be My Dream
Artist:A-One
ArtistUnicode:A-One
Creator:Chromoxx
Version:Muzukashii
Source:東方永夜抄 ~ Imperishable Night.
Tags:Mappers' Guild Featured Artist FA Electronic Video Game Japanese J-Core J Core Reimu Hakurei 東方Project Touhou ZUN 太田順也 Oota Junya 少女綺想曲 ~ Dream Battle Maiden's Capriccio ELEMENTAS Shihori あき Aki しほり FN2 博麗霊夢 Eiyashou Eternal Night Vignette 永夜抄 TOHO EUROBEAT presents THE REVIVAL MIX
BeatmapID:3789979
BeatmapSetID:1840481

[Difficulty]
HPDrainRate:6
CircleSize:5
OverallDifficulty:5
ApproachRate:5
SliderMultiplier:1.4
SliderTickRate:1

[Events]
//Background and Video events
0,0,"47657345_p0.jpg",0,0
//Break Periods
//Storyboard Layer 0 (Background)
//Storyboard Layer 1 (Fail)
//Storyboard Layer 2 (Pass)
//Storyboard Layer 3 (Foreground)
//Storyboard Layer 4 (Overlay)
//Storyboard Sound Samples

[TimingPoints]
1201,363.636363636364,4,1,0,100,1,0
71019,-100,4,1,0,100,0,1
94291,-100,4,1,0,100,0,0
106110,-100,4,1,0,100,0,0
108837,-100,4,1,0,100,0,0
140837,-100,4,1,0,100,0,1
164110,-100,4,1,0,100,0,0
213564,-100,4,1,0,100,0,1
236837,-100,4,1,0,100,0,0

[HitObjects]
306,173,24473,5,12,0:0:0:0:
306,173,24746,1,8,0:0:0:0:
320,134,25019,1,0,0:0:0:0:
320,134,25201,1,8,0:0:0:0:
320,134,25382,1,8,0:0:0:0:
320,134,25564,1,0,0:0:0:0:
320,134,25746,1,8,0:0:0:0:
265,150,26110,1,0,0:0:0:0:
265,150,26291,1,8,0:0:0:0:
191,56,26382,1,8,0:0:0:0:
265,150,26473,1,8,0:0:0:0:
247,122,26655,1,0,0:0:0:0:
247,122,26837,1,8,0:0:0:0:
247,122,27019,1,0,0:0:0:0:
255,139,27382,1,8,0:0:0:0:
274,288,27655,1,0,0:0:0:0:
274,288,27928,1,8,0:0:0:0:
274,288,28110,1,0,0:0:0:0:
366,272,28291,1,8,0:0:0:0:
219,203,28473,1,0,0:0:0:0:
173,86,28655,1,8,0:0:0:0:
353,162,29019,1,8,0:0:0:0:
353,162,29201,1,0,0:0:0:0:
290,182,29291,1,0,0:0:0:0:
290,182,29382,1,0,0:0:0:0:
332,191,29564,1,8,0:0:0:0:
173,169,30291,1,4,0:0:0:0:
277,173,30564,1,0,0:0:0:0:
250,96,30837,1,8,0:0:0:0:
250,96,31019,1,0,0:0:0:0:
250,96,31201,1,0,0:0:0:0:
296,106,31382,1,8,0:0:0:0:
296,106,31564,1,0,0:0:0:0:
332,212,31928,1,8,0:0:0:0:
332,212,32110,1,0,0:0:0:0:
332,212,32201,1,0,0:0:0:0:
218,110,32291,1,0,0:0:0:0:
218,110,32473,1,8,0:0:0:0:
261,263,32655,1,0,0:0:0:0:
261,263,32837,1,8,0:0:0:0:
261,263,33201,1,0,0:0:0:0:
288,202,33473,1,8,0:0:0:0:
267,198,33746,1,0,0:0:0:0:
267,198,33928,1,8,0:0:0:0:
267,198,34110,1,0,0:0:0:0:
267,198,34291,1,8,0:0:0:0:
267,198,34473,1,0,0:0:0:0:
256,192,34655,12,0,35928,0:0:0:0:
168,205,36110,5,4,0:0:0:0:
242,257,36473,1,8,0:0:0:0:
242,257,36837,1,0,0:0:0:0:
242,257,37201,1,8,0:0:0:0:
242,257,37382,1,0,0:0:0:0:
242,257,37746,1,0,0:0:0:0:
242,257,37928,1,8,0:0:0:0:
232,188,38291,1,0,0:0:0:0:
232,188,38473,1,0,0:0:0:0:
232,188,38655,1,8,0:0:0:0:
232,188,38837,1,8,0:0:0:0:
232,188,39019,1,0,0:0:0:0:
232,188,39382,1,8,0:0:0:0:
140,165,39746,1,0,0:0:0:0:
272,200,40110,1,8,0:0:0:0:
283,162,40291,1,8,0:0:0:0:
280,193,40473,1,0,0:0:0:0:
280,193,40837,1,8,0:0:0:0:
380,318,41019,1,8,0:0:0:0:
380,318,41201,1,0,0:0:0:0:
239,212,41382,1,12,0:0:0:0:
239,212,41564,1,12,0:0:0:0:
212,156,41928,1,4,0:0:0:0:
242,257,42291,1,8,0:0:0:0:
242,257,42655,1,0,0:0:0:0:
242,257,43019,1,8,0:0:0:0:
242,257,43201,1,0,0:0:0:0:
242,257,43564,1,0,0:0:0:0:
242,257,43746,1,8,0:0:0:0:
384,195,43928,1,8,0:0:0:0:
232,188,44110,1,0,0:0:0:0:
232,188,44291,1,0,0:0:0:0:
232,188,44473,1,8,0:0:0:0:
232,188,44655,1,8,0:0:0:0:
232,188,44837,1,0,0:0:0:0:
232,188,45201,1,8,0:0:0:0:
140,165,45564,1,0,0:0:0:0:
272,200,45928,1,8,0:0:0:0:
283,162,46110,1,8,0:0:0:0:
280,193,46291,1,0,0:0:0:0:
251,193,46564,1,8,0:0:0:0:
234,107,46837,1,0,0:0:0:0:
234,107,47019,1,8,0:0:0:0:
231,141,47110,1,8,0:0:0:0:
231,141,47201,1,8,0:0:0:0:
207,167,47382,1,0,0:0:0:0:
263,216,47746,1,12,0:0:0:0:
242,257,48110,1,0,0:0:0:0:
242,257,48473,1,8,0:0:0:0:
242,257,48837,1,0,0:0:0:0:
242,257,49019,1,8,0:0:0:0:
242,257,49382,1,8,0:0:0:0:
242,257,49564,1,0,0:0:0:0:
232,188,49928,1,8,0:0:0:0:
232,188,50110,1,8,0:0:0:0:
232,188,50291,1,0,0:0:0:0:
232,188,50473,1,0,0:0:0:0:
232,188,50655,1,8,0:0:0:0:
232,188,51019,1,0,0:0:0:0:
140,165,51382,1,8,0:0:0:0:
272,200,51746,1,0,0:0:0:0:
283,162,51928,1,0,0:0:0:0:
280,193,52110,1,8,0:0:0:0:
280,193,52473,1,0,0:0:0:0:
380,318,52655,1,0,0:0:0:0:
380,318,52837,1,8,0:0:0:0:
239,212,53019,1,4,0:0:0:0:
239,212,53201,1,4,0:0:0:0:
212,156,53564,1,12,0:0:0:0:
242,257,53928,1,0,0:0:0:0:
242,257,54291,1,8,0:0:0:0:
242,257,54655,1,0,0:0:0:0:
242,257,54837,1,8,0:0:0:0:
242,257,55201,1,8,0:0:0:0:
242,257,55382,1,0,0:0:0:0:
232,188,55746,1,8,0:0:0:0:
232,188,55928,1,8,0:0:0:0:
232,188,56110,1,0,0:0:0:0:
232,188,56291,1,0,0:0:0:0:
232,188,56473,1,8,0:0:0:0:
232,188,56837,1,0,0:0:0:0:
140,165,57201,1,8,0:0:0:0:
272,200,57382,1,8,0:0:0:0:
283,162,57746,1,0,0:0:0:0:
280,193,57928,1,8,0:0:0:0:
251,193,58201,1,0,0:0:0:0:
234,107,58473,1,8,0:0:0:0:
234,107,58655,1,0,0:0:0:0:
231,141,58746,1,0,0:0:0:0:
231,141,58837,1,0,0:0:0:0:
207,167,59019,1,8,0:0:0:0:
131,203,59382,1,4,0:0:0:0:
310,215,59746,1,8,0:0:0:0:
310,215,59928,1,0,0:0:0:0:
310,215,60291,1,0,0:0:0:0:
310,215,60655,1,8,0:0:0:0:
255,213,61019,1,0,0:0:0:0:
219,96,61201,1,8,0:0:0:0:
219,96,61382,1,8,0:0:0:0:
219,96,61564,1,0,0:0:0:0:
224,99,61928,1,8,0:0:0:0:
224,99,62110,1,0,0:0:0:0:
224,99,62291,1,8,0:0:0:0:
217,167,62655,1,8,0:0:0:0:
217,167,62837,1,0,0:0:0:0:
217,167,63201,1,8,0:0:0:0:
217,167,63564,1,0,0:0:0:0:
408,264,63928,1,0,0:0:0:0:
408,264,64110,1,8,0:0:0:0:
277,168,64291,1,8,0:0:0:0:
229,119,64473,1,0,0:0:0:0:
229,119,64564,1,0,0:0:0:0:
229,119,64655,1,0,0:0:0:0:
265,210,64837,1,8,0:0:0:0:
303,236,65201,1,4,0:0:0:0:
192,222,65564,1,8,0:0:0:0:
192,222,65746,1,0,0:0:0:0:
266,103,65928,1,8,0:0:0:0:
192,222,66110,1,8,0:0:0:0:
266,103,66291,1,0,0:0:0:0:
300,194,66655,1,12,0:0:0:0:
300,194,67019,1,0,0:0:0:0:
300,194,67201,1,8,0:0:0:0:
300,194,67382,1,0,0:0:0:0:
300,194,67564,1,0,0:0:0:0:
300,194,67746,1,8,0:0:0:0:
252,201,68110,1,4,0:0:0:0:
283,150,68473,1,8,0:0:0:0:
283,150,68655,1,8,0:0:0:0:
283,150,68837,1,0,0:0:0:0:
283,150,69019,1,0,0:0:0:0:
283,150,69201,1,8,0:0:0:0:
208,151,69564,1,0,0:0:0:0:
199,146,69655,1,0,0:0:0:0:
208,151,69746,1,0,0:0:0:0:
302,201,69928,1,8,0:0:0:0:
302,201,70110,1,0,0:0:0:0:
326,179,70473,1,12,0:0:0:0:
256,256,71019,1,4,0:0:0:0:
239,153,71382,1,8,0:0:0:0:
239,153,71564,1,0,0:0:0:0:
239,153,71928,1,8,0:0:0:0:
239,153,72291,1,0,0:0:0:0:
239,153,72655,1,0,0:0:0:0:
239,153,72837,1,8,0:0:0:0:
239,153,73019,1,8,0:0:0:0:
239,153,73201,1,0,0:0:0:0:
239,153,73382,1,0,0:0:0:0:
239,153,73564,1,8,0:0:0:0:
239,153,73746,1,0,0:0:0:0:
239,153,73928,1,8,0:0:0:0:
239,153,74291,1,8,0:0:0:0:
239,153,74473,1,0,0:0:0:0:
239,153,74837,1,0,0:0:0:0:
239,153,75201,1,8,0:0:0:0:
331,197,75564,1,8,0:0:0:0:
340,191,75746,1,0,0:0:0:0:
248,239,75928,1,0,0:0:0:0:
248,239,76110,1,8,0:0:0:0:
248,239,76291,1,0,0:0:0:0:
248,239,76473,1,8,0:0:0:0:
248,239,76564,1,8,0:0:0:0:
160,181,76655,1,8,0:0:0:0:
248,239,76837,1,0,0:0:0:0:
224,84,77201,1,8,0:0:0:0:
224,84,77382,1,0,0:0:0:0:
224,84,77746,1,8,0:0:0:0:
278,157,78110,1,0,0:0:0:0:
278,157,78473,1,0,0:0:0:0:
278,157,78655,1,8,0:0:0:0:
278,157,78837,1,8,0:0:0:0:
271,117,79019,1,0,0:0:0:0:
271,117,79201,1,0,0:0:0:0:
271,117,79382,1,8,0:0:0:0:
271,117,79564,1,8,0:0:0:0:
271,117,79746,1,0,0:0:0:0:
254,219,80110,1,8,0:0:0:0:
361,189,80291,1,0,0:0:0:0:
176,237,80655,1,0,0:0:0:0:
176,237,80837,1,8,0:0:0:0:
310,89,81019,1,0,0:0:0:0:
310,89,81382,1,12,0:0:0:0:
310,89,81564,1,12,0:0:0:0:
225,178,81928,1,0,0:0:0:0:
223,147,82110,1,8,0:0:0:0:
223,147,82291,1,0,0:0:0:0:
198,93,82382,1,0,0:0:0:0:
198,93,82473,1,0,0:0:0:0:
215,81,82655,1,12,0:0:0:0:
239,153,83019,1,0,0:0:0:0:
239,153,83201,1,8,0:0:0:0:
239,153,83564,1,0,0:0:0:0:
239,153,83928,1,8,0:0:0:0:
239,153,84291,1,8,0:0:0:0:
239,153,84473,1,0,0:0:0:0:
239,153,84655,1,0,0:0:0:0:
239,153,84837,1,8,0:0:0:0:
239,153,85019,1,8,0:0:0:0:
239,153,85201,1,0,0:0:0:0:
239,153,85382,1,8,0:0:0:0:
239,153,85564,1,0,0:0:0:0:
239,153,85928,1,0,0:0:0:0:
239,153,86110,1,8,0:0:0:0:
239,153,86473,1,8,0:0:0:0:
239,153,86837,1,0,0:0:0:0:
331,197,87201,1,0,0:0:0:0:
340,191,87382,1,8,0:0:0:0:
248,239,87564,1,8,0:0:0:0:
248,239,87746,1,0,0:0:0:0:
248,239,87928,1,8,0:0:0:0:
248,239,88110,1,0,0:0:0:0:
248,239,88201,1,0,0:0:0:0:
160,181,88291,1,0,0:0:0:0:
248,239,88473,1,8,0:0:0:0:
224,84,88837,1,0,0:0:0:0:
224,84,89019,1,8,0:0:0:0:
224,84,89382,1,0,0:0:0:0:
278,157,89746,1,8,0:0:0:0:
278,157,90110,1,8,0:0:0:0:
278,157,90291,1,0,0:0:0:0:
278,157,90473,1,0,0:0:0:0:
271,117,90655,1,8,0:0:0:0:
271,117,90837,1,8,0:0:0:0:
271,117,91019,1,0,0:0:0:0:
271,117,91201,1,0,0:0:0:0:
271,117,91382,1,8,0:0:0:0:
254,219,91746,1,0,0:0:0:0:
361,189,91928,1,8,0:0:0:0:
176,237,92291,1,8,0:0:0:0:
176,237,92473,1,0,0:0:0:0:
310,89,92655,1,8,0:0:0:0:
396,282,92837,1,0,0:0:0:0:
396,282,92928,1,0,0:0:0:0:
30,197,93019,1,0,0:0:0:0:
272,219,93201,1,8,0:0:0:0:
302,228,93291,1,8,0:0:0:0:
267,226,93382,1,8,0:0:0:0:
225,178,93564,1,0,0:0:0:0:
306,173,94291,1,12,0:0:0:0:
306,173,94564,1,8,0:0:0:0:
320,134,94837,1,0,0:0:0:0:
320,134,95019,1,8,0:0:0:0:
320,134,95201,1,8,0:0:0:0:
320,134,95382,1,0,0:0:0:0:
320,134,95564,1,8,0:0:0:0:
265,150,95928,1,0,0:0:0:0:
265,150,96110,1,8,0:0:0:0:
191,56,96201,1,8,0:0:0:0:
265,150,96291,1,8,0:0:0:0:
247,122,96473,1,0,0:0:0:0:
247,122,96655,1,8,0:0:0:0:
247,122,96837,1,0,0:0:0:0:
255,139,97201,1,8,0:0:0:0:
274,288,97473,1,0,0:0:0:0:
274,288,97746,1,8,0:0:0:0:
274,288,97928,1,0,0:0:0:0:
366,272,98110,1,8,0:0:0:0:
219,203,98291,1,0,0:0:0:0:
173,86,98473,1,8,0:0:0:0:
353,162,98837,1,8,0:0:0:0:
353,162,99019,1,0,0:0:0:0:
290,182,99110,1,0,0:0:0:0:
290,182,99201,1,0,0:0:0:0:
332,191,99382,1,8,0:0:0:0:
173,169,100110,1,4,0:0:0:0:
277,173,100382,1,0,0:0:0:0:
250,96,100655,1,8,0:0:0:0:
250,96,100837,1,0,0:0:0:0:
250,96,101019,1,0,0:0:0:0:
296,106,101201,1,8,0:0:0:0:
296,106,101382,1,0,0:0:0:0:
332,212,101746,1,8,0:0:0:0:
332,212,101928,1,0,0:0:0:0:
332,212,102019,1,0,0:0:0:0:
218,110,102110,1,0,0:0:0:0:
218,110,102291,1,8,0:0:0:0:
261,263,102473,1,0,0:0:0:0:
261,263,102655,1,8,0:0:0:0:
261,263,103019,1,0,0:0:0:0:
288,202,103291,1,8,0:0:0:0:
267,198,103564,1,0,0:0:0:0:
267,198,103746,1,8,0:0:0:0:
267,198,103928,1,0,0:0:0:0:
267,198,104110,1,8,0:0:0:0:
267,198,104291,1,0,0:0:0:0:
256,192,104473,12,0,105746,0:0:0:0:
168,205,105928,5,4,0:0:0:0:
333,224,106655,1,8,0:0:0:0:
318,228,107928,1,8,0:0:0:0:
318,228,108110,1,8,0:0:0:0:
464,296,108291,1,0,0:0:0:0:
464,296,108473,1,8,0:0:0:0:
464,296,108564,1,8,0:0:0:0:
394,180,108655,1,8,0:0:0:0:
232,188,108837,1,4,0:0:0:0:
232,188,109201,1,8,0:0:0:0:
140,165,109564,1,0,0:0:0:0:
272,200,109928,1,8,0:0:0:0:
283,162,110110,1,8,0:0:0:0:
280,193,110291,1,0,0:0:0:0:
280,193,110655,1,8,0:0:0:0:
380,318,110837,1,8,0:0:0:0:
380,318,111019,1,0,0:0:0:0:
239,212,111201,1,12,0:0:0:0:
239,212,111382,1,12,0:0:0:0:
212,156,111746,1,4,0:0:0:0:
242,257,112110,1,8,0:0:0:0:
242,257,112473,1,0,0:0:0:0:
242,257,112837,1,8,0:0:0:0:
242,257,113019,1,0,0:0:0:0:
242,257,113382,1,0,0:0:0:0:
242,257,113564,1,8,0:0:0:0:
232,188,113928,1,0,0:0:0:0:
232,188,114110,1,0,0:0:0:0:
232,188,114291,1,8,0:0:0:0:
232,188,114473,1,8,0:0:0:0:
232,188,114655,1,0,0:0:0:0:
232,188,115019,1,8,0:0:0:0:
140,165,115382,1,0,0:0:0:0:
272,200,115746,1,8,0:0:0:0:
283,162,115928,1,8,0:0:0:0:
280,193,116110,1,0,0:0:0:0:
251,193,116382,1,8,0:0:0:0:
234,107,116655,1,0,0:0:0:0:
234,107,116837,1,8,0:0:0:0:
231,141,116928,1,8,0:0:0:0:
231,141,117019,1,8,0:0:0:0:
207,167,117201,1,0,0:0:0:0:
263,216,117564,1,12,0:0:0:0:
242,257,117928,1,0,0:0:0:0:
242,257,118291,1,8,0:0:0:0:
242,257,118655,1,0,0:0:0:0:
242,257,118837,1,8,0:0:0:0:
242,257,119201,1,8,0:0:0:0:
242,257,119382,1,0,0:0:0:0:
232,188,119746,1,8,0:0:0:0:
232,188,119928,1,8,0:0:0:0:
232,188,120110,1,0,0:0:0:0:
232,188,120291,1,0,0:0:0:0:
232,188,120473,1,8,0:0:0:0:
232,188,120837,1,0,0:0:0:0:
140,165,121201,1,8,0:0:0:0:
272,200,121564,1,0,0:0:0:0:
283,162,121746,1,0,0:0:0:0:
280,193,121928,1,8,0:0:0:0:
280,193,122291,1,0,0:0:0:0:
380,318,122473,1,0,0:0:0:0:
380,318,122655,1,8,0:0:0:0:
239,212,122837,1,4,0:0:0:0:
239,212,123019,1,4,0:0:0:0:
212,156,123382,1,12,0:0:0:0:
242,257,123746,1,0,0:0:0:0:
242,257,124110,1,8,0:0:0:0:
242,257,124473,1,0,0:0:0:0:
242,257,124655,1,8,0:0:0:0:
242,257,125019,1,8,0:0:0:0:
242,257,125201,1,0,0:0:0:0:
232,188,125564,1,8,0:0:0:0:
232,188,125746,1,8,0:0:0:0:
232,188,125928,1,0,0:0:0:0:
232,188,126110,1,0,0:0:0:0:
232,188,126291,1,8,0:0:0:0:
232,188,126655,1,0,0:0:0:0:
140,165,127019,1,8,0:0:0:0:
272,200,127201,1,8,0:0:0:0:
283,162,127564,1,0,0:0:0:0:
280,193,127746,1,8,0:0:0:0:
251,193,128019,1,0,0:0:0:0:
234,107,128291,1,8,0:0:0:0:
234,107,128473,1,0,0:0:0:0:
231,141,128564,1,0,0:0:0:0:
231,141,128655,1,0,0:0:0:0:
207,167,128837,1,8,0:0:0:0:
131,203,129201,1,4,0:0:0:0:
310,215,129564,1,8,0:0:0:0:
310,215,129746,1,0,0:0:0:0:
310,215,130110,1,0,0:0:0:0:
310,215,130473,1,8,0:0:0:0:
255,213,130837,1,0,0:0:0:0:
219,96,131019,1,8,0:0:0:0:
219,96,131201,1,8,0:0:0:0:
219,96,131382,1,0,0:0:0:0:
224,99,131746,1,8,0:0:0:0:
224,99,131928,1,0,0:0:0:0:
224,99,132110,1,8,0:0:0:0:
217,167,132473,1,8,0:0:0:0:
217,167,132655,1,0,0:0:0:0:
217,167,133019,1,8,0:0:0:0:
217,167,133382,1,0,0:0:0:0:
408,264,133746,1,0,0:0:0:0:
408,264,133928,1,8,0:0:0:0:
277,168,134110,1,8,0:0:0:0:
229,119,134291,1,0,0:0:0:0:
229,119,134382,1,0,0:0:0:0:
229,119,134473,1,0,0:0:0:0:
265,210,134655,1,8,0:0:0:0:
303,236,135019,1,4,0:0:0:0:
192,222,135382,1,8,0:0:0:0:
192,222,135564,1,0,0:0:0:0:
266,103,135746,1,8,0:0:0:0:
192,222,135928,1,8,0:0:0:0:
266,103,136110,1,0,0:0:0:0:
300,194,136473,1,12,0:0:0:0:
300,194,136837,1,0,0:0:0:0:
300,194,137019,1,8,0:0:0:0:
300,194,137201,1,0,0:0:0:0:
300,194,137382,1,0,0:0:0:0:
300,194,137564,1,8,0:0:0:0:
252,201,137928,1,4,0:0:0:0:
283,150,138291,1,8,0:0:0:0:
283,150,138473,1,8,0:0:0:0:
283,150,138655,1,0,0:0:0:0:
283,150,138837,1,0,0:0:0:0:
283,150,139019,1,8,0:0:0:0:
208,151,139382,1,0,0:0:0:0:
199,146,139473,1,0,0:0:0:0:
208,151,139564,1,0,0:0:0:0:
302,201,139746,1,8,0:0:0:0:
302,201,139928,1,0,0:0:0:0:
326,179,140291,1,12,0:0:0:0:
256,256,140837,1,4,0:0:0:0:
239,153,141201,1,8,0:0:0:0:
239,153,141382,1,0,0:0:0:0:
239,153,141746,1,8,0:0:0:0:
239,153,142110,1,0,0:0:0:0:
239,153,142473,1,0,0:0:0:0:
239,153,142655,1,8,0:0:0:0:
239,153,142837,1,8,0:0:0:0:
239,153,143019,1,0,0:0:0:0:
239,153,143201,1,0,0:0:0:0:
239,153,143382,1,8,0:0:0:0:
239,153,143564,1,0,0:0:0:0:
239,153,143746,1,8,0:0:0:0:
239,153,144110,1,8,0:0:0:0:
239,153,144291,1,0,0:0:0:0:
239,153,144655,1,0,0:0:0:0:
239,153,145019,1,8,0:0:0:0:
331,197,145382,1,8,0:0:0:0:
340,191,145564,1,0,0:0:0:0:
248,239,145746,1,0,0:0:0:0:
248,239,145928,1,8,0:0:0:0:
248,239,146110,1,0,0:0:0:0:
248,239,146291,1,8,0:0:0:0:
248,239,146382,1,8,0:0:0:0:
160,181,146473,1,8,0:0:0:0:
248,239,146655,1,0,0:0:0:0:
224,84,147019,1,8,0:0:0:0:
224,84,147201,1,0,0:0:0:0:
224,84,147564,1,8,0:0:0:0:
278,157,147928,1,0,0:0:0:0:
278,157,148291,1,0,0:0:0:0:
278,157,148473,1,8,0:0:0:0:
278,157,148655,1,8,0:0:0:0:
271,117,148837,1,0,0:0:0:0:
271,117,149019,1,0,0:0:0:0:
271,117,149201,1,8,0:0:0:0:
271,117,149382,1,8,0:0:0:0:
271,117,149564,1,0,0:0:0:0:
254,219,149928,1,8,0:0:0:0:
361,189,150110,1,0,0:0:0:0:
176,237,150473,1,0,0:0:0:0:
176,237,150655,1,8,0:0:0:0:
310,89,150837,1,0,0:0:0:0:
310,89,151201,1,12,0:0:0:0:
310,89,151382,1,12,0:0:0:0:
225,178,151746,1,0,0:0:0:0:
223,147,151928,1,8,0:0:0:0:
223,147,152110,1,0,0:0:0:0:
198,93,152201,1,0,0:0:0:0:
198,93,152291,1,0,0:0:0:0:
215,81,152473,1,12,0:0:0:0:
239,153,152837,1,0,0:0:0:0:
239,153,153019,1,8,0:0:0:0:
239,153,153382,1,0,0:0:0:0:
239,153,153746,1,8,0:0:0:0:
239,153,154110,1,8,0:0:0:0:
239,153,154291,1,0,0:0:0:0:
239,153,154473,1,0,0:0:0:0:
239,153,154655,1,8,0:0:0:0:
239,153,154837,1,8,0:0:0:0:
239,153,155019,1,0,0:0:0:0:
239,153,155201,1,8,0:0:0:0:
239,153,155382,1,0,0:0:0:0:
239,153,155746,1,0,0:0:0:0:
239,153,155928,1,8,0:0:0:0:
239,153,156291,1,8,0:0:0:0:
239,153,156655,1,0,0:0:0:0:
331,197,157019,1,0,0:0:0:0:
340,191,157201,1,8,0:0:0:0:
248,239,157382,1,8,0:0:0:0:
248,239,157564,1,0,0:0:0:0:
248,239,157746,1,8,0:0:0:0:
248,239,157928,1,0,0:0:0:0:
248,239,158019,1,0,0:0:0:0:
160,181,158110,1,0,0:0:0:0:
248,239,158291,1,8,0:0:0:0:
224,84,158655,1,0,0:0:0:0:
224,84,158837,1,8,0:0:0:0:
224,84,159201,1,0,0:0:0:0:
278,157,159564,1,8,0:0:0:0:
278,157,159928,1,8,0:0:0:0:
278,157,160110,1,0,0:0:0:0:
278,157,160291,1,0,0:0:0:0:
271,117,160473,1,8,0:0:0:0:
271,117,160655,1,8,0:0:0:0:
271,117,160837,1,0,0:0:0:0:
271,117,161019,1,0,0:0:0:0:
271,117,161201,1,8,0:0:0:0:
254,219,161564,1,0,0:0:0:0:
361,189,161746,1,8,0:0:0:0:
176,237,162110,1,8,0:0:0:0:
176,237,162291,1,0,0:0:0:0:
310,89,162473,1,8,0:0:0:0:
396,282,162655,1,0,0:0:0:0:
396,282,162746,1,0,0:0:0:0:
30,197,162837,1,0,0:0:0:0:
272,219,163019,1,8,0:0:0:0:
302,228,163110,1,8,0:0:0:0:
267,226,163201,1,8,0:0:0:0:
225,178,163382,1,0,0:0:0:0:
379,259,164110,1,12,0:0:0:0:
365,219,165382,1,0,0:0:0:0:
365,219,165564,1,0,0:0:0:0:
315,193,167019,1,12,0:0:0:0:
400,204,168291,1,0,0:0:0:0:
400,204,168473,1,0,0:0:0:0:
326,185,169201,1,8,0:0:0:0:
326,185,169382,1,0,0:0:0:0:
260,158,169564,1,8,0:0:0:0:
234,195,169655,1,8,0:0:0:0:
260,158,169746,1,8,0:0:0:0:
173,169,169928,1,4,0:0:0:0:
277,173,170201,1,0,0:0:0:0:
250,96,170473,1,8,0:0:0:0:
250,96,170655,1,0,0:0:0:0:
250,96,170837,1,0,0:0:0:0:
296,106,171019,1,8,0:0:0:0:
296,106,171201,1,0,0:0:0:0:
332,212,171564,1,8,0:0:0:0:
332,212,171746,1,0,0:0:0:0:
332,212,171837,1,0,0:0:0:0:
218,110,171928,1,0,0:0:0:0:
218,110,172110,1,8,0:0:0:0:
261,263,172291,1,0,0:0:0:0:
261,263,172473,1,8,0:0:0:0:
261,263,172837,1,0,0:0:0:0:
288,202,173110,1,8,0:0:0:0:
267,198,173382,1,0,0:0:0:0:
267,198,173564,1,8,0:0:0:0:
267,198,173746,1,0,0:0:0:0:
267,198,173928,1,8,0:0:0:0:
267,198,174110,1,0,0:0:0:0:
256,192,174291,12,0,175564,0:0:0:0:
168,205,175746,5,4,0:0:0:0:
286,217,176473,1,8,0:0:0:0:
286,217,176837,1,0,0:0:0:0:
286,217,177201,1,8,0:0:0:0:
286,217,177382,1,8,0:0:0:0:
286,217,177564,1,0,0:0:0:0:
306,212,177928,1,8,0:0:0:0:
305,212,178291,1,8,0:0:0:0:
306,212,178655,1,0,0:0:0:0:
312,231,179019,1,8,0:0:0:0:
312,231,179382,1,0,0:0:0:0:
312,231,179564,1,0,0:0:0:0:
312,231,179746,1,8,0:0:0:0:
356,240,180110,1,0,0:0:0:0:
251,232,180473,1,8,0:0:0:0:
233,173,180655,1,8,0:0:0:0:
251,232,180837,1,0,0:0:0:0:
356,240,181019,1,12,0:0:0:0:
356,240,181201,1,12,0:0:0:0:
168,205,181564,5,4,0:0:0:0:
286,217,182291,1,8,0:0:0:0:
286,217,182655,1,0,0:0:0:0:
286,217,183019,1,8,0:0:0:0:
286,217,183201,1,8,0:0:0:0:
286,217,183382,1,0,0:0:0:0:
306,212,183746,1,8,0:0:0:0:
305,212,184110,1,8,0:0:0:0:
306,212,184473,1,0,0:0:0:0:
312,231,184837,1,8,0:0:0:0:
312,231,185201,1,0,0:0:0:0:
312,231,185382,1,0,0:0:0:0:
312,231,185564,1,8,0:0:0:0:
356,240,185928,1,4,0:0:0:0:
313,200,186473,1,12,0:0:0:0:
302,235,187019,1,0,0:0:0:0:
229,259,187110,1,0,0:0:0:0:
302,235,187201,1,0,0:0:0:0:
263,216,187382,1,12,0:0:0:0:
242,257,187746,1,0,0:0:0:0:
242,257,188110,1,8,0:0:0:0:
242,257,188473,1,0,0:0:0:0:
242,257,188655,1,8,0:0:0:0:
242,257,189019,1,8,0:0:0:0:
242,257,189201,1,0,0:0:0:0:
232,188,189564,1,8,0:0:0:0:
232,188,189746,1,8,0:0:0:0:
232,188,189928,1,0,0:0:0:0:
232,188,190110,1,0,0:0:0:0:
232,188,190291,1,8,0:0:0:0:
232,188,190655,1,0,0:0:0:0:
140,165,191019,1,8,0:0:0:0:
272,200,191382,1,0,0:0:0:0:
283,162,191564,1,0,0:0:0:0:
280,193,191746,1,8,0:0:0:0:
280,193,192110,1,0,0:0:0:0:
380,318,192291,1,0,0:0:0:0:
380,318,192473,1,8,0:0:0:0:
239,212,192655,1,4,0:0:0:0:
239,212,192837,1,4,0:0:0:0:
212,156,193201,1,12,0:0:0:0:
242,257,193564,1,0,0:0:0:0:
242,257,193928,1,8,0:0:0:0:
242,257,194291,1,0,0:0:0:0:
242,257,194473,1,8,0:0:0:0:
242,257,194837,1,8,0:0:0:0:
242,257,195019,1,0,0:0:0:0:
232,188,195382,1,8,0:0:0:0:
232,188,195564,1,8,0:0:0:0:
232,188,195746,1,0,0:0:0:0:
232,188,195928,1,0,0:0:0:0:
232,188,196110,1,8,0:0:0:0:
232,188,196473,1,0,0:0:0:0:
140,165,196837,1,8,0:0:0:0:
272,200,197019,1,8,0:0:0:0:
283,162,197382,1,0,0:0:0:0:
280,193,197564,1,8,0:0:0:0:
251,193,197837,1,0,0:0:0:0:
234,107,198110,1,8,0:0:0:0:
234,107,198291,1,0,0:0:0:0:
231,141,198382,1,0,0:0:0:0:
231,141,198473,1,0,0:0:0:0:
207,167,198655,1,8,0:0:0:0:
131,203,199019,1,4,0:0:0:0:
371,198,199382,1,8,0:0:0:0:
371,198,200110,1,8,0:0:0:0:
371,198,200837,1,8,0:0:0:0:
371,198,201564,1,8,0:0:0:0:
295,107,201928,1,0,0:0:0:0:
287,154,202291,1,8,0:0:0:0:
287,154,202473,1,0,0:0:0:0:
287,154,202837,1,8,0:0:0:0:
262,176,203201,1,0,0:0:0:0:
262,176,203928,1,8,0:0:0:0:
285,239,204473,1,8,0:0:0:0:
303,236,204837,1,4,0:0:0:0:
192,222,205201,1,8,0:0:0:0:
192,222,205382,1,0,0:0:0:0:
266,103,205564,1,8,0:0:0:0:
192,222,205746,1,8,0:0:0:0:
266,103,205928,1,0,0:0:0:0:
300,194,206291,1,12,0:0:0:0:
300,194,206655,1,0,0:0:0:0:
300,194,206837,1,8,0:0:0:0:
300,194,207019,1,0,0:0:0:0:
300,194,207201,1,0,0:0:0:0:
300,194,207382,1,8,0:0:0:0:
252,201,207746,1,4,0:0:0:0:
283,150,208110,1,8,0:0:0:0:
283,150,208291,1,8,0:0:0:0:
283,150,208473,1,0,0:0:0:0:
283,150,208655,1,0,0:0:0:0:
283,150,208837,1,8,0:0:0:0:
208,151,209201,1,0,0:0:0:0:
199,146,209291,1,0,0:0:0:0:
208,151,209382,1,0,0:0:0:0:
302,201,209564,1,8,0:0:0:0:
302,201,209746,1,0,0:0:0:0:
326,179,210110,1,12,0:0:0:0:
256,256,213564,1,4,0:0:0:0:
239,153,213928,1,8,0:0:0:0:
239,153,214110,1,0,0:0:0:0:
239,153,214473,1,8,0:0:0:0:
239,153,214837,1,0,0:0:0:0:
239,153,215201,1,0,0:0:0:0:
239,153,215382,1,8,0:0:0:0:
239,153,215564,1,8,0:0:0:0:
239,153,215746,1,0,0:0:0:0:
239,153,215928,1,0,0:0:0:0:
239,153,216110,1,8,0:0:0:0:
239,153,216291,1,0,0:0:0:0:
239,153,216473,1,8,0:0:0:0:
239,153,216837,1,8,0:0:0:0:
239,153,217019,1,0,0:0:0:0:
239,153,217382,1,0,0:0:0:0:
239,153,217746,1,8,0:0:0:0:
331,197,218110,1,8,0:0:0:0:
340,191,218291,1,0,0:0:0:0:
248,239,218473,1,0,0:0:0:0:
248,239,218655,1,8,0:0:0:0:
248,239,218837,1,0,0:0:0:0:
248,239,219019,1,8,0:0:0:0:
248,239,219110,1,8,0:0:0:0:
160,181,219201,1,8,0:0:0:0:
248,239,219382,1,0,0:0:0:0:
224,84,219746,1,8,0:0:0:0:
224,84,219928,1,0,0:0:0:0:
224,84,220291,1,8,0:0:0:0:
278,157,220655,1,0,0:0:0:0:
278,157,221019,1,0,0:0:0:0:
278,157,221201,1,8,0:0:0:0:
278,157,221382,1,8,0:0:0:0:
271,117,221564,1,0,0:0:0:0:
271,117,221746,1,0,0:0:0:0:
271,117,221928,1,8,0:0:0:0:
271,117,222110,1,8,0:0:0:0:
271,117,222291,1,0,0:0:0:0:
254,219,222655,1,8,0:0:0:0:
361,189,222837,1,0,0:0:0:0:
176,237,223201,1,0,0:0:0:0:
176,237,223382,1,8,0:0:0:0:
310,89,223564,1,0,0:0:0:0:
310,89,223928,1,12,0:0:0:0:
310,89,224110,1,12,0:0:0:0:
225,178,224473,1,0,0:0:0:0:
223,147,224655,1,8,0:0:0:0:
223,147,224837,1,0,0:0:0:0:
198,93,224928,1,0,0:0:0:0:
198,93,225019,1,0,0:0:0:0:
215,81,225201,1,12,0:0:0:0:
239,153,225564,1,0,0:0:0:0:
239,153,225746,1,8,0:0:0:0:
239,153,226110,1,0,0:0:0:0:
239,153,226473,1,8,0:0:0:0:
239,153,226837,1,8,0:0:0:0:
239,153,227019,1,0,0:0:0:0:
239,153,227201,1,0,0:0:0:0:
239,153,227382,1,8,0:0:0:0:
239,153,227564,1,8,0:0:0:0:
239,153,227746,1,0,0:0:0:0:
239,153,227928,1,8,0:0:0:0:
239,153,228110,1,0,0:0:0:0:
239,153,228473,1,0,0:0:0:0:
239,153,228655,1,8,0:0:0:0:
239,153,229019,1,8,0:0:0:0:
239,153,229382,1,0,0:0:0:0:
331,197,229746,1,0,0:0:0:0:
340,191,229928,1,8,0:0:0:0:
248,239,230110,1,8,0:0:0:0:
248,239,230291,1,0,0:0:0:0:
248,239,230473,1,8,0:0:0:0:
248,239,230655,1,0,0:0:0:0:
248,239,230746,1,0,0:0:0:0:
160,181,230837,1,0,0:0:0:0:
248,239,231019,1,8,0:0:0:0:
224,84,231382,1,0,0:0:0:0:
224,84,231564,1,8,0:0:0:0:
224,84,231928,1,0,0:0:0:0:
278,157,232291,1,8,0:0:0:0:
278,157,232655,1,8,0:0:0:0:
278,157,232837,1,0,0:0:0:0:
278,157,233019,1,0,0:0:0:0:
271,117,233201,1,8,0:0:0:0:
271,117,233382,1,8,0:0:0:0:
271,117,233564,1,0,0:0:0:0:
271,117,233746,1,0,0:0:0:0:
271,117,233928,1,8,0:0:0:0:
254,219,234291,1,0,0:0:0:0:
361,189,234473,1,8,0:0:0:0:
176,237,234837,1,8,0:0:0:0:
176,237,235019,1,0,0:0:0:0:
310,89,235201,1,8,0:0:0:0:
396,282,235382,1,0,0:0:0:0:
396,282,235473,1,0,0:0:0:0:
30,197,235564,1,0,0:0:0:0:
272,219,235746,1,8,0:0:0:0:
302,228,235837,1,8,0:0:0:0:
267,226,235928,1,8,0:0:0:0:
225,178,236110,1,0,0:0:0:0:
379,259,236837,1,12,0:0:0:0:
306,173,237110,1,8,0:0:0:0:
320,134,237382,1,0,0:0:0:0:
320,134,237564,1,8,0:0:0:0:
320,134,237746,1,8,0:0:0:0:
320,134,237928,1,0,0:0:0:0:
320,134,238110,1,8,0:0:0:0:
265,150,238473,1,0,0:0:0:0:
265,150,238655,1,8,0:0:0:0:
191,56,238746,1,8,0:0:0:0:
265,150,238837,1,8,0:0:0:0:
247,122,239019,1,0,0:0:0:0:
247,122,239201,1,8,0:0:0:0:
247,122,239382,1,0,0:0:0:0:
255,139,239746,1,8,0:0:0:0:
274,288,240019,1,0,0:0:0:0:
274,288,240291,1,8,0:0:0:0:
274,288,240473,1,0,0:0:0:0:
366,272,240655,1,8,0:0:0:0:
219,203,240837,1,0,0:0:0:0:
173,86,241019,1,8,0:0:0:0:
353,162,241382,1,8,0:0:0:0:
353,162,241564,1,0,0:0:0:0:
290,182,241655,1,0,0:0:0:0:
290,182,241746,1,0,0:0:0:0:
332,191,241928,1,8,0:0:0:0:
173,169,242655,1,4,0:0:0:0:
277,173,242928,1,0,0:0:0:0:
250,96,243201,1,8,0:0:0:0:
250,96,243382,1,0,0:0:0:0:
250,96,243564,1,0,0:0:0:0:
296,106,243746,1,8,0:0:0:0:
296,106,243928,1,0,0:0:0:0:
332,212,244291,1,8,0:0:0:0:
332,212,244473,1,0,0:0:0:0:
332,212,244564,1,0,0:0:0:0:
218,110,244655,1,0,0:0:0:0:
218,110,244837,1,8,0:0:0:0:
261,263,245019,1,0,0:0:0:0:
261,263,245201,1,8,0:0:0:0:
261,263,245564,1,0,0:0:0:0:
288,202,245837,1,8,0:0:0:0:
267,198,246110,1,0,0:0:0:0:
267,198,246291,1,8,0:0:0:0:
267,198,246473,1,0,0:0:0:0:
267,198,246655,1,8,0:0:0:0:
267,198,246837,1,0,0:0:0:0:
256,192,247019,12,0,249746,0:0:0:0:
168,205,249928,5,4,0:0:0:0:
