osu file format v14

[General]
AudioFilename: audio.mp3
AudioLeadIn: 0
PreviewTime: 71019
Countdown: 0
SampleSet: Normal
StackLeniency: 0.7
Mode: 1
LetterboxInBreaks: 0
WidescreenStoryboard: 1

[Editor]
DistanceSpacing: 0.8
BeatDivisor: 4
GridSize: 32
TimelineZoom: 1.4

[Metadata]
Title:Wanna Be My Dream
TitleUnicode:Wanna Be My Dream
Artist:A-One
ArtistUnicode:A-One
Creator:Chromoxx
Version:Kantan
Source:東方永夜抄 ~ Imperishable Night.
Tags:Mappers' Guild Featured Artist FA Electronic Video Game Japanese J-Core J Core Reimu Hakurei 東方Project Touhou ZUN 太田順也 Oota Junya 少女綺想曲 ~ Dream Battle Maiden's Capriccio ELEMENTAS Shihori あき Aki しほり FN2 博麗霊夢 Eiyashou Eternal Night Vignette 永夜抄 TOHO EUROBEAT presents THE REVIVAL MIX
BeatmapID:3789978
BeatmapSetID:1840481

[Difficulty]
HPDrainRate:8
CircleSize:5
OverallDifficulty:3
ApproachRate:5
SliderMultiplier:1.4
SliderTickRate:1

[Events]
//Background and Video events
0,0,"47657345_p0.jpg",0,0
//Break Periods
2,175946,184728
//Storyboard Layer 0 (Background)
//Storyboard Layer 1 (Fail)
//Storyboard Layer 2 (Pass)
//Storyboard Layer 3 (Foreground)
//Storyboard Layer 4 (Overlay)
//Storyboard Sound Samples

[TimingPoints]
1201,363.636363636364,4,1,0,100,1,0
71019,-100,4,1,0,100,0,1
94291,-100,4,1,0,100,0,0
106110,-100,4,1,0,100,0,0
108837,-100,4,1,0,100,0,0
140837,-100,4,1,0,100,0,1
164110,-100,4,1,0,100,0,0
213564,-100,4,1,0,100,0,1
236837,-100,4,1,0,100,0,0

[HitObjects]
264,219,24473,5,4,0:0:0:0:
264,219,25201,1,0,0:0:0:0:
205,173,25928,1,8,0:0:0:0:
205,173,26291,1,0,0:0:0:0:
205,173,26655,1,8,0:0:0:0:
199,165,27382,1,0,0:0:0:0:
293,209,28110,1,8,0:0:0:0:
272,240,28837,1,0,0:0:0:0:
272,240,29201,1,0,0:0:0:0:
272,240,29564,1,8,0:0:0:0:
272,240,29928,1,8,0:0:0:0:
214,205,30291,1,4,0:0:0:0:
337,205,31019,1,0,0:0:0:0:
299,231,31746,1,8,0:0:0:0:
299,231,32110,1,0,0:0:0:0:
299,231,32473,1,8,0:0:0:0:
243,216,33201,1,0,0:0:0:0:
243,216,33928,1,8,0:0:0:0:
256,192,34655,12,0,35746,0:0:0:0:
414,189,36110,5,4,0:0:0:0:
261,185,36837,1,8,0:0:0:0:
261,185,37564,1,0,0:0:0:0:
218,132,37928,1,0,0:0:0:0:
218,132,38291,1,8,0:0:0:0:
218,132,39019,1,0,0:0:0:0:
266,204,39746,1,8,0:0:0:0:
261,208,40473,1,0,0:0:0:0:
239,92,41928,1,8,0:0:0:0:
239,92,42655,1,0,0:0:0:0:
239,92,43382,1,8,0:0:0:0:
239,92,43746,1,8,0:0:0:0:
239,92,44110,1,0,0:0:0:0:
239,92,44837,1,8,0:0:0:0:
239,92,45564,1,0,0:0:0:0:
239,92,46291,1,8,0:0:0:0:
282,178,47746,1,4,0:0:0:0:
248,186,48473,1,8,0:0:0:0:
248,186,49201,1,0,0:0:0:0:
248,186,49564,1,8,0:0:0:0:
248,186,49928,1,0,0:0:0:0:
248,186,50655,1,8,0:0:0:0:
248,186,51382,1,8,0:0:0:0:
248,186,52110,1,0,0:0:0:0:
274,176,53564,1,8,0:0:0:0:
274,176,54291,1,0,0:0:0:0:
274,176,55019,1,8,0:0:0:0:
274,176,55382,1,0,0:0:0:0:
274,176,55746,1,8,0:0:0:0:
274,176,56473,1,0,0:0:0:0:
274,176,57201,1,0,0:0:0:0:
274,176,57928,1,8,0:0:0:0:
257,133,59382,1,4,0:0:0:0:
261,223,59928,1,8,0:0:0:0:
272,182,60291,1,0,0:0:0:0:
272,182,60655,1,8,0:0:0:0:
172,113,61201,1,0,0:0:0:0:
172,113,61564,1,8,0:0:0:0:
172,113,62291,1,0,0:0:0:0:
208,112,62837,1,8,0:0:0:0:
323,172,63201,1,8,0:0:0:0:
323,172,63564,1,0,0:0:0:0:
323,172,64291,1,8,0:0:0:0:
304,152,65201,1,4,0:0:0:0:
250,148,66655,1,12,0:0:0:0:
250,148,68110,1,4,0:0:0:0:
305,153,69564,1,0,0:0:0:0:
276,147,70110,1,8,0:0:0:0:
275,159,70473,1,12,0:0:0:0:
286,221,71019,1,4,0:0:0:0:
330,204,71564,1,8,0:0:0:0:
330,204,71928,1,8,0:0:0:0:
330,204,72291,1,0,0:0:0:0:
330,204,72837,1,0,0:0:0:0:
330,204,73201,1,8,0:0:0:0:
224,167,73928,1,0,0:0:0:0:
224,167,74473,1,8,0:0:0:0:
224,167,74837,1,0,0:0:0:0:
224,167,75201,1,8,0:0:0:0:
224,167,75746,1,8,0:0:0:0:
224,167,76110,1,0,0:0:0:0:
214,137,76837,1,8,0:0:0:0:
214,137,77382,1,0,0:0:0:0:
308,233,77746,1,0,0:0:0:0:
308,233,78110,1,8,0:0:0:0:
281,186,78655,1,8,0:0:0:0:
281,186,79019,1,0,0:0:0:0:
281,186,79746,1,8,0:0:0:0:
207,146,80473,1,0,0:0:0:0:
207,146,81201,1,8,0:0:0:0:
286,221,82655,1,4,0:0:0:0:
330,204,83201,1,8,0:0:0:0:
330,204,83564,1,8,0:0:0:0:
330,204,83928,1,0,0:0:0:0:
330,204,84473,1,0,0:0:0:0:
330,204,84837,1,8,0:0:0:0:
224,167,85564,1,0,0:0:0:0:
224,167,86110,1,8,0:0:0:0:
224,167,86473,1,0,0:0:0:0:
224,167,86837,1,8,0:0:0:0:
224,167,87382,1,8,0:0:0:0:
224,167,87746,1,0,0:0:0:0:
214,137,88473,1,8,0:0:0:0:
214,137,89019,1,0,0:0:0:0:
308,233,89382,1,0,0:0:0:0:
308,233,89746,1,8,0:0:0:0:
281,186,90291,1,8,0:0:0:0:
281,186,90655,1,0,0:0:0:0:
281,186,91382,1,8,0:0:0:0:
207,146,92110,1,0,0:0:0:0:
207,146,92837,1,8,0:0:0:0:
264,219,94291,1,4,0:0:0:0:
264,219,95019,1,0,0:0:0:0:
205,173,95746,1,8,0:0:0:0:
205,173,96110,1,0,0:0:0:0:
205,173,96473,1,8,0:0:0:0:
199,165,97201,1,0,0:0:0:0:
293,209,97928,1,8,0:0:0:0:
272,240,98655,1,0,0:0:0:0:
272,240,99019,1,0,0:0:0:0:
272,240,99382,1,8,0:0:0:0:
272,240,99746,1,8,0:0:0:0:
214,205,100110,1,4,0:0:0:0:
337,205,100837,1,0,0:0:0:0:
299,231,101564,1,8,0:0:0:0:
299,231,101928,1,0,0:0:0:0:
299,231,102291,1,8,0:0:0:0:
243,216,103019,1,0,0:0:0:0:
243,216,103746,1,8,0:0:0:0:
256,192,104473,12,0,105564,0:0:0:0:
414,189,105928,5,4,0:0:0:0:
282,168,106655,1,8,0:0:0:0:
246,215,108110,1,8,0:0:0:0:
218,132,108837,1,4,0:0:0:0:
266,204,109564,1,8,0:0:0:0:
261,208,110291,1,0,0:0:0:0:
239,92,111746,1,8,0:0:0:0:
239,92,112473,1,0,0:0:0:0:
239,92,113201,1,8,0:0:0:0:
239,92,113564,1,8,0:0:0:0:
239,92,113928,1,0,0:0:0:0:
239,92,114655,1,8,0:0:0:0:
239,92,115382,1,0,0:0:0:0:
239,92,116110,1,8,0:0:0:0:
282,178,117564,1,4,0:0:0:0:
248,186,118291,1,8,0:0:0:0:
248,186,119019,1,0,0:0:0:0:
248,186,119382,1,8,0:0:0:0:
248,186,119746,1,0,0:0:0:0:
248,186,120473,1,8,0:0:0:0:
248,186,121201,1,8,0:0:0:0:
248,186,121928,1,0,0:0:0:0:
274,176,123382,1,8,0:0:0:0:
274,176,124110,1,0,0:0:0:0:
274,176,124837,1,8,0:0:0:0:
274,176,125201,1,0,0:0:0:0:
274,176,125564,1,8,0:0:0:0:
274,176,126291,1,0,0:0:0:0:
274,176,127019,1,0,0:0:0:0:
274,176,127746,1,8,0:0:0:0:
257,133,129201,1,4,0:0:0:0:
261,223,129746,1,8,0:0:0:0:
272,182,130110,1,0,0:0:0:0:
272,182,130473,1,8,0:0:0:0:
172,113,131019,1,0,0:0:0:0:
172,113,131382,1,8,0:0:0:0:
172,113,132110,1,0,0:0:0:0:
208,112,132655,1,8,0:0:0:0:
323,172,133019,1,8,0:0:0:0:
323,172,133382,1,0,0:0:0:0:
323,172,134110,1,8,0:0:0:0:
304,152,135019,1,4,0:0:0:0:
250,148,136473,1,12,0:0:0:0:
250,148,137928,1,4,0:0:0:0:
305,153,139382,1,0,0:0:0:0:
276,147,139928,1,8,0:0:0:0:
275,159,140291,1,12,0:0:0:0:
286,221,140837,1,4,0:0:0:0:
330,204,141382,1,8,0:0:0:0:
330,204,141746,1,8,0:0:0:0:
330,204,142110,1,0,0:0:0:0:
330,204,142655,1,0,0:0:0:0:
330,204,143019,1,8,0:0:0:0:
224,167,143746,1,0,0:0:0:0:
224,167,144291,1,8,0:0:0:0:
224,167,144655,1,0,0:0:0:0:
224,167,145019,1,8,0:0:0:0:
224,167,145564,1,8,0:0:0:0:
224,167,145928,1,0,0:0:0:0:
214,137,146655,1,8,0:0:0:0:
214,137,147201,1,0,0:0:0:0:
308,233,147564,1,0,0:0:0:0:
308,233,147928,1,8,0:0:0:0:
281,186,148473,1,8,0:0:0:0:
281,186,148837,1,0,0:0:0:0:
281,186,149564,1,8,0:0:0:0:
207,146,150291,1,0,0:0:0:0:
207,146,151019,1,8,0:0:0:0:
286,221,152473,1,4,0:0:0:0:
330,204,153019,1,8,0:0:0:0:
330,204,153382,1,8,0:0:0:0:
330,204,153746,1,0,0:0:0:0:
330,204,154291,1,0,0:0:0:0:
330,204,154655,1,8,0:0:0:0:
224,167,155382,1,0,0:0:0:0:
224,167,155928,1,8,0:0:0:0:
224,167,156291,1,0,0:0:0:0:
224,167,156655,1,8,0:0:0:0:
224,167,157201,1,8,0:0:0:0:
224,167,157564,1,0,0:0:0:0:
214,137,158291,1,8,0:0:0:0:
214,137,158837,1,0,0:0:0:0:
308,233,159201,1,0,0:0:0:0:
308,233,159564,1,8,0:0:0:0:
281,186,160110,1,8,0:0:0:0:
281,186,160473,1,0,0:0:0:0:
281,186,161201,1,8,0:0:0:0:
207,146,161928,1,0,0:0:0:0:
207,146,162655,1,8,0:0:0:0:
189,159,164110,1,4,0:0:0:0:
331,260,165382,1,0,0:0:0:0:
331,260,165564,1,0,0:0:0:0:
331,260,167019,1,0,0:0:0:0:
331,260,168291,1,0,0:0:0:0:
331,260,168473,1,0,0:0:0:0:
214,205,169928,1,4,0:0:0:0:
337,205,170655,1,0,0:0:0:0:
299,231,171382,1,8,0:0:0:0:
299,231,171746,1,0,0:0:0:0:
299,231,172110,1,8,0:0:0:0:
243,216,172837,1,0,0:0:0:0:
243,216,173564,1,8,0:0:0:0:
256,192,174291,12,0,175382,0:0:0:0:
414,189,175746,5,4,0:0:0:0:
365,207,185928,5,12,0:0:0:0:
365,207,186473,1,12,0:0:0:0:
282,178,187382,1,4,0:0:0:0:
248,186,188110,1,8,0:0:0:0:
248,186,188837,1,0,0:0:0:0:
248,186,189201,1,8,0:0:0:0:
248,186,189564,1,0,0:0:0:0:
248,186,190291,1,8,0:0:0:0:
248,186,191019,1,8,0:0:0:0:
248,186,191746,1,0,0:0:0:0:
274,176,193201,1,8,0:0:0:0:
274,176,193928,1,0,0:0:0:0:
274,176,194655,1,8,0:0:0:0:
274,176,195019,1,0,0:0:0:0:
274,176,195382,1,8,0:0:0:0:
274,176,196110,1,0,0:0:0:0:
274,176,196837,1,0,0:0:0:0:
274,176,197564,1,8,0:0:0:0:
257,133,199019,1,4,0:0:0:0:
261,223,199564,1,8,0:0:0:0:
272,182,199928,1,0,0:0:0:0:
272,182,200291,1,8,0:0:0:0:
172,113,200837,1,0,0:0:0:0:
172,113,201201,1,8,0:0:0:0:
172,113,201928,1,0,0:0:0:0:
208,112,202473,1,8,0:0:0:0:
323,172,202837,1,8,0:0:0:0:
323,172,203201,1,0,0:0:0:0:
323,172,203928,1,8,0:0:0:0:
304,152,204837,1,4,0:0:0:0:
250,148,206291,1,12,0:0:0:0:
250,148,207746,1,4,0:0:0:0:
305,153,209201,1,0,0:0:0:0:
276,147,209746,1,8,0:0:0:0:
275,159,210110,1,12,0:0:0:0:
286,221,213564,1,4,0:0:0:0:
330,204,214110,1,8,0:0:0:0:
330,204,214473,1,8,0:0:0:0:
330,204,214837,1,0,0:0:0:0:
330,204,215382,1,0,0:0:0:0:
330,204,215746,1,8,0:0:0:0:
224,167,216473,1,0,0:0:0:0:
224,167,217019,1,8,0:0:0:0:
224,167,217382,1,0,0:0:0:0:
224,167,217746,1,8,0:0:0:0:
224,167,218291,1,8,0:0:0:0:
224,167,218655,1,0,0:0:0:0:
214,137,219382,1,8,0:0:0:0:
214,137,219928,1,0,0:0:0:0:
308,233,220291,1,0,0:0:0:0:
308,233,220655,1,8,0:0:0:0:
281,186,221201,1,8,0:0:0:0:
281,186,221564,1,0,0:0:0:0:
281,186,222291,1,8,0:0:0:0:
207,146,223019,1,0,0:0:0:0:
207,146,223746,1,8,0:0:0:0:
286,221,225201,1,4,0:0:0:0:
330,204,225746,1,8,0:0:0:0:
330,204,226110,1,8,0:0:0:0:
330,204,226473,1,0,0:0:0:0:
330,204,227019,1,0,0:0:0:0:
330,204,227382,1,8,0:0:0:0:
224,167,228110,1,0,0:0:0:0:
224,167,228655,1,8,0:0:0:0:
224,167,229019,1,0,0:0:0:0:
224,167,229382,1,8,0:0:0:0:
224,167,229928,1,8,0:0:0:0:
224,167,230291,1,0,0:0:0:0:
214,137,231019,1,8,0:0:0:0:
214,137,231564,1,0,0:0:0:0:
308,233,231928,1,0,0:0:0:0:
308,233,232291,1,8,0:0:0:0:
281,186,232837,1,8,0:0:0:0:
281,186,233201,1,0,0:0:0:0:
281,186,233928,1,8,0:0:0:0:
207,146,234655,1,0,0:0:0:0:
207,146,235382,1,8,0:0:0:0:
264,219,236837,1,4,0:0:0:0:
264,219,237564,1,0,0:0:0:0:
205,173,238291,1,8,0:0:0:0:
205,173,238655,1,0,0:0:0:0:
205,173,239019,1,8,0:0:0:0:
199,165,239746,1,0,0:0:0:0:
293,209,240473,1,8,0:0:0:0:
272,240,241201,1,0,0:0:0:0:
272,240,241564,1,0,0:0:0:0:
272,240,241928,1,8,0:0:0:0:
272,240,242291,1,8,0:0:0:0:
214,205,242655,1,4,0:0:0:0:
337,205,243382,1,0,0:0:0:0:
299,231,244110,1,8,0:0:0:0:
299,231,244473,1,0,0:0:0:0:
299,231,244837,1,8,0:0:0:0:
243,216,245564,1,0,0:0:0:0:
243,216,246291,1,8,0:0:0:0:
256,192,247019,12,0,249564,0:0:0:0:
414,189,249928,5,4,0:0:0:0:
