osu file format v14

[General]
AudioFilename: audio.mp3
AudioLeadIn: 0
PreviewTime: 71019
Countdown: 0
SampleSet: Normal
StackLeniency: 0.7
Mode: 1
LetterboxInBreaks: 0
WidescreenStoryboard: 0

[Editor]
DistanceSpacing: 0.8
BeatDivisor: 4
GridSize: 32
TimelineZoom: 1.4

[Metadata]
Title:Wanna Be My Dream
TitleUnicode:Wanna Be My Dream
Artist:A-One
ArtistUnicode:A-One
Creator:Chromoxx
Version:Inner Oni
Source:東方永夜抄 ~ Imperishable Night.
Tags:Mappers' Guild Featured Artist FA Electronic Video Game Japanese J-Core J Core Reimu Hakurei 東方Project Touhou ZUN 太田順也 Oota Junya 少女綺想曲 ~ Dream Battle Maiden's Capriccio ELEMENTAS Shihori あき Aki しほり FN2 博麗霊夢 Eiyashou Eternal Night Vignette 永夜抄 TOHO EUROBEAT presents THE REVIVAL MIX
BeatmapID:3780224
BeatmapSetID:1840481

[Difficulty]
HPDrainRate:6
CircleSize:5
OverallDifficulty:7
ApproachRate:5
SliderMultiplier:1.4
SliderTickRate:1

[Events]
//Background and Video events
0,0,"47657345_p0.jpg",0,0
//Break Periods
//Storyboard Layer 0 (Background)
//Storyboard Layer 1 (Fail)
//Storyboard Layer 2 (Pass)
//Storyboard Layer 3 (Foreground)
//Storyboard Layer 4 (Overlay)
//Storyboard Sound Samples

[TimingPoints]
1201,363.636363636364,4,1,0,100,1,0
71019,-100,4,1,0,100,0,1
94291,-100,4,1,0,100,0,0
106110,-111.111111111111,4,1,0,100,0,0
108837,-100,4,1,0,100,0,0
140837,-100,4,1,0,100,0,1
164110,-100,4,1,0,100,0,0
213564,-100,4,1,0,100,0,1
236837,-100,4,1,0,100,0,0

[HitObjects]
337,279,24473,5,4,0:0:0:0:
433,282,24655,1,8,0:0:0:0:
433,282,24746,1,0,0:0:0:0:
433,282,24928,1,8,0:0:0:0:
433,282,25019,1,0,0:0:0:0:
433,282,25110,1,0,0:0:0:0:
433,282,25201,1,8,0:0:0:0:
292,286,25382,1,8,0:0:0:0:
281,276,25564,1,0,0:0:0:0:
284,273,25746,1,8,0:0:0:0:
284,273,25928,1,0,0:0:0:0:
236,277,26110,1,8,0:0:0:0:
230,214,26201,1,8,0:0:0:0:
204,169,26291,1,0,0:0:0:0:
197,175,26382,1,8,0:0:0:0:
197,175,26473,1,0,0:0:0:0:
197,175,26564,1,0,0:0:0:0:
215,173,26655,1,8,0:0:0:0:
215,173,26837,1,8,0:0:0:0:
325,204,27019,1,0,0:0:0:0:
325,204,27201,1,0,0:0:0:0:
325,204,27382,1,8,0:0:0:0:
266,232,27564,1,0,0:0:0:0:
240,194,27655,1,8,0:0:0:0:
251,242,27837,1,0,0:0:0:0:
252,237,27928,1,8,0:0:0:0:
254,232,28019,1,8,0:0:0:0:
253,225,28110,1,0,0:0:0:0:
302,185,28291,1,0,0:0:0:0:
197,120,28473,1,8,0:0:0:0:
197,120,28655,1,0,0:0:0:0:
236,147,28837,1,8,0:0:0:0:
286,218,29019,1,0,0:0:0:0:
288,228,29110,1,0,0:0:0:0:
290,184,29201,1,8,0:0:0:0:
290,184,29291,1,8,0:0:0:0:
290,184,29382,1,0,0:0:0:0:
290,184,29473,1,0,0:0:0:0:
252,135,29564,1,8,0:0:0:0:
252,134,29655,1,8,0:0:0:0:
249,130,29746,1,0,0:0:0:0:
249,130,29837,1,8,0:0:0:0:
249,130,29928,1,0,0:0:0:0:
249,130,30019,1,0,0:0:0:0:
249,130,30110,1,8,0:0:0:0:
249,130,30291,1,4,0:0:0:0:
240,157,30473,1,8,0:0:0:0:
277,108,30564,1,0,0:0:0:0:
278,97,30746,1,8,0:0:0:0:
269,109,30837,1,0,0:0:0:0:
269,109,30928,1,0,0:0:0:0:
269,109,31019,1,8,0:0:0:0:
269,109,31201,1,8,0:0:0:0:
271,109,31382,1,0,0:0:0:0:
269,109,31564,1,8,0:0:0:0:
203,166,31746,1,0,0:0:0:0:
203,166,31928,1,8,0:0:0:0:
209,155,32019,1,8,0:0:0:0:
213,149,32110,1,0,0:0:0:0:
214,149,32201,1,8,0:0:0:0:
215,149,32291,1,0,0:0:0:0:
215,149,32382,1,0,0:0:0:0:
216,149,32473,1,8,0:0:0:0:
216,149,32655,1,8,0:0:0:0:
216,149,32837,1,0,0:0:0:0:
216,149,33019,1,0,0:0:0:0:
214,149,33201,1,8,0:0:0:0:
215,149,33382,1,0,0:0:0:0:
231,109,33473,1,8,0:0:0:0:
231,109,33655,1,0,0:0:0:0:
237,105,33746,1,8,0:0:0:0:
243,100,33837,1,8,0:0:0:0:
243,100,33928,1,0,0:0:0:0:
243,100,34110,1,0,0:0:0:0:
267,120,34291,1,8,0:0:0:0:
267,120,34473,1,0,0:0:0:0:
257,158,34655,1,8,0:0:0:0:
269,130,34746,1,0,0:0:0:0:
261,185,34837,1,0,0:0:0:0:
261,185,34928,1,8,0:0:0:0:
261,180,35019,1,0,0:0:0:0:
261,182,35110,1,0,0:0:0:0:
263,175,35201,1,8,0:0:0:0:
344,249,35291,1,8,0:0:0:0:
263,174,35382,1,0,0:0:0:0:
261,232,35473,1,8,0:0:0:0:
263,222,35564,1,0,0:0:0:0:
263,222,35655,1,0,0:0:0:0:
263,222,35746,1,8,0:0:0:0:
231,159,35837,1,8,0:0:0:0:
231,159,35928,1,0,0:0:0:0:
232,189,36110,1,12,0:0:0:0:
363,186,36291,1,0,0:0:0:0:
285,159,36382,1,0,0:0:0:0:
207,54,36473,1,8,0:0:0:0:
208,109,36655,1,0,0:0:0:0:
208,109,36837,1,8,0:0:0:0:
206,102,37019,1,0,0:0:0:0:
182,159,37110,1,0,0:0:0:0:
233,203,37201,1,8,0:0:0:0:
239,217,37382,1,0,0:0:0:0:
305,192,37564,1,8,0:0:0:0:
305,192,37746,1,0,0:0:0:0:
278,119,37837,1,0,0:0:0:0:
196,72,37928,1,8,0:0:0:0:
270,152,38110,1,0,0:0:0:0:
270,152,38291,1,8,0:0:0:0:
289,169,38473,1,0,0:0:0:0:
281,154,38564,1,0,0:0:0:0:
282,149,38655,1,8,0:0:0:0:
280,145,38746,1,8,0:0:0:0:
280,145,38837,1,0,0:0:0:0:
280,145,38928,1,8,0:0:0:0:
280,145,39019,1,0,0:0:0:0:
268,136,39201,1,8,0:0:0:0:
266,134,39291,1,8,0:0:0:0:
264,131,39382,1,0,0:0:0:0:
264,131,39564,1,8,0:0:0:0:
264,131,39746,1,0,0:0:0:0:
199,99,39928,1,8,0:0:0:0:
202,95,40019,1,8,0:0:0:0:
217,110,40110,1,0,0:0:0:0:
218,110,40291,1,8,0:0:0:0:
218,110,40473,1,0,0:0:0:0:
228,104,40655,1,8,0:0:0:0:
231,100,40746,1,8,0:0:0:0:
232,98,40837,1,0,0:0:0:0:
322,193,40928,1,0,0:0:0:0:
232,98,41019,1,8,0:0:0:0:
272,101,41201,1,0,0:0:0:0:
208,179,41382,1,12,0:0:0:0:
208,179,41564,1,12,0:0:0:0:
336,194,41746,1,0,0:0:0:0:
250,214,41837,1,8,0:0:0:0:
276,123,41928,1,0,0:0:0:0:
276,120,42110,1,8,0:0:0:0:
276,120,42201,1,8,0:0:0:0:
276,123,42291,1,0,0:0:0:0:
276,123,42473,1,8,0:0:0:0:
276,123,42655,1,0,0:0:0:0:
276,116,42837,1,8,0:0:0:0:
276,116,42928,1,8,0:0:0:0:
276,120,43019,1,0,0:0:0:0:
276,120,43201,1,8,0:0:0:0:
276,115,43382,1,0,0:0:0:0:
276,115,43564,1,8,0:0:0:0:
276,115,43655,1,8,0:0:0:0:
108,138,43746,1,0,0:0:0:0:
266,191,43928,1,8,0:0:0:0:
266,191,44110,1,0,0:0:0:0:
221,216,44291,1,8,0:0:0:0:
184,232,44382,1,8,0:0:0:0:
184,232,44473,1,0,0:0:0:0:
184,232,44564,1,8,0:0:0:0:
184,232,44655,1,0,0:0:0:0:
184,232,44746,1,0,0:0:0:0:
184,232,44837,1,8,0:0:0:0:
187,224,45019,1,0,0:0:0:0:
187,224,45110,1,0,0:0:0:0:
187,224,45201,1,8,0:0:0:0:
187,224,45382,1,0,0:0:0:0:
187,224,45564,1,8,0:0:0:0:
187,224,45746,1,0,0:0:0:0:
188,222,45837,1,0,0:0:0:0:
187,224,45928,1,8,0:0:0:0:
298,197,46019,1,8,0:0:0:0:
292,185,46110,1,0,0:0:0:0:
300,213,46291,1,8,0:0:0:0:
273,109,46382,1,0,0:0:0:0:
273,109,46473,1,0,0:0:0:0:
279,110,46564,1,8,0:0:0:0:
272,132,46655,1,0,0:0:0:0:
272,132,46746,1,0,0:0:0:0:
272,130,46837,1,8,0:0:0:0:
269,159,46928,1,8,0:0:0:0:
268,154,47019,1,0,0:0:0:0:
268,150,47110,1,8,0:0:0:0:
267,149,47201,1,0,0:0:0:0:
267,149,47291,1,0,0:0:0:0:
266,142,47382,1,8,0:0:0:0:
266,142,47473,1,8,0:0:0:0:
262,136,47564,1,0,0:0:0:0:
240,126,47746,1,12,0:0:0:0:
363,186,47928,1,0,0:0:0:0:
285,159,48019,1,0,0:0:0:0:
207,54,48110,1,8,0:0:0:0:
208,109,48291,1,0,0:0:0:0:
208,109,48473,1,8,0:0:0:0:
206,102,48655,1,0,0:0:0:0:
182,159,48746,1,0,0:0:0:0:
233,203,48837,1,8,0:0:0:0:
239,217,49019,1,0,0:0:0:0:
305,192,49201,1,8,0:0:0:0:
305,192,49382,1,0,0:0:0:0:
278,119,49473,1,0,0:0:0:0:
196,72,49564,1,8,0:0:0:0:
270,152,49746,1,0,0:0:0:0:
270,152,49928,1,8,0:0:0:0:
289,169,50110,1,0,0:0:0:0:
281,154,50201,1,0,0:0:0:0:
282,149,50291,1,8,0:0:0:0:
280,145,50382,1,8,0:0:0:0:
280,145,50473,1,0,0:0:0:0:
280,145,50564,1,8,0:0:0:0:
280,145,50655,1,0,0:0:0:0:
268,136,50837,1,8,0:0:0:0:
266,134,50928,1,8,0:0:0:0:
264,131,51019,1,0,0:0:0:0:
264,131,51201,1,8,0:0:0:0:
264,131,51382,1,0,0:0:0:0:
199,99,51564,1,8,0:0:0:0:
202,95,51655,1,8,0:0:0:0:
217,110,51746,1,0,0:0:0:0:
218,110,51928,1,8,0:0:0:0:
218,110,52110,1,0,0:0:0:0:
228,104,52291,1,8,0:0:0:0:
231,100,52382,1,8,0:0:0:0:
232,98,52473,1,0,0:0:0:0:
322,193,52564,1,0,0:0:0:0:
232,98,52655,1,8,0:0:0:0:
272,101,52837,1,0,0:0:0:0:
208,179,53019,1,12,0:0:0:0:
208,179,53201,1,12,0:0:0:0:
336,194,53382,1,0,0:0:0:0:
250,214,53473,1,8,0:0:0:0:
276,123,53564,1,0,0:0:0:0:
276,120,53746,1,8,0:0:0:0:
276,120,53837,1,8,0:0:0:0:
276,123,53928,1,0,0:0:0:0:
276,123,54110,1,8,0:0:0:0:
276,123,54291,1,0,0:0:0:0:
276,116,54473,1,8,0:0:0:0:
276,116,54564,1,8,0:0:0:0:
276,120,54655,1,0,0:0:0:0:
276,120,54837,1,8,0:0:0:0:
276,115,55019,1,0,0:0:0:0:
276,115,55201,1,8,0:0:0:0:
276,115,55291,1,8,0:0:0:0:
108,138,55382,1,0,0:0:0:0:
266,191,55564,1,8,0:0:0:0:
266,191,55746,1,0,0:0:0:0:
221,216,55928,1,8,0:0:0:0:
184,232,56019,1,8,0:0:0:0:
184,232,56110,1,0,0:0:0:0:
184,232,56201,1,8,0:0:0:0:
184,232,56291,1,0,0:0:0:0:
184,232,56382,1,0,0:0:0:0:
184,232,56473,1,8,0:0:0:0:
187,224,56655,1,0,0:0:0:0:
187,224,56746,1,0,0:0:0:0:
187,224,56837,1,8,0:0:0:0:
187,224,57019,1,0,0:0:0:0:
187,224,57201,1,8,0:0:0:0:
187,224,57382,1,0,0:0:0:0:
188,222,57473,1,0,0:0:0:0:
187,224,57564,1,8,0:0:0:0:
298,197,57655,1,8,0:0:0:0:
292,185,57746,1,0,0:0:0:0:
300,213,57928,1,8,0:0:0:0:
273,109,58019,1,0,0:0:0:0:
273,109,58110,1,0,0:0:0:0:
279,110,58201,1,8,0:0:0:0:
272,132,58382,1,0,0:0:0:0:
272,130,58473,1,8,0:0:0:0:
269,159,58564,1,8,0:0:0:0:
268,154,58655,1,0,0:0:0:0:
268,150,58746,1,8,0:0:0:0:
267,149,58837,1,0,0:0:0:0:
267,149,58928,1,0,0:0:0:0:
266,142,59019,1,8,0:0:0:0:
266,142,59110,1,8,0:0:0:0:
262,136,59201,1,0,0:0:0:0:
240,126,59382,1,12,0:0:0:0:
369,256,59564,1,0,0:0:0:0:
231,185,59655,1,0,0:0:0:0:
222,216,59746,1,0,0:0:0:0:
231,185,59928,1,8,0:0:0:0:
272,205,60110,1,0,0:0:0:0:
269,190,60201,1,0,0:0:0:0:
272,205,60291,1,0,0:0:0:0:
269,190,60382,1,0,0:0:0:0:
267,173,60473,1,8,0:0:0:0:
267,173,60655,1,8,0:0:0:0:
295,103,60837,1,0,0:0:0:0:
210,122,61019,1,0,0:0:0:0:
239,222,61110,1,0,0:0:0:0:
254,252,61201,1,8,0:0:0:0:
288,230,61382,1,0,0:0:0:0:
247,163,61564,1,8,0:0:0:0:
247,162,61655,1,8,0:0:0:0:
247,163,61746,1,0,0:0:0:0:
247,163,61837,1,0,0:0:0:0:
247,163,61928,1,8,0:0:0:0:
246,156,62019,1,0,0:0:0:0:
246,156,62110,1,8,0:0:0:0:
246,156,62201,1,8,0:0:0:0:
246,156,62291,1,0,0:0:0:0:
319,205,62473,1,8,0:0:0:0:
319,205,62564,1,8,0:0:0:0:
313,202,62655,1,8,0:0:0:0:
293,244,62837,1,0,0:0:0:0:
284,228,63019,1,8,0:0:0:0:
246,234,63110,1,8,0:0:0:0:
284,228,63201,1,8,0:0:0:0:
246,234,63291,1,8,0:0:0:0:
245,226,63382,1,0,0:0:0:0:
245,226,63564,1,8,0:0:0:0:
384,209,63746,1,8,0:0:0:0:
219,118,63837,1,8,0:0:0:0:
213,111,63928,1,0,0:0:0:0:
208,112,64110,1,8,0:0:0:0:
246,163,64291,1,0,0:0:0:0:
259,195,64382,1,0,0:0:0:0:
276,231,64473,1,8,0:0:0:0:
279,218,64564,1,0,0:0:0:0:
279,218,64655,1,8,0:0:0:0:
286,245,64746,1,8,0:0:0:0:
287,242,64837,1,0,0:0:0:0:
288,241,64928,1,0,0:0:0:0:
288,241,65019,1,8,0:0:0:0:
334,238,65201,1,4,0:0:0:0:
289,213,65382,1,8,0:0:0:0:
308,241,65473,1,8,0:0:0:0:
314,140,65564,1,0,0:0:0:0:
309,183,65655,1,8,0:0:0:0:
309,183,65746,1,0,0:0:0:0:
309,183,65837,1,0,0:0:0:0:
309,183,65928,1,8,0:0:0:0:
251,252,66019,1,8,0:0:0:0:
249,276,66110,1,0,0:0:0:0:
309,183,66201,1,0,0:0:0:0:
243,280,66291,1,8,0:0:0:0:
309,183,66382,1,8,0:0:0:0:
309,183,66473,1,0,0:0:0:0:
231,147,66655,1,12,0:0:0:0:
204,142,66837,1,0,0:0:0:0:
204,142,66928,1,0,0:0:0:0:
203,135,67019,1,8,0:0:0:0:
231,147,67110,1,0,0:0:0:0:
234,141,67201,1,8,0:0:0:0:
235,138,67291,1,8,0:0:0:0:
237,132,67382,1,0,0:0:0:0:
238,130,67473,1,0,0:0:0:0:
238,130,67564,1,8,0:0:0:0:
238,130,67655,1,8,0:0:0:0:
238,130,67746,1,0,0:0:0:0:
238,130,67837,1,0,0:0:0:0:
239,130,67928,1,8,0:0:0:0:
240,129,68110,1,4,0:0:0:0:
316,243,68291,1,8,0:0:0:0:
264,215,68382,1,8,0:0:0:0:
269,213,68473,1,0,0:0:0:0:
259,181,68564,1,8,0:0:0:0:
268,210,68655,1,0,0:0:0:0:
308,227,68746,1,0,0:0:0:0:
312,264,68837,1,8,0:0:0:0:
313,249,68928,1,0,0:0:0:0:
316,243,69019,1,0,0:0:0:0:
233,164,69110,1,8,0:0:0:0:
229,189,69201,1,0,0:0:0:0:
233,164,69291,1,0,0:0:0:0:
230,189,69382,1,8,0:0:0:0:
230,189,69564,1,0,0:0:0:0:
234,184,69655,1,0,0:0:0:0:
234,182,69746,1,0,0:0:0:0:
234,182,69928,1,8,0:0:0:0:
258,140,70019,1,8,0:0:0:0:
168,103,70110,1,0,0:0:0:0:
178,126,70201,1,8,0:0:0:0:
178,126,70291,1,0,0:0:0:0:
252,179,70473,1,12,0:0:0:0:
410,221,71019,1,0,0:0:0:0:
410,221,71110,1,0,0:0:0:0:
258,231,71201,1,0,0:0:0:0:
200,91,71382,1,8,0:0:0:0:
200,127,71473,1,8,0:0:0:0:
200,127,71564,1,0,0:0:0:0:
200,146,71655,1,8,0:0:0:0:
205,234,71746,1,0,0:0:0:0:
205,234,71928,1,8,0:0:0:0:
242,220,72110,1,0,0:0:0:0:
242,189,72201,1,0,0:0:0:0:
242,189,72291,1,8,0:0:0:0:
242,189,72473,1,0,0:0:0:0:
264,183,72655,1,8,0:0:0:0:
261,176,72746,1,8,0:0:0:0:
376,256,72837,1,0,0:0:0:0:
376,256,72928,1,8,0:0:0:0:
376,256,73019,1,0,0:0:0:0:
376,256,73110,1,0,0:0:0:0:
376,256,73201,1,8,0:0:0:0:
266,269,73291,1,0,0:0:0:0:
266,269,73382,1,8,0:0:0:0:
376,256,73473,1,8,0:0:0:0:
376,256,73564,1,0,0:0:0:0:
376,256,73655,1,0,0:0:0:0:
376,256,73746,1,8,0:0:0:0:
273,190,73928,1,0,0:0:0:0:
230,128,74019,1,0,0:0:0:0:
234,144,74110,1,0,0:0:0:0:
234,144,74291,1,8,0:0:0:0:
263,130,74473,1,0,0:0:0:0:
249,115,74564,1,8,0:0:0:0:
244,107,74655,1,0,0:0:0:0:
244,107,74746,1,0,0:0:0:0:
245,105,74837,1,8,0:0:0:0:
273,108,75019,1,0,0:0:0:0:
273,108,75201,1,8,0:0:0:0:
289,126,75291,1,8,0:0:0:0:
289,163,75382,1,0,0:0:0:0:
275,170,75473,1,8,0:0:0:0:
265,179,75564,1,0,0:0:0:0:
248,200,75655,1,0,0:0:0:0:
249,191,75746,1,8,0:0:0:0:
249,191,75837,1,0,0:0:0:0:
249,190,75928,1,8,0:0:0:0:
250,184,76019,1,8,0:0:0:0:
250,184,76110,1,0,0:0:0:0:
250,183,76201,1,8,0:0:0:0:
250,183,76291,1,0,0:0:0:0:
176,91,76382,1,0,0:0:0:0:
176,91,76473,1,8,0:0:0:0:
176,91,76564,1,8,0:0:0:0:
176,91,76655,1,0,0:0:0:0:
176,91,76837,1,8,0:0:0:0:
176,91,76928,1,8,0:0:0:0:
177,83,77019,1,8,0:0:0:0:
177,83,77201,1,0,0:0:0:0:
277,202,77291,1,0,0:0:0:0:
277,202,77382,1,8,0:0:0:0:
277,202,77473,1,0,0:0:0:0:
272,199,77564,1,8,0:0:0:0:
272,199,77746,1,0,0:0:0:0:
255,78,77928,1,8,0:0:0:0:
230,195,78019,1,8,0:0:0:0:
233,188,78110,1,0,0:0:0:0:
336,108,78291,1,8,0:0:0:0:
399,265,78473,1,0,0:0:0:0:
399,265,78564,1,0,0:0:0:0:
233,221,78655,1,8,0:0:0:0:
240,208,78746,1,0,0:0:0:0:
255,187,78837,1,8,0:0:0:0:
247,175,78928,1,8,0:0:0:0:
255,187,79019,1,0,0:0:0:0:
257,193,79110,1,0,0:0:0:0:
259,191,79201,1,8,0:0:0:0:
260,190,79291,1,0,0:0:0:0:
260,189,79382,1,8,0:0:0:0:
260,189,79473,1,8,0:0:0:0:
260,192,79564,1,0,0:0:0:0:
329,290,79746,1,8,0:0:0:0:
237,277,79837,1,8,0:0:0:0:
329,290,79928,1,8,0:0:0:0:
255,250,80110,1,0,0:0:0:0:
223,251,80291,1,8,0:0:0:0:
225,245,80382,1,8,0:0:0:0:
246,238,80473,1,0,0:0:0:0:
425,316,80564,1,8,0:0:0:0:
425,316,80655,1,0,0:0:0:0:
252,226,80746,1,0,0:0:0:0:
256,225,80837,1,8,0:0:0:0:
319,222,80928,1,8,0:0:0:0:
351,306,81019,1,0,0:0:0:0:
378,309,81110,1,8,0:0:0:0:
331,217,81201,1,0,0:0:0:0:
291,193,81382,1,12,0:0:0:0:
291,193,81564,1,12,0:0:0:0:
341,254,81746,1,0,0:0:0:0:
235,125,81837,1,0,0:0:0:0:
234,155,81928,1,8,0:0:0:0:
225,224,82019,1,8,0:0:0:0:
225,224,82110,1,0,0:0:0:0:
225,224,82201,1,0,0:0:0:0:
225,224,82291,1,8,0:0:0:0:
225,224,82382,1,8,0:0:0:0:
225,224,82473,1,0,0:0:0:0:
410,221,82655,1,8,0:0:0:0:
410,221,82746,1,8,0:0:0:0:
258,231,82837,1,8,0:0:0:0:
200,91,83019,1,0,0:0:0:0:
200,127,83110,1,0,0:0:0:0:
200,127,83201,1,8,0:0:0:0:
200,146,83291,1,0,0:0:0:0:
205,234,83382,1,8,0:0:0:0:
205,234,83564,1,0,0:0:0:0:
242,220,83746,1,8,0:0:0:0:
242,189,83837,1,8,0:0:0:0:
242,189,83928,1,0,0:0:0:0:
242,189,84110,1,8,0:0:0:0:
264,183,84291,1,0,0:0:0:0:
261,176,84382,1,0,0:0:0:0:
376,256,84473,1,8,0:0:0:0:
376,256,84564,1,0,0:0:0:0:
376,256,84655,1,8,0:0:0:0:
376,256,84746,1,8,0:0:0:0:
376,256,84837,1,0,0:0:0:0:
266,269,84928,1,8,0:0:0:0:
266,269,85019,1,0,0:0:0:0:
376,256,85110,1,0,0:0:0:0:
376,256,85201,1,8,0:0:0:0:
376,256,85291,1,8,0:0:0:0:
376,256,85382,1,0,0:0:0:0:
273,190,85564,1,8,0:0:0:0:
230,128,85655,1,8,0:0:0:0:
234,144,85746,1,8,0:0:0:0:
234,144,85928,1,0,0:0:0:0:
263,130,86110,1,8,0:0:0:0:
249,115,86201,1,0,0:0:0:0:
244,107,86291,1,8,0:0:0:0:
244,107,86382,1,8,0:0:0:0:
245,105,86473,1,0,0:0:0:0:
273,108,86655,1,8,0:0:0:0:
273,108,86837,1,0,0:0:0:0:
289,126,86928,1,0,0:0:0:0:
289,163,87019,1,8,0:0:0:0:
275,170,87110,1,0,0:0:0:0:
265,179,87201,1,8,0:0:0:0:
248,200,87291,1,8,0:0:0:0:
249,191,87382,1,0,0:0:0:0:
249,191,87473,1,8,0:0:0:0:
249,190,87564,1,0,0:0:0:0:
250,184,87655,1,0,0:0:0:0:
250,184,87746,1,8,0:0:0:0:
250,183,87837,1,0,0:0:0:0:
250,183,87928,1,8,0:0:0:0:
176,91,88019,1,8,0:0:0:0:
176,91,88110,1,0,0:0:0:0:
176,91,88201,1,0,0:0:0:0:
176,91,88291,1,8,0:0:0:0:
176,91,88473,1,0,0:0:0:0:
176,91,88564,1,0,0:0:0:0:
177,83,88655,1,0,0:0:0:0:
177,83,88837,1,8,0:0:0:0:
277,202,88928,1,8,0:0:0:0:
277,202,89019,1,0,0:0:0:0:
277,202,89110,1,8,0:0:0:0:
272,199,89201,1,0,0:0:0:0:
272,199,89382,1,8,0:0:0:0:
255,78,89564,1,0,0:0:0:0:
230,195,89655,1,0,0:0:0:0:
233,188,89746,1,8,0:0:0:0:
336,108,89928,1,0,0:0:0:0:
399,265,90110,1,8,0:0:0:0:
399,265,90201,1,8,0:0:0:0:
233,221,90291,1,0,0:0:0:0:
240,208,90382,1,8,0:0:0:0:
255,187,90473,1,0,0:0:0:0:
247,175,90564,1,0,0:0:0:0:
255,187,90655,1,8,0:0:0:0:
257,193,90746,1,8,0:0:0:0:
259,191,90837,1,0,0:0:0:0:
260,190,90928,1,8,0:0:0:0:
260,189,91019,1,0,0:0:0:0:
260,189,91110,1,0,0:0:0:0:
260,192,91201,1,8,0:0:0:0:
329,290,91382,1,0,0:0:0:0:
237,277,91473,1,0,0:0:0:0:
329,290,91564,1,0,0:0:0:0:
255,250,91746,1,8,0:0:0:0:
223,251,91928,1,0,0:0:0:0:
225,245,92019,1,0,0:0:0:0:
246,238,92110,1,8,0:0:0:0:
425,316,92201,1,0,0:0:0:0:
425,316,92291,1,8,0:0:0:0:
252,226,92382,1,8,0:0:0:0:
256,225,92473,1,0,0:0:0:0:
319,222,92564,1,0,0:0:0:0:
351,306,92655,1,8,0:0:0:0:
378,309,92746,1,0,0:0:0:0:
331,217,92837,1,8,0:0:0:0:
308,296,93019,1,0,0:0:0:0:
410,291,93110,1,8,0:0:0:0:
196,161,93201,1,8,0:0:0:0:
398,285,93291,1,0,0:0:0:0:
398,285,93382,1,8,0:0:0:0:
398,285,93473,1,8,0:0:0:0:
398,285,93564,1,0,0:0:0:0:
398,285,93655,1,0,0:0:0:0:
398,285,93746,1,8,0:0:0:0:
398,285,93837,1,8,0:0:0:0:
234,262,93928,1,0,0:0:0:0:
252,236,94019,1,0,0:0:0:0:
398,285,94110,1,8,0:0:0:0:
337,279,94291,1,4,0:0:0:0:
433,282,94473,1,8,0:0:0:0:
433,282,94564,1,0,0:0:0:0:
433,282,94746,1,8,0:0:0:0:
433,282,94837,1,0,0:0:0:0:
433,282,94928,1,0,0:0:0:0:
433,282,95019,1,8,0:0:0:0:
292,286,95201,1,8,0:0:0:0:
281,276,95382,1,0,0:0:0:0:
284,273,95564,1,8,0:0:0:0:
284,273,95746,1,0,0:0:0:0:
236,277,95928,1,8,0:0:0:0:
230,214,96019,1,8,0:0:0:0:
204,169,96110,1,0,0:0:0:0:
197,175,96201,1,8,0:0:0:0:
197,175,96291,1,0,0:0:0:0:
197,175,96382,1,0,0:0:0:0:
215,173,96473,1,8,0:0:0:0:
215,173,96655,1,8,0:0:0:0:
325,204,96837,1,0,0:0:0:0:
325,204,97019,1,0,0:0:0:0:
325,204,97201,1,8,0:0:0:0:
266,232,97382,1,0,0:0:0:0:
240,194,97473,1,8,0:0:0:0:
251,242,97655,1,0,0:0:0:0:
252,237,97746,1,8,0:0:0:0:
254,232,97837,1,8,0:0:0:0:
253,225,97928,1,0,0:0:0:0:
302,185,98110,1,0,0:0:0:0:
197,120,98291,1,8,0:0:0:0:
197,120,98473,1,0,0:0:0:0:
236,147,98655,1,8,0:0:0:0:
286,218,98837,1,0,0:0:0:0:
288,228,98928,1,0,0:0:0:0:
290,184,99019,1,8,0:0:0:0:
290,184,99110,1,8,0:0:0:0:
290,184,99201,1,0,0:0:0:0:
290,184,99291,1,0,0:0:0:0:
252,135,99382,1,8,0:0:0:0:
252,134,99473,1,8,0:0:0:0:
249,130,99564,1,0,0:0:0:0:
249,130,99655,1,8,0:0:0:0:
249,130,99746,1,0,0:0:0:0:
249,130,99837,1,0,0:0:0:0:
249,130,99928,1,8,0:0:0:0:
249,130,100110,1,4,0:0:0:0:
240,157,100291,1,8,0:0:0:0:
277,108,100382,1,0,0:0:0:0:
278,97,100564,1,8,0:0:0:0:
269,109,100655,1,0,0:0:0:0:
269,109,100746,1,0,0:0:0:0:
269,109,100837,1,8,0:0:0:0:
269,109,101019,1,8,0:0:0:0:
271,109,101201,1,0,0:0:0:0:
269,109,101382,1,8,0:0:0:0:
203,166,101564,1,0,0:0:0:0:
203,166,101746,1,8,0:0:0:0:
209,155,101837,1,8,0:0:0:0:
213,149,101928,1,0,0:0:0:0:
214,149,102019,1,8,0:0:0:0:
215,149,102110,1,0,0:0:0:0:
215,149,102201,1,0,0:0:0:0:
216,149,102291,1,8,0:0:0:0:
216,149,102473,1,8,0:0:0:0:
216,149,102655,1,0,0:0:0:0:
216,149,102837,1,0,0:0:0:0:
214,149,103019,1,8,0:0:0:0:
215,149,103201,1,0,0:0:0:0:
231,109,103291,1,8,0:0:0:0:
231,109,103473,1,0,0:0:0:0:
237,105,103564,1,8,0:0:0:0:
243,100,103655,1,8,0:0:0:0:
243,100,103746,1,0,0:0:0:0:
243,100,103928,1,0,0:0:0:0:
267,120,104110,1,8,0:0:0:0:
267,120,104291,1,0,0:0:0:0:
257,158,104473,1,8,0:0:0:0:
269,130,104564,1,0,0:0:0:0:
261,185,104655,1,0,0:0:0:0:
261,185,104746,1,8,0:0:0:0:
261,180,104837,1,0,0:0:0:0:
261,182,104928,1,0,0:0:0:0:
263,175,105019,1,8,0:0:0:0:
344,249,105110,1,8,0:0:0:0:
263,174,105201,1,0,0:0:0:0:
261,232,105291,1,8,0:0:0:0:
263,222,105382,1,0,0:0:0:0:
263,222,105473,1,0,0:0:0:0:
263,222,105564,1,8,0:0:0:0:
231,159,105655,1,8,0:0:0:0:
231,159,105746,1,0,0:0:0:0:
232,189,105928,1,12,0:0:0:0:
320,260,106291,1,0,0:0:0:0:
320,260,106473,1,8,0:0:0:0:
158,164,106564,1,8,0:0:0:0:
158,164,106655,1,8,0:0:0:0:
158,164,106746,1,8,0:0:0:0:
158,164,106837,1,0,0:0:0:0:
158,164,107019,1,8,0:0:0:0:
243,215,107382,1,0,0:0:0:0:
243,215,107564,1,0,0:0:0:0:
243,215,107746,1,8,0:0:0:0:
306,114,107928,1,0,0:0:0:0:
306,114,108019,1,8,0:0:0:0:
202,135,108110,1,0,0:0:0:0:
202,135,108291,1,8,0:0:0:0:
241,126,108473,1,0,0:0:0:0:
241,126,108564,1,0,0:0:0:0:
242,121,108655,1,8,0:0:0:0:
288,213,108837,1,4,0:0:0:0:
268,136,109019,1,8,0:0:0:0:
266,134,109110,1,8,0:0:0:0:
264,131,109201,1,0,0:0:0:0:
264,131,109382,1,8,0:0:0:0:
264,131,109564,1,0,0:0:0:0:
199,99,109746,1,8,0:0:0:0:
202,95,109837,1,8,0:0:0:0:
217,110,109928,1,0,0:0:0:0:
218,110,110110,1,8,0:0:0:0:
218,110,110291,1,0,0:0:0:0:
228,104,110473,1,8,0:0:0:0:
231,100,110564,1,8,0:0:0:0:
232,98,110655,1,0,0:0:0:0:
322,193,110746,1,0,0:0:0:0:
232,98,110837,1,8,0:0:0:0:
272,101,111019,1,0,0:0:0:0:
208,179,111201,1,12,0:0:0:0:
208,179,111382,1,12,0:0:0:0:
336,194,111564,1,0,0:0:0:0:
250,214,111655,1,8,0:0:0:0:
276,123,111746,1,0,0:0:0:0:
276,120,111928,1,8,0:0:0:0:
276,120,112019,1,8,0:0:0:0:
276,123,112110,1,0,0:0:0:0:
276,123,112291,1,8,0:0:0:0:
276,123,112473,1,0,0:0:0:0:
276,116,112655,1,8,0:0:0:0:
276,116,112746,1,8,0:0:0:0:
276,120,112837,1,0,0:0:0:0:
276,120,113019,1,8,0:0:0:0:
276,115,113201,1,0,0:0:0:0:
276,115,113382,1,8,0:0:0:0:
276,115,113473,1,8,0:0:0:0:
108,138,113564,1,0,0:0:0:0:
266,191,113746,1,8,0:0:0:0:
266,191,113928,1,0,0:0:0:0:
221,216,114110,1,8,0:0:0:0:
184,232,114201,1,8,0:0:0:0:
184,232,114291,1,0,0:0:0:0:
184,232,114382,1,8,0:0:0:0:
184,232,114473,1,0,0:0:0:0:
184,232,114564,1,0,0:0:0:0:
184,232,114655,1,8,0:0:0:0:
187,224,114837,1,0,0:0:0:0:
187,224,114928,1,0,0:0:0:0:
187,224,115019,1,8,0:0:0:0:
187,224,115201,1,0,0:0:0:0:
187,224,115382,1,8,0:0:0:0:
187,224,115564,1,0,0:0:0:0:
188,222,115655,1,0,0:0:0:0:
187,224,115746,1,8,0:0:0:0:
298,197,115837,1,8,0:0:0:0:
292,185,115928,1,0,0:0:0:0:
300,213,116110,1,8,0:0:0:0:
273,109,116201,1,0,0:0:0:0:
273,109,116291,1,0,0:0:0:0:
279,110,116382,1,8,0:0:0:0:
272,132,116473,1,0,0:0:0:0:
272,132,116564,1,0,0:0:0:0:
272,130,116655,1,8,0:0:0:0:
269,159,116746,1,8,0:0:0:0:
268,154,116837,1,0,0:0:0:0:
268,150,116928,1,8,0:0:0:0:
267,149,117019,1,0,0:0:0:0:
267,149,117110,1,0,0:0:0:0:
266,142,117201,1,8,0:0:0:0:
266,142,117291,1,8,0:0:0:0:
262,136,117382,1,0,0:0:0:0:
240,126,117564,1,12,0:0:0:0:
363,186,117746,1,0,0:0:0:0:
285,159,117837,1,0,0:0:0:0:
207,54,117928,1,8,0:0:0:0:
208,109,118110,1,0,0:0:0:0:
208,109,118291,1,8,0:0:0:0:
206,102,118473,1,0,0:0:0:0:
182,159,118564,1,0,0:0:0:0:
233,203,118655,1,8,0:0:0:0:
239,217,118837,1,0,0:0:0:0:
305,192,119019,1,8,0:0:0:0:
305,192,119201,1,0,0:0:0:0:
278,119,119291,1,0,0:0:0:0:
196,72,119382,1,8,0:0:0:0:
270,152,119564,1,0,0:0:0:0:
270,152,119746,1,8,0:0:0:0:
289,169,119928,1,0,0:0:0:0:
281,154,120019,1,0,0:0:0:0:
282,149,120110,1,8,0:0:0:0:
280,145,120201,1,8,0:0:0:0:
280,145,120291,1,0,0:0:0:0:
280,145,120382,1,8,0:0:0:0:
280,145,120473,1,0,0:0:0:0:
268,136,120655,1,8,0:0:0:0:
266,134,120746,1,8,0:0:0:0:
264,131,120837,1,0,0:0:0:0:
264,131,121019,1,8,0:0:0:0:
264,131,121201,1,0,0:0:0:0:
199,99,121382,1,8,0:0:0:0:
202,95,121473,1,8,0:0:0:0:
217,110,121564,1,0,0:0:0:0:
218,110,121746,1,8,0:0:0:0:
218,110,121928,1,0,0:0:0:0:
228,104,122110,1,8,0:0:0:0:
231,100,122201,1,8,0:0:0:0:
232,98,122291,1,0,0:0:0:0:
322,193,122382,1,0,0:0:0:0:
232,98,122473,1,8,0:0:0:0:
272,101,122655,1,0,0:0:0:0:
208,179,122837,1,12,0:0:0:0:
208,179,123019,1,12,0:0:0:0:
336,194,123201,1,0,0:0:0:0:
250,214,123291,1,8,0:0:0:0:
276,123,123382,1,0,0:0:0:0:
276,120,123564,1,8,0:0:0:0:
276,120,123655,1,8,0:0:0:0:
276,123,123746,1,0,0:0:0:0:
276,123,123928,1,8,0:0:0:0:
276,123,124110,1,0,0:0:0:0:
276,116,124291,1,8,0:0:0:0:
276,116,124382,1,8,0:0:0:0:
276,120,124473,1,0,0:0:0:0:
276,120,124655,1,8,0:0:0:0:
276,115,124837,1,0,0:0:0:0:
276,115,125019,1,8,0:0:0:0:
276,115,125110,1,8,0:0:0:0:
108,138,125201,1,0,0:0:0:0:
266,191,125382,1,8,0:0:0:0:
266,191,125564,1,0,0:0:0:0:
221,216,125746,1,8,0:0:0:0:
184,232,125837,1,8,0:0:0:0:
184,232,125928,1,0,0:0:0:0:
184,232,126019,1,8,0:0:0:0:
184,232,126110,1,0,0:0:0:0:
184,232,126201,1,0,0:0:0:0:
184,232,126291,1,8,0:0:0:0:
187,224,126473,1,0,0:0:0:0:
187,224,126564,1,0,0:0:0:0:
187,224,126655,1,8,0:0:0:0:
187,224,126837,1,0,0:0:0:0:
187,224,127019,1,8,0:0:0:0:
187,224,127201,1,0,0:0:0:0:
188,222,127291,1,0,0:0:0:0:
187,224,127382,1,8,0:0:0:0:
298,197,127473,1,8,0:0:0:0:
292,185,127564,1,0,0:0:0:0:
300,213,127746,1,8,0:0:0:0:
273,109,127837,1,0,0:0:0:0:
273,109,127928,1,0,0:0:0:0:
279,110,128019,1,8,0:0:0:0:
272,132,128201,1,0,0:0:0:0:
272,130,128291,1,8,0:0:0:0:
269,159,128382,1,8,0:0:0:0:
268,154,128473,1,0,0:0:0:0:
268,150,128564,1,8,0:0:0:0:
267,149,128655,1,0,0:0:0:0:
267,149,128746,1,0,0:0:0:0:
266,142,128837,1,8,0:0:0:0:
266,142,128928,1,8,0:0:0:0:
262,136,129019,1,0,0:0:0:0:
240,126,129201,1,12,0:0:0:0:
369,256,129382,1,0,0:0:0:0:
231,185,129473,1,0,0:0:0:0:
222,216,129564,1,0,0:0:0:0:
231,185,129746,1,8,0:0:0:0:
272,205,129928,1,0,0:0:0:0:
269,190,130019,1,0,0:0:0:0:
272,205,130110,1,0,0:0:0:0:
269,190,130201,1,0,0:0:0:0:
267,173,130291,1,8,0:0:0:0:
267,173,130473,1,8,0:0:0:0:
295,103,130655,1,0,0:0:0:0:
210,122,130837,1,0,0:0:0:0:
239,222,130928,1,0,0:0:0:0:
254,252,131019,1,8,0:0:0:0:
288,230,131201,1,0,0:0:0:0:
247,163,131382,1,8,0:0:0:0:
247,162,131473,1,8,0:0:0:0:
247,163,131564,1,0,0:0:0:0:
247,163,131655,1,0,0:0:0:0:
247,163,131746,1,8,0:0:0:0:
246,156,131837,1,0,0:0:0:0:
246,156,131928,1,8,0:0:0:0:
246,156,132019,1,8,0:0:0:0:
246,156,132110,1,0,0:0:0:0:
319,205,132291,1,8,0:0:0:0:
319,205,132382,1,8,0:0:0:0:
313,202,132473,1,8,0:0:0:0:
293,244,132655,1,0,0:0:0:0:
284,228,132837,1,8,0:0:0:0:
246,234,132928,1,8,0:0:0:0:
284,228,133019,1,8,0:0:0:0:
246,234,133110,1,8,0:0:0:0:
245,226,133201,1,0,0:0:0:0:
245,226,133382,1,8,0:0:0:0:
384,209,133564,1,8,0:0:0:0:
219,118,133655,1,8,0:0:0:0:
213,111,133746,1,0,0:0:0:0:
208,112,133928,1,8,0:0:0:0:
246,163,134110,1,0,0:0:0:0:
259,195,134201,1,0,0:0:0:0:
276,231,134291,1,8,0:0:0:0:
279,218,134382,1,0,0:0:0:0:
279,218,134473,1,8,0:0:0:0:
286,245,134564,1,8,0:0:0:0:
287,242,134655,1,0,0:0:0:0:
288,241,134746,1,0,0:0:0:0:
288,241,134837,1,8,0:0:0:0:
334,238,135019,1,4,0:0:0:0:
289,213,135201,1,8,0:0:0:0:
308,241,135291,1,8,0:0:0:0:
314,140,135382,1,0,0:0:0:0:
309,183,135473,1,8,0:0:0:0:
309,183,135564,1,0,0:0:0:0:
309,183,135655,1,0,0:0:0:0:
309,183,135746,1,8,0:0:0:0:
251,252,135837,1,8,0:0:0:0:
249,276,135928,1,0,0:0:0:0:
309,183,136019,1,0,0:0:0:0:
243,280,136110,1,8,0:0:0:0:
309,183,136201,1,8,0:0:0:0:
309,183,136291,1,0,0:0:0:0:
231,147,136473,1,12,0:0:0:0:
204,142,136655,1,0,0:0:0:0:
204,142,136746,1,0,0:0:0:0:
203,135,136837,1,8,0:0:0:0:
231,147,136928,1,0,0:0:0:0:
234,141,137019,1,8,0:0:0:0:
235,138,137110,1,8,0:0:0:0:
237,132,137201,1,0,0:0:0:0:
238,130,137291,1,0,0:0:0:0:
238,130,137382,1,8,0:0:0:0:
238,130,137473,1,8,0:0:0:0:
238,130,137564,1,0,0:0:0:0:
238,130,137655,1,0,0:0:0:0:
239,130,137746,1,8,0:0:0:0:
240,129,137928,1,4,0:0:0:0:
316,243,138110,1,8,0:0:0:0:
264,215,138201,1,8,0:0:0:0:
269,213,138291,1,0,0:0:0:0:
259,181,138382,1,8,0:0:0:0:
268,210,138473,1,0,0:0:0:0:
308,227,138564,1,0,0:0:0:0:
312,264,138655,1,8,0:0:0:0:
313,249,138746,1,0,0:0:0:0:
316,243,138837,1,0,0:0:0:0:
233,164,138928,1,8,0:0:0:0:
229,189,139019,1,0,0:0:0:0:
233,164,139110,1,0,0:0:0:0:
230,189,139201,1,8,0:0:0:0:
230,189,139382,1,0,0:0:0:0:
234,184,139473,1,0,0:0:0:0:
234,182,139564,1,0,0:0:0:0:
234,182,139746,1,8,0:0:0:0:
258,140,139837,1,8,0:0:0:0:
168,103,139928,1,0,0:0:0:0:
178,126,140019,1,8,0:0:0:0:
178,126,140110,1,0,0:0:0:0:
252,179,140291,1,12,0:0:0:0:
410,221,140837,1,0,0:0:0:0:
410,221,140928,1,0,0:0:0:0:
258,231,141019,1,0,0:0:0:0:
200,91,141201,1,8,0:0:0:0:
200,127,141291,1,8,0:0:0:0:
200,127,141382,1,0,0:0:0:0:
200,146,141473,1,8,0:0:0:0:
205,234,141564,1,0,0:0:0:0:
205,234,141746,1,8,0:0:0:0:
242,220,141928,1,0,0:0:0:0:
242,189,142019,1,0,0:0:0:0:
242,189,142110,1,8,0:0:0:0:
242,189,142291,1,0,0:0:0:0:
264,183,142473,1,8,0:0:0:0:
261,176,142564,1,8,0:0:0:0:
376,256,142655,1,0,0:0:0:0:
376,256,142746,1,8,0:0:0:0:
376,256,142837,1,0,0:0:0:0:
376,256,142928,1,0,0:0:0:0:
376,256,143019,1,8,0:0:0:0:
266,269,143110,1,0,0:0:0:0:
266,269,143201,1,8,0:0:0:0:
376,256,143291,1,8,0:0:0:0:
376,256,143382,1,0,0:0:0:0:
376,256,143473,1,0,0:0:0:0:
376,256,143564,1,8,0:0:0:0:
273,190,143746,1,0,0:0:0:0:
230,128,143837,1,0,0:0:0:0:
234,144,143928,1,0,0:0:0:0:
234,144,144110,1,8,0:0:0:0:
263,130,144291,1,0,0:0:0:0:
249,115,144382,1,8,0:0:0:0:
244,107,144473,1,0,0:0:0:0:
244,107,144564,1,0,0:0:0:0:
245,105,144655,1,8,0:0:0:0:
273,108,144837,1,0,0:0:0:0:
273,108,145019,1,8,0:0:0:0:
289,126,145110,1,8,0:0:0:0:
289,163,145201,1,0,0:0:0:0:
275,170,145291,1,8,0:0:0:0:
265,179,145382,1,0,0:0:0:0:
248,200,145473,1,0,0:0:0:0:
249,191,145564,1,8,0:0:0:0:
249,191,145655,1,0,0:0:0:0:
249,190,145746,1,8,0:0:0:0:
250,184,145837,1,8,0:0:0:0:
250,184,145928,1,0,0:0:0:0:
250,183,146019,1,8,0:0:0:0:
250,183,146110,1,0,0:0:0:0:
176,91,146201,1,0,0:0:0:0:
176,91,146291,1,8,0:0:0:0:
176,91,146382,1,8,0:0:0:0:
176,91,146473,1,0,0:0:0:0:
176,91,146655,1,8,0:0:0:0:
176,91,146746,1,8,0:0:0:0:
177,83,146837,1,8,0:0:0:0:
177,83,147019,1,0,0:0:0:0:
277,202,147110,1,0,0:0:0:0:
277,202,147201,1,8,0:0:0:0:
277,202,147291,1,0,0:0:0:0:
272,199,147382,1,8,0:0:0:0:
272,199,147564,1,0,0:0:0:0:
255,78,147746,1,8,0:0:0:0:
230,195,147837,1,8,0:0:0:0:
233,188,147928,1,0,0:0:0:0:
336,108,148110,1,8,0:0:0:0:
399,265,148291,1,0,0:0:0:0:
399,265,148382,1,0,0:0:0:0:
233,221,148473,1,8,0:0:0:0:
240,208,148564,1,0,0:0:0:0:
255,187,148655,1,8,0:0:0:0:
247,175,148746,1,8,0:0:0:0:
255,187,148837,1,0,0:0:0:0:
257,193,148928,1,0,0:0:0:0:
259,191,149019,1,8,0:0:0:0:
260,190,149110,1,0,0:0:0:0:
260,189,149201,1,8,0:0:0:0:
260,189,149291,1,8,0:0:0:0:
260,192,149382,1,0,0:0:0:0:
329,290,149564,1,8,0:0:0:0:
237,277,149655,1,8,0:0:0:0:
329,290,149746,1,8,0:0:0:0:
255,250,149928,1,0,0:0:0:0:
223,251,150110,1,8,0:0:0:0:
225,245,150201,1,8,0:0:0:0:
246,238,150291,1,0,0:0:0:0:
425,316,150382,1,8,0:0:0:0:
425,316,150473,1,0,0:0:0:0:
252,226,150564,1,0,0:0:0:0:
256,225,150655,1,8,0:0:0:0:
319,222,150746,1,8,0:0:0:0:
351,306,150837,1,0,0:0:0:0:
378,309,150928,1,8,0:0:0:0:
331,217,151019,1,0,0:0:0:0:
291,193,151201,1,12,0:0:0:0:
291,193,151382,1,12,0:0:0:0:
341,254,151564,1,0,0:0:0:0:
235,125,151655,1,0,0:0:0:0:
234,155,151746,1,8,0:0:0:0:
225,224,151837,1,8,0:0:0:0:
225,224,151928,1,0,0:0:0:0:
225,224,152019,1,0,0:0:0:0:
225,224,152110,1,8,0:0:0:0:
225,224,152201,1,8,0:0:0:0:
225,224,152291,1,0,0:0:0:0:
410,221,152473,1,8,0:0:0:0:
410,221,152564,1,8,0:0:0:0:
258,231,152655,1,8,0:0:0:0:
200,91,152837,1,0,0:0:0:0:
200,127,152928,1,0,0:0:0:0:
200,127,153019,1,8,0:0:0:0:
200,146,153110,1,0,0:0:0:0:
205,234,153201,1,8,0:0:0:0:
205,234,153382,1,0,0:0:0:0:
242,220,153564,1,8,0:0:0:0:
242,189,153655,1,8,0:0:0:0:
242,189,153746,1,0,0:0:0:0:
242,189,153928,1,8,0:0:0:0:
264,183,154110,1,0,0:0:0:0:
261,176,154201,1,0,0:0:0:0:
376,256,154291,1,8,0:0:0:0:
376,256,154382,1,0,0:0:0:0:
376,256,154473,1,8,0:0:0:0:
376,256,154564,1,8,0:0:0:0:
376,256,154655,1,0,0:0:0:0:
266,269,154746,1,8,0:0:0:0:
266,269,154837,1,0,0:0:0:0:
376,256,154928,1,0,0:0:0:0:
376,256,155019,1,8,0:0:0:0:
376,256,155110,1,8,0:0:0:0:
376,256,155201,1,0,0:0:0:0:
273,190,155382,1,8,0:0:0:0:
230,128,155473,1,8,0:0:0:0:
234,144,155564,1,8,0:0:0:0:
234,144,155746,1,0,0:0:0:0:
263,130,155928,1,8,0:0:0:0:
249,115,156019,1,0,0:0:0:0:
244,107,156110,1,8,0:0:0:0:
244,107,156201,1,8,0:0:0:0:
245,105,156291,1,0,0:0:0:0:
273,108,156473,1,8,0:0:0:0:
273,108,156655,1,0,0:0:0:0:
289,126,156746,1,0,0:0:0:0:
289,163,156837,1,8,0:0:0:0:
275,170,156928,1,0,0:0:0:0:
265,179,157019,1,8,0:0:0:0:
248,200,157110,1,8,0:0:0:0:
249,191,157201,1,0,0:0:0:0:
249,191,157291,1,8,0:0:0:0:
249,190,157382,1,0,0:0:0:0:
250,184,157473,1,0,0:0:0:0:
250,184,157564,1,8,0:0:0:0:
250,183,157655,1,0,0:0:0:0:
250,183,157746,1,8,0:0:0:0:
176,91,157837,1,8,0:0:0:0:
176,91,157928,1,0,0:0:0:0:
176,91,158019,1,0,0:0:0:0:
176,91,158110,1,8,0:0:0:0:
176,91,158291,1,0,0:0:0:0:
176,91,158382,1,0,0:0:0:0:
177,83,158473,1,0,0:0:0:0:
177,83,158655,1,8,0:0:0:0:
277,202,158746,1,8,0:0:0:0:
277,202,158837,1,0,0:0:0:0:
277,202,158928,1,8,0:0:0:0:
272,199,159019,1,0,0:0:0:0:
272,199,159201,1,8,0:0:0:0:
255,78,159382,1,0,0:0:0:0:
230,195,159473,1,0,0:0:0:0:
233,188,159564,1,8,0:0:0:0:
336,108,159746,1,0,0:0:0:0:
399,265,159928,1,8,0:0:0:0:
399,265,160019,1,8,0:0:0:0:
233,221,160110,1,0,0:0:0:0:
240,208,160201,1,8,0:0:0:0:
255,187,160291,1,0,0:0:0:0:
247,175,160382,1,0,0:0:0:0:
255,187,160473,1,8,0:0:0:0:
257,193,160564,1,8,0:0:0:0:
259,191,160655,1,0,0:0:0:0:
260,190,160746,1,8,0:0:0:0:
260,189,160837,1,0,0:0:0:0:
260,189,160928,1,0,0:0:0:0:
260,192,161019,1,8,0:0:0:0:
329,290,161201,1,0,0:0:0:0:
237,277,161291,1,0,0:0:0:0:
329,290,161382,1,0,0:0:0:0:
255,250,161564,1,8,0:0:0:0:
223,251,161746,1,0,0:0:0:0:
225,245,161837,1,0,0:0:0:0:
246,238,161928,1,8,0:0:0:0:
425,316,162019,1,0,0:0:0:0:
425,316,162110,1,8,0:0:0:0:
252,226,162201,1,8,0:0:0:0:
256,225,162291,1,0,0:0:0:0:
319,222,162382,1,0,0:0:0:0:
351,306,162473,1,8,0:0:0:0:
378,309,162564,1,0,0:0:0:0:
331,217,162655,1,8,0:0:0:0:
308,296,162837,1,0,0:0:0:0:
410,291,162928,1,8,0:0:0:0:
196,161,163019,1,8,0:0:0:0:
398,285,163110,1,0,0:0:0:0:
398,285,163201,1,8,0:0:0:0:
398,285,163291,1,8,0:0:0:0:
398,285,163382,1,0,0:0:0:0:
398,285,163473,1,0,0:0:0:0:
398,285,163564,1,8,0:0:0:0:
398,285,163655,1,8,0:0:0:0:
234,262,163746,1,0,0:0:0:0:
252,236,163837,1,0,0:0:0:0:
398,285,163928,1,8,0:0:0:0:
337,279,164110,1,4,0:0:0:0:
320,194,165382,1,12,0:0:0:0:
320,194,165564,1,4,0:0:0:0:
320,194,167019,1,4,0:0:0:0:
222,220,168291,1,0,0:0:0:0:
272,138,168473,1,12,0:0:0:0:
272,138,169201,1,0,0:0:0:0:
144,180,169291,1,0,0:0:0:0:
155,302,169382,1,8,0:0:0:0:
135,231,169473,1,8,0:0:0:0:
141,219,169564,1,0,0:0:0:0:
152,228,169655,1,0,0:0:0:0:
132,190,169746,1,8,0:0:0:0:
249,130,169928,1,4,0:0:0:0:
240,157,170110,1,8,0:0:0:0:
277,108,170201,1,0,0:0:0:0:
278,97,170382,1,8,0:0:0:0:
269,109,170473,1,0,0:0:0:0:
269,109,170564,1,0,0:0:0:0:
269,109,170655,1,8,0:0:0:0:
269,109,170837,1,8,0:0:0:0:
271,109,171019,1,0,0:0:0:0:
269,109,171201,1,8,0:0:0:0:
203,166,171382,1,0,0:0:0:0:
203,166,171564,1,8,0:0:0:0:
209,155,171655,1,8,0:0:0:0:
213,149,171746,1,0,0:0:0:0:
214,149,171837,1,8,0:0:0:0:
215,149,171928,1,0,0:0:0:0:
215,149,172019,1,0,0:0:0:0:
216,149,172110,1,8,0:0:0:0:
216,149,172291,1,8,0:0:0:0:
216,149,172473,1,0,0:0:0:0:
216,149,172655,1,0,0:0:0:0:
214,149,172837,1,8,0:0:0:0:
215,149,173019,1,0,0:0:0:0:
231,109,173110,1,8,0:0:0:0:
231,109,173291,1,0,0:0:0:0:
237,105,173382,1,8,0:0:0:0:
243,100,173473,1,8,0:0:0:0:
243,100,173564,1,0,0:0:0:0:
243,100,173746,1,0,0:0:0:0:
267,120,173928,1,8,0:0:0:0:
267,120,174110,1,0,0:0:0:0:
257,158,174291,1,8,0:0:0:0:
269,130,174382,1,0,0:0:0:0:
261,185,174473,1,0,0:0:0:0:
261,185,174564,1,8,0:0:0:0:
261,180,174655,1,0,0:0:0:0:
261,182,174746,1,0,0:0:0:0:
263,175,174837,1,8,0:0:0:0:
344,249,174928,1,8,0:0:0:0:
263,174,175019,1,0,0:0:0:0:
261,232,175110,1,8,0:0:0:0:
263,222,175201,1,0,0:0:0:0:
263,222,175291,1,0,0:0:0:0:
263,222,175382,1,8,0:0:0:0:
231,159,175473,1,8,0:0:0:0:
231,159,175564,1,0,0:0:0:0:
232,189,175746,1,12,0:0:0:0:
460,252,176110,1,0,0:0:0:0:
263,213,176291,1,8,0:0:0:0:
275,88,176382,1,8,0:0:0:0:
280,120,176473,1,0,0:0:0:0:
280,120,176655,1,0,0:0:0:0:
280,120,176837,1,8,0:0:0:0:
225,110,176928,1,8,0:0:0:0:
212,95,177019,1,0,0:0:0:0:
212,95,177201,1,8,0:0:0:0:
194,120,177564,1,0,0:0:0:0:
194,120,177746,1,0,0:0:0:0:
225,110,177928,1,8,0:0:0:0:
221,110,178019,1,8,0:0:0:0:
220,111,178110,1,8,0:0:0:0:
225,110,178291,1,0,0:0:0:0:
225,110,178473,1,8,0:0:0:0:
225,110,178655,1,0,0:0:0:0:
339,172,179019,1,8,0:0:0:0:
339,172,179201,1,0,0:0:0:0:
339,172,179291,1,0,0:0:0:0:
291,167,179382,1,8,0:0:0:0:
291,167,179564,1,8,0:0:0:0:
291,167,179746,1,0,0:0:0:0:
244,203,179837,1,0,0:0:0:0:
291,167,179928,1,8,0:0:0:0:
225,226,180110,1,0,0:0:0:0:
246,252,180473,1,8,0:0:0:0:
456,255,180655,1,0,0:0:0:0:
318,325,180746,1,0,0:0:0:0:
167,100,180837,1,0,0:0:0:0:
167,100,181019,1,12,0:0:0:0:
90,147,181201,1,12,0:0:0:0:
303,229,181382,1,0,0:0:0:0:
215,119,181473,1,0,0:0:0:0:
215,119,181564,1,8,0:0:0:0:
460,252,181928,1,0,0:0:0:0:
263,213,182110,1,8,0:0:0:0:
275,88,182201,1,8,0:0:0:0:
280,120,182291,1,0,0:0:0:0:
280,120,182473,1,0,0:0:0:0:
280,120,182655,1,8,0:0:0:0:
225,110,182746,1,8,0:0:0:0:
212,95,182837,1,0,0:0:0:0:
212,95,183019,1,8,0:0:0:0:
194,120,183382,1,0,0:0:0:0:
194,120,183564,1,0,0:0:0:0:
225,110,183746,1,8,0:0:0:0:
221,110,183837,1,8,0:0:0:0:
220,111,183928,1,8,0:0:0:0:
225,110,184110,1,0,0:0:0:0:
225,110,184291,1,8,0:0:0:0:
225,110,184473,1,0,0:0:0:0:
339,172,184837,1,8,0:0:0:0:
339,172,185019,1,0,0:0:0:0:
339,172,185110,1,0,0:0:0:0:
291,167,185201,1,8,0:0:0:0:
291,167,185382,1,8,0:0:0:0:
291,167,185564,1,0,0:0:0:0:
244,203,185655,1,0,0:0:0:0:
291,167,185746,1,8,0:0:0:0:
225,226,185928,1,0,0:0:0:0:
285,132,186291,1,8,0:0:0:0:
254,100,186473,1,4,0:0:0:0:
285,86,186837,1,8,0:0:0:0:
191,66,186928,1,8,0:0:0:0:
208,87,187019,1,0,0:0:0:0:
208,87,187110,1,8,0:0:0:0:
209,104,187201,1,0,0:0:0:0:
240,126,187382,1,12,0:0:0:0:
363,186,187564,1,0,0:0:0:0:
285,159,187655,1,0,0:0:0:0:
207,54,187746,1,8,0:0:0:0:
208,109,187928,1,0,0:0:0:0:
208,109,188110,1,8,0:0:0:0:
206,102,188291,1,0,0:0:0:0:
182,159,188382,1,0,0:0:0:0:
233,203,188473,1,8,0:0:0:0:
239,217,188655,1,0,0:0:0:0:
305,192,188837,1,8,0:0:0:0:
305,192,189019,1,0,0:0:0:0:
278,119,189110,1,0,0:0:0:0:
196,72,189201,1,8,0:0:0:0:
270,152,189382,1,0,0:0:0:0:
270,152,189564,1,8,0:0:0:0:
289,169,189746,1,0,0:0:0:0:
281,154,189837,1,0,0:0:0:0:
282,149,189928,1,8,0:0:0:0:
280,145,190019,1,8,0:0:0:0:
280,145,190110,1,0,0:0:0:0:
280,145,190201,1,8,0:0:0:0:
280,145,190291,1,0,0:0:0:0:
268,136,190473,1,8,0:0:0:0:
266,134,190564,1,8,0:0:0:0:
264,131,190655,1,0,0:0:0:0:
264,131,190837,1,8,0:0:0:0:
264,131,191019,1,0,0:0:0:0:
199,99,191201,1,8,0:0:0:0:
202,95,191291,1,8,0:0:0:0:
217,110,191382,1,0,0:0:0:0:
218,110,191564,1,8,0:0:0:0:
218,110,191746,1,0,0:0:0:0:
228,104,191928,1,8,0:0:0:0:
231,100,192019,1,8,0:0:0:0:
232,98,192110,1,0,0:0:0:0:
322,193,192201,1,0,0:0:0:0:
232,98,192291,1,8,0:0:0:0:
272,101,192473,1,0,0:0:0:0:
208,179,192655,1,12,0:0:0:0:
208,179,192837,1,12,0:0:0:0:
336,194,193019,1,0,0:0:0:0:
250,214,193110,1,8,0:0:0:0:
276,123,193201,1,0,0:0:0:0:
276,120,193382,1,8,0:0:0:0:
276,120,193473,1,8,0:0:0:0:
276,123,193564,1,0,0:0:0:0:
276,123,193746,1,8,0:0:0:0:
276,123,193928,1,0,0:0:0:0:
276,116,194110,1,8,0:0:0:0:
276,116,194201,1,8,0:0:0:0:
276,120,194291,1,0,0:0:0:0:
276,120,194473,1,8,0:0:0:0:
276,115,194655,1,0,0:0:0:0:
276,115,194837,1,8,0:0:0:0:
276,115,194928,1,8,0:0:0:0:
108,138,195019,1,0,0:0:0:0:
266,191,195201,1,8,0:0:0:0:
266,191,195382,1,0,0:0:0:0:
221,216,195564,1,8,0:0:0:0:
184,232,195655,1,8,0:0:0:0:
184,232,195746,1,0,0:0:0:0:
184,232,195837,1,8,0:0:0:0:
184,232,195928,1,0,0:0:0:0:
184,232,196019,1,0,0:0:0:0:
184,232,196110,1,8,0:0:0:0:
187,224,196291,1,0,0:0:0:0:
187,224,196382,1,0,0:0:0:0:
187,224,196473,1,8,0:0:0:0:
187,224,196655,1,0,0:0:0:0:
187,224,196837,1,8,0:0:0:0:
187,224,197019,1,0,0:0:0:0:
188,222,197110,1,0,0:0:0:0:
187,224,197201,1,8,0:0:0:0:
298,197,197291,1,8,0:0:0:0:
292,185,197382,1,0,0:0:0:0:
300,213,197564,1,8,0:0:0:0:
273,109,197655,1,0,0:0:0:0:
273,109,197746,1,0,0:0:0:0:
279,110,197837,1,8,0:0:0:0:
272,132,198019,1,0,0:0:0:0:
272,130,198110,1,8,0:0:0:0:
269,159,198201,1,8,0:0:0:0:
268,154,198291,1,0,0:0:0:0:
268,150,198382,1,8,0:0:0:0:
267,149,198473,1,0,0:0:0:0:
267,149,198564,1,0,0:0:0:0:
266,142,198655,1,8,0:0:0:0:
266,142,198746,1,8,0:0:0:0:
262,136,198837,1,0,0:0:0:0:
240,126,199019,1,12,0:0:0:0:
318,295,199382,1,0,0:0:0:0:
318,295,199564,1,8,0:0:0:0:
318,295,199928,1,0,0:0:0:0:
318,295,200110,1,8,0:0:0:0:
196,223,200291,1,0,0:0:0:0:
196,223,200655,1,0,0:0:0:0:
196,223,200837,1,8,0:0:0:0:
196,223,201201,1,0,0:0:0:0:
196,223,201382,1,0,0:0:0:0:
196,223,201564,1,8,0:0:0:0:
196,223,201746,1,8,0:0:0:0:
196,223,201928,1,0,0:0:0:0:
179,120,202291,1,8,0:0:0:0:
259,253,202473,1,0,0:0:0:0:
274,280,202837,1,8,0:0:0:0:
274,280,203382,1,0,0:0:0:0:
274,280,203564,1,0,0:0:0:0:
274,280,203746,1,8,0:0:0:0:
224,210,204110,1,0,0:0:0:0:
224,210,204201,1,0,0:0:0:0:
251,246,204291,1,0,0:0:0:0:
224,210,204473,1,8,0:0:0:0:
205,59,204655,1,8,0:0:0:0:
334,238,204837,1,4,0:0:0:0:
289,213,205019,1,8,0:0:0:0:
308,241,205110,1,8,0:0:0:0:
314,140,205201,1,0,0:0:0:0:
309,183,205291,1,8,0:0:0:0:
309,183,205382,1,0,0:0:0:0:
309,183,205473,1,0,0:0:0:0:
309,183,205564,1,8,0:0:0:0:
251,252,205655,1,8,0:0:0:0:
249,276,205746,1,0,0:0:0:0:
309,183,205837,1,0,0:0:0:0:
243,280,205928,1,8,0:0:0:0:
309,183,206019,1,8,0:0:0:0:
309,183,206110,1,0,0:0:0:0:
231,147,206291,1,12,0:0:0:0:
204,142,206473,1,0,0:0:0:0:
204,142,206564,1,0,0:0:0:0:
203,135,206655,1,8,0:0:0:0:
231,147,206746,1,0,0:0:0:0:
234,141,206837,1,8,0:0:0:0:
235,138,206928,1,8,0:0:0:0:
237,132,207019,1,0,0:0:0:0:
238,130,207110,1,0,0:0:0:0:
238,130,207201,1,8,0:0:0:0:
238,130,207291,1,8,0:0:0:0:
238,130,207382,1,0,0:0:0:0:
238,130,207473,1,0,0:0:0:0:
239,130,207564,1,8,0:0:0:0:
240,129,207746,1,4,0:0:0:0:
316,243,207928,1,8,0:0:0:0:
264,215,208019,1,8,0:0:0:0:
269,213,208110,1,0,0:0:0:0:
259,181,208201,1,8,0:0:0:0:
268,210,208291,1,0,0:0:0:0:
308,227,208382,1,0,0:0:0:0:
312,264,208473,1,8,0:0:0:0:
313,249,208564,1,0,0:0:0:0:
316,243,208655,1,0,0:0:0:0:
233,164,208746,1,8,0:0:0:0:
229,189,208837,1,0,0:0:0:0:
233,164,208928,1,0,0:0:0:0:
230,189,209019,1,8,0:0:0:0:
230,189,209201,1,0,0:0:0:0:
234,184,209291,1,0,0:0:0:0:
234,182,209382,1,0,0:0:0:0:
234,182,209564,1,8,0:0:0:0:
258,140,209655,1,8,0:0:0:0:
168,103,209746,1,0,0:0:0:0:
178,126,209837,1,8,0:0:0:0:
178,126,209928,1,0,0:0:0:0:
252,179,210110,1,12,0:0:0:0:
410,221,213564,1,0,0:0:0:0:
410,221,213655,1,0,0:0:0:0:
258,231,213746,1,0,0:0:0:0:
200,91,213928,1,8,0:0:0:0:
200,127,214019,1,8,0:0:0:0:
200,127,214110,1,0,0:0:0:0:
200,146,214201,1,8,0:0:0:0:
205,234,214291,1,0,0:0:0:0:
205,234,214473,1,8,0:0:0:0:
242,220,214655,1,0,0:0:0:0:
242,189,214746,1,0,0:0:0:0:
242,189,214837,1,8,0:0:0:0:
242,189,215019,1,0,0:0:0:0:
264,183,215201,1,8,0:0:0:0:
261,176,215291,1,8,0:0:0:0:
376,256,215382,1,0,0:0:0:0:
376,256,215473,1,8,0:0:0:0:
376,256,215564,1,0,0:0:0:0:
376,256,215655,1,0,0:0:0:0:
376,256,215746,1,8,0:0:0:0:
266,269,215837,1,0,0:0:0:0:
266,269,215928,1,8,0:0:0:0:
376,256,216019,1,8,0:0:0:0:
376,256,216110,1,0,0:0:0:0:
376,256,216201,1,0,0:0:0:0:
376,256,216291,1,8,0:0:0:0:
273,190,216473,1,0,0:0:0:0:
230,128,216564,1,0,0:0:0:0:
234,144,216655,1,0,0:0:0:0:
234,144,216837,1,8,0:0:0:0:
263,130,217019,1,0,0:0:0:0:
249,115,217110,1,8,0:0:0:0:
244,107,217201,1,0,0:0:0:0:
244,107,217291,1,0,0:0:0:0:
245,105,217382,1,8,0:0:0:0:
273,108,217564,1,0,0:0:0:0:
273,108,217746,1,8,0:0:0:0:
289,126,217837,1,8,0:0:0:0:
289,163,217928,1,0,0:0:0:0:
275,170,218019,1,8,0:0:0:0:
265,179,218110,1,0,0:0:0:0:
248,200,218201,1,0,0:0:0:0:
249,191,218291,1,8,0:0:0:0:
249,191,218382,1,0,0:0:0:0:
249,190,218473,1,8,0:0:0:0:
250,184,218564,1,8,0:0:0:0:
250,184,218655,1,0,0:0:0:0:
250,183,218746,1,8,0:0:0:0:
250,183,218837,1,0,0:0:0:0:
176,91,218928,1,0,0:0:0:0:
176,91,219019,1,8,0:0:0:0:
176,91,219110,1,8,0:0:0:0:
176,91,219201,1,0,0:0:0:0:
176,91,219382,1,8,0:0:0:0:
176,91,219473,1,8,0:0:0:0:
177,83,219564,1,8,0:0:0:0:
177,83,219746,1,0,0:0:0:0:
277,202,219837,1,0,0:0:0:0:
277,202,219928,1,8,0:0:0:0:
277,202,220019,1,0,0:0:0:0:
272,199,220110,1,8,0:0:0:0:
272,199,220291,1,0,0:0:0:0:
255,78,220473,1,8,0:0:0:0:
230,195,220564,1,8,0:0:0:0:
233,188,220655,1,0,0:0:0:0:
336,108,220837,1,8,0:0:0:0:
399,265,221019,1,0,0:0:0:0:
399,265,221110,1,0,0:0:0:0:
233,221,221201,1,8,0:0:0:0:
240,208,221291,1,0,0:0:0:0:
255,187,221382,1,8,0:0:0:0:
247,175,221473,1,8,0:0:0:0:
255,187,221564,1,0,0:0:0:0:
257,193,221655,1,0,0:0:0:0:
259,191,221746,1,8,0:0:0:0:
260,190,221837,1,0,0:0:0:0:
260,189,221928,1,8,0:0:0:0:
260,189,222019,1,8,0:0:0:0:
260,192,222110,1,0,0:0:0:0:
329,290,222291,1,8,0:0:0:0:
237,277,222382,1,8,0:0:0:0:
329,290,222473,1,8,0:0:0:0:
255,250,222655,1,0,0:0:0:0:
223,251,222837,1,8,0:0:0:0:
225,245,222928,1,8,0:0:0:0:
246,238,223019,1,0,0:0:0:0:
425,316,223110,1,8,0:0:0:0:
425,316,223201,1,0,0:0:0:0:
252,226,223291,1,0,0:0:0:0:
256,225,223382,1,8,0:0:0:0:
319,222,223473,1,8,0:0:0:0:
351,306,223564,1,0,0:0:0:0:
378,309,223655,1,8,0:0:0:0:
331,217,223746,1,0,0:0:0:0:
291,193,223928,1,12,0:0:0:0:
291,193,224110,1,12,0:0:0:0:
341,254,224291,1,0,0:0:0:0:
235,125,224382,1,0,0:0:0:0:
234,155,224473,1,8,0:0:0:0:
225,224,224564,1,8,0:0:0:0:
225,224,224655,1,0,0:0:0:0:
225,224,224746,1,0,0:0:0:0:
225,224,224837,1,8,0:0:0:0:
225,224,224928,1,8,0:0:0:0:
225,224,225019,1,0,0:0:0:0:
410,221,225201,1,8,0:0:0:0:
410,221,225291,1,8,0:0:0:0:
258,231,225382,1,8,0:0:0:0:
200,91,225564,1,0,0:0:0:0:
200,127,225655,1,0,0:0:0:0:
200,127,225746,1,8,0:0:0:0:
200,146,225837,1,0,0:0:0:0:
205,234,225928,1,8,0:0:0:0:
205,234,226110,1,0,0:0:0:0:
242,220,226291,1,8,0:0:0:0:
242,189,226382,1,8,0:0:0:0:
242,189,226473,1,0,0:0:0:0:
242,189,226655,1,8,0:0:0:0:
264,183,226837,1,0,0:0:0:0:
261,176,226928,1,0,0:0:0:0:
376,256,227019,1,8,0:0:0:0:
376,256,227110,1,0,0:0:0:0:
376,256,227201,1,8,0:0:0:0:
376,256,227291,1,8,0:0:0:0:
376,256,227382,1,0,0:0:0:0:
266,269,227473,1,8,0:0:0:0:
266,269,227564,1,0,0:0:0:0:
376,256,227655,1,0,0:0:0:0:
376,256,227746,1,8,0:0:0:0:
376,256,227837,1,8,0:0:0:0:
376,256,227928,1,0,0:0:0:0:
273,190,228110,1,8,0:0:0:0:
230,128,228201,1,8,0:0:0:0:
234,144,228291,1,8,0:0:0:0:
234,144,228473,1,0,0:0:0:0:
263,130,228655,1,8,0:0:0:0:
249,115,228746,1,0,0:0:0:0:
244,107,228837,1,8,0:0:0:0:
244,107,228928,1,8,0:0:0:0:
245,105,229019,1,0,0:0:0:0:
273,108,229201,1,8,0:0:0:0:
273,108,229382,1,0,0:0:0:0:
289,126,229473,1,0,0:0:0:0:
289,163,229564,1,8,0:0:0:0:
275,170,229655,1,0,0:0:0:0:
265,179,229746,1,8,0:0:0:0:
248,200,229837,1,8,0:0:0:0:
249,191,229928,1,0,0:0:0:0:
249,191,230019,1,8,0:0:0:0:
249,190,230110,1,0,0:0:0:0:
250,184,230201,1,0,0:0:0:0:
250,184,230291,1,8,0:0:0:0:
250,183,230382,1,0,0:0:0:0:
250,183,230473,1,8,0:0:0:0:
176,91,230564,1,8,0:0:0:0:
176,91,230655,1,0,0:0:0:0:
176,91,230746,1,0,0:0:0:0:
176,91,230837,1,8,0:0:0:0:
176,91,231019,1,0,0:0:0:0:
176,91,231110,1,0,0:0:0:0:
177,83,231201,1,0,0:0:0:0:
177,83,231382,1,8,0:0:0:0:
277,202,231473,1,8,0:0:0:0:
277,202,231564,1,0,0:0:0:0:
277,202,231655,1,8,0:0:0:0:
272,199,231746,1,0,0:0:0:0:
272,199,231928,1,8,0:0:0:0:
255,78,232110,1,0,0:0:0:0:
230,195,232201,1,0,0:0:0:0:
233,188,232291,1,8,0:0:0:0:
336,108,232473,1,0,0:0:0:0:
399,265,232655,1,8,0:0:0:0:
399,265,232746,1,8,0:0:0:0:
233,221,232837,1,0,0:0:0:0:
240,208,232928,1,8,0:0:0:0:
255,187,233019,1,0,0:0:0:0:
247,175,233110,1,0,0:0:0:0:
255,187,233201,1,8,0:0:0:0:
257,193,233291,1,8,0:0:0:0:
259,191,233382,1,0,0:0:0:0:
260,190,233473,1,8,0:0:0:0:
260,189,233564,1,0,0:0:0:0:
260,189,233655,1,0,0:0:0:0:
260,192,233746,1,8,0:0:0:0:
329,290,233928,1,0,0:0:0:0:
237,277,234019,1,0,0:0:0:0:
329,290,234110,1,0,0:0:0:0:
255,250,234291,1,8,0:0:0:0:
223,251,234473,1,0,0:0:0:0:
225,245,234564,1,0,0:0:0:0:
246,238,234655,1,8,0:0:0:0:
425,316,234746,1,0,0:0:0:0:
425,316,234837,1,8,0:0:0:0:
252,226,234928,1,8,0:0:0:0:
256,225,235019,1,0,0:0:0:0:
319,222,235110,1,0,0:0:0:0:
351,306,235201,1,8,0:0:0:0:
378,309,235291,1,0,0:0:0:0:
331,217,235382,1,8,0:0:0:0:
308,296,235564,1,0,0:0:0:0:
410,291,235655,1,8,0:0:0:0:
196,161,235746,1,8,0:0:0:0:
398,285,235837,1,0,0:0:0:0:
398,285,235928,1,8,0:0:0:0:
398,285,236019,1,8,0:0:0:0:
398,285,236110,1,0,0:0:0:0:
398,285,236201,1,0,0:0:0:0:
398,285,236291,1,8,0:0:0:0:
398,285,236382,1,8,0:0:0:0:
234,262,236473,1,0,0:0:0:0:
252,236,236564,1,0,0:0:0:0:
398,285,236655,1,8,0:0:0:0:
337,279,236837,1,4,0:0:0:0:
433,282,237019,1,8,0:0:0:0:
433,282,237110,1,0,0:0:0:0:
433,282,237291,1,8,0:0:0:0:
433,282,237382,1,0,0:0:0:0:
433,282,237473,1,0,0:0:0:0:
433,282,237564,1,8,0:0:0:0:
292,286,237746,1,8,0:0:0:0:
281,276,237928,1,0,0:0:0:0:
284,273,238110,1,8,0:0:0:0:
284,273,238291,1,0,0:0:0:0:
236,277,238473,1,8,0:0:0:0:
230,214,238564,1,8,0:0:0:0:
204,169,238655,1,0,0:0:0:0:
197,175,238746,1,8,0:0:0:0:
197,175,238837,1,0,0:0:0:0:
197,175,238928,1,0,0:0:0:0:
215,173,239019,1,8,0:0:0:0:
215,173,239201,1,8,0:0:0:0:
325,204,239382,1,0,0:0:0:0:
325,204,239564,1,0,0:0:0:0:
325,204,239746,1,8,0:0:0:0:
266,232,239928,1,0,0:0:0:0:
240,194,240019,1,8,0:0:0:0:
251,242,240201,1,0,0:0:0:0:
252,237,240291,1,8,0:0:0:0:
254,232,240382,1,8,0:0:0:0:
253,225,240473,1,0,0:0:0:0:
302,185,240655,1,0,0:0:0:0:
197,120,240837,1,8,0:0:0:0:
197,120,241019,1,0,0:0:0:0:
236,147,241201,1,8,0:0:0:0:
286,218,241382,1,0,0:0:0:0:
288,228,241473,1,0,0:0:0:0:
290,184,241564,1,8,0:0:0:0:
290,184,241655,1,8,0:0:0:0:
290,184,241746,1,0,0:0:0:0:
290,184,241837,1,0,0:0:0:0:
252,135,241928,1,8,0:0:0:0:
252,134,242019,1,8,0:0:0:0:
249,130,242110,1,0,0:0:0:0:
249,130,242201,1,8,0:0:0:0:
249,130,242291,1,0,0:0:0:0:
249,130,242382,1,0,0:0:0:0:
249,130,242473,1,8,0:0:0:0:
249,130,242655,1,4,0:0:0:0:
240,157,242837,1,8,0:0:0:0:
277,108,242928,1,0,0:0:0:0:
278,97,243110,1,8,0:0:0:0:
269,109,243201,1,0,0:0:0:0:
269,109,243291,1,0,0:0:0:0:
269,109,243382,1,8,0:0:0:0:
269,109,243564,1,8,0:0:0:0:
271,109,243746,1,0,0:0:0:0:
269,109,243928,1,8,0:0:0:0:
203,166,244110,1,0,0:0:0:0:
203,166,244291,1,8,0:0:0:0:
209,155,244382,1,8,0:0:0:0:
213,149,244473,1,0,0:0:0:0:
214,149,244564,1,8,0:0:0:0:
215,149,244655,1,0,0:0:0:0:
215,149,244746,1,0,0:0:0:0:
216,149,244837,1,8,0:0:0:0:
216,149,245019,1,8,0:0:0:0:
216,149,245201,1,0,0:0:0:0:
216,149,245382,1,0,0:0:0:0:
214,149,245564,1,8,0:0:0:0:
215,149,245746,1,0,0:0:0:0:
231,109,245837,1,8,0:0:0:0:
231,109,246019,1,0,0:0:0:0:
237,105,246110,1,8,0:0:0:0:
243,100,246201,1,8,0:0:0:0:
243,100,246291,1,0,0:0:0:0:
243,100,246473,1,0,0:0:0:0:
267,120,246655,1,8,0:0:0:0:
267,120,246837,1,0,0:0:0:0:
257,158,247019,1,8,0:0:0:0:
269,130,247110,1,0,0:0:0:0:
261,185,247201,1,0,0:0:0:0:
261,185,247291,1,8,0:0:0:0:
261,180,247382,1,0,0:0:0:0:
261,182,247473,1,0,0:0:0:0:
263,175,247564,1,8,0:0:0:0:
344,249,247655,1,8,0:0:0:0:
263,174,247746,1,0,0:0:0:0:
261,232,247837,1,8,0:0:0:0:
263,222,247928,1,8,0:0:0:0:
263,222,248019,1,0,0:0:0:0:
263,222,248110,1,8,0:0:0:0:
231,159,248201,1,8,0:0:0:0:
231,159,248291,1,0,0:0:0:0:
89,164,248382,1,0,0:0:0:0:
148,162,248473,1,8,0:0:0:0:
148,162,248564,1,0,0:0:0:0:
148,162,248655,1,0,0:0:0:0:
148,162,248746,1,8,0:0:0:0:
148,162,248837,1,0,0:0:0:0:
148,162,248928,1,0,0:0:0:0:
148,162,249019,1,8,0:0:0:0:
148,162,249110,1,8,0:0:0:0:
237,118,249201,1,0,0:0:0:0:
268,155,249291,1,8,0:0:0:0:
268,176,249382,1,0,0:0:0:0:
228,219,249473,1,0,0:0:0:0:
271,173,249564,1,8,0:0:0:0:
229,209,249655,1,8,0:0:0:0:
249,191,249746,1,0,0:0:0:0:
248,91,249928,1,12,0:0:0:0:
