osu file format v14

[General]
AudioFilename: audio.mp3
AudioLeadIn: 0
PreviewTime: 71019
Countdown: 0
SampleSet: Normal
StackLeniency: 0.7
Mode: 1
LetterboxInBreaks: 0
WidescreenStoryboard: 1

[Editor]
DistanceSpacing: 0.8
BeatDivisor: 4
GridSize: 32
TimelineZoom: 1.4

[Metadata]
Title:Wanna Be My Dream
TitleUnicode:Wanna Be My Dream
Artist:A-One
ArtistUnicode:A-One
Creator:Chromoxx
Version:Futsuu
Source:東方永夜抄 ~ Imperishable Night.
Tags:Mappers' Guild Featured Artist FA Electronic Video Game Japanese J-Core J Core Reimu Hakurei 東方Project Touhou ZUN 太田順也 Oota Junya 少女綺想曲 ~ Dream Battle Maiden's Capriccio ELEMENTAS Shihori あき Aki しほり FN2 博麗霊夢 Eiyashou Eternal Night Vignette 永夜抄 TOHO EUROBEAT presents THE REVIVAL MIX
BeatmapID:3789977
BeatmapSetID:1840481

[Difficulty]
HPDrainRate:7
CircleSize:5
OverallDifficulty:4
ApproachRate:5
SliderMultiplier:1.4
SliderTickRate:1

[Events]
//Background and Video events
0,0,"47657345_p0.jpg",0,0
//Break Periods
//Storyboard Layer 0 (Background)
//Storyboard Layer 1 (Fail)
//Storyboard Layer 2 (Pass)
//Storyboard Layer 3 (Foreground)
//Storyboard Layer 4 (Overlay)
//Storyboard Sound Samples

[TimingPoints]
1201,363.636363636364,4,1,0,100,1,0
71019,-100,4,1,0,100,0,1
94291,-100,4,1,0,100,0,0
106110,-100,4,1,0,100,0,0
108837,-100,4,1,0,100,0,0
140837,-100,4,1,0,100,0,1
164110,-100,4,1,0,100,0,0
213564,-100,4,1,0,100,0,1
236837,-100,4,1,0,100,0,0

[HitObjects]
291,228,24473,5,12,0:0:0:0:
287,169,25019,1,0,0:0:0:0:
287,169,25564,1,8,0:0:0:0:
241,184,25928,1,8,0:0:0:0:
241,184,26291,1,0,0:0:0:0:
241,184,26473,1,0,0:0:0:0:
241,184,26655,1,8,0:0:0:0:
241,184,26837,1,8,0:0:0:0:
241,184,27019,1,0,0:0:0:0:
260,96,27382,1,8,0:0:0:0:
217,245,27928,1,8,0:0:0:0:
217,245,28473,1,0,0:0:0:0:
326,251,28837,1,8,0:0:0:0:
326,251,29201,1,0,0:0:0:0:
326,251,29382,1,8,0:0:0:0:
326,251,29564,1,0,0:0:0:0:
326,251,29746,1,0,0:0:0:0:
326,251,29928,1,8,0:0:0:0:
255,149,30291,1,4,0:0:0:0:
226,221,30837,1,8,0:0:0:0:
226,221,31382,1,0,0:0:0:0:
226,221,31746,1,0,0:0:0:0:
226,221,32110,1,8,0:0:0:0:
226,221,32291,1,8,0:0:0:0:
226,221,32473,1,0,0:0:0:0:
226,221,32655,1,0,0:0:0:0:
226,221,32837,1,8,0:0:0:0:
226,221,33201,1,0,0:0:0:0:
226,221,33746,1,0,0:0:0:0:
262,176,34291,1,8,0:0:0:0:
256,192,34655,12,8,35746,0:0:0:0:
320,207,36110,5,4,0:0:0:0:
165,144,36837,1,8,0:0:0:0:
261,226,37382,1,0,0:0:0:0:
261,226,37928,1,8,0:0:0:0:
261,226,38291,1,0,0:0:0:0:
261,226,38473,1,0,0:0:0:0:
261,226,38655,1,8,0:0:0:0:
261,226,39019,1,0,0:0:0:0:
261,226,39382,1,0,0:0:0:0:
261,226,39746,1,8,0:0:0:0:
245,253,40473,1,0,0:0:0:0:
375,155,40837,1,8,0:0:0:0:
318,240,41382,1,12,0:0:0:0:
318,240,41564,1,12,0:0:0:0:
211,99,41928,1,4,0:0:0:0:
253,194,42655,1,8,0:0:0:0:
253,194,43201,1,8,0:0:0:0:
267,281,43746,1,0,0:0:0:0:
363,231,44110,1,8,0:0:0:0:
363,231,44291,1,0,0:0:0:0:
363,231,44473,1,8,0:0:0:0:
288,152,44837,1,0,0:0:0:0:
288,152,45201,1,8,0:0:0:0:
288,152,45564,1,0,0:0:0:0:
288,152,46291,1,8,0:0:0:0:
288,152,46655,1,0,0:0:0:0:
283,162,46837,1,8,0:0:0:0:
283,162,47019,1,0,0:0:0:0:
222,169,47201,1,8,0:0:0:0:
222,169,47382,1,0,0:0:0:0:
239,138,47746,1,12,0:0:0:0:
261,226,48473,1,0,0:0:0:0:
165,144,49019,1,8,0:0:0:0:
261,226,49564,1,0,0:0:0:0:
261,226,49928,1,8,0:0:0:0:
261,226,50110,1,8,0:0:0:0:
261,226,50291,1,0,0:0:0:0:
261,226,50655,1,8,0:0:0:0:
261,226,51019,1,8,0:0:0:0:
261,226,51382,1,0,0:0:0:0:
245,253,52110,1,8,0:0:0:0:
375,155,52473,1,0,0:0:0:0:
318,240,53019,1,4,0:0:0:0:
318,240,53201,1,4,0:0:0:0:
211,99,53564,1,12,0:0:0:0:
253,194,54291,1,0,0:0:0:0:
253,194,54837,1,0,0:0:0:0:
267,281,55382,1,8,0:0:0:0:
363,231,55746,1,0,0:0:0:0:
363,231,55928,1,8,0:0:0:0:
363,231,56110,1,0,0:0:0:0:
288,152,56473,1,8,0:0:0:0:
288,152,56837,1,0,0:0:0:0:
288,152,57201,1,8,0:0:0:0:
288,152,57928,1,0,0:0:0:0:
288,152,58291,1,8,0:0:0:0:
283,162,58473,1,0,0:0:0:0:
283,162,58655,1,8,0:0:0:0:
222,169,58837,1,0,0:0:0:0:
222,169,59019,1,8,0:0:0:0:
334,204,59382,1,4,0:0:0:0:
303,95,59928,1,8,0:0:0:0:
303,95,60291,1,0,0:0:0:0:
303,95,60655,1,8,0:0:0:0:
303,95,61019,1,0,0:0:0:0:
303,95,61201,1,0,0:0:0:0:
246,164,61564,1,8,0:0:0:0:
234,177,62291,1,0,0:0:0:0:
234,177,62655,1,8,0:0:0:0:
234,177,62837,1,0,0:0:0:0:
320,224,63201,1,8,0:0:0:0:
320,224,63564,1,0,0:0:0:0:
233,144,63928,1,0,0:0:0:0:
233,144,64291,1,8,0:0:0:0:
328,237,65201,1,4,0:0:0:0:
280,155,65564,1,8,0:0:0:0:
459,214,65746,1,8,0:0:0:0:
280,155,65928,1,0,0:0:0:0:
245,181,66291,1,8,0:0:0:0:
154,223,66655,1,4,0:0:0:0:
248,213,67019,1,8,0:0:0:0:
248,213,67382,1,0,0:0:0:0:
342,65,67564,1,0,0:0:0:0:
248,213,67746,1,8,0:0:0:0:
248,213,68110,1,4,0:0:0:0:
222,128,68473,1,8,0:0:0:0:
222,128,68655,1,8,0:0:0:0:
222,128,68837,1,0,0:0:0:0:
222,128,69201,1,8,0:0:0:0:
306,173,69564,1,0,0:0:0:0:
254,202,70473,1,12,0:0:0:0:
351,177,71019,1,4,0:0:0:0:
226,82,71564,1,8,0:0:0:0:
226,82,71928,1,8,0:0:0:0:
226,82,72291,1,0,0:0:0:0:
226,82,72655,1,8,0:0:0:0:
226,82,72837,1,0,0:0:0:0:
284,141,73201,1,8,0:0:0:0:
284,141,73382,1,0,0:0:0:0:
284,141,73564,1,8,0:0:0:0:
284,141,73928,1,0,0:0:0:0:
347,229,74473,1,8,0:0:0:0:
283,153,74837,1,0,0:0:0:0:
283,153,75201,1,8,0:0:0:0:
347,225,75564,1,0,0:0:0:0:
244,236,75746,1,8,0:0:0:0:
244,236,76110,1,0,0:0:0:0:
244,236,76291,1,0,0:0:0:0:
244,236,76473,1,8,0:0:0:0:
263,108,76837,1,4,0:0:0:0:
348,213,77382,1,8,0:0:0:0:
348,213,77746,1,8,0:0:0:0:
348,213,78110,1,0,0:0:0:0:
297,168,78473,1,8,0:0:0:0:
232,112,78655,1,0,0:0:0:0:
232,112,79019,1,8,0:0:0:0:
232,112,79201,1,0,0:0:0:0:
232,112,79382,1,8,0:0:0:0:
260,156,79746,1,0,0:0:0:0:
334,210,80110,1,8,0:0:0:0:
334,210,80291,1,8,0:0:0:0:
346,192,80837,1,0,0:0:0:0:
346,192,81019,1,0,0:0:0:0:
351,177,82655,1,12,0:0:0:0:
226,82,83201,1,0,0:0:0:0:
226,82,83564,1,0,0:0:0:0:
226,82,83928,1,8,0:0:0:0:
226,82,84291,1,0,0:0:0:0:
226,82,84473,1,8,0:0:0:0:
284,141,84837,1,0,0:0:0:0:
284,141,85019,1,8,0:0:0:0:
284,141,85201,1,0,0:0:0:0:
284,141,85564,1,8,0:0:0:0:
347,229,86110,1,0,0:0:0:0:
283,153,86473,1,8,0:0:0:0:
283,153,86837,1,0,0:0:0:0:
347,225,87201,1,8,0:0:0:0:
244,236,87382,1,0,0:0:0:0:
244,236,87746,1,8,0:0:0:0:
244,236,87928,1,8,0:0:0:0:
244,236,88110,1,0,0:0:0:0:
263,108,88473,1,12,0:0:0:0:
348,213,89019,1,0,0:0:0:0:
348,213,89382,1,0,0:0:0:0:
348,213,89746,1,8,0:0:0:0:
297,168,90110,1,0,0:0:0:0:
232,112,90291,1,8,0:0:0:0:
232,112,90655,1,0,0:0:0:0:
232,112,90837,1,8,0:0:0:0:
232,112,91019,1,0,0:0:0:0:
260,156,91382,1,8,0:0:0:0:
334,210,91746,1,0,0:0:0:0:
334,210,91928,1,0,0:0:0:0:
346,192,92473,1,8,0:0:0:0:
346,192,92655,1,8,0:0:0:0:
261,206,93201,1,12,0:0:0:0:
261,206,93564,1,4,0:0:0:0:
291,228,94291,5,12,0:0:0:0:
287,169,94837,1,0,0:0:0:0:
287,169,95382,1,8,0:0:0:0:
241,184,95746,1,8,0:0:0:0:
241,184,96110,1,0,0:0:0:0:
241,184,96291,1,0,0:0:0:0:
241,184,96473,1,8,0:0:0:0:
241,184,96655,1,8,0:0:0:0:
241,184,96837,1,0,0:0:0:0:
260,96,97201,1,8,0:0:0:0:
217,245,97746,1,8,0:0:0:0:
217,245,98291,1,0,0:0:0:0:
326,251,98655,1,8,0:0:0:0:
326,251,99019,1,0,0:0:0:0:
326,251,99201,1,8,0:0:0:0:
326,251,99382,1,0,0:0:0:0:
326,251,99564,1,0,0:0:0:0:
326,251,99746,1,8,0:0:0:0:
255,149,100110,1,4,0:0:0:0:
226,221,100655,1,8,0:0:0:0:
226,221,101201,1,0,0:0:0:0:
226,221,101564,1,0,0:0:0:0:
226,221,101928,1,8,0:0:0:0:
226,221,102110,1,8,0:0:0:0:
226,221,102291,1,0,0:0:0:0:
226,221,102473,1,0,0:0:0:0:
226,221,102655,1,8,0:0:0:0:
226,221,103019,1,0,0:0:0:0:
226,221,103564,1,0,0:0:0:0:
262,176,104110,1,8,0:0:0:0:
256,192,104473,12,8,105564,0:0:0:0:
320,207,105928,5,4,0:0:0:0:
240,196,106655,1,8,0:0:0:0:
330,206,107746,1,0,0:0:0:0:
330,206,108110,1,8,0:0:0:0:
261,226,108837,1,4,0:0:0:0:
261,226,109201,1,0,0:0:0:0:
261,226,109564,1,8,0:0:0:0:
245,253,110291,1,0,0:0:0:0:
375,155,110655,1,8,0:0:0:0:
318,240,111201,1,12,0:0:0:0:
318,240,111382,1,12,0:0:0:0:
211,99,111746,1,4,0:0:0:0:
253,194,112473,1,8,0:0:0:0:
253,194,113019,1,8,0:0:0:0:
267,281,113564,1,0,0:0:0:0:
363,231,113928,1,8,0:0:0:0:
363,231,114110,1,0,0:0:0:0:
363,231,114291,1,8,0:0:0:0:
288,152,114655,1,0,0:0:0:0:
288,152,115019,1,8,0:0:0:0:
288,152,115382,1,0,0:0:0:0:
288,152,116110,1,8,0:0:0:0:
288,152,116473,1,0,0:0:0:0:
283,162,116655,1,8,0:0:0:0:
283,162,116837,1,0,0:0:0:0:
222,169,117019,1,8,0:0:0:0:
222,169,117201,1,0,0:0:0:0:
239,138,117564,1,12,0:0:0:0:
261,226,118291,1,0,0:0:0:0:
165,144,118837,1,8,0:0:0:0:
261,226,119382,1,0,0:0:0:0:
261,226,119746,1,8,0:0:0:0:
261,226,119928,1,8,0:0:0:0:
261,226,120110,1,0,0:0:0:0:
261,226,120473,1,8,0:0:0:0:
261,226,120837,1,8,0:0:0:0:
261,226,121201,1,0,0:0:0:0:
245,253,121928,1,8,0:0:0:0:
375,155,122291,1,0,0:0:0:0:
318,240,122837,1,4,0:0:0:0:
318,240,123019,1,4,0:0:0:0:
211,99,123382,1,12,0:0:0:0:
253,194,124110,1,0,0:0:0:0:
253,194,124655,1,0,0:0:0:0:
267,281,125201,1,8,0:0:0:0:
363,231,125564,1,0,0:0:0:0:
363,231,125746,1,8,0:0:0:0:
363,231,125928,1,0,0:0:0:0:
288,152,126291,1,8,0:0:0:0:
288,152,126655,1,0,0:0:0:0:
288,152,127019,1,8,0:0:0:0:
288,152,127746,1,0,0:0:0:0:
288,152,128110,1,8,0:0:0:0:
283,162,128291,1,0,0:0:0:0:
283,162,128473,1,8,0:0:0:0:
222,169,128655,1,0,0:0:0:0:
222,169,128837,1,8,0:0:0:0:
334,204,129201,1,4,0:0:0:0:
303,95,129746,1,8,0:0:0:0:
303,95,130110,1,0,0:0:0:0:
303,95,130473,1,8,0:0:0:0:
303,95,130837,1,0,0:0:0:0:
303,95,131019,1,0,0:0:0:0:
246,164,131382,1,8,0:0:0:0:
234,177,132110,1,0,0:0:0:0:
234,177,132473,1,8,0:0:0:0:
234,177,132655,1,0,0:0:0:0:
320,224,133019,1,8,0:0:0:0:
320,224,133382,1,0,0:0:0:0:
233,144,133746,1,0,0:0:0:0:
233,144,134110,1,8,0:0:0:0:
328,237,135019,1,4,0:0:0:0:
280,155,135382,1,8,0:0:0:0:
459,214,135564,1,8,0:0:0:0:
280,155,135746,1,0,0:0:0:0:
245,181,136110,1,8,0:0:0:0:
154,223,136473,1,4,0:0:0:0:
248,213,136837,1,8,0:0:0:0:
248,213,137201,1,0,0:0:0:0:
342,65,137382,1,0,0:0:0:0:
248,213,137564,1,8,0:0:0:0:
248,213,137928,1,4,0:0:0:0:
222,128,138291,1,8,0:0:0:0:
222,128,138473,1,8,0:0:0:0:
222,128,138655,1,0,0:0:0:0:
222,128,139019,1,8,0:0:0:0:
306,173,139382,1,0,0:0:0:0:
254,202,140291,1,12,0:0:0:0:
351,177,140837,1,4,0:0:0:0:
226,82,141382,1,8,0:0:0:0:
226,82,141746,1,8,0:0:0:0:
226,82,142110,1,0,0:0:0:0:
226,82,142473,1,8,0:0:0:0:
226,82,142655,1,0,0:0:0:0:
284,141,143019,1,8,0:0:0:0:
284,141,143201,1,0,0:0:0:0:
284,141,143382,1,8,0:0:0:0:
284,141,143746,1,0,0:0:0:0:
347,229,144291,1,8,0:0:0:0:
283,153,144655,1,0,0:0:0:0:
283,153,145019,1,8,0:0:0:0:
347,225,145382,1,0,0:0:0:0:
244,236,145564,1,8,0:0:0:0:
244,236,145928,1,0,0:0:0:0:
244,236,146110,1,0,0:0:0:0:
244,236,146291,1,8,0:0:0:0:
263,108,146655,1,4,0:0:0:0:
348,213,147201,1,8,0:0:0:0:
348,213,147564,1,8,0:0:0:0:
348,213,147928,1,0,0:0:0:0:
297,168,148291,1,8,0:0:0:0:
232,112,148473,1,0,0:0:0:0:
232,112,148837,1,8,0:0:0:0:
232,112,149019,1,0,0:0:0:0:
232,112,149201,1,8,0:0:0:0:
260,156,149564,1,0,0:0:0:0:
334,210,149928,1,8,0:0:0:0:
334,210,150110,1,8,0:0:0:0:
346,192,150655,1,0,0:0:0:0:
346,192,150837,1,0,0:0:0:0:
351,177,152473,1,12,0:0:0:0:
226,82,153019,1,0,0:0:0:0:
226,82,153382,1,0,0:0:0:0:
226,82,153746,1,8,0:0:0:0:
226,82,154110,1,0,0:0:0:0:
226,82,154291,1,8,0:0:0:0:
284,141,154655,1,0,0:0:0:0:
284,141,154837,1,8,0:0:0:0:
284,141,155019,1,0,0:0:0:0:
284,141,155382,1,8,0:0:0:0:
347,229,155928,1,0,0:0:0:0:
283,153,156291,1,8,0:0:0:0:
283,153,156655,1,0,0:0:0:0:
347,225,157019,1,8,0:0:0:0:
244,236,157201,1,0,0:0:0:0:
244,236,157564,1,8,0:0:0:0:
244,236,157746,1,8,0:0:0:0:
244,236,157928,1,0,0:0:0:0:
263,108,158291,1,12,0:0:0:0:
348,213,158837,1,0,0:0:0:0:
348,213,159201,1,0,0:0:0:0:
348,213,159564,1,8,0:0:0:0:
297,168,159928,1,0,0:0:0:0:
232,112,160110,1,8,0:0:0:0:
232,112,160473,1,0,0:0:0:0:
232,112,160655,1,8,0:0:0:0:
232,112,160837,1,0,0:0:0:0:
260,156,161201,1,8,0:0:0:0:
334,210,161564,1,0,0:0:0:0:
334,210,161746,1,0,0:0:0:0:
346,192,162291,1,8,0:0:0:0:
346,192,162473,1,8,0:0:0:0:
261,206,163019,1,12,0:0:0:0:
261,206,163382,1,4,0:0:0:0:
291,228,164110,5,12,0:0:0:0:
203,183,165382,1,0,0:0:0:0:
203,183,165564,1,0,0:0:0:0:
282,164,167019,1,12,0:0:0:0:
282,164,168291,1,0,0:0:0:0:
282,164,168473,1,0,0:0:0:0:
336,139,169201,1,8,0:0:0:0:
336,139,169564,1,8,0:0:0:0:
255,149,169928,1,4,0:0:0:0:
226,221,170473,1,8,0:0:0:0:
226,221,171019,1,0,0:0:0:0:
226,221,171382,1,0,0:0:0:0:
226,221,171746,1,8,0:0:0:0:
226,221,171928,1,8,0:0:0:0:
226,221,172110,1,0,0:0:0:0:
226,221,172291,1,0,0:0:0:0:
226,221,172473,1,8,0:0:0:0:
226,221,172837,1,0,0:0:0:0:
226,221,173382,1,0,0:0:0:0:
262,176,173928,1,8,0:0:0:0:
256,192,174291,12,8,175382,0:0:0:0:
320,207,175746,5,4,0:0:0:0:
240,228,176473,1,8,0:0:0:0:
240,228,177201,1,0,0:0:0:0:
240,228,177564,1,0,0:0:0:0:
240,228,177928,1,8,0:0:0:0:
254,219,178655,1,0,0:0:0:0:
254,219,179382,1,0,0:0:0:0:
254,219,180110,1,8,0:0:0:0:
322,251,180473,1,0,0:0:0:0:
266,221,181019,1,12,0:0:0:0:
266,221,181201,1,12,0:0:0:0:
266,221,181564,1,4,0:0:0:0:
344,194,182291,1,8,0:0:0:0:
297,199,183019,1,0,0:0:0:0:
297,199,183382,1,0,0:0:0:0:
297,199,183746,1,8,0:0:0:0:
297,199,184473,1,0,0:0:0:0:
319,236,185201,1,0,0:0:0:0:
333,226,185928,1,12,0:0:0:0:
331,145,186473,1,12,0:0:0:0:
239,138,187382,1,12,0:0:0:0:
261,226,188110,1,0,0:0:0:0:
165,144,188655,1,8,0:0:0:0:
261,226,189201,1,0,0:0:0:0:
261,226,189564,1,8,0:0:0:0:
261,226,189746,1,8,0:0:0:0:
261,226,189928,1,0,0:0:0:0:
261,226,190291,1,8,0:0:0:0:
261,226,190655,1,8,0:0:0:0:
261,226,191019,1,0,0:0:0:0:
245,253,191746,1,8,0:0:0:0:
375,155,192110,1,0,0:0:0:0:
318,240,192655,1,4,0:0:0:0:
318,240,192837,1,4,0:0:0:0:
211,99,193201,1,12,0:0:0:0:
253,194,193928,1,0,0:0:0:0:
253,194,194473,1,0,0:0:0:0:
267,281,195019,1,8,0:0:0:0:
363,231,195382,1,0,0:0:0:0:
363,231,195564,1,8,0:0:0:0:
363,231,195746,1,0,0:0:0:0:
288,152,196110,1,8,0:0:0:0:
288,152,196473,1,0,0:0:0:0:
288,152,196837,1,8,0:0:0:0:
288,152,197564,1,0,0:0:0:0:
288,152,197928,1,8,0:0:0:0:
283,162,198110,1,0,0:0:0:0:
283,162,198291,1,8,0:0:0:0:
222,169,198473,1,0,0:0:0:0:
222,169,198655,1,8,0:0:0:0:
334,204,199019,1,4,0:0:0:0:
350,306,199564,1,8,0:0:0:0:
313,167,200291,1,8,0:0:0:0:
313,167,200837,1,0,0:0:0:0:
313,167,201201,1,8,0:0:0:0:
298,180,201928,1,0,0:0:0:0:
287,191,202473,1,8,0:0:0:0:
287,191,202837,1,0,0:0:0:0:
287,191,203201,1,8,0:0:0:0:
215,222,203928,1,8,0:0:0:0:
328,237,204837,1,4,0:0:0:0:
280,155,205201,1,8,0:0:0:0:
459,214,205382,1,8,0:0:0:0:
280,155,205564,1,0,0:0:0:0:
245,181,205928,1,8,0:0:0:0:
154,223,206291,1,4,0:0:0:0:
248,213,206655,1,8,0:0:0:0:
248,213,207019,1,0,0:0:0:0:
342,65,207201,1,0,0:0:0:0:
248,213,207382,1,8,0:0:0:0:
248,213,207746,1,4,0:0:0:0:
222,128,208110,1,8,0:0:0:0:
222,128,208291,1,8,0:0:0:0:
222,128,208473,1,0,0:0:0:0:
222,128,208837,1,8,0:0:0:0:
306,173,209201,1,0,0:0:0:0:
254,202,210110,1,12,0:0:0:0:
351,177,213564,1,4,0:0:0:0:
226,82,214110,1,8,0:0:0:0:
226,82,214473,1,8,0:0:0:0:
226,82,214837,1,0,0:0:0:0:
226,82,215201,1,8,0:0:0:0:
226,82,215382,1,0,0:0:0:0:
284,141,215746,1,8,0:0:0:0:
284,141,215928,1,0,0:0:0:0:
284,141,216110,1,8,0:0:0:0:
284,141,216473,1,0,0:0:0:0:
347,229,217019,1,8,0:0:0:0:
283,153,217382,1,0,0:0:0:0:
283,153,217746,1,8,0:0:0:0:
347,225,218110,1,0,0:0:0:0:
244,236,218291,1,8,0:0:0:0:
244,236,218655,1,0,0:0:0:0:
244,236,218837,1,0,0:0:0:0:
244,236,219019,1,8,0:0:0:0:
263,108,219382,1,4,0:0:0:0:
348,213,219928,1,8,0:0:0:0:
348,213,220291,1,8,0:0:0:0:
348,213,220655,1,0,0:0:0:0:
297,168,221019,1,8,0:0:0:0:
232,112,221201,1,0,0:0:0:0:
232,112,221564,1,8,0:0:0:0:
232,112,221746,1,0,0:0:0:0:
232,112,221928,1,8,0:0:0:0:
260,156,222291,1,0,0:0:0:0:
334,210,222655,1,8,0:0:0:0:
334,210,222837,1,8,0:0:0:0:
346,192,223382,1,0,0:0:0:0:
346,192,223564,1,0,0:0:0:0:
351,177,225201,1,12,0:0:0:0:
226,82,225746,1,0,0:0:0:0:
226,82,226110,1,0,0:0:0:0:
226,82,226473,1,8,0:0:0:0:
226,82,226837,1,0,0:0:0:0:
226,82,227019,1,8,0:0:0:0:
284,141,227382,1,0,0:0:0:0:
284,141,227564,1,8,0:0:0:0:
284,141,227746,1,0,0:0:0:0:
284,141,228110,1,8,0:0:0:0:
347,229,228655,1,0,0:0:0:0:
283,153,229019,1,8,0:0:0:0:
283,153,229382,1,0,0:0:0:0:
347,225,229746,1,8,0:0:0:0:
244,236,229928,1,0,0:0:0:0:
244,236,230291,1,8,0:0:0:0:
244,236,230473,1,8,0:0:0:0:
244,236,230655,1,0,0:0:0:0:
263,108,231019,1,12,0:0:0:0:
348,213,231564,1,0,0:0:0:0:
348,213,231928,1,0,0:0:0:0:
348,213,232291,1,8,0:0:0:0:
297,168,232655,1,0,0:0:0:0:
232,112,232837,1,8,0:0:0:0:
232,112,233201,1,0,0:0:0:0:
232,112,233382,1,8,0:0:0:0:
232,112,233564,1,0,0:0:0:0:
260,156,233928,1,8,0:0:0:0:
334,210,234291,1,0,0:0:0:0:
334,210,234473,1,0,0:0:0:0:
346,192,235019,1,8,0:0:0:0:
346,192,235201,1,8,0:0:0:0:
261,206,235746,1,12,0:0:0:0:
261,206,236110,1,4,0:0:0:0:
291,228,236837,5,12,0:0:0:0:
287,169,237382,1,0,0:0:0:0:
287,169,237928,1,8,0:0:0:0:
241,184,238291,1,8,0:0:0:0:
241,184,238655,1,0,0:0:0:0:
241,184,238837,1,0,0:0:0:0:
241,184,239019,1,8,0:0:0:0:
241,184,239201,1,8,0:0:0:0:
241,184,239382,1,0,0:0:0:0:
260,96,239746,1,8,0:0:0:0:
217,245,240291,1,8,0:0:0:0:
217,245,240837,1,0,0:0:0:0:
326,251,241201,1,8,0:0:0:0:
326,251,241564,1,0,0:0:0:0:
326,251,241746,1,8,0:0:0:0:
326,251,241928,1,0,0:0:0:0:
326,251,242110,1,0,0:0:0:0:
326,251,242291,1,8,0:0:0:0:
255,149,242655,1,4,0:0:0:0:
226,221,243201,1,8,0:0:0:0:
226,221,243746,1,0,0:0:0:0:
226,221,244110,1,0,0:0:0:0:
226,221,244473,1,8,0:0:0:0:
226,221,244655,1,8,0:0:0:0:
226,221,244837,1,0,0:0:0:0:
226,221,245019,1,0,0:0:0:0:
226,221,245201,1,8,0:0:0:0:
226,221,245564,1,0,0:0:0:0:
226,221,246110,1,0,0:0:0:0:
262,176,246655,1,8,0:0:0:0:
256,192,247019,12,8,249564,0:0:0:0:
320,207,249928,5,4,0:0:0:0:
