osu file format v14

[General]
AudioFilename: audio.mp3
AudioLeadIn: 0
PreviewTime: 180464
Countdown: 0
SampleSet: Soft
StackLeniency: 0.7
Mode: 2
LetterboxInBreaks: 0
WidescreenStoryboard: 1

[Editor]
DistanceSpacing: 1
BeatDivisor: 4
GridSize: 4
TimelineZoom: 1.4

[Metadata]
Title:Drive Your Fire
TitleUnicode:Drive Your Fire
Artist:A-One
ArtistUnicode:A-One
Creator:JBHyperion
Version:wonjae's Salad
Source:東方永夜抄 ~ Imperishable Night.
Tags:Dako GIGACHAD ZiRoX wonjae Paranoid Grapes 東方Touhou Project TOHO EUROBEAT VOL.16 永夜抄 Comiket 92 エクステンドアッシュ ~ 蓬莱人 Extend Ash ~ Hourai Victim Extra Stage Theme 月まで届け、不死の煙 Reach for the Moon Immortal Smoke Fujiwara no Mokou Boss 藤原 妹紅 上白沢 慧音 Kamishirasawa Keine 越田 隆人 あき Aki Rute AbsoRute Zero Koshida Takahito Yassie DJ Command ZUN 上海アリス幻樂団 Team Shanghai Alice eurobeat electronic rock japanese
BeatmapID:3058113
BeatmapSetID:1480185

[Difficulty]
HPDrainRate:4
CircleSize:2.8
OverallDifficulty:7
ApproachRate:7
SliderMultiplier:1.52
SliderTickRate:1

[Events]
//Background and Video events
0,0,"24324280_p0.jpg",0,0
//Break Periods
2,239201,249808
//Storyboard Layer 0 (Background)
//Storyboard Layer 1 (Fail)
//Storyboard Layer 2 (Pass)
//Storyboard Layer 3 (Foreground)
//Storyboard Layer 4 (Overlay)
//Storyboard Sound Samples

[TimingPoints]
465,365.853658536585,4,2,1,20,1,0
1562,-100,4,2,1,25,0,0
1928,-100,4,2,1,30,0,0
2294,-100,4,2,1,35,0,0
2660,-100,4,2,1,40,0,0
3025,-100,4,2,1,45,0,0
3391,-100,4,2,77,60,0,0
3483,-100,4,2,1,60,0,0
9062,-100,4,3,1,60,0,0
9336,-100,4,2,1,60,0,0
13635,-100,4,2,1,60,0,0
14550,-100,4,2,1,60,0,0
14733,-100,4,3,1,65,0,0
15099,-100,4,2,2,70,0,0
15464,-100,4,2,2,60,0,0
17843,-100,4,2,1,60,0,0
18025,-100,4,2,2,60,0,0
18940,-100,4,2,0,80,0,0
19123,-100,4,2,2,60,0,0
19306,-100,4,2,0,80,0,0
19489,-100,4,2,2,60,0,0
22416,-100,4,2,2,65,0,0
23879,-100,4,2,2,70,0,0
25343,-100,4,2,2,75,0,0
26074,-100,4,2,2,75,0,0
26440,-100,4,2,2,75,0,0
26623,-100,4,2,2,75,0,0
26989,-100,4,2,1,25,0,0
27172,-100,4,2,1,30,0,0
27538,-100,4,2,1,35,0,0
27904,-100,4,2,1,40,0,0
28086,-100,4,2,1,5,0,0
28269,-100,4,2,77,80,0,0
28361,-100,4,2,2,90,0,0
34123,-100,4,2,2,90,0,0
38056,-100,4,2,2,90,0,0
38330,-100,4,2,2,90,0,0
38513,-100,4,2,2,90,0,0
38696,-100,4,2,2,90,0,0
39977,-100,4,2,2,80,0,0
40068,-100,4,2,1,70,0,0
40160,-100,4,2,1,70,0,0
47294,-100,4,2,10,70,0,0
47477,-100,4,2,1,70,0,0
51318,-100,4,3,0,70,0,0
51684,-100,4,2,1,70,0,0
56074,-100,4,2,10,70,0,0
56257,-100,4,2,1,70,0,0
60099,-100,4,2,2,70,0,0
60464,-100,4,2,1,70,0,0
62660,-100,4,2,2,70,0,0
63391,-100,4,2,1,70,0,0
63574,-100,4,2,10,70,0,0
63757,-100,4,2,1,70,0,0
65038,-100,4,2,10,70,0,0
65221,-100,4,2,1,70,0,0
69428,-100,4,2,10,70,0,0
69611,-100,4,2,1,70,0,0
70708,-100,4,2,1,70,0,0
71074,-100,4,2,1,70,0,0
72172,-100,4,2,2,80,0,0
73635,-100,4,2,1,90,0,0
79489,-100,4,2,1,70,0,0
79855,-100,4,2,1,70,0,0
83513,-100,4,2,2,75,0,0
83879,-100,4,2,1,80,0,0
84245,-100,4,3,0,80,0,0
84428,-100,4,2,1,80,0,0
84611,-100,4,3,0,80,0,0
84794,-100,4,2,1,80,0,0
85160,-100,4,3,0,80,0,0
85343,-100,4,2,1,80,0,0
86806,-100,4,2,77,90,0,1
86989,-100,4,2,2,90,0,1
87904,-100,4,2,2,90,0,1
88178,-100,4,2,2,90,0,1
91562,-100,4,2,11,90,0,1
91745,-100,4,2,2,90,0,1
95586,-100,4,2,2,90,0,1
95747,-100,4,2,2,5,0,1
95769,-100,4,2,2,90,0,1
95929,-100,4,2,2,5,0,1
95952,-100,4,2,2,90,0,1
96112,-100,4,2,2,5,0,1
96135,-100,4,2,2,90,0,1
96318,-100,4,2,2,90,0,1
97050,-100,4,2,2,90,0,1
97210,-100,4,2,2,5,0,1
97233,-100,4,2,2,90,0,1
97393,-100,4,2,2,5,0,1
97416,-100,4,3,0,90,0,1
97576,-100,4,2,2,5,0,1
97599,-100,4,3,0,90,0,1
97759,-100,4,2,2,5,0,1
97782,-100,4,3,0,90,0,1
97964,-100,4,2,2,90,0,1
98147,-100,4,2,2,90,0,1
103269,-100,4,2,11,90,0,1
103452,-100,4,2,2,90,0,1
106196,-100,4,2,11,90,0,1
106379,-100,4,2,2,90,0,1
107294,-100,4,2,2,90,0,1
107455,-100,4,2,2,5,0,1
107477,-100,4,2,2,90,0,1
107637,-100,4,2,2,5,0,1
107660,-100,4,2,2,90,0,1
107820,-100,4,2,2,5,0,1
107843,-100,4,2,2,90,0,1
108003,-100,4,2,2,5,0,1
108026,-100,4,2,2,90,0,1
108757,-100,4,2,2,90,0,1
108917,-100,4,2,2,5,0,1
108940,-100,4,2,2,90,0,1
109100,-100,4,2,2,5,0,1
109123,-100,4,2,2,90,0,1
109283,-100,4,2,2,5,0,1
109306,-100,4,2,2,90,0,1
109466,-100,4,2,2,5,0,1
109489,-100,4,2,2,90,0,1
110129,-100,4,2,2,90,0,0
110221,-100,4,2,2,90,0,1
115708,-100,4,3,0,90,0,1
116074,-100,4,2,2,90,0,1
116257,-100,4,2,2,90,0,1
119001,-100,4,2,1,90,0,1
121836,-100,4,2,2,90,0,0
121928,-100,4,2,77,80,0,1
122019,-100,4,2,2,90,0,0
124489,-100,4,3,0,90,0,0
124580,-100,4,2,2,90,0,0
133635,-100,4,2,1,70,0,0
135099,-100,4,2,10,70,0,0
135282,-100,4,2,1,70,0,0
138025,-100,4,2,10,70,0,0
138208,-100,4,2,1,70,0,0
140952,-100,4,2,10,70,0,0
141135,-100,4,2,1,70,0,0
144977,-100,4,3,0,70,0,0
145343,-100,4,2,1,70,0,0
146806,-100,4,2,10,70,0,0
146989,-100,4,2,1,70,0,0
148452,-100,4,2,10,70,0,0
148544,-100,4,2,1,70,0,0
153757,-100,4,2,2,70,0,0
154122,-100,4,2,1,70,0,0
156318,-100,4,2,2,70,0,0
157233,-100,4,2,2,80,0,0
166196,-100,4,2,2,80,0,0
166379,-100,4,2,2,80,0,0
167294,-100,4,2,1,70,0,0
173147,-100,4,2,1,70,0,0
173513,-100,4,2,1,70,0,0
177172,-100,4,2,2,80,0,0
177538,-100,4,2,1,80,0,0
177904,-100,4,3,0,80,0,0
178087,-100,4,2,1,80,0,0
178270,-100,4,3,0,80,0,0
178453,-100,4,2,1,80,0,0
178819,-100,4,3,0,80,0,0
179002,-100,4,2,1,80,0,0
180464,-100,4,2,77,90,0,1
180647,-100,4,2,2,90,0,1
185221,-100,4,2,11,90,0,1
185404,-100,4,2,2,90,0,1
191440,-100,4,2,2,90,0,1
191623,-100,4,2,2,90,0,1
196928,-100,4,2,11,90,0,1
197111,-100,4,2,2,90,0,1
202576,-100,4,2,2,5,0,1
202599,-100,4,2,2,90,0,1
202759,-100,4,2,2,5,0,1
202782,-100,4,2,2,90,0,1
203330,-100,4,2,2,90,0,1
203696,-100,4,3,0,90,0,1
203788,-100,4,3,0,90,0,0
203879,-100,4,2,2,90,0,1
209184,-100,4,3,0,90,0,1
209367,-100,4,2,1,90,0,1
209458,-100,4,3,0,90,0,1
209733,-100,4,2,2,90,0,1
212660,-100,4,2,1,90,0,1
215221,-100,4,2,1,90,0,1
215495,-100,4,2,2,90,0,0
215586,-100,4,2,1,90,0,1
215678,-100,4,2,1,90,0,0
217964,-100,4,2,1,80,0,0
218147,-100,4,2,1,80,0,0
218513,-100,4,2,1,90,0,0
218696,-100,4,2,1,90,0,0
218788,-100,4,2,1,80,0,0
218971,-100,4,2,1,80,0,0
219245,-100,4,2,1,90,0,0
219428,-100,4,2,1,80,0,0
219794,-100,4,2,1,90,0,0
220525,-100,4,3,0,90,0,0
220891,-100,4,2,1,90,0,0
222172,-100,4,2,1,90,0,0
222721,-100,4,2,1,90,0,0
226562,-100,4,2,2,90,0,0
227294,-100,4,2,1,90,0,0
229306,-100,4,2,1,70,0,0
229397,-100,4,2,1,90,0,0
229580,-100,4,2,1,90,0,0
229672,-100,4,2,1,70,0,0
232782,-100,4,3,0,90,0,0
233147,-100,4,2,1,90,0,0
235251,-100,4,2,1,90,0,0
235434,-100,4,2,1,90,0,0
237538,-100,4,2,1,90,0,0
239001,-100,4,2,1,90,0,0
249245,-100,4,2,1,75,0,0
250708,-100,4,2,1,90,0,0
259489,-100,4,2,1,80,0,0
259672,-100,4,2,1,80,0,0
259855,-100,4,3,0,80,0,0
260038,-100,4,2,1,80,0,0
260221,-100,4,3,0,80,0,0
260404,-100,4,2,1,80,0,0
260770,-100,4,3,0,80,0,0
260953,-100,4,2,1,80,0,0
261501,-100,4,2,1,80,0,0
261867,-100,4,2,1,80,0,0
262416,-100,4,2,77,90,0,1
262599,-100,4,2,2,90,0,1
263513,-100,4,2,2,90,0,1
263787,-100,4,2,2,90,0,1
267172,-100,4,2,11,90,0,1
267355,-100,4,2,2,90,0,1
271195,-100,4,2,2,90,0,1
271356,-100,4,2,2,5,0,1
271378,-100,4,2,2,90,0,1
271538,-100,4,2,2,5,0,1
271561,-100,4,2,2,90,0,1
271721,-100,4,2,2,5,0,1
271744,-100,4,2,2,90,0,1
271927,-100,4,2,2,90,0,1
272659,-100,4,2,2,90,0,1
272819,-100,4,2,2,5,0,1
272842,-100,4,2,2,90,0,1
273002,-100,4,2,2,5,0,1
273025,-100,4,3,0,90,0,1
273185,-100,4,2,2,5,0,1
273208,-100,4,2,2,90,0,1
273368,-100,4,2,2,5,0,1
273391,-100,4,3,0,90,0,1
273573,-100,4,2,1,90,0,1
273756,-100,4,2,2,90,0,1
278879,-100,4,2,11,90,0,1
279062,-100,4,2,2,90,0,1
281806,-100,4,2,11,90,0,1
281989,-100,4,2,2,90,0,1
282903,-100,4,2,2,90,0,1
283064,-100,4,2,2,5,0,1
283086,-100,4,2,2,90,0,1
283246,-100,4,2,2,5,0,1
283269,-100,4,2,2,90,0,1
283429,-100,4,2,2,5,0,1
283452,-100,4,2,2,90,0,1
283612,-100,4,2,2,5,0,1
283635,-100,4,2,2,90,0,1
284366,-100,4,2,2,90,0,1
284526,-100,4,2,2,5,0,1
284549,-100,4,2,2,90,0,1
284709,-100,4,2,2,5,0,1
284732,-100,4,2,2,90,0,1
284892,-100,4,2,2,5,0,1
284915,-100,4,2,2,90,0,1
285075,-100,4,2,2,5,0,1
285098,-100,4,2,2,90,0,1
285282,-100,4,3,0,90,0,1
285647,-100,4,2,2,90,0,1
285739,-100,4,2,2,90,0,0
285830,-100,4,2,2,90,0,1
291683,-100,4,2,2,90,0,1
291866,-100,4,2,2,90,0,1
294611,-100,4,2,1,90,0,1
294977,-100,4,2,11,90,0,1
295160,-100,4,2,2,90,0,1
295708,-100,4,2,11,90,0,1
295891,-100,4,2,2,90,0,1
296440,-100,4,2,11,90,0,1
296623,-100,4,2,2,90,0,1
297172,-100,4,2,11,90,0,1
297355,-100,4,2,2,90,0,1
297446,-100,4,2,2,90,0,0
297538,-100,4,2,77,90,0,1
297629,-100,4,2,2,90,0,0
298269,-100,4,2,2,90,0,0
298544,-100,4,2,2,90,0,0
307324,-100,4,2,2,90,0,0
307599,-100,4,2,2,90,0,0
307782,-100,4,2,2,100,0,0
308605,-100,4,2,1,80,0,0
309245,-100,4,2,77,80,0,0
309428,-100,4,2,2,90,0,0
309977,-100,4,2,2,90,0,0
310160,-100,4,2,2,90,0,0
319032,-100,4,2,2,90,0,0
319306,-100,4,2,2,90,0,0
319489,-100,4,2,2,100,0,0
320952,-100,4,2,77,100,0,0
321135,-100,4,2,1,60,0,0
321318,-100,4,2,1,59,0,0
321684,-100,4,2,1,57,0,0
322050,-100,4,2,1,55,0,0
322416,-100,4,2,1,53,0,0
322782,-100,4,2,1,51,0,0
323148,-100,4,2,1,49,0,0
323513,-100,4,2,1,47,0,0
323879,-100,4,2,1,45,0,0
324245,-100,4,2,1,43,0,0
324611,-100,4,2,1,41,0,0
324977,-100,4,2,1,39,0,0
325343,-100,4,2,1,37,0,0
325709,-100,4,2,1,35,0,0
326074,-100,4,2,1,33,0,0
326440,-100,4,2,1,31,0,0
326806,-100,4,2,1,29,0,0
327172,-100,4,2,1,27,0,0
327538,-100,4,2,1,25,0,0
327904,-100,4,2,1,23,0,0
328270,-100,4,2,1,21,0,0
328635,-100,4,2,1,19,0,0
329001,-100,4,2,1,17,0,0
329367,-100,4,2,1,15,0,0
329733,-100,4,2,1,13,0,0
330099,-100,4,2,1,11,0,0
330465,-100,4,2,1,9,0,0
330831,-100,4,2,1,7,0,0
331196,-100,4,2,1,5,0,0

[Colours]
Combo1 : 100,230,230
Combo2 : 210,40,40
Combo3 : 220,120,40
Combo4 : 60,120,60
Combo5 : 60,45,150
Combo6 : 180,180,240

[HitObjects]
256,192,1379,12,0,3025,0:0:0:0:
221,297,3391,6,0,L|213:116,1,152,4|8,0:0|0:0,0:0:0:0:
290,131,3940,1,0,0:0:0:0:
209,104,4123,1,2,0:0:0:0:
192,74,4214,1,2,0:0:0:0:
215,56,4306,1,2,0:0:0:0:
292,40,4489,1,8,0:0:0:0:
408,65,4855,6,0,L|237:69,1,152,2|8,0:0|0:0,0:0:0:0:
189,132,5404,1,0,0:0:0:0:
258,186,5586,1,2,0:0:0:0:
290,240,5678,1,2,0:0:0:0:
268,296,5769,1,2,0:0:0:0:
200,344,5952,1,8,0:0:0:0:
114,341,6135,1,8,0:0:0:0:
200,344,6318,6,0,L|345:329,2,114,6|2|6,0:0|0:0|0:0,0:0:0:0:
81,305,7141,1,2,0:0:0:0:
191,238,7416,1,8,0:0:0:0:
191,238,7599,1,6,0:0:0:0:
101,222,7782,6,0,P|49:169|103:105,1,152,6|8,0:0|0:0,0:0:0:0:
162,95,8330,1,0,0:0:0:0:
245,134,8513,1,2,0:0:0:0:
279,193,8605,1,2,0:0:0:0:
251,258,8696,1,2,0:0:0:0:
169,275,8879,1,8,0:0:0:0:
250,293,9062,1,6,0:0:0:0:
437,289,9245,6,0,P|482:259|418:200,1,152,6|8,0:0|0:0,0:0:0:0:
293,181,9977,1,2,0:0:0:0:
209,136,10160,1,2,0:0:0:0:
201,91,10251,1,0,0:0:0:0:
227,47,10343,1,8,0:0:0:0:
311,46,10525,1,2,0:0:0:0:
404,62,10708,6,0,L|229:65,1,152,2|8,0:0|0:0,0:0:0:0:
103,108,11440,1,2,0:0:0:0:
39,168,11623,1,2,0:0:0:0:
23,261,11806,1,8,0:0:0:0:
71,335,11989,1,2,0:0:0:0:
157,341,12172,5,6,0:0:0:0:
175,291,12263,1,0,0:0:0:0:
193,239,12355,1,0,0:0:0:0:
118,175,12538,1,0,0:0:0:0:
101,127,12629,1,0,0:0:0:0:
81,67,12721,1,0,0:0:0:0:
189,59,12904,2,0,L|287:65,1,76,2|2,0:0|0:0,0:0:0:0:
208,130,13269,2,0,L|125:139,1,76,8|6,0:0|0:0,0:0:0:0:
220,188,13635,6,0,L|358:207,2,114,6|6|6,0:0|0:0|0:0,0:0:0:0:
105,250,14458,1,2,0:0:0:0:
220,188,14733,1,8,0:0:0:0:
220,188,14916,1,8,0:0:0:0:
406,194,15099,6,0,P|454:153|391:105,1,152,6|2,0:0|0:0,0:0:0:0:
258,99,15830,1,2,0:0:0:0:
399,74,16196,1,2,0:0:0:0:
258,99,16562,6,0,L|89:118,3,152,2|2|2|2,0:0|0:0|0:0|0:0,0:0:0:0:
189,110,17843,1,4,0:0:0:0:
270,158,18025,6,0,L|402:180,2,114,6|0|4,0:0|0:0|0:0,0:0:0:0:
156,240,18849,1,0,0:0:0:0:
269,304,19123,1,6,0:0:0:0:
269,304,19306,1,4,0:0:0:0:
194,307,19489,6,0,L|37:317,1,152,6|2,0:0|0:0,0:0:0:0:
188,215,20221,1,4,0:3:0:0:
43,178,20586,1,4,0:3:0:0:
43,178,20769,1,8,0:3:0:0:
232,167,20952,5,6,0:0:0:0:
316,166,21135,1,2,0:0:0:0:
316,166,21318,1,8,0:0:0:0:
232,167,21501,1,2,0:0:0:0:
144,167,21684,1,2,0:0:0:0:
254,260,22050,1,8,0:0:0:0:
365,301,22416,5,0,0:0:0:0:
289,301,22598,1,0,0:0:0:0:
213,301,22781,1,0,0:0:0:0:
78,241,23147,1,2,0:0:0:0:
158,232,23330,1,2,0:0:0:0:
214,166,23513,1,8,0:0:0:0:
214,101,23696,1,2,0:0:0:0:
140,72,23879,5,2,0:0:0:0:
64,79,24062,1,2,0:0:0:0:
64,79,24245,1,8,0:0:0:0:
140,72,24428,1,2,0:0:0:0:
223,102,24611,1,2,0:0:0:0:
344,135,24977,1,8,0:0:0:0:
63,325,25343,5,2,0:0:0:0:
136,344,25525,1,2,0:0:0:0:
226,315,25708,1,10,0:0:0:0:
254,282,25800,1,2,0:0:0:0:
223,249,25891,1,2,0:0:0:0:
147,178,26074,1,2,0:0:0:0:
181,187,26166,1,2,0:0:0:0:
220,197,26257,1,2,0:0:0:0:
156,154,26440,1,8,0:0:0:0:
159,88,26623,1,2,0:0:0:0:
349,77,26806,5,6,0:0:0:0:
378,84,28269,6,0,L|510:86,1,114,4|0,0:0|0:0,0:0:0:0:
446,89,28635,2,0,L|284:96,1,152,8|2,0:0|0:0,0:0:0:0:
189,148,29275,2,0,L|189:267,1,114,8|0,0:0|0:0,0:0:0:0:
381,241,29733,5,2,0:0:0:0:
426,276,29824,1,0,0:0:0:0:
439,317,29916,1,0,0:0:0:0:
428,346,30007,1,0,0:0:0:0:
381,241,30099,2,0,L|197:242,1,152,8|0,0:0|0:0,0:0:0:0:
177,191,30647,1,0,0:0:0:0:
201,117,30830,1,8,0:0:0:0:
278,107,31013,1,0,0:0:0:0:
88,89,31196,6,0,P|63:144|105:194,1,114,2|0,0:0|0:0,0:0:0:0:
134,188,31562,2,0,L|293:186,1,152,8|2,0:0|0:0,0:0:0:0:
390,212,32202,2,0,L|246:217,1,114,8|0,0:0|0:0,0:0:0:0:
80,283,32660,5,2,0:0:0:0:
42,284,32751,1,0,0:0:0:0:
80,283,32843,1,0,0:0:0:0:
157,227,33025,1,8,0:0:0:0:
231,224,33208,1,0,0:0:0:0:
319,168,33391,2,0,L|215:166,1,76,2|2,0:0|0:0,0:0:0:0:
149,117,33757,1,8,0:3:0:0:
151,44,33940,1,4,0:3:0:0:
345,61,34123,6,0,L|467:56,1,114,6|0,0:0|0:0,0:0:0:0:
458,56,34489,2,0,L|279:61,1,152,8|2,0:0|0:0,0:0:0:0:
195,114,35129,2,0,P|170:172|195:234,1,114,8|0,0:0|0:0,0:0:0:0:
378,254,35586,5,2,0:0:0:0:
404,254,35678,1,0,0:0:0:0:
404,254,35769,1,0,0:0:0:0:
378,254,35861,1,0,0:0:0:0:
331,256,35952,2,0,B|233:253|233:253|234:170,1,152,8|0,0:0|0:0,0:0:0:0:
321,166,36501,1,0,0:0:0:0:
337,97,36684,1,8,0:0:0:0:
288,41,36867,1,0,0:0:0:0:
102,88,37050,6,0,L|215:83,1,114,2|0,0:0|0:0,0:0:0:0:
262,90,37416,2,0,P|316:147|270:194,1,152,8|2,0:0|0:0,0:0:0:0:
160,203,38056,2,0,L|292:211,1,114,8|2,0:0|0:0,0:0:0:0:
465,305,38513,6,0,L|470:175,1,114,6|8,0:0|0:0,0:0:0:0:
386,153,38971,2,0,L|287:152,1,76,8|8,0:0|0:0,0:0:0:0:
127,78,39336,2,0,P|61:117|52:173,1,114,8|2,0:0|0:0,0:0:0:0:
121,213,39794,1,0,0:0:0:0:
309,261,39977,6,0,L|405:261,2,76,6|0|8,0:0|0:0|0:0,0:0:0:0:
197,235,40708,1,2,0:0:0:0:
119,238,40891,1,8,0:0:0:0:
359,206,41257,6,0,P|447:187|493:140,1,152,2|0,0:0|0:0,0:0:0:0:
461,76,41806,1,8,0:0:0:0:
393,59,41989,1,0,0:0:0:0:
315,63,42172,2,0,L|217:63,1,76,2|2,0:0|0:0,0:0:0:0:
107,187,42904,5,2,0:0:0:0:
167,221,43086,1,0,0:0:0:0:
205,262,43269,1,8,0:0:0:0:
84,307,43635,1,2,0:0:0:0:
164,308,43818,1,8,0:0:0:0:
430,289,44184,6,0,P|458:207|409:164,1,152,2|2,0:0|0:0,0:0:0:0:
351,156,44733,1,8,0:0:0:0:
461,106,45099,1,2,0:0:0:0:
461,106,45282,1,2,0:0:0:0:
393,107,45464,1,8,0:0:0:0:
129,150,45830,6,0,L|47:152,2,76,2|0|8,0:0|0:0|0:0,0:0:0:0:
280,157,46562,2,0,L|363:155,1,76,2|8,0:0|0:0,0:0:0:0:
74,203,47111,6,0,P|83:278|150:313,1,152,0|0,0:0|0:0,0:0:0:0:
225,316,47660,1,8,0:0:0:0:
308,324,47843,2,0,L|127:336,1,152,0|2,0:0|0:0,0:0:0:0:
104,302,48391,1,8,0:0:0:0:
390,220,48757,5,2,0:0:0:0:
454,187,48940,1,0,0:0:0:0:
486,123,49123,1,8,0:0:0:0:
463,188,49306,1,0,0:0:0:0:
390,220,49489,2,0,L|288:225,1,76,2|2,0:0|0:0,0:0:0:0:
31,143,50038,6,0,L|204:137,1,152,2|0,0:0|0:0,0:0:0:0:
258,183,50586,2,0,L|259:284,1,76,8|2,0:0|0:0,0:0:0:0:
178,298,50952,1,2,0:0:0:0:
91,306,51135,1,0,0:0:0:0:
50,310,51227,1,0,0:0:0:0:
91,306,51318,1,8,0:0:0:0:
178,298,51501,1,4,0:0:0:0:
375,277,51684,6,0,B|452:256|452:256|446:180,1,152,6|8,0:0|0:0,0:0:0:0:
369,176,52233,1,0,0:0:0:0:
295,178,52416,2,0,L|215:183,1,76,2|2,0:0|0:0,0:0:0:0:
482,71,52964,6,0,L|315:77,1,152,2|0,0:0|0:0,0:0:0:0:
256,126,53513,2,0,L|258:222,1,76,8|0,0:0|0:0,0:0:0:0:
349,222,53879,1,2,0:0:0:0:
349,222,54062,1,2,0:0:0:0:
176,245,54611,5,2,0:0:0:0:
106,265,54794,1,0,0:0:0:0:
106,265,54977,1,8,0:0:0:0:
176,245,55160,1,0,0:0:0:0:
106,265,55343,1,2,0:0:0:0:
30,282,55525,1,2,0:0:0:0:
313,326,55891,6,0,L|467:325,1,152,2|0,0:0|0:0,0:0:0:0:
395,263,56440,1,8,0:0:0:0:
320,240,56623,1,2,0:0:0:0:
247,208,56806,1,2,0:0:0:0:
317,182,56989,1,2,0:0:0:0:
388,156,57172,1,8,0:0:0:0:
103,158,57538,6,0,L|27:163,2,76,6|0|8,0:0|0:0|0:0,0:0:0:0:
222,196,58269,1,2,0:0:0:0:
222,196,58452,1,2,0:0:0:0:
81,218,58818,6,0,P|72:144|162:124,1,152,2|0,0:0|0:0,0:0:0:0:
232,107,59367,1,8,0:0:0:0:
416,124,59550,2,0,B|452:195|452:195|354:205,1,152,2|2,0:0|0:0,0:0:0:0:
299,210,60099,1,8,0:0:0:0:
29,301,60464,6,0,L|191:294,1,152,6|8,0:0|0:0,0:0:0:0:
251,226,61013,1,2,0:0:0:0:
173,174,61196,1,2,0:0:0:0:
173,174,61379,1,2,0:0:0:0:
451,117,61745,1,2,0:0:0:0:
479,193,61928,5,0,0:0:0:0:
439,273,62111,1,2,0:0:0:0:
346,287,62294,1,8,0:0:0:0:
73,322,62660,2,0,L|65:221,1,76,2|0,0:0|0:0,0:0:0:0:
152,194,63025,1,8,0:3:0:0:
166,132,63117,1,0,0:0:0:0:
178,71,63208,1,4,0:3:0:0:
363,128,63391,6,0,L|515:131,1,152,6|0,0:0|0:0,0:0:0:0:
420,137,63940,2,0,P|359:151|366:231,1,152,2|0,0:0|0:0,0:0:0:0:
446,266,64489,1,8,0:0:0:0:
177,314,64855,6,0,L|9:318,1,152,2|0,0:0|0:0,0:0:0:0:
107,268,65404,2,0,L|272:240,1,152,2|0,0:0|0:0,0:0:0:0:
188,203,65952,1,8,0:0:0:0:
453,90,66318,6,0,P|483:177|452:260,1,152,2|0,0:0|0:0,0:0:0:0:
388,244,66867,2,0,P|328:282|359:358,1,152,2|0,0:0|0:0,0:0:0:0:
427,351,67416,1,8,0:0:0:0:
145,337,67782,6,0,P|82:325|167:178,1,304,2|2,0:0|0:0,0:0:0:0:
319,167,68879,1,8,0:0:0:0:
38,119,69245,6,0,L|218:101,1,152,6|0,0:0|0:0,0:0:0:0:
275,135,69794,2,0,P|277:192|179:252,1,152,2|0,0:0|0:0,0:0:0:0:
114,260,70343,1,8,0:0:0:0:
384,328,70708,6,0,P|471:269|360:157,1,304,2|2,0:0|0:0,0:0:0:0:
188,150,71806,1,8,0:0:0:0:
468,178,72172,5,6,0:0:0:0:
471,221,72263,1,0,0:0:0:0:
472,255,72355,1,2,0:0:0:0:
393,280,72538,1,8,0:0:0:0:
255,249,72904,2,0,L|343:232,1,76,2|2,0:0|0:0,0:0:0:0:
421,187,73269,2,0,L|319:184,1,76,8|2,0:0|0:0,0:0:0:0:
257,165,73635,5,0,0:0:0:0:
334,119,73818,1,0,0:0:0:0:
354,56,74001,1,8,0:0:0:0:
334,119,74184,1,2,0:0:0:0:
257,165,74367,2,0,L|150:166,1,76,2|0,0:0|0:0,0:0:0:0:
106,217,74733,2,0,L|184:220,1,76,8|0,0:0|0:0,0:0:0:0:
367,266,75099,6,0,P|424:214|365:162,1,152,6|0,0:0|0:0,0:0:0:0:
301,124,75647,2,0,L|472:116,1,152,2|0,0:0|0:0,0:0:0:0:
374,109,76196,1,8,0:0:0:0:
96,93,76562,6,0,P|29:144|52:211,1,152,2|0,0:0|0:0,0:0:0:0:
131,195,77111,2,0,P|180:257|124:312,1,152,2|0,0:0|0:0,0:0:0:0:
59,315,77660,1,8,0:0:0:0:
340,237,78025,6,0,L|78:213,2,228,2|2|8,0:0|0:0|0:0,0:0:0:0:
58,218,79489,6,0,P|52:163|129:104,1,152,2|8,0:0|0:0,0:0:0:0:
201,93,80038,1,2,0:0:0:0:
116,102,80221,2,0,P|50:150|62:227,1,152,2|8,0:0|0:0,0:0:0:0:
334,319,80952,6,0,L|500:320,1,152,2|0,0:0|0:0,0:0:0:0:
412,277,81501,2,0,L|279:146,1,152,2|0,0:0|0:0,0:0:0:0:
390,157,82050,1,8,0:0:0:0:
109,101,82416,6,0,P|69:169|123:206,1,152,2|0,0:0|0:0,0:0:0:0:
199,224,82964,2,0,L|41:223,1,152,2|0,0:0|0:0,0:0:0:0:
119,273,83513,1,2,0:0:0:0:
421,330,83879,5,6,0:0:0:0:
198,246,84428,1,2,0:0:0:0:
421,330,84977,1,2,0:0:0:0:
130,231,85343,5,2,0:0:0:0:
61,186,85525,1,2,0:0:0:0:
62,113,85708,1,2,0:0:0:0:
137,78,85891,1,2,0:0:0:0:
279,72,86257,1,2,0:0:0:0:
329,99,86349,1,0,0:0:0:0:
374,124,86440,1,10,0:0:0:0:
306,171,86623,1,10,0:0:0:0:
123,226,86806,6,0,B|115:288|115:288|230:313,1,152,4|8,0:0|0:0,0:0:0:0:
285,316,87355,2,0,L|133:330,1,152,0|2,0:0|0:0,0:0:0:0:
57,284,87904,2,0,L|50:177,1,76,8|0,0:0|0:0,0:0:0:0:
240,146,88269,5,2,0:0:0:0:
284,142,88361,1,0,0:0:0:0:
331,141,88452,1,2,0:0:0:0:
413,184,88635,1,8,0:0:0:0:
317,225,88910,1,2,0:0:0:0:
397,225,89184,1,2,0:0:0:0:
467,281,89367,2,0,L|366:285,1,76,8|0,0:0|0:0,0:0:0:0:
203,287,89733,6,0,P|136:277|117:177,1,152,2|8,0:0|0:0,0:0:0:0:
234,125,90464,2,0,L|46:124,1,152,2|8,0:0|0:0,0:0:0:0:
356,75,91196,5,2,0:0:0:0:
395,112,91288,1,0,0:0:0:0:
358,145,91379,1,0,0:0:0:0:
266,161,91562,1,0,0:0:0:0:
184,185,91745,1,2,0:0:0:0:
190,238,91836,1,2,0:0:0:0:
194,295,91928,1,8,0:0:0:0:
289,291,92111,2,0,L|391:284,1,76,2|8,0:0|0:0,0:0:0:0:
289,291,92477,1,2,0:0:0:0:
102,279,92660,6,0,P|104:201|177:167,1,152,2|8,0:0|0:0,0:0:0:0:
246,116,93208,2,0,L|76:116,1,152,2|2,0:0|0:0,0:0:0:0:
167,63,93757,1,8,0:0:0:0:
418,104,94123,6,0,P|442:170|356:218,1,152,2|8,0:0|0:0,0:0:0:0:
306,247,94672,2,0,L|471:250,1,152,0|2,0:0|0:0,0:0:0:0:
396,303,95221,2,0,L|311:303,1,76,8|0,0:0|0:0,0:0:0:0:
135,303,95586,5,2,0:0:0:0:
139,229,95769,1,0,0:0:0:0:
188,169,95952,1,8,0:0:0:0:
270,164,96135,1,0,0:0:0:0:
397,156,96501,1,0,0:0:0:0:
397,156,96684,1,8,0:0:0:0:
325,157,96867,1,0,0:0:0:0:
133,222,97050,6,0,L|44:222,1,76,2|2,0:0|0:0,0:0:0:0:
138,257,97416,2,0,L|221:259,1,76,8|8,0:0|0:0,0:0:0:0:
138,311,97782,1,4,0:0:0:0:
59,280,97964,1,2,0:0:0:0:
42,227,98056,1,0,0:0:0:0:
59,167,98147,1,8,0:0:0:0:
143,135,98330,1,2,0:0:0:0:
341,174,98513,6,0,B|420:220|420:220|374:262,1,152,6|8,0:0|0:0,0:0:0:0:
298,253,99062,2,0,P|226:285|230:354,1,152,0|2,0:0|0:0,0:0:0:0:
314,351,99611,2,0,L|411:350,1,76,8|0,0:0|0:0,0:0:0:0:
202,102,99977,5,2,0:0:0:0:
158,98,100068,1,0,0:0:0:0:
111,97,100160,1,0,0:0:0:0:
29,140,100343,1,8,0:0:0:0:
125,181,100617,1,2,0:0:0:0:
45,181,100891,1,2,0:0:0:0:
125,181,101074,2,0,L|202:183,1,76,8|2,0:0|0:0,0:0:0:0:
391,188,101440,6,0,P|460:223|460:317,1,152,2|8,0:0|0:0,0:0:0:0:
299,311,102172,2,0,L|474:310,1,152,2|8,0:0|0:0,0:0:0:0:
168,71,102904,5,2,0:0:0:0:
128,102,102995,1,0,0:0:0:0:
154,145,103086,1,0,0:0:0:0:
246,161,103269,1,0,0:0:0:0:
250,197,103361,1,0,0:0:0:0:
254,249,103452,1,0,0:0:0:0:
163,269,103635,1,2,0:0:0:0:
251,275,103818,1,2,0:0:0:0:
338,290,104001,1,10,0:0:0:0:
253,281,104184,1,2,0:0:0:0:
70,259,104367,6,0,P|28:186|80:132,1,152,2|8,0:0|0:0,0:0:0:0:
140,136,104916,2,0,P|195:84|138:40,1,152,0|2,0:0|0:0,0:0:0:0:
79,40,105464,1,8,0:0:0:0:
355,242,105830,6,0,L|186:255,1,152,2|0,0:0|0:0,0:0:0:0:
134,251,106379,2,0,B|40:178|164:121,1,152
207,120,106928,1,0,0:0:0:0:
279,115,107111,1,2,0:0:0:0:
101,196,107294,6,0,L|3:197,2,76,2|2|8,0:0|0:0|0:0,0:0:0:0:
181,193,107843,2,0,P|252:134|235:67,1,152,2|2,0:0|0:0,0:0:0:0:
195,45,108391,1,8,0:0:0:0:
460,75,108757,5,2,0:0:0:0:
390,110,108940,1,2,0:0:0:0:
365,179,109123,1,8,0:0:0:0:
391,246,109306,1,2,0:0:0:0:
468,266,109489,1,8,0:0:0:0:
390,306,109672,1,2,0:0:0:0:
389,254,109763,1,0,0:0:0:0:
383,192,109855,1,8,0:0:0:0:
297,171,110038,1,2,0:0:0:0:
112,190,110221,6,0,L|11:193,1,76,6|0,0:0|0:0,0:0:0:0:
36,192,110586,2,0,L|134:189,1,76,8|0,0:0|0:0,0:0:0:0:
293,236,110952,2,0,P|334:169|267:117,1,152,2|8,0:0|0:0,0:0:0:0:
212,118,111501,6,0,L|371:107,1,152,2|0,0:0|0:0,0:0:0:0:
437,160,112050,1,8,0:0:0:0:
360,191,112233,1,0,0:0:0:0:
276,214,112416,1,2,0:0:0:0:
93,262,112599,1,6,0:0:0:0:
93,262,112782,1,8,0:0:0:0:
378,308,113147,6,0,L|462:313,1,76,2|0,0:0|0:0,0:0:0:0:
453,312,113513,2,0,L|366:313,1,76,8|0,0:0|0:0,0:0:0:0:
189,291,113879,2,0,P|133:273|173:208,1,152,2|8,0:0|0:0,0:0:0:0:
254,161,114428,6,0,L|90:152,1,152,0|0,0:0|0:0,0:0:0:0:
28,101,114977,1,8,0:0:0:0:
103,86,115160,1,2,0:0:0:0:
183,68,115343,1,8,0:0:0:0:
314,97,115708,1,8,0:0:0:0:
360,98,115800,1,0,0:0:0:0:
314,97,115891,1,4,0:0:0:0:
127,200,116074,6,0,L|26:201,2,76,2|0|8,0:0|0:0|0:0,0:0:0:0:
237,257,116806,2,0,L|75:256,1,152,2|8,0:0|0:0,0:0:0:0:
163,304,117355,6,0,L|328:304,1,152,2|0,0:0|0:0,0:0:0:0:
395,250,117904,1,8,0:0:0:0:
395,250,118086,1,0,0:0:0:0:
315,304,118269,1,2,0:0:0:0:
147,148,118452,1,2,0:0:0:0:
79,149,118635,1,8,0:0:0:0:
352,134,119001,6,0,P|418:154|353:251,1,228,6|0,0:0|0:0,0:0:0:0:
285,278,119733,2,0,L|523:281,1,228,2|2,0:0|0:0,0:0:0:0:
324,293,120464,6,0,L|89:286,1,228,2|2,0:0|0:0,0:0:0:0:
168,248,121196,2,0,P|269:214|277:100,1,228,8|2,0:0|0:0,0:0:0:0:
77,70,121928,6,0,P|44:138|72:186,1,114,4|0,0:0|0:0,0:0:0:0:
104,176,122294,2,0,L|266:183,1,152,8|2,0:0|0:0,0:0:0:0:
358,196,122934,2,0,P|391:271|362:315,1,114,8|8,0:0|0:0,0:0:0:0:
189,146,123391,5,2,0:0:0:0:
136,174,123483,1,0,0:0:0:0:
125,217,123574,1,0,0:0:0:0:
136,174,123666,1,0,0:0:0:0:
189,146,123757,2,0,L|299:150,1,76,8|0,0:0|0:0,0:0:0:0:
402,147,124306,1,2,0:0:0:0:
399,106,124397,1,0,0:0:0:0:
393,61,124489,1,8,0:0:0:0:
285,56,124672,1,0,0:0:0:0:
97,111,124855,6,0,L|88:233,1,114,6|0,0:0|0:0,0:0:0:0:
153,213,125221,2,0,P|228:230|235:315,1,152,8|2,0:0|0:0,0:0:0:0:
135,322,125861,2,0,L|7:320,1,114,8|0,0:0|0:0,0:0:0:0:
211,265,126318,5,2,0:0:0:0:
242,266,126410,1,0,0:0:0:0:
270,265,126501,1,0,0:0:0:0:
363,222,126684,1,2,0:0:0:0:
390,188,126775,1,0,0:0:0:0:
357,151,126867,1,0,0:0:0:0:
267,147,127050,2,0,L|171:149,1,76,8|0,0:0|0:0,0:0:0:0:
111,91,127416,1,2,0:0:0:0:
152,81,127507,1,2,0:0:0:0:
191,70,127599,1,2,0:0:0:0:
377,98,127782,6,0,P|454:107|482:165,1,114,6|0,0:0|0:0,0:0:0:0:
484,182,128147,2,0,L|322:186,1,152,8|2,0:0|0:0,0:0:0:0:
216,200,128788,2,0,P|193:234|226:306,1,114,8|0,0:0|0:0,0:0:0:0:
401,318,129245,5,2,0:0:0:0:
423,274,129336,1,0,0:0:0:0:
410,225,129428,1,0,0:0:0:0:
370,198,129519,1,0,0:0:0:0:
331,191,129611,2,0,L|235:191,1,76,8|0,0:0|0:0,0:0:0:0:
121,143,130160,1,2,0:0:0:0:
117,100,130251,1,0,0:0:0:0:
113,39,130343,1,8,0:0:0:0:
212,29,130525,1,0,0:0:0:0:
391,74,130708,6,0,P|427:149|397:167,1,114,6|0,0:0|0:0,0:0:0:0:
388,171,131074,2,0,L|231:173,1,152,8|2,0:0|0:0,0:0:0:0:
345,246,131714,2,0,P|383:301|334:330,1,114,8|0,0:0|0:0,0:0:0:0:
168,336,132172,6,0,L|39:344,2,114,6|8|8,0:0|0:0|0:0,0:0:0:0:
299,258,132995,2,0,P|375:230|389:181,1,114,8|2,0:0|0:0,0:0:0:0:
325,145,133452,1,0,0:0:0:0:
134,133,133635,6,0,L|38:133,2,76,6|0|8,0:0|0:0|0:0,0:0:0:0:
291,184,134367,1,2,0:0:0:0:
368,181,134550,1,2,0:0:0:0:
92,222,134916,6,0,P|37:189|104:128,1,152,2|2,0:0|0:0,0:0:0:0:
145,125,135464,1,8,0:0:0:0:
220,125,135647,1,0,0:0:0:0:
145,125,135830,2,0,L|66:121,1,76,2|2,0:0|0:0,0:0:0:0:
232,235,136562,5,2,0:0:0:0:
161,284,136745,1,0,0:0:0:0:
161,284,136928,1,8,0:0:0:0:
313,298,137294,1,2,0:0:0:0:
382,302,137477,1,2,0:0:0:0:
94,289,137843,6,0,P|66:207|115:164,1,152,2|2,0:0|0:0,0:0:0:0:
176,173,138391,1,8,0:0:0:0:
318,154,138757,1,2,0:0:0:0:
387,177,138940,1,2,0:0:0:0:
387,177,139123,1,8,0:0:0:0:
114,282,139489,6,0,L|32:284,2,76,6|0|8,0:0|0:0|0:0,0:0:0:0:
256,295,140221,2,0,L|331:296,1,76,2|0,0:0|0:0,0:0:0:0:
45,151,140769,6,0,P|54:226|121:261,1,152,2|2,0:0|0:0,0:0:0:0:
205,266,141318,1,8,0:0:0:0:
274,292,141501,2,0,L|101:302,1,152,0|2,0:0|0:0,0:0:0:0:
39,310,142050,1,10,0:0:0:0:
313,228,142416,5,6,0:0:0:0:
354,149,142599,1,0,0:0:0:0:
312,50,142782,1,8,0:0:0:0:
224,36,142964,1,2,0:0:0:0:
142,78,143147,2,0,L|223:83,1,76,2|2,0:0|0:0,0:0:0:0:
495,126,143696,6,0,L|322:120,1,152,2|2,0:0|0:0,0:0:0:0:
258,162,144245,2,0,L|257:263,1,76,8|2,0:0|0:0,0:0:0:0:
339,274,144611,1,2,0:0:0:0:
425,282,144794,1,0,0:0:0:0:
466,286,144885,1,0,0:0:0:0:
425,282,144977,1,8,0:0:0:0:
339,274,145160,1,4,0:0:0:0:
165,265,145343,6,0,B|161:204|161:204|263:193,1,152,6|8,0:0|0:0,0:0:0:0:
327,179,145891,1,0,0:0:0:0:
394,139,146074,2,0,L|314:144,1,76,2|2,0:0|0:0,0:0:0:0:
37,66,146623,6,0,L|204:72,1,152,2|2,0:0|0:0,0:0:0:0:
256,126,147172,2,0,L|254:222,1,76,8|0,0:0|0:0,0:0:0:0:
163,222,147538,1,2,0:0:0:0:
163,222,147721,1,0,0:0:0:0:
321,145,148269,5,2,0:0:0:0:
323,208,148452,1,0,0:0:0:0:
287,251,148635,1,8,0:0:0:0:
210,260,148818,1,0,0:0:0:0:
287,251,149001,1,2,0:0:0:0:
348,272,149184,1,2,0:0:0:0:
70,273,149550,6,0,P|26:209|70:142,1,152,2|2,0:0|0:0,0:0:0:0:
129,137,150099,1,8,0:0:0:0:
200,135,150282,1,0,0:0:0:0:
129,137,150464,1,2,0:0:0:0:
121,201,150647,1,2,0:0:0:0:
182,234,150830,1,8,0:0:0:0:
460,221,151196,6,0,L|466:300,2,76,6|0|8,0:0|0:0|0:0,0:0:0:0:
351,199,151928,1,2,0:0:0:0:
290,196,152111,1,0,0:0:0:0:
448,195,152477,6,0,P|457:121|367:101,1,152,2|0,0:0|0:0,0:0:0:0:
309,91,153025,1,8,0:0:0:0:
120,121,153208,2,0,B|50:155|50:155|47:241,1,152,2|2,0:0|0:0,0:0:0:0:
132,242,153757,1,8,0:0:0:0:
405,329,154123,6,0,L|243:322,1,152,2|8,0:0|0:0,0:0:0:0:
183,282,154672,1,0,0:0:0:0:
248,231,154855,1,2,0:0:0:0:
310,185,155038,1,2,0:0:0:0:
23,115,155404,1,2,0:0:0:0:
106,155,155586,5,0,0:0:0:0:
106,155,155769,1,2,0:0:0:0:
23,115,155952,1,8,0:0:0:0:
300,277,156318,2,0,L|401:266,1,76,2|2,0:0|0:0,0:0:0:0:
452,184,156684,1,2,0:0:0:0:
452,184,156775,1,0,0:0:0:0:
452,184,156867,1,2,0:0:0:0:
255,54,157050,6,0,L|103:57,1,152,6|8,0:0|0:0,0:0:0:0:
176,91,157599,2,0,P|229:121|159:203,1,152,0|2,0:0|0:0,0:0:0:0:
129,221,158147,1,8,0:0:0:0:
402,292,158513,6,0,L|407:78,1,152,2|8,0:0|0:0,0:0:0:0:
324,122,159062,2,0,P|256:106|235:32,1,152,2|2,0:0|0:0,0:0:0:0:
325,35,159611,1,8,0:0:0:0:
54,91,159977,6,0,P|24:178|55:261,1,152,2|8,0:0|0:0,0:0:0:0:
120,239,160525,2,0,P|180:277|149:353,1,152,2|2,0:0|0:0,0:0:0:0:
79,354,161074,1,8,0:0:0:0:
354,321,161440,6,0,P|417:309|332:162,1,304,2|2,0:0|0:0,0:0:0:0:
206,161,162538,1,10,0:0:0:0:
484,113,162904,6,0,L|304:95,1,152,6|8,0:0|0:0,0:0:0:0:
275,135,163452,2,0,L|449:155,1,152,2|2,0:0|0:0,0:0:0:0:
359,196,164001,1,8,0:0:0:0:
81,321,164367,6,0,P|58:250|236:121,1,304,2|2,0:0|0:0,0:0:0:0:
345,111,165464,1,8,0:0:0:0:
73,194,165830,5,2,0:0:0:0:
41,221,165922,1,2,0:0:0:0:
40,255,166013,1,2,0:0:0:0:
119,280,166196,1,8,0:0:0:0:
257,249,166562,2,0,L|182:234,1,76,2|2,0:0|0:0,0:0:0:0:
91,187,166928,2,0,L|166:184,1,76,8|2,0:0|0:0,0:0:0:0:
255,165,167294,5,0,0:0:0:0:
319,108,167477,1,0,0:0:0:0:
339,48,167660,1,8,0:0:0:0:
319,108,167843,1,2,0:0:0:0:
255,165,168025,2,0,L|165:163,1,76,2|0,0:0|0:0,0:0:0:0:
255,165,168391,2,0,L|345:169,1,76,10|0,0:0|0:0,0:0:0:0:
139,268,168757,6,0,P|67:236|92:142,1,152,6|8,0:0|0:0,0:0:0:0:
157,174,169306,2,0,P|176:115|160:-7,1,152,2|2,0:0|0:0,0:0:0:0:
93,24,169855,1,8,0:0:0:0:
377,96,170221,6,0,P|444:147|421:214,1,152,2|8,0:0|0:0,0:0:0:0:
349,220,170769,2,0,L|556:225,1,152,2|2,0:0|0:0,0:0:0:0:
423,269,171318,1,8,0:0:0:0:
159,279,171684,6,0,P|60:256|35:132,2,228,2|2|8,0:0|0:0|0:0,0:0:0:0:
454,218,173147,6,0,L|293:196,1,152,2|8,0:0|0:0,0:0:0:0:
302,139,173696,1,2,0:0:0:0:
367,94,173879,2,0,P|433:142|421:219,1,152,2|8,0:0|0:0,0:0:0:0:
147,313,174611,6,0,P|67:287|67:187,1,152,6|8,0:0|0:0,0:0:0:0:
139,213,175160,2,0,L|138:29,1,152,2|2,0:0|0:0,0:0:0:0:
59,54,175708,1,8,0:0:0:0:
337,112,176074,6,0,P|415:152|414:216,1,152,2|8,0:0|0:0,0:0:0:0:
341,216,176623,2,0,L|183:215,1,152,2|2,0:0|0:0,0:0:0:0:
189,215,177172,1,2,0:0:0:0:
476,304,177538,5,6,0:0:0:0:
238,241,178086,1,2,0:0:0:0:
467,307,178635,1,2,0:0:0:0:
180,222,179001,5,2,0:0:0:0:
101,202,179184,1,2,0:0:0:0:
84,135,179367,1,2,0:0:0:0:
121,71,179550,1,2,0:0:0:0:
255,52,179916,1,2,0:0:0:0:
276,101,180007,1,2,0:0:0:0:
261,145,180099,1,8,0:0:0:0:
176,157,180282,1,8,0:0:0:0:
356,192,180464,6,0,B|364:254|364:254|249:279,1,152,4|8,0:0|0:0,0:0:0:0:
200,305,181013,2,0,L|352:319,1,152,0|0,0:0|0:0,0:0:0:0:
285,282,181562,2,0,L|196:267,1,76,8|0,0:0|0:0,0:0:0:0:
20,149,181928,5,2,0:0:0:0:
64,145,182019,1,2,0:0:0:0:
111,144,182111,1,2,0:0:0:0:
193,187,182294,1,8,0:0:0:0:
97,228,182568,1,2,0:0:0:0:
177,228,182843,1,2,0:0:0:0:
97,228,183025,2,0,L|93:325,1,76,8|0,0:0|0:0,0:0:0:0:
286,308,183391,6,0,P|353:298|372:198,1,152,2|8,0:0|0:0,0:0:0:0:
214,192,184123,2,0,L|402:191,1,152,2|8,0:0|0:0,0:0:0:0:
86,62,184855,5,2,0:0:0:0:
65,126,184946,1,0,0:0:0:0:
44,182,185038,1,0,0:0:0:0:
132,191,185221,1,0,0:0:0:0:
215,189,185404,1,2,0:0:0:0:
233,235,185495,1,0,0:0:0:0:
251,279,185586,1,2,0:0:0:0:
179,325,185769,2,0,L|77:318,1,76,0|8,0:0|0:0,0:0:0:0:
179,325,186135,1,0,0:0:0:0:
376,301,186318,6,0,P|446:278|470:188,1,152,2|8,0:0|0:0,0:0:0:0:
401,205,186867,2,0,L|249:205,1,152,2|2,0:0|0:0,0:0:0:0:
323,188,187416,1,8,0:0:0:0:
50,109,187782,6,0,P|26:175|112:223,1,152,2|8,0:0|0:0,0:0:0:0:
157,218,188330,2,0,L|164:38,1,152,0|2,0:0|0:0,0:0:0:0:
86,66,188879,2,0,L|171:66,1,76,8|0,0:0|0:0,0:0:0:0:
361,313,189245,5,2,0:0:0:0:
446,282,189428,1,0,0:0:0:0:
446,282,189611,1,8,0:0:0:0:
361,313,189794,1,0,0:0:0:0:
231,313,190160,1,2,0:0:0:0:
303,308,190343,1,8,0:0:0:0:
325,251,190525,1,2,0:0:0:0:
132,230,190708,6,0,L|43:230,1,76,2|0,0:0|0:0,0:0:0:0:
134,224,191074,2,0,L|217:226,1,76,10|2,0:0|0:0,0:0:0:0:
135,261,191440,1,8,0:0:0:0:
56,230,191623,1,2,0:0:0:0:
39,177,191714,1,0,0:0:0:0:
56,117,191806,1,8,0:0:0:0:
140,85,191989,1,2,0:0:0:0:
337,179,192172,6,0,B|416:225|416:225|370:267,1,152,6|8,0:0|0:0,0:0:0:0:
294,258,192721,2,0,P|222:290|226:359,1,152,0|0,0:0|0:0,0:0:0:0:
310,356,193269,2,0,L|407:355,1,76,8|0,0:0|0:0,0:0:0:0:
194,111,193635,5,2,0:0:0:0:
150,107,193727,1,2,0:0:0:0:
103,106,193818,1,2,0:0:0:0:
182,64,194001,1,8,0:0:0:0:
100,51,194275,1,2,0:0:0:0:
186,36,194550,1,2,0:0:0:0:
280,30,194733,2,0,L|282:113,1,76,8|2,0:0|0:0,0:0:0:0:
91,196,195099,6,0,L|278:198,1,152,2|8,0:0|0:0,0:0:0:0:
365,271,195830,2,0,L|190:270,1,152,2|8,0:0|0:0,0:0:0:0:
481,59,196562,5,2,0:0:0:0:
481,59,196654,1,0,0:0:0:0:
431,77,196745,1,0,0:0:0:0:
334,103,196928,1,0,0:0:0:0:
334,103,197019,1,0,0:0:0:0:
391,104,197111,1,0,0:0:0:0:
471,132,197294,1,2,0:0:0:0:
469,212,197477,1,2,0:0:0:0:
398,250,197660,1,8,0:0:0:0:
316,248,197843,1,8,0:0:0:0:
124,265,198025,6,0,L|119:87,1,152,2|8,0:0|0:0,0:0:0:0:
202,101,198574,2,0,L|376:69,1,152,0|0,0:0|0:0,0:0:0:0:
344,73,199123,1,8,0:0:0:0:
72,193,199489,6,0,P|225:201|275:267,2,228,2|2|8,0:0|0:0|0:0,0:0:0:0:
160,235,200769,1,0,0:0:0:0:
354,300,200952,6,0,L|452:301,2,76,2|0|8,0:0|0:0|0:0,0:0:0:0:
272,259,201501,2,0,P|234:188|298:135,1,152,2|0,0:0|0:0,0:0:0:0:
360,124,202050,1,8,0:0:0:0:
75,74,202416,5,8,0:0:0:0:
53,144,202599,1,2,0:0:0:0:
65,221,202782,1,8,0:0:0:0:
139,257,202964,1,2,0:0:0:0:
233,262,203147,1,6,0:0:0:0:
159,319,203330,1,2,0:0:0:0:
120,328,203422,1,0,0:0:0:0:
77,338,203513,1,8,0:0:0:0:
143,290,203696,1,8,0:0:0:0:
338,146,203879,6,0,L|439:149,1,76,6|0,0:0|0:0,0:0:0:0:
345,200,204245,2,0,L|247:197,1,76,8|0,0:0|0:0,0:0:0:0:
77,236,204611,2,0,L|77:82,1,152,2|8,0:0|0:0,0:0:0:0:
157,66,205160,6,0,L|310:40,1,152,2|0,0:0|0:0,0:0:0:0:
234,51,205708,1,8,0:0:0:0:
157,66,205891,1,2,0:0:0:0:
234,51,206074,1,2,0:0:0:0:
432,258,206257,1,6,0:0:0:0:
432,258,206440,1,8,0:0:0:0:
154,272,206806,6,0,L|70:277,1,76,2|0,0:0|0:0,0:0:0:0:
154,272,207172,2,0,L|241:273,1,76,8|0,0:0|0:0,0:0:0:0:
432,269,207538,2,0,P|432:213|341:173,1,152,2|8,0:0|0:0,0:0:0:0:
258,161,208086,6,0,L|264:334,1,152,0|2,0:0|0:0,0:0:0:0:
346,339,208635,1,8,0:0:0:0:
265,344,208818,1,2,0:0:0:0:
187,354,209001,1,8,0:0:0:0:
311,304,209367,1,6,0:0:0:0:
357,305,209458,1,8,0:0:0:0:
311,304,209550,1,4,0:0:0:0:
117,207,209733,6,0,L|16:208,2,76,6|0|8,0:0|0:0|0:0,0:0:0:0:
271,217,210464,2,0,P|323:170|274:108,1,152,2|8,0:0|0:0,0:0:0:0:
200,83,211013,6,0,L|352:83,1,152,0|0,0:0|0:0,0:0:0:0:
286,85,211562,1,8,0:0:0:0:
210,117,211745,1,0,0:0:0:0:
210,117,211928,1,2,0:0:0:0:
399,155,212111,1,2,0:0:0:0:
470,152,212294,1,6,0:0:0:0:
195,168,212660,6,0,P|129:188|85:349,1,228,6|0,0:0|0:0,0:0:0:0:
145,334,213391,2,0,L|372:331,1,228,2|2,0:0|0:0,0:0:0:0:
181,297,214123,6,0,P|184:233|320:176,1,228,2|2,0:0|0:0,0:0:0:0:
407,126,214855,2,0,L|152:124,1,228,8|8,0:0|0:0,0:0:0:0:
363,54,215586,5,6,0:0:0:0:
401,64,215678,1,0,0:0:0:0:
439,80,215769,1,0,0:0:0:0:
364,62,215952,1,8,0:0:0:0:
251,143,216318,1,2,0:0:0:0:
282,152,216410,1,0,0:0:0:0:
312,162,216501,1,0,0:0:0:0:
375,177,216684,1,8,0:0:0:0:
265,230,217050,5,2,0:0:0:0:
230,240,217141,1,0,0:0:0:0:
194,254,217233,1,2,0:0:0:0:
159,302,217416,1,8,0:0:0:0:
194,254,217599,1,2,0:0:0:0:
230,240,217690,1,0,0:0:0:0:
265,230,217782,1,2,0:0:0:0:
340,228,217964,1,6,0:0:0:0:
456,223,218147,1,8,0:0:0:0:
177,187,218513,6,0,L|32:194,2,114,2|2|2,0:0|0:0|0:0,0:0:0:0:
247,276,219245,2,0,L|392:283,2,114,2|2|2,0:0|0:0|0:0,0:0:0:0:
156,244,219977,5,2,0:0:0:0:
122,178,220160,1,2,0:0:0:0:
155,113,220343,1,8,0:0:0:0:
232,96,220525,1,8,0:0:0:0:
155,113,220708,2,0,L|58:134,1,76,4|6,0:0|0:0,0:0:0:0:
155,113,221074,2,0,L|241:116,1,76,8|2,0:0|0:0,0:0:0:0:
424,137,221440,6,0,L|426:314,1,152,6|8,0:0|0:0,0:0:0:0:
298,312,222172,2,0,L|429:306,2,114,2|4|2,0:0|0:0|0:0,0:0:0:0:
31,176,223086,6,0,L|34:330,1,152,2|2,0:0|0:0,0:0:0:0:
304,313,223818,1,2,0:0:0:0:
383,312,224001,1,14,0:0:0:0:
103,263,224367,5,2,0:0:0:0:
73,240,224458,1,0,0:0:0:0:
43,211,224550,1,0,0:0:0:0:
104,160,224733,1,8,0:0:0:0:
228,100,225099,1,2,0:0:0:0:
194,96,225190,1,0,0:0:0:0:
160,91,225282,1,0,0:0:0:0:
91,79,225464,1,8,0:0:0:0:
366,146,225830,5,2,0:0:0:0:
404,148,225922,1,0,0:0:0:0:
440,164,226013,1,0,0:0:0:0:
440,164,226196,2,0,L|360:164,1,76,8|0,0:0|0:0,0:0:0:0:
311,270,226562,2,0,L|491:274,1,152,2|0,0:0|0:0,0:0:0:0:
174,130,227294,5,6,0:0:0:0:
83,173,227477,1,0,0:0:0:0:
83,173,227568,1,0,0:0:0:0:
161,234,227751,1,2,0:0:0:0:
244,269,227934,1,2,0:0:0:0:
161,258,228117,1,0,0:0:0:0:
107,214,228208,1,2,0:0:0:0:
96,160,228300,1,0,0:0:0:0:
116,107,228391,1,8,0:0:0:0:
212,79,228574,1,8,0:0:0:0:
405,76,228757,5,6,0:0:0:0:
405,76,228849,1,2,0:0:0:0:
326,116,229032,1,0,0:0:0:0:
242,167,229306,2,0,L|400:170,1,152,2|2,0:0|0:0,0:0:0:0:
397,231,229763,1,0,0:0:0:0:
402,291,229855,1,8,0:0:0:0:
317,304,230038,1,2,0:0:0:0:
130,324,230221,6,0,L|-1:336,2,114,6|2|0,0:0|0:0|0:0,0:0:0:0:
214,284,230952,2,0,L|213:192,1,76,0|2,0:0|0:0,0:0:0:0:
141,148,231318,1,8,0:0:0:0:
217,111,231501,1,8,0:0:0:0:
408,76,231684,5,6,0:0:0:0:
422,137,231775,1,2,0:0:0:0:
430,204,231867,1,2,0:0:0:0:
337,232,232050,1,8,0:0:0:0:
323,283,232141,1,2,0:0:0:0:
304,344,232233,1,2,0:0:0:0:
225,329,232416,1,8,0:0:0:0:
189,281,232599,1,2,0:0:0:0:
216,229,232782,1,8,0:0:0:0:
301,204,232964,1,4,0:0:0:0:
485,84,233147,5,6,0:0:0:0:
400,141,233330,1,2,0:0:0:0:
400,141,233422,1,2,0:0:0:0:
477,195,233605,1,2,0:0:0:0:
404,244,233788,1,2,0:0:0:0:
317,260,233971,1,0,0:0:0:0:
361,257,234062,1,2,0:0:0:0:
419,253,234245,1,8,0:0:0:0:
419,253,234428,1,8,0:0:0:0:
221,49,234611,5,6,0:0:0:0:
160,54,234702,1,0,0:0:0:0:
82,88,234885,1,0,0:0:0:0:
82,88,235160,2,0,L|233:85,1,152,8|2,0:0|0:0,0:0:0:0:
279,132,235617,1,0,0:0:0:0:
245,190,235708,1,8,0:0:0:0:
174,271,235891,1,2,0:0:0:0:
373,317,236074,6,0,L|504:329,2,114,6|2|0,0:0|0:0|0:0,0:0:0:0:
296,283,236806,2,0,L|297:191,1,76,0|2,0:0|0:0,0:0:0:0:
385,148,237172,1,8,0:0:0:0:
297,110,237355,1,8,0:0:0:0:
104,76,237538,5,12,0:0:0:0:
56,119,237629,1,2,0:0:0:0:
94,163,237721,1,2,0:0:0:0:
167,209,237904,1,12,0:0:0:0:
203,256,237995,1,2,0:0:0:0:
167,209,238086,1,2,0:0:0:0:
108,275,238269,1,12,0:0:0:0:
185,307,238452,1,2,0:0:0:0:
270,325,238635,1,8,0:0:0:0:
248,281,238727,1,0,0:0:0:0:
219,231,238818,1,8,0:0:0:0:
24,220,239001,5,6,0:0:0:0:
286,80,250708,6,0,L|518:108,2,228,0|2|8,0:0|0:0|0:0,0:0:0:0:
164,152,252172,6,0,L|390:124,2,228,2|2|8,0:0|0:0|0:0,0:0:0:0:
433,93,253635,6,0,L|206:65,2,228,2|2|8,0:0|0:0|0:0,0:0:0:0:
162,98,255099,6,0,P|88:113|184:243,1,304,2|2,0:0|0:0,0:0:0:0:
306,270,256196,1,8,0:0:0:0:
39,129,256562,6,0,L|265:101,2,228,2|2|8,0:0|0:0|0:0,0:0:0:0:
177,143,258025,6,0,P|253:210|161:279,1,228,2|2,0:0|0:0,0:0:0:0:
40,282,259123,1,8,0:0:0:0:
306,208,259489,5,6,0:0:0:0:
148,130,260038,1,2,0:0:0:0:
363,110,260586,1,2,0:0:0:0:
87,94,260952,5,2,0:0:0:0:
25,127,261135,1,2,0:0:0:0:
25,127,261318,1,2,0:0:0:0:
97,158,261501,1,12,0:0:0:0:
222,223,261867,1,2,0:0:0:0:
180,244,261958,1,2,0:0:0:0:
137,269,262050,1,8,0:0:0:0:
218,315,262233,1,8,0:0:0:0:
411,159,262416,6,0,B|415:337,1,152,4|8,0:0|0:0,0:0:0:0:
342,314,262964,2,0,L|190:300,1,152,2|2,0:0|0:0,0:0:0:0:
127,257,263513,2,0,L|215:262,1,76,8|0,0:0|0:0,0:0:0:0:
400,145,263879,5,2,0:0:0:0:
447,199,263971,1,0,0:0:0:0:
402,243,264062,1,2,0:0:0:0:
314,269,264245,1,8,0:0:0:0:
402,243,264519,1,8,0:0:0:0:
486,195,264794,1,2,0:0:0:0:
419,197,264977,2,0,L|343:193,1,76,8|2,0:0|0:0,0:0:0:0:
151,249,265343,6,0,P|84:239|74:140,1,152,2|8,0:0|0:0,0:0:0:0:
214,91,266074,2,0,L|26:90,1,152,2|8,0:0|0:0,0:0:0:0:
332,46,266806,5,2,0:0:0:0:
389,55,266897,1,0,0:0:0:0:
411,102,266989,1,0,0:0:0:0:
341,139,267172,1,0,0:0:0:0:
271,184,267355,1,2,0:0:0:0:
280,241,267446,1,2,0:0:0:0:
344,268,267538,1,2,0:0:0:0:
420,317,267721,2,0,L|318:310,1,76,2|8,0:0|0:0,0:0:0:0:
259,310,268086,1,2,0:0:0:0:
70,256,268269,6,0,P|72:178|145:144,1,152,2|8,0:0|0:0,0:0:0:0:
209,103,268818,2,0,L|57:103,1,152,2|0,0:0|0:0,0:0:0:0:
134,84,269367,1,8,0:0:0:0:
397,105,269733,6,0,P|421:171|335:219,1,152,2|8,0:0|0:0,0:0:0:0:
284,246,270282,2,0,P|235:284|301:338,1,152,2|2,0:0|0:0,0:0:0:0:
358,334,270830,2,0,L|355:251,1,76,8|2,0:0|0:0,0:0:0:0:
172,292,271196,5,2,0:0:0:0:
92,274,271379,1,2,0:0:0:0:
90,274,271562,1,8,0:0:0:0:
162,317,271745,1,2,0:0:0:0:
283,311,272111,1,2,0:0:0:0:
211,317,272294,5,8,0:0:0:0:
211,317,272477,1,2,0:0:0:0:
403,106,272660,2,0,L|492:106,1,76,2|2,0:0|0:0,0:0:0:0:
398,111,273025,2,0,L|315:113,1,76,8|2,0:0|0:0,0:0:0:0:
374,311,273391,1,4,0:0:0:0:
453,280,273574,1,2,0:0:0:0:
470,227,273666,1,0,0:0:0:0:
453,167,273757,1,8,0:0:0:0:
369,135,273940,1,2,0:0:0:0:
183,130,274123,6,0,B|104:176|104:176|150:218,1,152,6|8,0:0|0:0,0:0:0:0:
229,222,274672,2,0,L|61:255,1,152,2|2,0:0|0:0,0:0:0:0:
161,302,275221,2,0,L|236:302,1,76,8|0,0:0|0:0,0:0:0:0:
430,58,275586,5,2,0:0:0:0:
434,109,275678,1,0,0:0:0:0:
434,158,275769,1,2,0:0:0:0:
330,199,275952,1,8,0:0:0:0:
426,254,276227,1,8,0:0:0:0:
368,340,276501,1,2,0:0:0:0:
288,351,276684,2,0,L|211:353,1,76,8|2,0:0|0:0,0:0:0:0:
23,169,277050,6,0,L|200:206,1,152,2|8,0:0|0:0,0:0:0:0:
289,278,277782,2,0,L|114:277,1,152,2|8,0:0|0:0,0:0:0:0:
411,65,278513,5,2,0:0:0:0:
447,112,278605,1,0,0:0:0:0:
478,160,278696,1,0,0:0:0:0:
395,161,278879,1,0,0:0:0:0:
360,206,278971,1,0,0:0:0:0:
325,254,279062,1,2,0:0:0:0:
398,316,279245,1,8,0:0:0:0:
398,316,279428,1,2,0:0:0:0:
322,343,279611,1,8,0:0:0:0:
235,339,279794,1,8,0:0:0:0:
41,240,279977,6,0,L|188:188,1,152,2|8,0:0|0:0,0:0:0:0:
261,164,280525,2,0,P|316:112|259:68,1,152,2|2,0:0|0:0,0:0:0:0:
191,59,281074,1,8,0:0:0:0:
465,198,281440,6,0,L|233:213,2,228,2|2|8,0:0|0:0|0:0,0:0:0:0:
383,206,282721,1,2,0:0:0:0:
186,296,282904,6,0,L|88:297,2,76,2|2|8,0:0|0:0|0:0,0:0:0:0:
268,255,283452,2,0,L|442:232,1,152,2|2,0:0|0:0,0:0:0:0:
339,223,284001,1,8,0:0:0:0:
50,72,284367,5,10,0:0:0:0:
50,72,284550,1,2,0:0:0:0:
136,177,284733,1,10,0:0:0:0:
177,123,284916,1,2,0:0:0:0:
139,67,285099,1,10,0:0:0:0:
50,72,285282,1,8,0:0:0:0:
86,92,285373,1,0,0:0:0:0:
131,118,285464,1,2,0:0:0:0:
209,160,285647,1,2,0:0:0:0:
409,130,285830,6,0,L|510:133,1,76,6|0,0:0|0:0,0:0:0:0:
409,130,286196,2,0,L|311:127,1,76,8|0,0:0|0:0,0:0:0:0:
142,250,286562,2,0,P|101:183|168:131,1,152,2|8,0:0|0:0,0:0:0:0:
223,101,287111,6,0,L|64:90,1,152,2|2,0:0|0:0,0:0:0:0:
23,133,287660,1,8,0:0:0:0:
60,189,287843,1,2,0:0:0:0:
128,192,288025,1,2,0:0:0:0:
325,273,288208,1,8,0:0:0:0:
394,271,288391,1,12,0:0:0:0:
122,268,288757,6,0,L|38:273,1,76,2|0,0:0|0:0,0:0:0:0:
118,291,289123,2,0,L|205:292,1,76,8|2,0:0|0:0,0:0:0:0:
398,254,289489,2,0,P|406:218|313:142,1,152,2|8,0:0|0:0,0:0:0:0:
263,105,290038,6,0,L|427:96,1,152,2|2,0:0|0:0,0:0:0:0:
345,81,290586,1,8,0:0:0:0:
265,58,290769,1,2,0:0:0:0:
345,81,290952,1,2,0:0:0:0:
465,96,291318,1,8,0:0:0:0:
486,156,291410,1,0,0:0:0:0:
465,209,291501,1,2,0:0:0:0:
271,232,291684,6,0,L|170:233,2,76,2|2|8,0:0|0:0|0:0,0:0:0:0:
421,282,292416,2,0,L|269:282,1,152,2|8,0:0|0:0,0:0:0:0:
195,265,292964,6,0,P|145:222|202:150,1,152,2|2,0:0|0:0,0:0:0:0:
263,146,293513,1,8,0:0:0:0:
346,143,293696,1,0,0:0:0:0:
263,146,293879,1,2,0:0:0:0:
70,90,294062,1,8,0:0:0:0:
70,90,294245,1,12,0:0:0:0:
357,151,294611,6,0,P|423:171|358:268,1,228,6|0,0:0|0:0,0:0:0:0:
273,269,295343,2,0,L|521:257,1,228,2|2,0:0|0:0,0:0:0:0:
309,308,296074,6,0,L|74:301,1,228,2|0,0:0|0:0,0:0:0:0:
169,257,296806,2,0,P|270:223|278:109,1,228,8|2,0:0|0:0,0:0:0:0:
89,70,297538,6,0,P|56:138|84:186,1,114,4|0,0:0|0:0,0:0:0:0:
99,179,297904,2,0,L|261:186,1,152,8|8,0:0|0:0,0:0:0:0:
336,202,298544,2,0,P|369:277|340:321,1,114,8|2,0:0|0:0,0:0:0:0:
163,208,299001,5,2,0:0:0:0:
110,236,299093,1,0,0:0:0:0:
99,279,299184,1,2,0:0:0:0:
110,236,299275,1,0,0:0:0:0:
163,208,299367,2,0,L|273:212,1,76,8|2,0:0|0:0,0:0:0:0:
345,82,299916,1,2,0:0:0:0:
351,127,300007,1,0,0:0:0:0:
354,168,300099,1,8,0:0:0:0:
243,56,300282,1,2,0:0:0:0:
59,91,300464,6,0,L|50:213,1,114,6|0,0:0|0:0,0:0:0:0:
115,193,300830,2,0,P|190:210|197:295,1,152,8|8,0:0|0:0,0:0:0:0:
95,305,301471,2,0,L|223:303,1,114,8|2,0:0|0:0,0:0:0:0:
405,248,301928,5,8,0:0:0:0:
419,191,302019,1,8,0:0:0:0:
428,133,302111,1,2,0:0:0:0:
332,123,302294,1,8,0:0:0:0:
305,89,302385,1,8,0:0:0:0:
332,123,302477,1,2,0:0:0:0:
409,162,302660,2,0,L|333:160,1,76,8|8,0:0|0:0,0:0:0:0:
409,162,303025,1,8,0:0:0:0:
373,160,303117,1,8,0:0:0:0:
333,160,303208,1,2,0:0:0:0:
147,97,303391,6,0,P|70:106|42:164,1,114,6|0,0:0|0:0,0:0:0:0:
80,188,303757,2,0,L|242:192,1,152,8|8,0:0|0:0,0:0:0:0:
335,228,304397,2,0,P|358:262|325:334,1,114,8|0,0:0|0:0,0:0:0:0:
147,330,304855,5,2,0:0:0:0:
87,305,304946,1,0,0:0:0:0:
65,235,305038,1,2,0:0:0:0:
68,174,305129,1,0,0:0:0:0:
119,142,305221,2,0,L|215:142,1,76,8|8,0:0|0:0,0:0:0:0:
322,137,305769,1,2,0:0:0:0:
278,126,305861,1,0,0:0:0:0:
228,111,305952,1,8,0:0:0:0:
228,111,306135,1,2,0:0:0:0:
423,70,306318,6,0,P|459:145|429:163,1,114,6|0,0:0|0:0,0:0:0:0:
402,173,306684,2,0,L|245:175,1,152,8|8,0:0|0:0,0:0:0:0:
158,227,307324,2,0,P|121:283|177:315,1,114,8|2,0:0|0:0,0:0:0:0:
336,341,307782,6,0,L|465:349,2,114,6|8|2,0:0|0:0|0:0,0:0:0:0:
250,313,308605,2,0,P|188:271|194:152,1,190,8|8,0:0|0:0,0:0:0:0:
380,52,309245,6,0,P|413:120|385:168,1,114,4|0,0:0|0:0,0:0:0:0:
341,167,309611,2,0,L|179:174,1,152,8|8,0:0|0:0,0:0:0:0:
297,187,310251,2,0,P|330:262|301:306,1,114,8|2,0:0|0:0,0:0:0:0:
123,116,310708,5,8,0:0:0:0:
117,184,310800,1,0,0:0:0:0:
138,238,310891,1,2,0:0:0:0:
191,264,310983,1,0,0:0:0:0:
256,271,311074,2,0,L|264:358,1,76,8|2,0:0|0:0,0:0:0:0:
168,343,311623,1,2,0:0:0:0:
123,349,311714,1,0,0:0:0:0:
168,343,311806,1,8,0:0:0:0:
256,334,311989,1,2,0:0:0:0:
449,90,312172,6,0,L|458:212,1,114,2|0,0:0|0:0,0:0:0:0:
393,203,312538,2,0,P|318:220|311:305,1,152,8|8,0:0|0:0,0:0:0:0:
437,313,313178,2,0,L|309:311,1,114,8|2,0:0|0:0,0:0:0:0:
125,277,313635,5,8,0:0:0:0:
77,246,313727,1,8,0:0:0:0:
77,246,313818,1,2,0:0:0:0:
169,189,314001,1,8,0:0:0:0:
217,176,314093,1,8,0:0:0:0:
169,189,314184,1,2,0:0:0:0:
82,159,314367,2,0,L|78:78,1,76,2|2,0:0|0:0,0:0:0:0:
165,45,314733,1,8,0:0:0:0:
201,43,314824,1,8,0:0:0:0:
241,43,314916,1,2,0:0:0:0:
433,66,315099,6,0,P|471:108|457:162,1,114,6|0,0:0|0:0,0:0:0:0:
421,192,315464,2,0,L|259:196,1,152,8|8,0:0|0:0,0:0:0:0:
176,219,316105,2,0,P|153:253|186:325,1,114,8|2,0:0|0:0,0:0:0:0:
368,332,316562,5,8,0:0:0:0:
428,307,316654,1,0,0:0:0:0:
450,237,316745,1,2,0:0:0:0:
447,176,316836,1,0,0:0:0:0:
396,144,316928,2,0,L|300:144,1,76,8|2,0:0|0:0,0:0:0:0:
220,136,317477,1,2,0:0:0:0:
187,106,317568,1,0,0:0:0:0:
224,72,317660,1,8,0:0:0:0:
292,64,317843,1,2,0:0:0:0:
109,62,318025,6,0,P|73:137|103:155,1,114,6|0,0:0|0:0,0:0:0:0:
128,168,318391,2,0,L|285:170,1,152,8|8,0:0|0:0,0:0:0:0:
391,216,319032,2,0,P|428:272|372:304,1,114,8|2,0:0|0:0,0:0:0:0:
207,315,319489,6,0,L|78:323,2,114,6|8|2,0:0|0:0|0:0,0:0:0:0:
311,306,320312,2,0,P|373:264|372:207,1,114,8|2,0:0|0:0,0:0:0:0:
316,164,320769,1,0,0:0:0:0:
125,112,320952,5,4,0:0:0:0:
256,192,321318,12,0,331196,0:0:0:0:
