osu file format v14

[General]
AudioFilename: audio.mp3
AudioLeadIn: 0
PreviewTime: 180464
Countdown: 0
SampleSet: Soft
StackLeniency: 0.7
Mode: 2
LetterboxInBreaks: 0
WidescreenStoryboard: 1

[Editor]
Bookmarks: 3391,39977,51684,63391,75099,86806,133635,145343,157050,168757,180465,239001,250709,262416,297538,320952
DistanceSpacing: 1.2
BeatDivisor: 4
GridSize: 4
TimelineZoom: 1.4

[Metadata]
Title:Drive Your Fire
TitleUnicode:Drive Your Fire
Artist:A-One
ArtistUnicode:A-One
Creator:JBHyperion
Version:Rain
Source:東方永夜抄 ~ Imperishable Night.
Tags:Dako GIGACHAD ZiRoX wonjae Paranoid Grapes 東方Touhou Project TOHO EUROBEAT VOL.16 永夜抄 Comiket 92 エクステンドアッシュ ~ 蓬莱人 Extend Ash ~ Hourai Victim Extra Stage Theme 月まで届け、不死の煙 Reach for the Moon Immortal Smoke Fujiwara no Mokou Boss 藤原 妹紅 上白沢 慧音 Kamishirasawa Keine 越田 隆人 あき Aki Rute AbsoRute Zero Koshida Takahito Yassie DJ Command ZUN 上海アリス幻樂団 Team Shanghai Alice eurobeat electronic rock japanese
BeatmapID:3036448
BeatmapSetID:1480185

[Difficulty]
HPDrainRate:5
CircleSize:3.6
OverallDifficulty:9
ApproachRate:9
SliderMultiplier:1.9
SliderTickRate:2

[Events]
//Background and Video events
0,0,"24324280_p0.jpg",0,0
//Break Periods
2,122128,132172
//Storyboard Layer 0 (Background)
//Storyboard Layer 1 (Fail)
//Storyboard Layer 2 (Pass)
//Storyboard Layer 3 (Foreground)
//Storyboard Layer 4 (Overlay)
//Storyboard Sound Samples

[TimingPoints]
465,365.853658536585,4,2,1,20,1,0
1562,-100,4,2,1,25,0,0
1928,-100,4,2,1,30,0,0
2294,-100,4,2,1,35,0,0
2660,-100,4,2,1,40,0,0
3025,-100,4,2,1,45,0,0
3391,-100,4,2,77,60,0,0
3483,-100,4,2,1,60,0,0
9062,-100,4,3,1,60,0,0
9336,-100,4,2,1,60,0,0
13635,-90.9090909090909,4,2,1,60,0,0
14550,-100,4,2,1,60,0,0
14733,-100,4,3,1,65,0,0
15099,-80,4,2,2,70,0,0
15464,-100,4,2,2,60,0,0
17843,-100,4,2,1,60,0,0
18025,-100,4,2,2,60,0,0
18940,-100,4,2,0,80,0,0
19123,-100,4,2,2,60,0,0
19306,-100,4,2,0,80,0,0
19489,-100,4,2,2,60,0,0
22416,-100,4,2,2,65,0,0
23879,-100,4,2,2,70,0,0
25343,-100,4,2,2,75,0,0
26074,-100,4,2,2,75,0,0
26440,-100,4,2,2,75,0,0
26623,-100,4,2,2,75,0,0
26989,-100,4,2,1,25,0,0
27172,-100,4,2,1,30,0,0
27538,-100,4,2,1,35,0,0
27904,-100,4,2,1,40,0,0
28086,-100,4,2,1,5,0,0
28269,-100,4,2,77,80,0,0
28361,-100,4,2,2,90,0,0
34123,-100,4,2,2,90,0,0
38056,-75.187969924812,4,2,2,90,0,0
38330,-100,4,2,2,90,0,0
38513,-80,4,2,2,90,0,0
38696,-80,4,2,2,90,0,0
39977,-80,4,2,2,90,0,0
40160,-100,4,2,1,80,0,0
47294,-100,4,2,10,80,0,0
47477,-100,4,2,1,80,0,0
51318,-100,4,3,0,80,0,0
51684,-100,4,2,1,80,0,0
56074,-100,4,2,10,80,0,0
56257,-100,4,2,1,80,0,0
60099,-100,4,2,2,80,0,0
60464,-100,4,2,1,80,0,0
62660,-100,4,2,2,80,0,0
63391,-80,4,2,1,80,0,0
63574,-100,4,2,10,80,0,0
63757,-100,4,2,1,80,0,0
65038,-100,4,2,10,80,0,0
65221,-100,4,2,1,80,0,0
69428,-100,4,2,10,80,0,0
69611,-100,4,2,1,80,0,0
70708,-100,4,2,1,80,0,0
71074,-100,4,2,1,80,0,0
72172,-100,4,2,2,80,0,0
73635,-100,4,2,1,100,0,0
75282,-100,4,2,1,80,0,0
79489,-80,4,2,1,80,0,0
79855,-100,4,2,1,80,0,0
83513,-100,4,2,2,80,0,0
83879,-75.187969924812,4,2,1,80,0,0
84245,-100,4,3,0,80,0,0
84428,-100,4,2,1,80,0,0
84611,-100,4,3,0,80,0,0
84794,-100,4,2,1,80,0,0
85160,-100,4,3,0,80,0,0
85343,-100,4,2,1,80,0,0
86806,-90.9090909090909,4,2,77,90,0,1
86989,-90.9090909090909,4,2,2,90,0,1
87904,-90.9090909090909,4,2,2,90,0,1
88178,-90.9090909090909,4,2,2,90,0,1
95586,-90.9090909090909,4,2,2,90,0,1
95747,-90.9090909090909,4,2,2,5,0,1
95769,-90.9090909090909,4,2,2,90,0,1
95929,-90.9090909090909,4,2,2,5,0,1
95952,-90.9090909090909,4,2,2,90,0,1
96112,-90.9090909090909,4,2,2,5,0,1
96135,-90.9090909090909,4,2,2,90,0,1
96318,-90.9090909090909,4,2,2,90,0,1
97050,-90.9090909090909,4,2,2,90,0,1
97210,-90.9090909090909,4,2,2,5,0,1
97233,-90.9090909090909,4,2,2,90,0,1
97393,-90.9090909090909,4,2,2,5,0,1
97416,-90.9090909090909,4,3,0,90,0,1
97576,-90.9090909090909,4,2,2,5,0,1
97599,-90.9090909090909,4,3,0,90,0,1
97759,-90.9090909090909,4,2,2,5,0,1
97782,-76.9230769230769,4,3,0,90,0,1
97964,-90.9090909090909,4,2,2,90,0,1
98147,-90.9090909090909,4,2,2,90,0,1
107294,-90.9090909090909,4,2,2,90,0,1
107455,-90.9090909090909,4,2,2,5,0,1
107477,-90.9090909090909,4,2,2,90,0,1
107637,-90.9090909090909,4,2,2,5,0,1
107660,-90.9090909090909,4,2,2,90,0,1
107820,-90.9090909090909,4,2,2,5,0,1
107843,-90.9090909090909,4,2,2,90,0,1
108003,-90.9090909090909,4,2,2,5,0,1
108026,-90.9090909090909,4,2,2,90,0,1
108757,-90.9090909090909,4,2,2,90,0,1
108917,-90.9090909090909,4,2,2,5,0,1
108940,-90.9090909090909,4,2,2,90,0,1
109100,-90.9090909090909,4,2,2,5,0,1
109123,-90.9090909090909,4,2,2,90,0,1
109283,-90.9090909090909,4,2,2,5,0,1
109306,-90.9090909090909,4,2,2,90,0,1
109466,-90.9090909090909,4,2,2,5,0,1
109489,-90.9090909090909,4,2,2,90,0,1
110129,-90.9090909090909,4,2,2,90,0,0
110221,-90.9090909090909,4,2,2,90,0,1
115708,-90.9090909090909,4,3,0,90,0,1
116074,-90.9090909090909,4,2,2,90,0,1
116257,-90.9090909090909,4,2,2,90,0,1
119001,-80,4,2,1,90,0,1
121836,-100,4,2,2,90,0,0
121928,-100,4,2,77,80,0,1
122019,-100,4,2,2,90,0,0
124489,-100,4,3,0,90,0,0
124580,-100,4,2,2,90,0,0
133635,-100,4,2,1,80,0,0
135099,-100,4,2,10,80,0,0
135282,-100,4,2,1,80,0,0
138025,-100,4,2,10,80,0,0
138208,-100,4,2,1,80,0,0
140952,-100,4,2,10,80,0,0
141135,-100,4,2,1,80,0,0
144977,-100,4,3,0,80,0,0
145343,-100,4,2,1,80,0,0
146806,-100,4,2,10,80,0,0
146989,-100,4,2,1,80,0,0
148452,-100,4,2,10,80,0,0
148544,-100,4,2,1,80,0,0
153757,-100,4,2,2,80,0,0
154122,-100,4,2,1,80,0,0
156318,-100,4,2,1,80,0,0
157233,-100,4,2,1,80,0,0
165830,-100,4,2,2,80,0,0
166196,-100,4,2,2,80,0,0
166379,-100,4,2,2,80,0,0
167294,-100,4,2,1,80,0,0
173147,-80,4,2,1,80,0,0
173513,-100,4,2,1,80,0,0
177172,-100,4,2,2,80,0,0
177538,-75.187969924812,4,2,1,80,0,0
177904,-100,4,3,0,80,0,0
178087,-100,4,2,1,80,0,0
178270,-100,4,3,0,80,0,0
178453,-100,4,2,1,80,0,0
178819,-100,4,3,0,80,0,0
179002,-100,4,2,1,80,0,0
180464,-90.9090909090909,4,2,77,90,0,1
180647,-90.9090909090909,4,2,2,90,0,1
191440,-76.9230769230769,4,2,2,90,0,1
191623,-90.9090909090909,4,2,2,90,0,1
202576,-90.9090909090909,4,2,2,5,0,1
202599,-90.9090909090909,4,2,2,90,0,1
202759,-90.9090909090909,4,2,2,5,0,1
202782,-90.9090909090909,4,2,2,90,0,1
203330,-90.9090909090909,4,2,2,90,0,1
203696,-90.9090909090909,4,3,0,90,0,1
203788,-90.9090909090909,4,3,0,90,0,0
203879,-90.9090909090909,4,2,2,90,0,1
209184,-90.9090909090909,4,3,0,90,0,1
209367,-90.9090909090909,4,2,1,90,0,1
209458,-90.9090909090909,4,3,0,90,0,1
209733,-90.9090909090909,4,2,2,90,0,1
212660,-80,4,2,1,90,0,1
215221,-100,4,2,1,90,0,1
215495,-100,4,2,2,90,0,0
215586,-100,4,2,1,90,0,1
215678,-100,4,2,1,90,0,0
217964,-83.3333333333333,4,2,1,80,0,0
218147,-66.6666666666667,4,2,1,80,0,0
218513,-100,4,2,1,90,0,0
218696,-100,4,2,1,90,0,0
218788,-66.6666666666667,4,2,1,80,0,0
218971,-100,4,2,1,80,0,0
219245,-66.6666666666667,4,2,1,90,0,0
219428,-100,4,2,1,80,0,0
219794,-100,4,2,1,90,0,0
220525,-100,4,3,0,90,0,0
220891,-100,4,2,1,90,0,0
222172,-100,4,2,1,90,0,0
222721,-100,4,2,1,90,0,0
226562,-100,4,2,2,90,0,0
227294,-100,4,2,1,90,0,0
229306,-80,4,2,1,70,0,0
229397,-100,4,2,1,90,0,0
229580,-100,4,2,1,90,0,0
229672,-100,4,2,1,70,0,0
232782,-100,4,3,0,90,0,0
233147,-100,4,2,1,90,0,0
235251,-100,4,2,1,90,0,0
235434,-100,4,2,1,90,0,0
237538,-100,4,2,1,90,0,0
239001,-100,4,2,1,90,0,0
249245,-100,4,2,1,75,0,0
250708,-100,4,2,1,90,0,0
259489,-75.187969924812,4,2,1,80,0,0
259672,-100,4,2,1,80,0,0
259855,-100,4,3,0,80,0,0
260038,-100,4,2,1,80,0,0
260221,-100,4,3,0,80,0,0
260404,-100,4,2,1,80,0,0
260770,-100,4,3,0,80,0,0
260953,-100,4,2,1,80,0,0
261501,-100,4,2,1,80,0,0
261867,-100,4,2,1,80,0,0
262416,-90.9090909090909,4,2,77,90,0,1
262599,-90.9090909090909,4,2,2,90,0,1
263513,-90.9090909090909,4,2,2,90,0,1
263787,-90.9090909090909,4,2,2,90,0,1
271195,-90.9090909090909,4,2,2,90,0,1
271356,-90.9090909090909,4,2,2,5,0,1
271378,-90.9090909090909,4,2,2,90,0,1
271538,-90.9090909090909,4,2,2,5,0,1
271561,-90.9090909090909,4,2,2,90,0,1
271721,-90.9090909090909,4,2,2,5,0,1
271744,-90.9090909090909,4,2,2,90,0,1
271927,-90.9090909090909,4,2,2,90,0,1
272659,-90.9090909090909,4,2,2,90,0,1
272819,-90.9090909090909,4,2,2,5,0,1
272842,-90.9090909090909,4,2,2,90,0,1
273002,-90.9090909090909,4,2,2,5,0,1
273025,-90.9090909090909,4,3,0,90,0,1
273185,-90.9090909090909,4,2,2,5,0,1
273208,-90.9090909090909,4,2,2,90,0,1
273368,-90.9090909090909,4,2,2,5,0,1
273391,-76.9230769230769,4,3,0,90,0,1
273573,-90.9090909090909,4,2,1,90,0,1
273756,-90.9090909090909,4,2,2,90,0,1
282903,-90.9090909090909,4,2,2,90,0,1
283064,-90.9090909090909,4,2,2,5,0,1
283086,-90.9090909090909,4,2,2,90,0,1
283246,-90.9090909090909,4,2,2,5,0,1
283269,-90.9090909090909,4,2,2,90,0,1
283429,-90.9090909090909,4,2,2,5,0,1
283452,-90.9090909090909,4,2,2,90,0,1
283612,-90.9090909090909,4,2,2,5,0,1
283635,-90.9090909090909,4,2,2,90,0,1
284366,-90.9090909090909,4,2,2,90,0,1
284526,-90.9090909090909,4,2,2,5,0,1
284549,-90.9090909090909,4,2,2,90,0,1
284709,-90.9090909090909,4,2,2,5,0,1
284732,-90.9090909090909,4,2,2,90,0,1
284892,-90.9090909090909,4,2,2,5,0,1
284915,-90.9090909090909,4,2,2,90,0,1
285075,-90.9090909090909,4,2,2,5,0,1
285098,-90.9090909090909,4,2,2,90,0,1
285282,-90.9090909090909,4,3,0,90,0,1
285647,-90.9090909090909,4,2,2,90,0,1
285739,-90.9090909090909,4,2,2,90,0,0
285830,-90.9090909090909,4,2,2,90,0,1
291683,-90.9090909090909,4,2,2,90,0,1
291866,-90.9090909090909,4,2,2,90,0,1
294611,-80,4,2,1,90,0,1
297446,-100,4,2,2,90,0,0
297538,-100,4,2,77,90,0,1
297629,-100,4,2,2,90,0,0
298269,-100,4,2,2,90,0,0
298544,-100,4,2,2,90,0,0
307324,-75.187969924812,4,2,2,90,0,0
307599,-100,4,2,2,90,0,0
307782,-100,4,2,2,100,0,0
308605,-100,4,2,1,80,0,0
309245,-100,4,2,77,80,0,0
309428,-100,4,2,2,90,0,0
309977,-100,4,2,2,90,0,0
310160,-100,4,2,2,90,0,0
319032,-75.187969924812,4,2,2,90,0,0
319306,-100,4,2,2,90,0,0
319489,-100,4,2,2,100,0,0
320952,-100,4,2,77,100,0,0
321135,-100,4,2,1,60,0,0
321318,-100,4,2,1,59,0,0
321684,-100,4,2,1,57,0,0
322050,-100,4,2,1,55,0,0
322416,-100,4,2,1,53,0,0
322782,-100,4,2,1,51,0,0
323148,-100,4,2,1,49,0,0
323513,-100,4,2,1,47,0,0
323879,-100,4,2,1,45,0,0
324245,-100,4,2,1,43,0,0
324611,-100,4,2,1,41,0,0
324977,-100,4,2,1,39,0,0
325343,-100,4,2,1,37,0,0
325709,-100,4,2,1,35,0,0
326074,-100,4,2,1,33,0,0
326440,-100,4,2,1,31,0,0
326806,-100,4,2,1,29,0,0
327172,-100,4,2,1,27,0,0
327538,-100,4,2,1,25,0,0
327904,-100,4,2,1,23,0,0
328270,-100,4,2,1,21,0,0
328635,-100,4,2,1,19,0,0
329001,-100,4,2,1,17,0,0
329367,-100,4,2,1,15,0,0
329733,-100,4,2,1,13,0,0
330099,-100,4,2,1,11,0,0
330465,-100,4,2,1,9,0,0
330831,-100,4,2,1,7,0,0
331196,-100,4,2,1,5,0,0

[Colours]
Combo1 : 100,230,230
Combo2 : 210,40,40
Combo3 : 220,120,40
Combo4 : 60,120,60
Combo5 : 60,45,150
Combo6 : 180,180,240

[HitObjects]
256,192,1379,12,0,3208,0:0:0:0:
132,192,3391,6,0,P|76:160|132:72,1,190,4|8,0:0|0:0,0:0:0:0:
232,72,3940,1,0,0:0:0:0:
116,72,4123,1,2,0:0:0:0:
114,119,4214,1,2,0:0:0:0:
112,166,4306,1,2,0:0:0:0:
312,192,4489,2,0,L|316:312,1,95,8|2,0:0|0:0,0:0:0:0:
256,288,4763,1,8,0:0:0:0:
85,286,4855,6,0,P|39:212|111:165,1,190,2|8,0:0|0:0,0:0:0:0:
216,164,5404,2,0,L|264:164,1,47.5,0|0,0:0|0:0,0:0:0:0:
208,164,5586,2,0,L|156:164,2,47.5,2|2|2,0:0|0:0|0:0,0:0:0:0:
402,164,5952,1,8,0:0:0:0:
288,164,6135,1,8,0:0:0:0:
229,164,6227,1,2,0:0:0:0:
57,164,6318,6,0,L|213:164,1,142.5,6|2,0:0|0:0,0:0:0:0:
249,164,6684,1,8,0:0:0:0:
57,164,6867,2,0,L|201:164,1,142.5,6|2,0:0|0:0,0:0:0:0:
452,164,7416,2,0,L|464:216,2,47.5,8|8|6,0:0|0:0|0:0,0:0:0:0:
260,164,7782,6,0,P|212:124|280:48,1,190,6|8,0:0|0:0,0:0:0:0:
376,48,8330,1,0,0:0:0:0:
272,48,8513,1,2,0:0:0:0:
220,48,8605,1,2,0:0:0:0:
176,48,8696,1,2,0:0:0:0:
368,48,8879,2,0,L|372:104,1,47.5,8|8,0:0|0:0,0:0:0:0:
256,192,9062,2,0,L|252:240,1,47.5,6|0,0:0|0:0,0:0:0:0:
444,192,9245,6,0,L|492:192,1,47.5,6|0,0:0|0:0,0:0:0:0:
320,192,9519,2,0,L|316:244,1,47.5,0|8,0:0|0:0,0:0:0:0:
420,348,9794,1,0,0:0:0:0:
368,348,9885,1,0,0:0:0:0:
316,348,9977,1,2,0:0:0:0:
368,348,10068,1,2,0:0:0:0:
420,348,10160,1,2,0:0:0:0:
228,348,10343,1,8,0:0:0:0:
332,348,10525,2,0,L|336:288,1,47.5,2|8,0:0|0:0,0:0:0:0:
160,348,10708,6,0,B|64:348|64:348|56:252,1,190,2|8,0:0|0:0,0:0:0:0:
160,256,11257,1,0,0:0:0:0:
264,256,11440,1,2,0:0:0:0:
265,208,11532,1,2,0:0:0:0:
267,161,11623,1,2,0:0:0:0:
68,160,11806,1,8,0:0:0:0:
172,160,11989,1,2,0:0:0:0:
267,161,12080,1,2,0:0:0:0:
364,160,12172,6,0,P|408:140|404:56,1,142.5,6|0,0:0|0:0,0:0:0:0:
348,56,12538,2,0,L|292:56,2,47.5,8|0|0,0:0|0:0|0:0,0:0:0:0:
232,56,12904,2,0,L|228:168,1,95,2|2,0:0|0:0,0:0:0:0:
428,148,13269,2,0,L|476:148,2,47.5,8|8|6,0:0|0:0|0:0,0:0:0:0:
160,236,13635,6,0,L|312:192,3,156.750004783631,6|6|6|2,0:0|0:0|0:0|0:0,0:0:0:0:
368,192,14550,1,8,0:0:0:0:
104,192,14733,2,0,L|100:136,1,47.5,8|8,0:0|0:0,0:0:0:0:
216,88,14916,2,0,L|276:88,1,47.5,8|8,0:0|0:0,0:0:0:0:
84,36,15099,6,0,P|28:64|84:192,1,237.5,6|2,0:0|0:0,0:0:0:0:
188,192,15647,1,0,0:0:0:0:
72,192,15830,1,2,0:0:0:0:
272,192,16013,2,0,L|276:304,1,95,0|2,0:0|0:0,0:0:0:0:
172,288,16379,1,0,0:0:0:0:
367,192,16562,6,0,L|271:192,1,95,2|0,0:0|0:0,0:0:0:0:
463,188,16928,2,0,L|467:80,1,95,2|0,0:0|0:0,0:0:0:0:
276,56,17294,2,0,L|176:56,1,95,2|0,0:0|0:0,0:0:0:0:
232,56,17568,1,0,0:0:0:0:
284,56,17660,1,2,0:0:0:0:
92,56,17843,1,4,0:0:0:0:
376,56,18025,6,0,B|452:56|452:56|372:56,1,142.5,6|0,0:0|0:0,0:0:0:0:
332,56,18391,1,2,0:0:0:0:
48,152,18574,2,0,L|156:152,1,95,8|0,0:0|0:0,0:0:0:0:
196,152,18849,1,0,0:0:0:0:
248,152,18940,1,2,0:0:0:0:
60,152,19123,1,2,0:0:0:0:
344,152,19306,6,0,L|440:152,2,95,4|2|0,0:0|0:0|0:0,0:0:0:0:
228,152,19855,1,2,0:0:0:0:
420,232,20038,2,0,L|472:232,2,47.5,8|8|4,0:3|0:3|0:3,0:0:0:0:
228,232,20404,1,8,0:3:0:0:
186,209,20495,1,8,0:3:0:0:
163,168,20586,1,4,0:3:0:0:
168,121,20678,1,0,0:0:0:0:
196,85,20769,1,8,0:3:0:0:
468,92,20952,6,0,L|472:200,1,95,6|2,0:0|0:0,0:0:0:0:
280,192,21318,2,0,L|180:192,1,95,8|2,0:0|0:0,0:0:0:0:
300,192,21684,2,0,L|312:136,2,47.5,2|0|2,0:0|0:0|0:0,0:0:0:0:
104,192,22050,1,8,0:0:0:0:
208,192,22233,1,2,0:0:0:0:
264,192,22324,1,0,0:0:0:0:
72,192,22416,6,0,L|68:288,1,95,2|2,0:0|0:0,0:0:0:0:
260,328,22782,2,0,L|160:328,1,95,8|2,0:0|0:0,0:0:0:0:
280,328,23147,1,2,0:0:0:0:
328,328,23239,1,0,0:0:0:0:
376,328,23330,1,2,0:0:0:0:
176,232,23513,1,8,0:0:0:0:
272,232,23696,1,2,0:0:0:0:
216,232,23788,1,0,0:0:0:0:
384,232,23879,6,0,L|388:128,1,95,2|2,0:0|0:0,0:0:0:0:
188,136,24245,2,0,L|184:16,1,95,8|2,0:0|0:0,0:0:0:0:
300,40,24611,2,0,L|188:40,1,95,2|2,0:0|0:0,0:0:0:0:
16,40,24977,1,8,0:0:0:0:
132,40,25160,1,2,0:0:0:0:
192,40,25251,1,2,0:0:0:0:
384,40,25343,6,0,B|432:40|432:40|380:40,1,95,2|2,0:0|0:0,0:0:0:0:
318,40,25617,1,2,0:0:0:0:
252,40,25708,2,0,L|204:40,2,47.5,10|2|2,0:0|0:0|0:0,0:0:0:0:
448,192,26074,1,2,0:0:0:0:
400,192,26166,1,2,0:0:0:0:
353,192,26257,1,2,0:0:0:0:
168,192,26440,1,8,0:0:0:0:
232,192,26532,1,0,0:0:0:0:
292,192,26623,1,2,0:0:0:0:
24,192,26806,5,6,0:0:0:0:
256,192,26989,12,0,28086,0:0:0:0:
120,192,28269,6,0,L|116:88,1,95,4|0,0:0|0:0,0:0:0:0:
316,272,28635,2,0,L|320:168,1,95,8|0,0:0|0:0,0:0:0:0:
16,176,29001,2,0,L|12:240,1,47.5,2|2,0:0|0:0,0:0:0:0:
208,280,29275,2,0,P|256:232|212:192,1,142.5,8|0,0:0|0:0,0:0:0:0:
148,192,29641,1,0,0:0:0:0:
348,200,29733,5,2,0:0:0:0:
399,169,29824,1,0,0:0:0:0:
395,109,29916,1,0,0:0:0:0:
339,87,30007,1,0,0:0:0:0:
228,88,30099,2,0,L|172:88,2,47.5,8|0|0,0:0|0:0|0:0,0:0:0:0:
280,88,30373,1,0,0:0:0:0:
228,88,30464,1,2,0:0:0:0:
112,88,30647,2,0,L|108:152,1,47.5,0|0,0:0|0:0,0:0:0:0:
220,200,30830,1,8,0:0:0:0:
164,200,30922,1,0,0:0:0:0:
108,200,31013,1,0,0:0:0:0:
412,200,31196,6,0,L|416:304,1,95,6|0,0:0|0:0,0:0:0:0:
220,120,31562,2,0,L|216:224,1,95,8|0,0:0|0:0,0:0:0:0:
488,216,31928,2,0,L|492:152,1,47.5,2|2,0:0|0:0,0:0:0:0:
296,112,32202,2,0,P|248:160|292:200,1,142.5,8|0,0:0|0:0,0:0:0:0:
356,200,32568,1,0,0:0:0:0:
152,288,32660,6,0,L|104:288,1,47.5,2|0,0:0|0:0,0:0:0:0:
48,368,32843,2,0,L|112:368,1,47.5,0|0,0:0|0:0,0:0:0:0:
288,368,33025,2,0,L|344:368,1,47.5,8|0,0:0|0:0,0:0:0:0:
268,288,33208,2,0,L|220:288,1,47.5,0|0,0:0|0:0,0:0:0:0:
424,288,33391,1,2,0:0:0:0:
480,288,33483,1,0,0:0:0:0:
480,232,33574,1,2,0:0:0:0:
424,232,33666,1,2,0:0:0:0:
224,192,33757,2,0,L|220:128,1,47.5,8|8,0:3|0:3,0:0:0:0:
328,128,33940,2,0,L|332:64,1,47.5,4|4,0:3|0:3,0:0:0:0:
128,192,34123,6,0,L|32:192,1,95,6|0,0:0|0:0,0:0:0:0:
212,284,34489,2,0,L|308:284,1,95,8|0,0:0|0:0,0:0:0:0:
20,192,34855,2,0,L|16:256,1,47.5,2|2,0:0|0:0,0:0:0:0:
220,288,35129,2,0,B|292:288|292:288|292:216,1,142.5,8|0,0:0|0:0,0:0:0:0:
236,192,35495,1,0,0:0:0:0:
48,192,35586,5,2,0:0:0:0:
12,144,35678,1,0,0:0:0:0:
32,88,35769,1,0,0:0:0:0:
88,79,35861,1,0,0:0:0:0:
200,80,35952,2,0,L|256:80,2,47.5,8|0|0,0:0|0:0|0:0,0:0:0:0:
148,80,36227,1,0,0:0:0:0:
200,80,36318,1,2,0:0:0:0:
20,192,36501,2,0,L|16:256,1,47.5,0|0,0:0|0:0,0:0:0:0:
208,300,36684,2,0,L|264:300,1,47.5,8|0,0:0|0:0,0:0:0:0:
144,300,36867,2,0,L|140:232,1,47.5,0|0,0:0|0:0,0:0:0:0:
332,192,37050,6,0,L|428:192,1,95,6|0,0:0|0:0,0:0:0:0:
228,192,37416,2,0,L|128:192,1,95,8|0,0:0|0:0,0:0:0:0:
424,144,37782,2,0,L|428:208,1,47.5,2|2,0:0|0:0,0:0:0:0:
136,304,38056,2,0,P|72:248|133:191,1,189.524992191811,8|2,0:0|0:0,0:0:0:0:
197,191,38422,1,2,0:0:0:0:
376,192,38513,6,0,B|500:192,1,118.75,6|0,0:0|0:0,0:0:0:0:
268,52,38788,2,0,L|144:52,1,118.75,8|8,0:0|0:0,0:0:0:0:
472,108,39154,2,0,L|348:108,1,118.75,8|8,0:0|0:0,0:0:0:0:
196,108,39519,1,2,0:0:0:0:
416,104,39611,1,8,0:0:0:0:
480,104,39702,1,2,0:0:0:0:
480,168,39794,1,2,0:0:0:0:
416,168,39885,1,2,0:0:0:0:
244,192,39977,6,0,L|120:192,1,118.75,6|0,0:0|0:0,0:0:0:0:
320,192,40343,2,0,L|328:80,1,95,8|0,0:0|0:0,0:0:0:0:
136,64,40708,2,0,L|236:64,2,95,2|0|8,0:0|0:0|0:0,0:0:0:0:
404,64,41257,6,0,L|408:164,1,95,0|2,0:0|0:0,0:0:0:0:
304,192,41623,1,0,0:0:0:0:
116,192,41806,2,0,L|212:192,1,95,8|0,0:0|0:0,0:0:0:0:
119,192,42080,1,0,0:0:0:0:
26,224,42172,2,0,L|123:188,2,95,2|2|8,0:0|0:0|0:0,0:0:0:0:
212,288,42721,1,0,0:0:0:0:
272,288,42812,1,0,0:0:0:0:
332,288,42904,6,0,L|336:192,1,95,2|0,0:0|0:0,0:0:0:0:
148,192,43269,2,0,L|144:88,1,95,8|0,0:0|0:0,0:0:0:0:
336,96,43635,2,0,L|236:96,2,95,2|2|8,0:0|0:0|0:0,0:0:0:0:
68,96,44184,6,0,P|20:116|72:212,1,190,2|2,0:0|0:0,0:0:0:0:
260,212,44733,2,0,L|356:212,1,95,8|0,0:0|0:0,0:0:0:0:
164,296,45099,2,0,L|68:296,1,95,2|2,0:0|0:0,0:0:0:0:
131,296,45373,1,0,0:0:0:0:
192,296,45464,1,8,0:0:0:0:
20,296,45647,1,2,0:0:0:0:
308,296,45830,6,0,L|408:296,1,95,2|0,0:0|0:0,0:0:0:0:
212,296,46196,2,0,L|291:216,1,95,8|0,0:0|0:0,0:0:0:0:
88,296,46562,2,0,L|92:192,1,95,2|0,0:0|0:0,0:0:0:0:
196,200,46928,1,8,0:0:0:0:
464,192,47111,6,0,P|484:140|396:56,1,190,0|0,0:0|0:0,0:0:0:0:
208,56,47660,2,0,L|308:56,1,95,8|0,0:0|0:0,0:0:0:0:
36,56,48025,2,0,L|24:104,3,47.5,2|0|2|2,0:0|0:0|0:0|0:0,0:0:0:0:
132,120,48391,2,0,L|152:168,1,47.5,8|2,0:0|0:0,0:0:0:0:
80,192,48574,2,0,L|60:240,1,47.5,2|2,0:0|0:0,0:0:0:0:
252,232,48757,5,2,0:0:0:0:
368,232,48940,1,0,0:0:0:0:
180,232,49123,2,0,L|172:336,1,95,8|0,0:0|0:0,0:0:0:0:
272,328,49397,1,0,0:0:0:0:
372,328,49489,2,0,L|264:328,1,95,2|2,0:0|0:0,0:0:0:0:
392,328,49855,1,8,0:0:0:0:
108,328,50038,6,0,P|60:308|112:212,1,190,2|0,0:0|0:0,0:0:0:0:
300,212,50586,1,8,0:0:0:0:
352,212,50678,1,0,0:0:0:0:
404,212,50769,1,2,0:0:0:0:
135,128,50952,2,0,L|39:128,1,95,2|2,0:0|0:0,0:0:0:0:
91,128,51227,1,2,0:0:0:0:
200,128,51318,1,8,0:0:0:0:
144,128,51410,1,8,0:0:0:0:
88,128,51501,1,4,0:0:0:0:
376,128,51684,6,0,L|484:128,1,95,6|0,0:0|0:0,0:0:0:0:
280,128,52050,2,0,P|232:108|206:54,1,95,8|0,0:0|0:0,0:0:0:0:
404,128,52416,2,0,P|424:96|400:40,1,95,2|2,0:0|0:0,0:0:0:0:
304,32,52782,1,8,0:0:0:0:
40,32,52964,6,0,P|20:84|108:168,1,190,2|0,0:0|0:0,0:0:0:0:
296,168,53513,2,0,P|320:212|280:256,1,95,8|0,0:0|0:0,0:0:0:0:
108,292,53879,2,0,L|8:292,1,95,2|2,0:0|0:0,0:0:0:0:
128,292,54245,2,0,L|28:292,1,95,8|2,0:0|0:0,0:0:0:0:
224,292,54611,6,0,L|228:188,1,95,2|0,0:0|0:0,0:0:0:0:
420,192,54977,2,0,P|434:150|412:96,1,95,8|0,0:0|0:0,0:0:0:0:
352,100,55251,1,0,0:0:0:0:
288,96,55343,2,0,P|273:137|296:192,1,95,2|2,0:0|0:0,0:0:0:0:
404,192,55708,1,8,0:0:0:0:
136,192,55891,6,0,B|40:192|40:192|24:312,1,190,2|0,0:0|0:0,0:0:0:0:
216,308,56440,2,0,P|264:292|292:248,1,95,8|2,0:0|0:0,0:0:0:0:
260,220,56714,1,2,0:0:0:0:
215,206,56806,1,2,0:0:0:0:
24,192,56989,1,2,0:0:0:0:
76,192,57080,1,2,0:0:0:0:
128,192,57172,1,8,0:0:0:0:
320,192,57355,2,0,L|324:128,1,47.5,2|2,0:0|0:0,0:0:0:0:
144,52,57538,6,0,L|36:52,1,95,6|0,0:0|0:0,0:0:0:0:
240,52,57904,2,0,P|288:72|314:126,1,95,8|0,0:0|0:0,0:0:0:0:
116,52,58269,2,0,P|96:84|120:140,1,95,2|2,0:0|0:0,0:0:0:0:
216,148,58635,1,8,0:0:0:0:
24,136,58818,6,0,P|4:188|92:272,1,190,2|0,0:0|0:0,0:0:0:0:
280,272,59367,1,8,0:0:0:0:
20,272,59550,2,0,L|192:192,1,190,2|2,0:0|0:0,0:0:0:0:
384,192,60099,2,0,L|432:192,2,47.5,8|8|2,0:0|0:0|0:0,0:0:0:0:
296,192,60373,1,2,0:0:0:0:
208,192,60464,5,6,0:0:0:0:
360,192,60647,1,0,0:0:0:0:
164,192,60830,2,0,L|64:192,1,95,8|2,0:0|0:0,0:0:0:0:
336,192,61196,2,0,P|336:148|292:112,1,95,2|2,0:0|0:0,0:0:0:0:
188,104,61562,1,8,0:0:0:0:
468,108,61745,1,2,0:0:0:0:
472,164,61836,1,0,0:0:0:0:
424,192,61928,5,2,0:0:0:0:
309,194,62111,1,2,0:0:0:0:
117,194,62294,2,0,B|69:194|69:194|121:194,1,95,8|2,0:0|0:0,0:0:0:0:
173,194,62568,1,2,0:0:0:0:
353,194,62660,1,2,0:0:0:0:
401,194,62751,1,2,0:0:0:0:
401,242,62843,1,2,0:0:0:0:
353,242,62934,1,2,0:0:0:0:
240,332,63025,1,8,0:3:0:0:
188,332,63117,1,8,0:3:0:0:
148,296,63208,1,4,0:3:0:0:
144,244,63300,1,4,0:3:0:0:
328,124,63391,6,0,L|448:124,2,118.75,6|0|8,0:0|0:0|0:0,0:0:0:0:
212,124,63940,1,2,0:0:0:0:
408,124,64123,1,2,0:0:0:0:
411,76,64214,1,0,0:0:0:0:
415,29,64306,1,0,0:0:0:0:
224,28,64489,2,0,L|324:28,1,95,8|2,0:0|0:0,0:0:0:0:
56,28,64855,6,0,L|152:28,1,95,2|0,0:0|0:0,0:0:0:0:
200,28,65129,1,0,0:0:0:0:
248,28,65221,1,8,0:0:0:0:
144,28,65404,1,2,0:0:0:0:
332,28,65586,2,0,L|336:136,1,95,2|2,0:0|0:0,0:0:0:0:
144,192,65952,2,0,L|48:192,1,95,8|2,0:0|0:0,0:0:0:0:
108,192,66227,1,0,0:0:0:0:
284,192,66318,6,0,L|380:192,1,95,2|2,0:0|0:0,0:0:0:0:
320,192,66593,1,2,0:0:0:0:
264,192,66684,2,0,L|372:192,1,95,8|2,0:0|0:0,0:0:0:0:
300,192,66958,1,2,0:0:0:0:
192,192,67050,2,0,L|140:192,2,47.5,2|0|2,0:0|0:0|0:0,0:0:0:0:
384,192,67416,2,0,L|336:192,1,47.5,8|0,0:0|0:0,0:0:0:0:
260,64,67599,2,0,L|308:64,1,47.5,2|2,0:0|0:0,0:0:0:0:
488,40,67782,6,0,L|392:40,2,95,2|2|8,0:0|0:0|0:0,0:0:0:0:
384,40,68330,1,2,0:0:0:0:
328,40,68422,1,2,0:0:0:0:
152,40,68513,2,0,L|88:40,2,47.5,2|2|2,0:0|0:0|0:0,0:0:0:0:
323,40,68879,1,8,0:0:0:0:
152,40,69062,1,2,0:0:0:0:
436,40,69245,6,0,L|336:40,1,95,6|0,0:0|0:0,0:0:0:0:
288,40,69519,1,0,0:0:0:0:
236,40,69611,1,8,0:0:0:0:
424,40,69794,1,2,0:0:0:0:
308,40,69977,1,2,0:0:0:0:
306,87,70068,1,0,0:0:0:0:
304,134,70160,1,2,0:0:0:0:
112,136,70343,2,0,L|16:136,1,95,8|2,0:0|0:0,0:0:0:0:
288,240,70708,6,0,L|192:240,2,95,2|2|8,0:0|0:0|0:0,0:0:0:0:
392,240,71257,1,2,0:0:0:0:
196,240,71440,1,2,0:0:0:0:
92,240,71623,2,0,L|188:240,1,95,0|8,0:0|0:0,0:0:0:0:
380,336,71989,1,2,0:0:0:0:
96,336,72172,5,6,0:0:0:0:
62,288,72263,1,0,0:0:0:0:
65,230,72355,1,2,0:0:0:0:
103,186,72446,1,2,0:0:0:0:
160,176,72538,1,8,0:0:0:0:
340,176,72721,1,2,0:0:0:0:
56,100,72904,2,0,L|8:100,2,47.5,2|2|2,0:0|0:0|0:0,0:0:0:0:
320,100,73269,1,8,0:0:0:0:
68,100,73452,6,0,P|32:160|120:216,1,190,2|2,0:0|0:0,0:0:0:0:
240,216,74001,2,0,L|336:216,1,95,8|2,0:0|0:0,0:0:0:0:
144,328,74367,1,2,0:0:0:0:
200,328,74458,1,2,0:0:0:0:
256,328,74550,1,2,0:0:0:0:
312,328,74641,1,0,0:0:0:0:
200,216,74733,2,0,L|264:216,1,47.5,8|2,0:0|0:0,0:0:0:0:
360,136,74916,2,0,L|308:136,1,47.5,2|2,0:0|0:0,0:0:0:0:
120,136,75099,6,0,P|68:120|44:68,1,95,6|2,0:0|0:0,0:0:0:0:
56,40,75373,1,2,0:0:0:0:
99,16,75464,1,8,0:0:0:0:
292,16,75647,1,2,0:0:0:0:
408,16,75830,1,2,0:0:0:0:
444,64,75922,1,2,0:0:0:0:
411,110,76013,1,2,0:0:0:0:
216,112,76196,2,0,L|120:112,1,95,8|2,0:0|0:0,0:0:0:0:
392,192,76562,6,0,P|444:208|468:260,1,95,2|2,0:0|0:0,0:0:0:0:
440,280,76836,1,2,0:0:0:0:
392,288,76928,1,8,0:0:0:0:
200,288,77111,1,2,0:0:0:0:
316,288,77294,2,0,L|376:288,2,47.5,2|2|2,0:0|0:0|0:0,0:0:0:0:
124,288,77660,2,0,P|104:248|128:200,1,95,8|2,0:0|0:0,0:0:0:0:
392,192,78025,6,0,L|488:192,1,95,2|2,0:0|0:0,0:0:0:0:
432,192,78300,1,2,0:0:0:0:
380,192,78391,1,8,0:0:0:0:
188,192,78574,1,2,0:0:0:0:
304,192,78757,1,2,0:0:0:0:
351,192,78849,1,2,0:0:0:0:
399,192,78940,1,2,0:0:0:0:
128,96,79123,2,0,L|20:96,1,95,8|2,0:0|0:0,0:0:0:0:
92,96,79397,1,0,0:0:0:0:
296,96,79489,6,0,L|424:96,2,118.75,2|2|8,0:0|0:0|0:0,0:0:0:0:
180,96,80038,1,2,0:0:0:0:
284,96,80129,1,2,0:0:0:0:
388,96,80221,1,2,0:0:0:0:
444,96,80312,1,2,0:0:0:0:
461,96,80404,1,2,0:0:0:0:
288,192,80586,1,8,0:0:0:0:
468,192,80769,1,2,0:0:0:0:
196,192,80952,6,0,L|100:192,1,95,2|2,0:0|0:0,0:0:0:0:
48,192,81227,1,2,0:0:0:0:
101,192,81318,1,8,0:0:0:0:
292,192,81501,1,2,0:0:0:0:
188,192,81684,1,2,0:0:0:0:
140,192,81775,1,2,0:0:0:0:
93,192,81867,1,2,0:0:0:0:
280,271,82050,2,0,P|307:234|292:192,1,95,8|2,0:0|0:0,0:0:0:0:
20,192,82416,6,0,P|4:240|28:288,1,95,2|2,0:0|0:0,0:0:0:0:
60,312,82690,1,0,0:0:0:0:
115,320,82782,1,8,0:0:0:0:
228,320,82964,1,2,0:0:0:0:
420,320,83147,1,2,0:0:0:0:
439,261,83239,1,2,0:0:0:0:
411,207,83330,1,2,0:0:0:0:
351,190,83422,1,2,0:0:0:0:
240,192,83513,2,0,L|192:192,1,47.5,2|2,0:0|0:0,0:0:0:0:
304,190,83696,2,0,L|352:190,1,47.5,2|2,0:0|0:0,0:0:0:0:
148,192,83879,6,0,P|64:148|60:124,1,126.349994794541,6|0,0:0|0:0,0:0:0:0:
88,72,84154,1,0,0:0:0:0:
148,62,84245,1,2,0:0:0:0:
348,64,84428,2,0,L|152:64,1,190,2|0,0:0|0:0,0:0:0:0:
352,192,84977,2,0,L|448:192,1,95,2|2,0:0|0:0,0:0:0:0:
172,192,85343,5,2,0:0:0:0:
344,192,85525,1,2,0:0:0:0:
180,192,85708,1,2,0:0:0:0:
464,192,85891,2,0,P|508:240|452:340,1,190,6|2,0:0|0:0,0:0:0:0:
268,336,86440,1,10,0:0:0:0:
216,336,86532,1,2,0:0:0:0:
164,336,86623,1,10,0:0:0:0:
452,192,86806,6,0,L|348:192,1,104.500003189087,4|0,0:0|0:0,0:0:0:0:
288,192,87080,1,0,0:0:0:0:
236,192,87172,1,8,0:0:0:0:
416,192,87355,1,0,0:0:0:0:
312,192,87538,1,2,0:0:0:0:
208,192,87721,1,2,0:0:0:0:
20,192,87904,2,0,L|12:80,1,104.500003189087,8|0,0:0|0:0,0:0:0:0:
308,88,88269,6,0,L|360:88,2,52.2500015945435,2|0|2,0:0|0:0|0:0,0:0:0:0:
120,88,88635,2,0,L|224:88,1,104.500003189087,8|0,0:0|0:0,0:0:0:0:
284,88,88910,2,0,L|180:88,1,104.500003189087,2|0,0:0|0:0,0:0:0:0:
120,88,89184,1,2,0:0:0:0:
308,192,89367,2,0,L|188:192,1,104.500003189087,8|0,0:0|0:0,0:0:0:0:
152,192,89641,1,0,0:0:0:0:
352,192,89733,6,0,L|456:192,1,104.500003189087,2|0,0:0|0:0,0:0:0:0:
272,296,90099,1,8,0:0:0:0:
324,296,90190,1,0,0:0:0:0:
376,296,90282,1,0,0:0:0:0:
104,296,90464,2,0,B|52:296|52:296|108:296,1,104.500003189087,2|0,0:0|0:0,0:0:0:0:
288,192,90830,1,8,0:0:0:0:
340,192,90922,1,0,0:0:0:0:
392,192,91013,1,0,0:0:0:0:
108,192,91196,5,2,0:0:0:0:
55,192,91288,1,0,0:0:0:0:
3,192,91379,1,2,0:0:0:0:
192,192,91562,2,0,L|248:192,1,52.2500015945435,8|2,0:0|0:0,0:0:0:0:
304,192,91745,2,0,L|244:192,1,52.2500015945435,2|2,0:0|0:0,0:0:0:0:
128,140,91928,2,0,L|124:36,1,104.500003189087,8|2,0:0|0:0,0:0:0:0:
228,36,92294,2,0,L|124:36,1,104.500003189087,8|2,0:0|0:0,0:0:0:0:
396,36,92660,6,0,L|500:36,2,104.500003189087,2|0|8,0:0|0:0|0:0,0:0:0:0:
216,36,93208,2,0,P|207:121|304:192,1,209.000006378174,2|2,0:0|0:0,0:0:0:0:
480,192,93757,2,0,L|372:192,1,104.500003189087,8|0,0:0|0:0,0:0:0:0:
184,280,94123,6,0,L|412:280,1,209.000006378174,2|8,0:0|0:0,0:0:0:0:
204,280,94672,2,0,L|196:152,1,104.500003189087,0|2,0:0|0:0,0:0:0:0:
312,176,95038,1,2,0:0:0:0:
132,176,95221,2,0,L|260:176,1,104.500003189087,8|0,0:0|0:0,0:0:0:0:
288,176,95495,1,0,0:0:0:0:
396,176,95586,6,0,L|400:68,1,104.500003189087,2|0,0:0|0:0,0:0:0:0:
220,72,95952,1,8,0:0:0:0:
408,72,96135,1,0,0:0:0:0:
432,72,96227,1,0,0:0:0:0:
456,72,96318,1,2,0:0:0:0:
352,192,96501,1,0,0:0:0:0:
172,192,96684,2,0,L|284:192,1,104.500003189087,8|0,0:0|0:0,0:0:0:0:
16,192,97050,6,0,L|12:80,1,104.500003189087,2|2,0:0|0:0,0:0:0:0:
276,44,97416,2,0,L|324:71,1,52.2500015945435,8|0,0:0|0:0,0:0:0:0:
152,44,97599,2,0,L|100:14,1,52.2500015945435,8|0,0:0|0:0,0:0:0:0:
300,44,97782,2,0,P|364:100|356:136,1,123.499994346619,4|2,0:0|0:0,0:0:0:0:
309,159,98056,1,0,0:0:0:0:
184,160,98147,2,0,L|124:160,2,52.2500015945435,8|2|2,0:0|0:0|0:0,0:0:0:0:
444,288,98513,6,0,B|496:288|496:288|504:228,2,104.500003189087,6|0|8,0:0|0:0|0:0,0:0:0:0:
252,288,99062,1,0,0:0:0:0:
199,288,99154,1,0,0:0:0:0:
147,288,99245,1,2,0:0:0:0:
332,288,99428,1,2,0:0:0:0:
56,288,99611,2,0,L|48:176,1,104.500003189087,8|0,0:0|0:0,0:0:0:0:
312,88,99977,6,0,L|364:88,2,52.2500015945435,2|0|0,0:0|0:0|0:0,0:0:0:0:
128,88,100343,2,0,L|24:88,1,104.500003189087,8|0,0:0|0:0,0:0:0:0:
84,88,100617,2,0,L|188:88,1,104.500003189087,2|0,0:0|0:0,0:0:0:0:
68,88,100891,2,0,L|64:164,1,52.2500015945435,2|0,0:0|0:0,0:0:0:0:
244,192,101074,2,0,L|364:192,1,104.500003189087,8|2,0:0|0:0,0:0:0:0:
296,192,101349,1,0,0:0:0:0:
116,272,101440,6,0,L|8:272,1,104.500003189087,2|0,0:0|0:0,0:0:0:0:
200,356,101806,1,8,0:0:0:0:
148,356,101897,1,0,0:0:0:0:
96,356,101989,1,0,0:0:0:0:
368,356,102172,2,0,B|488:356,1,104.500003189087,2|2,0:0|0:0,0:0:0:0:
288,272,102538,2,0,B|189:203,1,104.500003189087,8|0,0:0|0:0,0:0:0:0:
256,212,102812,1,0,0:0:0:0:
376,208,102904,6,0,P|428:176|420:124,1,104.500003189087,2|0,0:0|0:0,0:0:0:0:
376,88,103178,1,0,0:0:0:0:
260,88,103269,2,0,L|256:140,1,52.2500015945435,8|0,0:0|0:0,0:0:0:0:
332,200,103452,2,0,L|328:148,1,52.2500015945435,0|0,0:0|0:0,0:0:0:0:
208,88,103635,2,0,L|156:88,2,52.2500015945435,2|0|2,0:0|0:0|0:0,0:0:0:0:
480,36,104001,2,0,L|428:36,3,52.2500015945435,10|2|2|2,0:0|0:0|0:0|0:0,0:0:0:0:
236,36,104367,6,0,L|128:36,1,104.500003189087,2|0,0:0|0:0,0:0:0:0:
80,36,104641,1,0,0:0:0:0:
24,36,104733,1,8,0:0:0:0:
205,36,104916,1,0,0:0:0:0:
147,36,105007,1,0,0:0:0:0:
88,36,105099,2,0,L|84:140,1,104.500003189087,2|2,0:0|0:0,0:0:0:0:
273,192,105464,2,0,L|157:192,1,104.500003189087,8|0,0:0|0:0,0:0:0:0:
488,192,105830,6,0,P|504:244|492:296,1,104.500003189087,2|2,0:0|0:0,0:0:0:0:
440,316,106105,1,0,0:0:0:0:
320,316,106196,1,8,0:0:0:0:
267,316,106288,1,0,0:0:0:0:
268,260,106379,1,0,0:0:0:0:
320,260,106471,1,0,0:0:0:0:
200,260,106562,2,0,L|204:192,1,52.2500015945435,2|0,0:0|0:0,0:0:0:0:
324,172,106745,2,0,L|320:112,1,52.2500015945435,2|0,0:0|0:0,0:0:0:0:
128,68,106928,2,0,L|76:68,1,52.2500015945435,8|2,0:0|0:0,0:0:0:0:
132,68,107111,2,0,L|196:68,1,52.2500015945435,2|0,0:0|0:0,0:0:0:0:
368,68,107294,6,0,L|372:180,1,104.500003189087,2|2,0:0|0:0,0:0:0:0:
248,192,107660,2,0,L|244:264,1,52.2500015945435,8|0,0:0|0:0,0:0:0:0:
364,312,107843,2,0,L|416:312,1,52.2500015945435,2|0,0:0|0:0,0:0:0:0:
360,312,108025,1,2,0:0:0:0:
416,312,108117,1,0,0:0:0:0:
472,312,108208,1,0,0:0:0:0:
284,312,108391,2,0,L|180:312,1,104.500003189087,8|0,0:0|0:0,0:0:0:0:
452,312,108757,6,0,L|456:200,1,104.500003189087,2|2,0:0|0:0,0:0:0:0:
152,192,109123,2,0,L|140:76,1,104.500003189087,8|2,0:0|0:0,0:0:0:0:
204,88,109397,1,0,0:0:0:0:
404,88,109489,2,0,B|512:88,1,104.500003189087,8|2,0:0|0:0,0:0:0:0:
436,88,109763,1,0,0:0:0:0:
364,88,109855,2,0,L|360:160,1,52.2500015945435,8|0,0:0|0:0,0:0:0:0:
424,164,110038,2,0,L|428:224,1,52.2500015945435,2|2,0:0|0:0,0:0:0:0:
236,216,110221,6,0,L|120:216,1,104.500003189087,6|0,0:0|0:0,0:0:0:0:
320,296,110586,2,0,L|432:296,1,104.500003189087,8|0,0:0|0:0,0:0:0:0:
152,296,110952,1,2,0:0:0:0:
100,296,111044,1,0,0:0:0:0:
152,296,111135,1,0,0:0:0:0:
332,296,111318,1,8,0:0:0:0:
60,296,111501,6,0,P|12:264|16:208,1,104.500003189087,2|2,0:0|0:0,0:0:0:0:
40,172,111775,1,0,0:0:0:0:
96,172,111867,1,0,0:0:0:0:
272,172,112050,1,8,0:0:0:0:
84,172,112233,1,0,0:0:0:0:
348,172,112416,2,0,L|352:112,1,52.2500015945435,2|0,0:0|0:0,0:0:0:0:
236,84,112599,1,2,0:0:0:0:
488,32,112782,2,0,L|492:148,1,104.500003189087,12|2,0:0|0:0,0:0:0:0:
204,192,113147,6,0,L|200:316,1,104.500003189087,2|0,0:0|0:0,0:0:0:0:
392,336,113513,2,0,L|388:228,1,104.500003189087,8|0,0:0|0:0,0:0:0:0:
328,232,113788,1,0,0:0:0:0:
164,228,113879,2,0,L|112:228,1,52.2500015945435,2|0,0:0|0:0,0:0:0:0:
112,172,114062,2,0,L|164:172,1,52.2500015945435,0|0,0:0|0:0,0:0:0:0:
288,176,114245,1,8,0:0:0:0:
289,123,114336,1,0,0:0:0:0:
291,71,114428,1,0,0:0:0:0:
104,36,114611,6,0,L|108:144,1,104.500003189087,2|0,0:0|0:0,0:0:0:0:
300,72,114977,2,0,L|352:72,1,52.2500015945435,8|0,0:0|0:0,0:0:0:0:
232,192,115160,2,0,L|284:192,1,52.2500015945435,2|2,0:0|0:0,0:0:0:0:
404,248,115343,1,8,0:0:0:0:
456,248,115434,1,8,0:0:0:0:
404,248,115525,1,2,0:0:0:0:
132,328,115708,2,0,L|28:328,1,104.500003189087,8|4,0:0|0:0,0:0:0:0:
324,328,116074,5,6,0:0:0:0:
208,328,116257,1,0,0:0:0:0:
396,328,116440,2,0,L|500:328,1,104.500003189087,8|0,0:0|0:0,0:0:0:0:
228,240,116806,2,0,L|160:240,2,52.2500015945435,2|2|2,0:0|0:0|0:0,0:0:0:0:
412,192,117172,1,8,0:0:0:0:
140,240,117355,5,2,0:0:0:0:
91,223,117446,1,0,0:0:0:0:
70,177,117538,1,2,0:0:0:0:
89,130,117629,1,0,0:0:0:0:
136,111,117721,1,0,0:0:0:0:
328,112,117904,2,0,L|418:60,1,104.500003189087,8|0,0:0|0:0,0:0:0:0:
156,112,118269,2,0,L|152:172,1,52.2500015945435,2|0,0:0|0:0,0:0:0:0:
268,200,118452,1,2,0:0:0:0:
16,252,118635,2,0,L|12:136,1,104.500003189087,12|2,0:0|0:0,0:0:0:0:
328,200,119001,6,0,P|412:140|328:76,1,237.5,6|8,0:0|0:0,0:0:0:0:
212,76,119550,1,0,0:0:0:0:
488,76,119733,2,0,L|384:15,2,118.75,2|2|8,0:0|0:0|0:0,0:0:0:0:
356,76,120282,1,2,0:0:0:0:
284,76,120373,1,2,0:0:0:0:
92,76,120464,6,0,P|28:108|16:156,1,118.75,2|0,0:0|0:0,0:0:0:0:
36,204,120739,1,0,0:0:0:0:
90,223,120830,2,0,L|160:224,2,59.375,8|2|2,0:0|0:0|0:0,0:0:0:0:
288,224,121196,2,0,L|288:288,1,59.375,8|8,0:0|0:0,0:0:0:0:
200,228,121379,2,0,L|200:160,1,59.375,2|2,0:0|0:0,0:0:0:0:
312,284,121562,2,0,L|367:252,1,59.375,8|8,0:0|0:0,0:0:0:0:
251,138,121745,2,0,L|195:170,1,59.375,2|2,0:0|0:0,0:0:0:0:
440,168,121928,5,4,0:0:0:0:
368,192,133635,6,0,L|372:72,1,95,6|0,0:0|0:0,0:0:0:0:
188,192,134001,2,0,L|184:88,1,95,8|0,0:0|0:0,0:0:0:0:
371,97,134367,2,0,L|271:97,2,95,2|2|8,0:0|0:0|0:0,0:0:0:0:
104,64,134916,6,0,L|100:164,1,95,2|0,0:0|0:0,0:0:0:0:
204,192,135282,1,2,0:0:0:0:
16,192,135464,2,0,L|112:192,1,95,8|0,0:0|0:0,0:0:0:0:
300,192,135830,1,2,0:0:0:0:
312,192,135922,1,2,0:0:0:0:
324,192,136013,1,2,0:0:0:0:
212,192,136196,1,8,0:0:0:0:
400,288,136379,1,2,0:0:0:0:
452,288,136471,1,2,0:0:0:0:
504,288,136562,6,0,L|508:192,1,95,2|0,0:0|0:0,0:0:0:0:
312,192,136928,2,0,L|216:192,1,95,8|2,0:0|0:0,0:0:0:0:
312,192,137202,1,2,0:0:0:0:
407,192,137294,2,0,L|307:192,2,95,2|2|8,0:0|0:0|0:0,0:0:0:0:
122,192,137843,6,0,L|314:192,1,190,2|2,0:0|0:0,0:0:0:0:
492,192,138391,2,0,L|396:192,1,95,8|0,0:0|0:0,0:0:0:0:
344,192,138666,1,0,0:0:0:0:
232,192,138757,2,0,L|164:192,2,47.5,2|0|2,0:0|0:0|0:0,0:0:0:0:
424,192,139123,1,8,0:0:0:0:
424,192,139214,1,8,0:0:0:0:
376,192,139306,1,2,0:0:0:0:
112,288,139489,6,0,L|12:288,1,95,6|0,0:0|0:0,0:0:0:0:
208,288,139855,1,8,0:0:0:0:
36,288,140038,1,0,0:0:0:0:
304,288,140221,2,0,L|404:288,1,95,2|0,0:0|0:0,0:0:0:0:
304,288,140586,1,8,0:0:0:0:
40,192,140769,6,0,P|8:140|88:64,1,190,2|2,0:0|0:0,0:0:0:0:
280,64,141318,2,0,L|380:64,1,95,8|0,0:0|0:0,0:0:0:0:
272,64,141684,2,0,L|268:112,1,47.5,2|2,0:0|0:0,0:0:0:0:
336,116,141867,2,0,L|332:164,1,47.5,2|2,0:0|0:0,0:0:0:0:
220,192,142050,2,0,L|268:192,1,47.5,10|2,0:0|0:0,0:0:0:0:
332,163,142233,2,0,L|328:219,1,47.5,2|2,0:0|0:0,0:0:0:0:
151,192,142416,5,6,0:0:0:0:
267,192,142599,1,0,0:0:0:0:
79,192,142782,2,0,L|71:296,1,95,8|2,0:0|0:0,0:0:0:0:
172,288,143056,1,0,0:0:0:0:
272,288,143147,2,0,L|373:288,1,95,2|2,0:0|0:0,0:0:0:0:
184,288,143513,1,8,0:0:0:0:
452,288,143696,6,0,P|500:248|440:160,1,190,2|2,0:0|0:0,0:0:0:0:
248,160,144245,2,0,L|148:160,1,95,8|2,0:0|0:0,0:0:0:0:
212,160,144519,1,2,0:0:0:0:
404,48,144611,2,0,B|452:48|452:48|400:48,1,95,2|2,0:0|0:0,0:0:0:0:
336,48,144885,1,2,0:0:0:0:
452,48,144977,2,0,L|493:23,2,47.5,8|8|4,0:0|0:0|0:0,0:0:0:0:
164,48,145343,6,0,B|116:48|116:48|168:48,1,95,6|0,0:0|0:0,0:0:0:0:
356,48,145708,2,0,P|404:68|430:122,1,95,8|0,0:0|0:0,0:0:0:0:
232,48,146074,2,0,P|212:80|236:136,1,95,2|2,0:0|0:0,0:0:0:0:
332,144,146440,1,8,0:0:0:0:
44,48,146623,6,0,P|24:100|112:184,1,190,2|2,0:0|0:0,0:0:0:0:
204,184,147080,1,0,0:0:0:0:
300,184,147172,2,0,L|396:184,1,95,8|0,0:0|0:0,0:0:0:0:
207,278,147538,2,0,L|203:162,1,95,2|0,0:0|0:0,0:0:0:0:
88,280,147904,2,0,L|84:180,1,95,8|2,0:0|0:0,0:0:0:0:
140,184,148178,1,0,0:0:0:0:
252,184,148269,6,0,P|268:140|248:88,1,95,2|0,0:0|0:0,0:0:0:0:
64,184,148635,2,0,P|50:142|72:88,1,95,8|0,0:0|0:0,0:0:0:0:
163,92,148910,1,0,0:0:0:0:
260,92,149001,2,0,P|276:136|256:184,1,95,2|2,0:0|0:0,0:0:0:0:
144,92,149367,1,8,0:0:0:0:
412,92,149550,1,2,0:0:0:0:
456,112,149641,1,2,0:0:0:0:
476,160,149733,6,0,P|468:192|412:224,1,95,2|2,0:0|0:0,0:0:0:0:
228,308,150099,2,0,P|180:292|152:248,1,95,8|0,0:0|0:0,0:0:0:0:
348,192,150464,1,2,0:0:0:0:
371,245,150556,1,2,0:0:0:0:
362,303,150647,1,2,0:0:0:0:
324,347,150739,1,2,0:0:0:0:
268,363,150830,1,8,0:0:0:0:
464,328,151013,2,0,L|412:328,1,47.5,2|2,0:0|0:0,0:0:0:0:
224,360,151196,6,0,L|116:360,1,95,6|0,0:0|0:0,0:0:0:0:
292,360,151562,1,8,0:0:0:0:
116,360,151745,1,0,0:0:0:0:
312,360,151928,2,0,P|332:328|308:272,1,95,2|0,0:0|0:0,0:0:0:0:
200,260,152294,1,8,0:0:0:0:
472,276,152477,6,0,P|492:224|404:140,1,190,2|0,0:0|0:0,0:0:0:0:
216,140,153025,1,8,0:0:0:0:
484,140,153208,2,0,L|312:220,1,190,2|2,0:0|0:0,0:0:0:0:
116,220,153757,2,0,L|68:220,2,47.5,8|0|2,0:0|0:0|0:0,0:0:0:0:
204,220,154032,1,0,0:0:0:0:
384,220,154123,5,2,0:0:0:0:
268,220,154306,1,2,0:0:0:0:
460,220,154489,2,0,P|476:176|456:136,1,95,8|0,0:0|0:0,0:0:0:0:
358,136,154763,1,0,0:0:0:0:
260,220,154855,2,0,P|260:176|304:140,1,95,2|2,0:0|0:0,0:0:0:0:
408,136,155221,1,8,0:0:0:0:
144,48,155404,1,2,0:0:0:0:
88,48,155495,1,2,0:0:0:0:
32,48,155586,6,0,P|4:92|24:128,1,95,2|2,0:0|0:0,0:0:0:0:
216,176,155952,2,0,B|312:176,1,95,8|2,0:0|0:0,0:0:0:0:
252,176,156227,1,0,0:0:0:0:
72,192,156318,1,2,0:0:0:0:
72,244,156410,1,2,0:0:0:0:
108,284,156501,1,2,0:0:0:0:
160,288,156593,1,2,0:0:0:0:
272,288,156684,2,0,L|320:288,1,47.5,2|2,0:0|0:0,0:0:0:0:
252,364,156867,2,0,L|200:364,1,47.5,2|2,0:0|0:0,0:0:0:0:
396,364,157050,6,0,P|452:308|396:232,1,190,6|8,0:0|0:0,0:0:0:0:
280,232,157599,1,0,0:0:0:0:
472,156,157782,1,2,0:0:0:0:
468,108,157873,1,2,0:0:0:0:
464,61,157964,1,2,0:0:0:0:
272,60,158147,2,0,L|384:60,1,95,8|2,0:0|0:0,0:0:0:0:
100,60,158513,6,0,L|200:60,1,95,2|2,0:0|0:0,0:0:0:0:
248,60,158788,1,0,0:0:0:0:
300,60,158879,1,8,0:0:0:0:
404,60,159062,1,2,0:0:0:0:
212,152,159245,2,0,L|164:152,2,47.5,2|2|2,0:0|0:0|0:0,0:0:0:0:
396,152,159611,2,0,L|400:256,1,95,8|2,0:0|0:0,0:0:0:0:
208,248,159977,6,0,L|104:248,1,95,2|2,0:0|0:0,0:0:0:0:
164,248,160251,1,2,0:0:0:0:
216,248,160343,1,8,0:0:0:0:
44,248,160525,1,2,0:0:0:0:
236,332,160708,1,2,0:0:0:0:
188,332,160800,1,2,0:0:0:0:
141,332,160891,1,2,0:0:0:0:
332,332,161074,2,0,B|380:332|380:332|328:332,1,95,8|2,0:0|0:0,0:0:0:0:
260,332,161349,1,0,0:0:0:0:
72,192,161440,6,0,L|172:192,2,95,2|0|8,0:0|0:0|0:0,0:0:0:0:
188,192,161989,2,0,L|192:136,1,47.5,0|0,0:0|0:0,0:0:0:0:
80,76,162172,2,0,L|32:76,2,47.5,2|2|2,0:0|0:0|0:0,0:0:0:0:
244,76,162538,1,10,0:0:0:0:
72,76,162721,1,10,0:0:0:0:
356,76,162904,6,0,L|460:76,1,95,6|2,0:0|0:0,0:0:0:0:
280,76,163269,1,8,0:0:0:0:
472,76,163452,1,2,0:0:0:0:
352,192,163635,1,2,0:0:0:0:
296,192,163727,1,2,0:0:0:0:
240,192,163818,1,2,0:0:0:0:
432,192,164001,2,0,L|328:192,1,95,8|2,0:0|0:0,0:0:0:0:
68,192,164367,6,0,L|164:192,1,95,2|2,0:0|0:0,0:0:0:0:
276,192,164733,1,8,0:0:0:0:
152,192,164916,1,2,0:0:0:0:
344,192,165099,2,0,L|348:292,1,95,2|2,0:0|0:0,0:0:0:0:
152,192,165464,2,0,L|52:192,1,95,8|2,0:0|0:0,0:0:0:0:
112,192,165739,1,0,0:0:0:0:
301,352,165830,5,6,0:0:0:0:
335,304,165922,1,2,0:0:0:0:
332,246,166013,1,2,0:0:0:0:
294,202,166105,1,2,0:0:0:0:
237,192,166196,1,8,0:0:0:0:
48,192,166379,1,2,0:0:0:0:
332,116,166562,2,0,L|380:116,2,47.5,2|2|2,0:0|0:0|0:0,0:0:0:0:
272,116,166836,1,2,0:0:0:0:
332,116,166928,1,8,0:0:0:0:
68,116,167111,6,0,P|40:120|52:240,1,190,2|0,0:0|0:0,0:0:0:0:
232,244,167660,1,8,0:0:0:0:
279,244,167751,1,2,0:0:0:0:
327,244,167843,1,2,0:0:0:0:
136,356,168025,2,0,L|132:304,1,47.5,2|0,0:0|0:0,0:0:0:0:
204,244,168208,2,0,L|208:304,1,47.5,2|0,0:0|0:0,0:0:0:0:
96,312,168391,2,0,L|92:248,1,47.5,10|2,0:0|0:0,0:0:0:0:
204,244,168574,2,0,L|256:244,1,47.5,2|2,0:0|0:0,0:0:0:0:
424,232,168757,6,0,P|476:216|500:164,1,95,6|2,0:0|0:0,0:0:0:0:
480,124,169032,1,2,0:0:0:0:
424,112,169123,1,8,0:0:0:0:
236,112,169306,1,2,0:0:0:0:
120,112,169489,1,2,0:0:0:0:
84,160,169580,1,2,0:0:0:0:
117,206,169672,1,2,0:0:0:0:
312,208,169855,2,0,L|408:208,1,95,8|0,0:0|0:0,0:0:0:0:
136,208,170221,6,0,P|152:260|204:284,1,95,2|2,0:0|0:0,0:0:0:0:
240,280,170495,1,2,0:0:0:0:
296,280,170586,1,8,0:0:0:0:
184,280,170769,1,2,0:0:0:0:
368,280,170952,2,0,L|436:280,2,47.5,2|0|2,0:0|0:0|0:0,0:0:0:0:
176,280,171318,2,0,P|156:240|180:192,1,95,8|2,0:0|0:0,0:0:0:0:
232,192,171593,1,0,0:0:0:0:
404,192,171684,6,0,L|500:192,1,95,2|2,0:0|0:0,0:0:0:0:
444,192,171958,1,2,0:0:0:0:
392,192,172050,1,8,0:0:0:0:
276,192,172233,1,2,0:0:0:0:
220,192,172324,1,0,0:0:0:0:
332,104,172416,1,2,0:0:0:0:
388,104,172507,1,2,0:0:0:0:
388,48,172599,1,2,0:0:0:0:
128,104,172782,2,0,L|20:104,1,95,8|2,0:0|0:0,0:0:0:0:
96,104,173056,1,2,0:0:0:0:
288,192,173147,6,0,L|416:192,2,118.75,2|2|8,0:0|0:0|0:0,0:0:0:0:
172,192,173696,1,2,0:0:0:0:
280,192,173788,1,2,0:0:0:0:
388,192,173879,1,2,0:0:0:0:
436,192,173971,1,0,0:0:0:0:
484,192,174062,1,2,0:0:0:0:
304,192,174245,1,8,0:0:0:0:
476,192,174428,1,2,0:0:0:0:
216,192,174611,6,0,L|120:192,1,95,6|2,0:0|0:0,0:0:0:0:
68,192,174885,1,2,0:0:0:0:
121,192,174977,1,8,0:0:0:0:
312,192,175160,1,2,0:0:0:0:
208,192,175343,1,2,0:0:0:0:
160,192,175434,1,2,0:0:0:0:
113,192,175525,1,2,0:0:0:0:
304,272,175708,2,0,L|404:272,1,95,8|2,0:0|0:0,0:0:0:0:
112,284,176074,5,2,0:0:0:0:
80,232,176166,1,2,0:0:0:0:
88,176,176257,1,2,0:0:0:0:
136,144,176349,1,0,0:0:0:0:
192,144,176440,1,8,0:0:0:0:
304,144,176623,1,2,0:0:0:0:
128,144,176806,1,2,0:0:0:0:
316,144,176989,2,0,L|320:88,1,47.5,2|2,0:0|0:0,0:0:0:0:
212,144,177172,2,0,L|164:144,1,47.5,2|2,0:0|0:0,0:0:0:0:
271,96,177355,2,0,L|319:96,1,47.5,2|2,0:0|0:0,0:0:0:0:
124,48,177538,6,0,P|88:100|124:144,1,126.349994794541,6|0,0:0|0:0,0:0:0:0:
184,144,177812,1,0,0:0:0:0:
248,144,177904,1,2,0:0:0:0:
56,232,178086,2,0,L|152:232,1,95,2|2,0:0|0:0,0:0:0:0:
248,232,178452,1,0,0:0:0:0:
496,232,178635,1,2,0:0:0:0:
448,232,178727,1,0,0:0:0:0:
401,232,178818,1,2,0:0:0:0:
143,232,179001,5,2,0:0:0:0:
315,232,179184,1,2,0:0:0:0:
151,232,179367,1,2,0:0:0:0:
435,232,179550,2,0,P|479:184|423:84,1,190,6|2,0:0|0:0,0:0:0:0:
372,84,180007,1,2,0:0:0:0:
260,84,180099,1,8,0:0:0:0:
208,84,180190,1,8,0:0:0:0:
208,136,180282,1,8,0:0:0:0:
260,136,180373,1,8,0:0:0:0:
448,240,180464,6,0,B|500:240|500:240|500:296,1,104.500003189087,4|0,0:0|0:0,0:0:0:0:
441,292,180739,1,0,0:0:0:0:
384,292,180830,1,8,0:0:0:0:
200,292,181013,1,0,0:0:0:0:
252,292,181105,1,0,0:0:0:0:
304,292,181196,1,2,0:0:0:0:
184,292,181379,1,0,0:0:0:0:
372,292,181562,2,0,L|380:180,1,104.500003189087,8|0,0:0|0:0,0:0:0:0:
84,192,181928,6,0,L|32:192,2,52.2500015945435,2|2|2,0:0|0:0|0:0,0:0:0:0:
384,192,182294,2,0,L|280:192,1,104.500003189087,8|0,0:0|0:0,0:0:0:0:
184,192,182568,2,0,L|288:192,1,104.500003189087,2|0,0:0|0:0,0:0:0:0:
384,192,182843,1,2,0:0:0:0:
204,72,183025,2,0,B|152:72|152:72|208:72,1,104.500003189087,8|0,0:0|0:0,0:0:0:0:
268,72,183300,1,0,0:0:0:0:
68,192,183391,6,0,B|16:192|16:192|16:244,1,104.500003189087,2|0,0:0|0:0,0:0:0:0:
80,244,183666,1,0,0:0:0:0:
204,244,183757,2,0,L|208:184,1,52.2500015945435,8|0,0:0|0:0,0:0:0:0:
132,136,183940,2,0,L|128:192,1,52.2500015945435,0|0,0:0|0:0,0:0:0:0:
324,244,184123,2,0,B|428:244,1,104.500003189087,2|0,0:0|0:0,0:0:0:0:
240,192,184489,1,8,0:0:0:0:
184,192,184580,1,0,0:0:0:0:
184,192,184672,1,0,0:0:0:0:
240,192,184763,1,0,0:0:0:0:
440,192,184855,6,0,L|500:192,2,52.2500015945435,2|0|0,0:0|0:0|0:0,0:0:0:0:
252,280,185221,2,0,L|196:280,1,52.2500015945435,8|0,0:0|0:0,0:0:0:0:
272,280,185404,2,0,L|276:216,1,52.2500015945435,2|0,0:0|0:0,0:0:0:0:
152,192,185586,2,0,L|44:192,1,104.500003189087,2|0,0:0|0:0,0:0:0:0:
176,112,185952,2,0,L|72:112,1,104.500003189087,8|0,0:0|0:0,0:0:0:0:
360,32,186318,6,0,L|464:32,1,104.500003189087,2|0,0:0|0:0,0:0:0:0:
412,32,186593,1,0,0:0:0:0:
360,32,186684,1,8,0:0:0:0:
180,32,186867,2,0,P|144:112|220:192,1,209.000006378174,2|2,0:0|0:0,0:0:0:0:
492,192,187416,2,0,L|384:192,1,104.500003189087,8|0,0:0|0:0,0:0:0:0:
204,276,187782,6,0,L|308:276,1,104.500003189087,2|0,0:0|0:0,0:0:0:0:
361,276,188056,1,0,0:0:0:0:
413,276,188147,1,8,0:0:0:0:
228,276,188330,2,0,L|220:148,1,104.500003189087,0|2,0:0|0:0,0:0:0:0:
336,172,188696,1,2,0:0:0:0:
156,172,188879,2,0,L|48:172,1,104.500003189087,8|0,0:0|0:0,0:0:0:0:
116,172,189154,1,0,0:0:0:0:
221,171,189245,6,0,L|225:279,1,104.500003189087,2|0,0:0|0:0,0:0:0:0:
48,275,189611,1,8,0:0:0:0:
236,275,189794,2,0,L|264:228,2,52.2500015945435,0|0|2,0:0|0:0|0:0,0:0:0:0:
116,276,190160,1,2,0:0:0:0:
300,276,190343,2,0,L|184:276,1,104.500003189087,8|2,0:0|0:0,0:0:0:0:
132,276,190617,1,0,0:0:0:0:
360,276,190708,6,0,B|412:276|412:276|412:216,1,104.500003189087,2|0,0:0|0:0,0:0:0:0:
356,192,190983,1,0,0:0:0:0:
168,192,191074,2,0,L|176:132,1,52.2500015945435,10|2,0:0|0:0,0:0:0:0:
300,276,191257,2,0,L|292:216,1,52.2500015945435,2|2,0:0|0:0,0:0:0:0:
108,192,191440,2,0,P|52:128|68:104,1,123.499994346619,8|2,0:0|0:0,0:0:0:0:
108,72,191714,1,0,0:0:0:0:
233,71,191806,1,8,0:0:0:0:
285,71,191897,1,0,0:0:0:0:
337,71,191989,1,2,0:0:0:0:
68,288,192172,6,0,B|16:288|16:288|16:236,1,104.500003189087,6|2,0:0|0:0,0:0:0:0:
60,192,192446,1,0,0:0:0:0:
124,192,192538,1,8,0:0:0:0:
304,192,192721,1,0,0:0:0:0:
251,192,192812,1,0,0:0:0:0:
199,192,192904,1,2,0:0:0:0:
324,192,193086,1,0,0:0:0:0:
36,344,193269,2,0,L|32:292,1,52.2500015945435,8|0,0:0|0:0,0:0:0:0:
100,192,193452,2,0,L|152:192,1,52.2500015945435,0|0,0:0|0:0,0:0:0:0:
356,192,193635,6,0,L|408:192,2,52.2500015945435,2|2|2,0:0|0:0|0:0,0:0:0:0:
172,192,194001,2,0,L|68:192,1,104.500003189087,8|0,0:0|0:0,0:0:0:0:
162,192,194275,2,0,L|266:192,1,104.500003189087,2|0,0:0|0:0,0:0:0:0:
146,192,194550,2,0,L|142:116,1,52.2500015945435,2|0,0:0|0:0,0:0:0:0:
322,88,194733,2,0,L|442:88,1,104.500003189087,8|2,0:0|0:0,0:0:0:0:
374,88,195007,1,0,0:0:0:0:
176,88,195099,6,0,L|68:88,1,104.500003189087,2|0,0:0|0:0,0:0:0:0:
260,172,195464,2,0,L|202:172,1,52.2500015945435,8|0,0:0|0:0,0:0:0:0:
134,244,195647,2,0,L|202:244,1,52.2500015945435,0|0,0:0|0:0,0:0:0:0:
388,172,195830,2,0,B|444:172|444:172|384:172,1,104.500003189087,2|2,0:0|0:0,0:0:0:0:
207,172,196196,2,0,B|207:120|207:120|263:120,1,104.500003189087,8|0,0:0|0:0,0:0:0:0:
319,120,196471,1,0,0:0:0:0:
207,52,196562,6,0,P|155:84|163:136,1,104.500003189087,2|2,0:0|0:0,0:0:0:0:
207,172,196836,1,2,0:0:0:0:
323,172,196928,2,0,L|327:120,1,52.2500015945435,8|0,0:0|0:0,0:0:0:0:
248,52,197111,2,0,L|252:104,1,52.2500015945435,0|0,0:0|0:0,0:0:0:0:
376,172,197294,2,0,L|428:172,2,52.2500015945435,2|2|2,0:0|0:0|0:0,0:0:0:0:
104,192,197660,2,0,L|160:192,1,52.2500015945435,8|2,0:0|0:0,0:0:0:0:
96,264,197843,2,0,L|152:264,1,52.2500015945435,8|8,0:0|0:0,0:0:0:0:
340,264,198025,6,0,L|448:264,1,104.500003189087,2|2,0:0|0:0,0:0:0:0:
496,264,198300,1,0,0:0:0:0:
444,264,198391,1,8,0:0:0:0:
256,264,198574,1,0,0:0:0:0:
316,264,198666,1,0,0:0:0:0:
376,264,198757,2,0,L|380:160,1,104.500003189087,2|0,0:0|0:0,0:0:0:0:
304,160,199032,1,0,0:0:0:0:
492,60,199123,2,0,L|376:60,1,104.500003189087,8|0,0:0|0:0,0:0:0:0:
324,60,199397,1,0,0:0:0:0:
112,80,199489,6,0,P|96:132|108:184,1,104.500003189087,2|0,0:0|0:0,0:0:0:0:
160,204,199763,1,0,0:0:0:0:
280,204,199855,1,8,0:0:0:0:
333,204,199946,1,0,0:0:0:0:
332,148,200038,1,2,0:0:0:0:
280,148,200129,1,2,0:0:0:0:
159,344,200221,2,0,L|163:276,1,52.2500015945435,2|0,0:0|0:0,0:0:0:0:
283,256,200404,2,0,L|279:196,1,52.2500015945435,2|0,0:0|0:0,0:0:0:0:
91,68,200586,2,0,L|36:68,1,52.2500015945435,8|0,0:0|0:0,0:0:0:0:
92,148,200769,2,0,L|144:148,1,52.2500015945435,0|0,0:0|0:0,0:0:0:0:
352,68,200952,6,0,L|460:68,1,104.500003189087,2|0,0:0|0:0,0:0:0:0:
264,68,201318,2,0,L|260:140,1,52.2500015945435,8|0,0:0|0:0,0:0:0:0:
380,188,201501,2,0,L|432:188,1,52.2500015945435,2|2,0:0|0:0,0:0:0:0:
376,188,201684,1,2,0:0:0:0:
432,188,201775,1,0,0:0:0:0:
488,188,201867,1,0,0:0:0:0:
300,188,202050,2,0,L|404:188,1,104.500003189087,8|2,0:0|0:0,0:0:0:0:
104,308,202416,6,0,L|100:196,1,104.500003189087,8|2,0:0|0:0,0:0:0:0:
168,192,202690,1,0,0:0:0:0:
404,188,202782,2,0,P|432:152|404:88,1,104.500003189087,8|2,0:0|0:0,0:0:0:0:
356,84,203056,1,2,0:0:0:0:
148,80,203147,2,0,B|40:80,1,104.500003189087,2|2,0:0|0:0,0:0:0:0:
116,80,203422,1,2,0:0:0:0:
240,76,203513,2,0,L|244:148,1,52.2500015945435,8|8,0:0|0:0,0:0:0:0:
168,192,203696,2,0,L|116:192,1,52.2500015945435,8|8,0:0|0:0,0:0:0:0:
324,192,203879,6,0,L|440:192,1,104.500003189087,6|0,0:0|0:0,0:0:0:0:
240,272,204245,2,0,L|168:272,2,52.2500015945435,8|0|0,0:0|0:0|0:0,0:0:0:0:
440,272,204611,1,2,0:0:0:0:
388,272,204702,1,0,0:0:0:0:
336,272,204794,1,2,0:0:0:0:
388,272,204885,1,0,0:0:0:0:
336,272,204977,1,8,0:0:0:0:
64,272,205160,5,2,0:0:0:0:
12,272,205251,1,2,0:0:0:0:
64,272,205343,1,2,0:0:0:0:
188,272,205525,1,0,0:0:0:0:
460,332,205708,2,0,L|464:276,1,52.2500015945435,8|2,0:0|0:0,0:0:0:0:
388,240,205891,2,0,L|384:176,1,52.2500015945435,2|2,0:0|0:0,0:0:0:0:
184,192,206074,2,0,L|180:132,1,52.2500015945435,2|0,0:0|0:0,0:0:0:0:
296,104,206257,1,2,0:0:0:0:
24,352,206440,2,0,P|4:304|28:256,1,104.500003189087,12|2,0:0|0:0,0:0:0:0:
96,260,206714,1,0,0:0:0:0:
220,256,206806,6,0,L|324:256,1,104.500003189087,2|0,0:0|0:0,0:0:0:0:
132,88,207172,2,0,L|136:196,1,104.500003189087,8|0,0:0|0:0,0:0:0:0:
208,192,207446,1,0,0:0:0:0:
400,192,207538,2,0,L|508:192,1,104.500003189087,2|0,0:0|0:0,0:0:0:0:
312,108,207904,1,8,0:0:0:0:
364,108,207995,1,0,0:0:0:0:
416,108,208086,1,0,0:0:0:0:
228,32,208269,6,0,L|168:32,2,52.2500015945435,2|0|2,0:0|0:0|0:0,0:0:0:0:
424,108,208635,2,0,L|428:168,1,52.2500015945435,8|0,0:0|0:0,0:0:0:0:
352,192,208818,2,0,L|404:192,1,52.2500015945435,2|2,0:0|0:0,0:0:0:0:
212,192,209001,1,8,0:0:0:0:
160,192,209093,1,8,0:0:0:0:
160,192,209184,1,8,0:0:0:0:
212,192,209275,1,8,0:0:0:0:
420,328,209367,2,0,L|424:272,1,52.2500015945435,6|8,0:0|0:0,0:0:0:0:
360,192,209550,2,0,L|304:192,1,52.2500015945435,4|4,0:0|0:0,0:0:0:0:
116,192,209733,5,6,0:0:0:0:
240,192,209916,1,0,0:0:0:0:
52,192,210099,2,0,L|48:296,1,104.500003189087,8|0,0:0|0:0,0:0:0:0:
332,328,210464,1,2,0:0:0:0:
384,328,210556,1,2,0:0:0:0:
332,328,210647,1,2,0:0:0:0:
144,328,210830,1,8,0:0:0:0:
328,240,211013,5,0,0:0:0:0:
364,192,211105,1,0,0:0:0:0:
312,156,211196,1,2,0:0:0:0:
260,120,211288,1,0,0:0:0:0:
296,72,211379,1,0,0:0:0:0:
484,124,211562,2,0,L|394:72,1,104.500003189087,8|0,0:0|0:0,0:0:0:0:
332,72,211836,1,0,0:0:0:0:
176,72,211928,2,0,L|172:132,1,52.2500015945435,2|0,0:0|0:0,0:0:0:0:
288,156,212111,1,2,0:0:0:0:
16,192,212294,2,0,L|136:192,1,104.500003189087,6|2,0:0|0:0,0:0:0:0:
60,192,212568,1,2,0:0:0:0:
312,192,212660,6,0,P|396:252|312:316,1,237.5,6|8,0:0|0:0,0:0:0:0:
196,316,213208,1,0,0:0:0:0:
472,316,213391,2,0,L|368:377,2,118.75,2|2|8,0:0|0:0|0:0,0:0:0:0:
340,316,213940,1,2,0:0:0:0:
252,316,214032,1,2,0:0:0:0:
92,316,214123,6,0,P|28:284|16:236,1,118.75,2|2,0:0|0:0,0:0:0:0:
36,188,214397,1,8,0:0:0:0:
90,169,214489,2,0,L|160:168,3,59.375,0|0|2|0,0:0|0:0|0:0|0:0,0:0:0:0:
352,168,214855,2,0,L|356:104,1,59.375,8|8,0:0|0:0,0:0:0:0:
236,28,215038,2,0,L|240:96,1,59.375,2|2,0:0|0:0,0:0:0:0:
412,184,215221,2,0,L|367:167,1,47.5,8|8,0:0|0:0,0:0:0:0:
188,252,215404,2,0,L|139:234,1,47.5,8|8,0:0|0:0,0:0:0:0:
357,349,215586,5,6,0:0:0:0:
401,336,215647,1,0,0:0:0:0:
428,297,215708,1,0,0:0:0:0:
424,251,215769,1,2,0:0:0:0:
391,218,215830,1,0,0:0:0:0:
345,212,215891,1,0,0:0:0:0:
304,208,215952,1,8,0:0:0:0:
268,176,216013,1,0,0:0:0:0:
268,120,216074,1,0,0:0:0:0:
304,88,216135,1,2,0:0:0:0:
352,88,216196,1,0,0:0:0:0:
148,344,216318,5,2,0:0:0:0:
103,331,216379,1,0,0:0:0:0:
76,292,216440,1,0,0:0:0:0:
80,246,216501,1,2,0:0:0:0:
113,213,216562,1,0,0:0:0:0:
159,207,216623,1,0,0:0:0:0:
214,208,216684,2,0,L|266:208,2,31.6666666666667,8|0|0,0:0|0:0|0:0,0:0:0:0:
150,208,216867,2,0,L|98:208,1,31.6666666666667,2|0,0:0|0:0,0:0:0:0:
325,193,217050,5,2,0:0:0:0:
356,193,217111,1,0,0:0:0:0:
388,193,217172,1,0,0:0:0:0:
356,193,217233,1,2,0:0:0:0:
325,193,217294,1,0,0:0:0:0:
136,56,217416,2,0,L|72:56,1,47.5,8|0,0:0|0:0,0:0:0:0:
164,56,217599,2,2,L|168:132,1,47.5,2|0,0:0|0:0,0:0:0:0:
72,144,217782,2,0,L|28:144,2,31.6666666666667,2|2|2,0:0|0:0|0:0,0:0:0:0:
120,144,217964,2,0,L|172:144,1,37.9999988403321,6|0,0:0|0:0,0:0:0:0:
351,192,218147,2,0,L|508:192,1,142.500005435944,8|2,0:0|0:0,0:0:0:0:
436,192,218422,1,2,0:0:0:0:
248,292,218513,6,0,L|148:292,1,95,2|2,0:0|0:0,0:0:0:0:
260,192,218788,2,0,P|320:224|340:328,1,142.5,2|0,0:0|0:0,0:0:0:0:
288,292,219062,1,2,0:0:0:0:
346,290,219154,1,2,0:0:0:0:
148,192,219245,2,0,P|80:144|92:88,1,142.500005435944,2|2,0:0|0:0,0:0:0:0:
192,40,219519,2,0,L|288:40,1,95,2|0,0:0|0:0,0:0:0:0:
88,94,219794,2,0,L|85:141,1,47.5,2|0,0:0|0:0,0:0:0:0:
288,192,219977,6,0,L|388:192,1,95,2|2,0:0|0:0,0:0:0:0:
192,308,220343,2,0,L|84:308,1,95,8|8,0:0|0:0,0:0:0:0:
164,308,220617,1,8,0:0:0:0:
352,308,220708,1,4,0:0:0:0:
408,276,220800,1,4,0:0:0:0:
408,208,220891,1,6,0:0:0:0:
352,168,220983,1,2,0:0:0:0:
236,168,221074,2,0,L|244:112,1,47.5,8|8,0:0|0:0,0:0:0:0:
316,80,221257,2,0,L|308:16,1,47.5,2|2,0:0|0:0,0:0:0:0:
120,32,221440,6,0,L|24:32,1,95,6|2,0:0|0:0,0:0:0:0:
84,32,221714,1,2,0:0:0:0:
276,228,221806,2,0,L|380:228,1,95,8|2,0:0|0:0,0:0:0:0:
312,228,222080,1,0,0:0:0:0:
120,132,222172,2,0,L|216:132,1,95,2|2,0:0|0:0,0:0:0:0:
272,132,222446,1,2,0:0:0:0:
215,132,222538,1,8,0:0:0:0:
388,132,222721,1,2,0:0:0:0:
104,132,222904,6,0,L|100:196,1,47.5,2|0,0:0|0:0,0:0:0:0:
336,248,223086,2,0,L|436:248,2,95,2|8|2,0:0|0:0|0:0,0:0:0:0:
160,332,223635,2,0,L|156:272,1,47.5,2|0,0:0|0:0,0:0:0:0:
264,160,223818,2,0,L|320:160,1,47.5,2|2,0:0|0:0,0:0:0:0:
128,72,224001,2,2,L|24:72,1,95,14|2,0:0|0:0,0:0:0:0:
92,72,224275,1,2,0:0:0:0:
328,48,224367,5,2,0:0:0:0:
363,84,224428,1,0,0:0:0:0:
378,133,224489,1,0,0:0:0:0:
368,184,224550,1,2,0:0:0:0:
335,224,224611,1,0,0:0:0:0:
148,148,224733,1,8,0:0:0:0:
97,149,224794,1,0,0:0:0:0:
52,175,224855,1,0,0:0:0:0:
25,219,224916,1,2,0:0:0:0:
21,270,224977,1,2,0:0:0:0:
208,320,225099,5,2,0:0:0:0:
223,274,225160,1,0,0:0:0:0:
180,240,225221,1,0,0:0:0:0:
140,272,225282,1,2,0:0:0:0:
152,320,225343,1,0,0:0:0:0:
344,192,225464,2,0,L|384:192,2,31.6666666666667,8|0|0,0:0|0:0|0:0,0:0:0:0:
296,276,225647,2,0,L|256:276,1,31.6666666666667,2|2,0:0|0:0,0:0:0:0:
456,192,225830,5,2,0:0:0:0:
480,172,225891,1,0,0:0:0:0:
498,146,225952,1,0,0:0:0:0:
507,116,226013,1,2,0:0:0:0:
506,84,226074,1,0,0:0:0:0:
495,55,226135,1,0,0:0:0:0:
476,30,226196,1,8,0:0:0:0:
450,12,226257,1,0,0:0:0:0:
420,3,226318,1,0,0:0:0:0:
388,4,226379,1,2,0:0:0:0:
312,4,226471,1,2,0:0:0:0:
132,4,226562,6,0,L|76:4,1,47.5,2|2,0:0|0:0,0:0:0:0:
84,60,226745,2,0,L|132:60,1,47.5,2|2,0:0|0:0,0:0:0:0:
248,84,226928,2,0,L|252:136,1,47.5,10|2,0:0|0:0,0:0:0:0:
144,172,227111,2,0,L|140:232,1,47.5,2|2,0:0|0:0,0:0:0:0:
336,220,227294,6,0,L|436:220,1,95,6|0,0:0|0:0,0:0:0:0:
360,220,227568,2,0,L|456:220,1,95,0|2,0:0|0:0,0:0:0:0:
172,192,227934,2,0,B|124:192|124:192|176:192,1,95,2|0,0:0|0:0,0:0:0:0:
228,192,228208,1,2,0:0:0:0:
284,192,228300,1,0,0:0:0:0:
172,192,228391,2,0,L|168:128,1,47.5,8|2,0:0|0:0,0:0:0:0:
284,68,228574,2,0,L|336:68,1,47.5,8|2,0:0|0:0,0:0:0:0:
140,68,228757,5,6,0:0:0:0:
84,68,228849,1,2,0:0:0:0:
84,124,228940,1,2,0:0:0:0:
140,124,229032,1,0,0:0:0:0:
328,192,229123,2,0,L|388:192,1,47.5,8|2,0:0|0:0,0:0:0:0:
160,124,229306,2,0,P|80:184|160:260,1,237.5,2|2,0:0|0:0,0:0:0:0:
224,260,229763,1,0,0:0:0:0:
416,192,229855,2,0,L|468:192,2,47.5,8|2|2,0:0|0:0|0:0,0:0:0:0:
148,192,230221,6,0,L|48:192,1,95,6|2,0:0|0:0,0:0:0:0:
124,192,230495,2,0,L|28:192,1,95,2|2,0:0|0:0,0:0:0:0:
308,192,230861,2,0,B|408:192,1,95,0|0,0:0|0:0,0:0:0:0:
344,192,231135,1,2,0:0:0:0:
288,192,231227,1,0,0:0:0:0:
403,192,231318,2,0,L|407:256,1,47.5,8|2,0:0|0:0,0:0:0:0:
291,316,231501,2,0,L|239:316,1,47.5,8|2,0:0|0:0,0:0:0:0:
444,192,231684,5,6,0:0:0:0:
464,250,231775,1,2,0:0:0:0:
435,304,231867,1,2,0:0:0:0:
375,319,231958,1,2,0:0:0:0:
184,192,232050,2,0,L|180:128,1,47.5,8|2,0:0|0:0,0:0:0:0:
252,92,232233,2,0,L|304:92,1,47.5,2|2,0:0|0:0,0:0:0:0:
120,44,232416,2,0,L|60:44,3,47.5,8|0|2|2,0:0|0:0|0:0|0:0,0:0:0:0:
252,92,232782,2,0,L|196:92,1,47.5,8|8,0:0|0:0,0:0:0:0:
133,144,232964,2,0,L|181:144,1,47.5,4|4,0:0|0:0,0:0:0:0:
360,92,233147,6,0,L|460:92,1,95,6|2,0:0|0:0,0:0:0:0:
384,92,233422,2,0,L|480:92,1,95,2|2,0:0|0:0,0:0:0:0:
196,120,233788,2,0,B|96:120,1,95,2|0,0:0|0:0,0:0:0:0:
157,120,234062,1,2,0:0:0:0:
101,120,234154,1,0,0:0:0:0:
208,120,234245,2,0,L|212:184,1,47.5,8|2,0:0|0:0,0:0:0:0:
100,244,234428,2,0,L|48:244,1,47.5,8|2,0:0|0:0,0:0:0:0:
348,244,234611,5,6,0:0:0:0:
404,244,234702,1,0,0:0:0:0:
404,188,234794,1,2,0:0:0:0:
348,188,234885,1,0,0:0:0:0:
160,120,234977,2,0,L|100:120,1,47.5,8|2,0:0|0:0,0:0:0:0:
328,188,235160,2,0,L|452:188,1,95,8|0,0:0|0:0,0:0:0:0:
252,188,235525,2,0,L|248:240,1,47.5,2|0,0:0|0:0,0:0:0:0:
440,288,235708,2,0,L|496:288,2,47.5,8|8|2,0:0|0:0|0:0,0:0:0:0:
185,288,236074,6,0,L|85:288,1,95,6|2,0:0|0:0,0:0:0:0:
161,288,236349,2,0,L|65:288,1,95,2|2,0:0|0:0,0:0:0:0:
345,288,236714,2,0,B|392:288|392:288|340:288,1,95,2|0,0:0|0:0,0:0:0:0:
288,288,236989,1,2,0:0:0:0:
232,288,237080,1,0,0:0:0:0:
347,288,237172,2,0,L|351:224,1,47.5,8|2,0:0|0:0,0:0:0:0:
236,192,237355,2,0,L|233:124,1,47.5,8|2,0:0|0:0,0:0:0:0:
432,144,237538,6,0,L|480:116,3,47.5,12|2|2|2,0:0|0:0|0:0|0:0,0:0:0:0:
300,44,237904,2,0,L|251:72,3,47.5,12|2|2|2,0:0|0:0|0:0|0:0,0:0:0:0:
76,44,238269,1,12,0:0:0:0:
20,44,238361,1,2,0:0:0:0:
20,100,238452,1,2,0:0:0:0:
76,100,238544,1,2,0:0:0:0:
264,120,238635,1,8,0:0:0:0:
325,132,238727,1,8,0:0:0:0:
368,176,238818,1,8,0:0:0:0:
372,240,238910,1,8,0:0:0:0:
180,240,239001,6,0,L|80:240,2,95,6|0|8,0:0|0:0|0:0,0:0:0:0:
348,336,239550,2,0,P|400:316|408:276,1,95,2|0,0:0|0:0,0:0:0:0:
392,236,239824,1,0,0:0:0:0:
344,219,239916,1,2,0:0:0:0:
168,220,240099,2,0,L|164:112,1,95,8|0,0:0|0:0,0:0:0:0:
412,88,240464,6,0,L|508:88,1,95,2|0,0:0|0:0,0:0:0:0:
340,168,240830,2,0,L|436:168,1,95,8|2,0:0|0:0,0:0:0:0:
320,168,241196,1,2,0:0:0:0:
316,120,241288,1,0,0:0:0:0:
312,73,241379,1,2,0:0:0:0:
140,40,241562,2,0,L|136:144,1,95,8|0,0:0|0:0,0:0:0:0:
392,168,241928,6,0,P|444:188|452:228,1,95,2|0,0:0|0:0,0:0:0:0:
436,268,242202,1,0,0:0:0:0:
388,285,242294,1,8,0:0:0:0:
220,284,242477,1,0,0:0:0:0:
336,284,242660,2,0,L|340:228,2,47.5,2|0|2,0:0|0:0|0:0,0:0:0:0:
172,192,243025,2,0,L|124:192,2,47.5,8|0|0,0:0|0:0|0:0,0:0:0:0:
228,192,243300,1,0,0:0:0:0:
408,192,243391,6,0,P|472:136|408:80,1,190,2|8,0:0|0:0,0:0:0:0:
296,80,243940,1,0,0:0:0:0:
240,80,244032,1,0,0:0:0:0:
136,80,244123,2,0,L|88:80,2,47.5,2|2|2,0:0|0:0|0:0,0:0:0:0:
252,80,244489,1,2,0:0:0:0:
128,80,244672,1,2,0:0:0:0:
384,192,244855,6,0,L|484:192,2,95,2|0|8,0:0|0:0|0:0,0:0:0:0:
216,192,245404,2,0,P|168:204|148:256,1,95,2|0,0:0|0:0,0:0:0:0:
168,288,245678,1,0,0:0:0:0:
213,304,245769,1,2,0:0:0:0:
376,304,245952,2,0,L|276:304,1,95,8|0,0:0|0:0,0:0:0:0:
28,304,246318,6,0,L|20:200,1,95,2|2,0:0|0:0,0:0:0:0:
136,192,246684,2,0,L|128:76,1,95,8|2,0:0|0:0,0:0:0:0:
296,96,247050,1,2,0:0:0:0:
343,96,247141,1,0,0:0:0:0:
391,96,247233,1,2,0:0:0:0:
232,96,247416,1,8,0:0:0:0:
404,96,247599,1,2,0:0:0:0:
120,100,247782,5,2,0:0:0:0:
86,148,247873,1,2,0:0:0:0:
89,206,247964,1,2,0:0:0:0:
127,250,248056,1,2,0:0:0:0:
184,260,248147,1,12,0:0:0:0:
360,260,248330,1,0,0:0:0:0:
88,352,248513,2,0,L|84:304,1,47.5,2|2,0:0|0:0,0:0:0:0:
144,352,248696,1,2,0:0:0:0:
400,260,248879,1,8,0:0:0:0:
136,304,249062,6,0,P|104:224|184:192,1,190,2|2,0:0|0:0,0:0:0:0:
300,192,249611,2,0,L|204:192,1,95,8|2,0:0|0:0,0:0:0:0:
396,80,249977,1,2,0:0:0:0:
452,80,250068,1,2,0:0:0:0:
452,24,250160,1,2,0:0:0:0:
396,24,250251,1,2,0:0:0:0:
288,80,250343,2,0,L|352:80,1,47.5,8|0,0:0|0:0,0:0:0:0:
448,160,250525,2,0,L|396:160,1,47.5,2|2,0:0|0:0,0:0:0:0:
212,80,250708,6,0,P|160:96|136:148,1,95,0|0,0:0|0:0,0:0:0:0:
152,184,250983,1,0,0:0:0:0:
204,204,251074,1,8,0:0:0:0:
376,244,251257,1,2,0:0:0:0:
260,244,251440,1,2,0:0:0:0:
308,244,251532,1,2,0:0:0:0:
356,244,251623,1,2,0:0:0:0:
188,320,251806,2,0,L|88:320,1,95,8|0,0:0|0:0,0:0:0:0:
92,272,252080,1,0,0:0:0:0:
280,244,252172,5,2,0:0:0:0:
322,225,252263,1,2,0:0:0:0:
339,182,252355,1,2,0:0:0:0:
322,139,252446,1,2,0:0:0:0:
280,120,252538,2,0,L|176:120,1,95,8|2,0:0|0:0,0:0:0:0:
292,120,252904,2,0,L|296:64,2,47.5,2|2|2,0:0|0:0|0:0,0:0:0:0:
124,36,253269,2,0,L|120:144,1,95,8|2,0:0|0:0,0:0:0:0:
180,156,253544,1,0,0:0:0:0:
368,192,253635,6,0,L|468:192,1,95,2|2,0:0|0:0,0:0:0:0:
416,192,253910,1,2,0:0:0:0:
368,192,254001,1,8,0:0:0:0:
204,268,254184,1,2,0:0:0:0:
376,296,254367,2,0,L|444:296,2,47.5,2|2|2,0:0|0:0|0:0,0:0:0:0:
112,192,254733,2,0,L|12:192,1,95,8|2,0:0|0:0,0:0:0:0:
324,24,255099,5,2,0:0:0:0:
378,42,255190,1,0,0:0:0:0:
401,95,255282,1,2,0:0:0:0:
378,148,255373,1,2,0:0:0:0:
324,168,255464,1,8,0:0:0:0:
212,168,255647,2,0,L|264:168,1,47.5,2|2,0:0|0:0,0:0:0:0:
448,96,255830,2,0,L|496:96,2,47.5,2|2|2,0:0|0:0|0:0,0:0:0:0:
324,96,256196,1,8,0:0:0:0:
440,96,256379,1,2,0:0:0:0:
172,96,256562,6,0,L|272:96,1,95,2|2,0:0|0:0,0:0:0:0:
316,96,256836,1,2,0:0:0:0:
366,96,256928,1,8,0:0:0:0:
199,192,257111,1,2,0:0:0:0:
359,192,257294,2,0,L|367:264,1,47.5,2|2,0:0|0:0,0:0:0:0:
307,272,257477,1,2,0:0:0:0:
48,272,257660,2,0,P|24:232|44:192,1,95,8|2,0:0|0:0,0:0:0:0:
100,192,257934,1,0,0:0:0:0:
288,272,258025,6,0,P|340:256|364:204,1,95,2|2,0:0|0:0,0:0:0:0:
348,168,258300,1,0,0:0:0:0:
296,148,258391,1,8,0:0:0:0:
132,104,258574,1,2,0:0:0:0:
304,104,258757,1,2,0:0:0:0:
356,104,258849,1,0,0:0:0:0:
408,104,258940,1,2,0:0:0:0:
148,28,259123,2,0,L|92:28,2,47.5,8|0|2,0:0|0:0|0:0,0:0:0:0:
212,28,259397,1,2,0:0:0:0:
364,192,259489,6,0,P|448:236|452:260,1,126.349994794541,6|2,0:0|0:0,0:0:0:0:
424,312,259763,1,2,0:0:0:0:
364,322,259855,1,2,0:0:0:0:
108,320,260038,2,0,L|204:320,2,95,2|2|2,0:0|0:0|0:0,0:0:0:0:
280,192,260586,2,0,B|328:192|328:192|276:192,1,95,2|8,0:0|0:0,0:0:0:0:
28,192,260952,5,2,0:0:0:0:
200,192,261135,1,2,0:0:0:0:
36,192,261318,1,2,0:0:0:0:
320,192,261501,2,0,P|364:144|308:48,1,190,12|2,0:0|0:0,0:0:0:0:
240,48,261958,1,2,0:0:0:0:
140,48,262050,2,0,L|84:48,2,47.5,8|8|8,0:0|0:0|0:0,0:0:0:0:
392,192,262416,6,0,B|428:192|428:192|360:192,1,104.500003189087,4|2,0:0|0:0,0:0:0:0:
294,192,262690,1,0,0:0:0:0:
228,192,262782,1,8,0:0:0:0:
416,192,262964,1,2,0:0:0:0:
300,192,263147,1,2,0:0:0:0:
184,192,263330,1,2,0:0:0:0:
472,192,263513,2,0,L|480:80,1,104.500003189087,8|0,0:0|0:0,0:0:0:0:
192,88,263879,6,0,L|140:88,2,52.2500015945435,2|0|2,0:0|0:0|0:0,0:0:0:0:
380,88,264245,2,0,L|276:88,1,104.500003189087,8|2,0:0|0:0,0:0:0:0:
216,88,264519,2,0,L|320:88,1,104.500003189087,8|2,0:0|0:0,0:0:0:0:
256,88,264794,1,2,0:0:0:0:
444,88,264977,2,0,P|467:138|448:192,1,104.500003189087,8|2,0:0|0:0,0:0:0:0:
392,192,265251,1,0,0:0:0:0:
192,192,265343,6,0,L|88:192,1,104.500003189087,2|2,0:0|0:0,0:0:0:0:
272,296,265708,1,8,0:0:0:0:
220,296,265800,1,0,0:0:0:0:
168,296,265891,1,2,0:0:0:0:
440,296,266074,2,0,B|492:296|492:296|436:296,1,104.500003189087,2|2,0:0|0:0,0:0:0:0:
376,296,266349,1,0,0:0:0:0:
260,296,266440,1,8,0:0:0:0:
203,259,266532,1,0,0:0:0:0:
203,193,266623,1,2,0:0:0:0:
259,156,266714,1,2,0:0:0:0:
464,156,266806,6,0,L|468:52,1,104.500003189087,2|2,0:0|0:0,0:0:0:0:
284,160,267172,2,0,L|279:100,1,52.2500015945435,8|0,0:0|0:0,0:0:0:0:
355,108,267355,2,0,L|358:44,1,52.2500015945435,2|2,0:0|0:0,0:0:0:0:
236,160,267538,2,0,L|131:160,1,104.500003189087,2|2,0:0|0:0,0:0:0:0:
320,56,267904,2,0,L|211:56,1,104.500003189087,8|2,0:0|0:0,0:0:0:0:
496,56,268269,6,0,L|392:56,2,104.500003189087,2|0|8,0:0|0:0|0:0,0:0:0:0:
308,56,268818,1,2,0:0:0:0:
287,108,268910,1,0,0:0:0:0:
303,156,269001,2,0,P|348:192|392:192,1,104.500003189087,2|0,0:0|0:0,0:0:0:0:
204,192,269367,2,0,L|96:192,1,104.500003189087,8|2,0:0|0:0,0:0:0:0:
388,284,269733,6,0,L|495:284,2,104.500003189087,2|2|8,0:0|0:0|0:0,0:0:0:0:
204,284,270282,1,2,0:0:0:0:
200,231,270373,1,2,0:0:0:0:
197,179,270464,1,2,0:0:0:0:
368,180,270647,1,2,0:0:0:0:
184,180,270830,2,0,L|56:180,1,104.500003189087,8|2,0:0|0:0,0:0:0:0:
136,180,271105,1,0,0:0:0:0:
336,180,271196,6,0,L|340:72,1,104.500003189087,2|2,0:0|0:0,0:0:0:0:
156,76,271562,2,0,L|152:24,1,52.2500015945435,8|0,0:0|0:0,0:0:0:0:
260,104,271745,2,0,L|256:52,1,52.2500015945435,2|0,0:0|0:0,0:0:0:0:
151,23,271928,1,2,0:0:0:0:
260,104,272111,1,2,0:0:0:0:
72,192,272294,2,0,L|184:192,1,104.500003189087,8|2,0:0|0:0,0:0:0:0:
460,192,272660,6,0,L|464:304,1,104.500003189087,2|2,0:0|0:0,0:0:0:0:
200,340,273025,2,0,L|144:340,1,52.2500015945435,8|0,0:0|0:0,0:0:0:0:
324,340,273208,2,0,L|384:340,1,52.2500015945435,2|0,0:0|0:0,0:0:0:0:
176,340,273391,2,0,L|48:340,1,123.499994346619,4|2,0:0|0:0,0:0:0:0:
148,244,273666,1,0,0:0:0:0:
242,244,273757,1,8,0:0:0:0:
60,244,273940,1,2,0:0:0:0:
352,244,274123,6,0,B|456:244,2,104.500003189087,6|2|8,0:0|0:0|0:0,0:0:0:0:
164,244,274672,1,2,0:0:0:0:
217,244,274763,1,0,0:0:0:0:
269,244,274855,1,2,0:0:0:0:
84,244,275038,1,2,0:0:0:0:
368,244,275221,2,0,L|480:244,1,104.500003189087,8|0,0:0|0:0,0:0:0:0:
176,88,275586,6,0,L|124:88,2,52.2500015945435,2|0|2,0:0|0:0|0:0,0:0:0:0:
360,88,275952,2,0,L|464:88,1,104.500003189087,8|0,0:0|0:0,0:0:0:0:
388,88,276227,2,0,L|492:88,1,104.500003189087,8|2,0:0|0:0,0:0:0:0:
424,88,276501,2,0,L|356:88,1,52.2500015945435,2|2,0:0|0:0,0:0:0:0:
200,88,276684,2,0,L|80:88,1,104.500003189087,8|2,0:0|0:0,0:0:0:0:
392,88,277050,6,0,L|500:88,1,104.500003189087,2|0,0:0|0:0,0:0:0:0:
308,4,277416,1,8,0:0:0:0:
368,4,277507,1,0,0:0:0:0:
368,4,277599,1,0,0:0:0:0:
308,4,277690,1,0,0:0:0:0:
140,4,277782,2,0,B|20:4,1,104.500003189087,2|2,0:0|0:0,0:0:0:0:
284,8,278147,2,0,B|336:8|336:8|336:60,1,104.500003189087,8|0,0:0|0:0,0:0:0:0:
284,60,278422,1,0,0:0:0:0:
168,60,278513,6,0,P|116:92|124:144,1,104.500003189087,2|2,0:0|0:0,0:0:0:0:
168,180,278788,1,0,0:0:0:0:
284,180,278879,2,0,L|288:128,1,52.2500015945435,8|2,0:0|0:0,0:0:0:0:
212,68,279062,2,0,L|216:120,1,52.2500015945435,2|2,0:0|0:0,0:0:0:0:
336,180,279245,2,0,L|388:180,2,52.2500015945435,8|2|2,0:0|0:0|0:0,0:0:0:0:
64,232,279611,2,0,L|12:232,3,52.2500015945435,8|8|8|8,0:0|0:0|0:0|0:0,0:0:0:0:
200,232,279977,6,0,L|308:232,1,104.500003189087,2|2,0:0|0:0,0:0:0:0:
356,232,280251,1,0,0:0:0:0:
412,232,280343,1,8,0:0:0:0:
231,232,280525,1,2,0:0:0:0:
289,232,280617,1,2,0:0:0:0:
231,232,280708,2,0,L|227:336,1,104.500003189087,2|2,0:0|0:0,0:0:0:0:
416,348,281074,2,0,L|300:348,1,104.500003189087,8|2,0:0|0:0,0:0:0:0:
48,348,281440,6,0,P|32:296|44:244,1,104.500003189087,2|2,0:0|0:0,0:0:0:0:
96,224,281714,1,2,0:0:0:0:
216,224,281806,1,8,0:0:0:0:
269,224,281897,1,0,0:0:0:0:
268,280,281989,1,2,0:0:0:0:
216,280,282080,1,0,0:0:0:0:
332,280,282172,2,0,L|328:212,1,52.2500015945435,2|0,0:0|0:0,0:0:0:0:
216,224,282355,2,0,L|220:164,1,52.2500015945435,2|2,0:0|0:0,0:0:0:0:
400,88,282538,2,0,L|348:88,1,52.2500015945435,8|8,0:0|0:0,0:0:0:0:
276,28,282721,2,0,L|212:28,1,52.2500015945435,2|2,0:0|0:0,0:0:0:0:
408,28,282904,6,0,L|412:140,1,104.500003189087,2|2,0:0|0:0,0:0:0:0:
288,152,283269,2,0,L|236:152,1,52.2500015945435,8|0,0:0|0:0,0:0:0:0:
352,244,283452,2,0,L|356:188,1,52.2500015945435,2|0,0:0|0:0,0:0:0:0:
288,152,283635,2,0,L|236:152,2,52.2500015945435,2|0|2,0:0|0:0|0:0,0:0:0:0:
472,192,284001,2,0,L|368:192,1,104.500003189087,8|2,0:0|0:0,0:0:0:0:
92,312,284367,6,0,L|88:200,1,104.500003189087,10|2,0:0|0:0,0:0:0:0:
404,192,284733,2,0,P|424:144|400:96,1,104.500003189087,10|2,0:0|0:0,0:0:0:0:
340,84,285007,1,0,0:0:0:0:
140,84,285099,2,0,B|32:84,1,104.500003189087,10|8,0:0|0:0,0:0:0:0:
128,84,285373,1,0,0:0:0:0:
220,80,285464,2,0,L|224:152,1,52.2500015945435,2|0,0:0|0:0,0:0:0:0:
148,160,285647,2,0,L|144:220,1,52.2500015945435,2|2,0:0|0:0,0:0:0:0:
328,212,285830,6,0,L|444:212,1,104.500003189087,6|0,0:0|0:0,0:0:0:0:
244,296,286196,2,0,L|356:296,1,104.500003189087,8|0,0:0|0:0,0:0:0:0:
76,296,286562,1,2,0:0:0:0:
24,296,286654,1,0,0:0:0:0:
76,296,286745,1,2,0:0:0:0:
192,296,286928,1,8,0:0:0:0:
448,296,287111,6,0,P|496:264|492:208,1,104.500003189087,2|2,0:0|0:0,0:0:0:0:
468,172,287385,1,0,0:0:0:0:
412,172,287477,1,2,0:0:0:0:
236,172,287660,1,8,0:0:0:0:
424,172,287843,1,2,0:0:0:0:
160,172,288025,2,0,L|156:112,1,52.2500015945435,2|2,0:0|0:0,0:0:0:0:
272,84,288208,1,8,0:0:0:0:
20,32,288391,2,0,L|16:148,1,104.500003189087,12|2,0:0|0:0,0:0:0:0:
308,192,288757,6,0,L|312:316,1,104.500003189087,2|0,0:0|0:0,0:0:0:0:
120,336,289123,2,0,L|124:228,1,104.500003189087,8|2,0:0|0:0,0:0:0:0:
184,232,289397,1,2,0:0:0:0:
348,228,289489,2,0,L|400:228,1,52.2500015945435,2|0,0:0|0:0,0:0:0:0:
400,172,289672,2,0,L|348:172,1,52.2500015945435,0|2,0:0|0:0,0:0:0:0:
224,176,289855,2,0,L|164:176,2,52.2500015945435,8|0|2,0:0|0:0|0:0,0:0:0:0:
408,36,290221,6,0,L|404:144,1,104.500003189087,2|2,0:0|0:0,0:0:0:0:
212,72,290586,2,0,L|160:72,1,52.2500015945435,8|0,0:0|0:0,0:0:0:0:
280,192,290769,2,0,L|228:192,1,52.2500015945435,2|2,0:0|0:0,0:0:0:0:
108,248,290952,1,2,0:0:0:0:
56,248,291044,1,2,0:0:0:0:
108,248,291135,1,2,0:0:0:0:
160,248,291227,1,2,0:0:0:0:
356,328,291318,2,0,L|460:328,1,104.500003189087,12|2,0:0|0:0,0:0:0:0:
164,328,291684,5,2,0:0:0:0:
336,328,291867,1,2,0:0:0:0:
152,328,292050,2,0,L|48:328,1,104.500003189087,8|2,0:0|0:0,0:0:0:0:
300,240,292416,2,0,L|368:240,2,52.2500015945435,2|0|2,0:0|0:0|0:0,0:0:0:0:
116,192,292782,1,8,0:0:0:0:
372,240,292964,5,2,0:0:0:0:
424,240,293056,1,2,0:0:0:0:
372,240,293147,1,2,0:0:0:0:
320,240,293239,1,2,0:0:0:0:
372,240,293330,1,2,0:0:0:0:
476,240,293513,2,0,L|484:128,1,104.500003189087,8|0,0:0|0:0,0:0:0:0:
220,48,293879,2,0,L|216:108,1,52.2500015945435,2|0,0:0|0:0,0:0:0:0:
332,136,294062,1,8,0:0:0:0:
80,188,294245,2,0,L|76:72,1,104.500003189087,12|2,0:0|0:0,0:0:0:0:
352,256,294611,6,0,L|472:299,1,118.75,6|0,0:0|0:0,0:0:0:0:
280,336,294977,2,0,L|400:379,1,118.75,8|0,0:0|0:0,0:0:0:0:
116,336,295343,2,0,L|12:275,2,118.75,2|0|8,0:0|0:0|0:0,0:0:0:0:
248,336,295891,1,2,0:0:0:0:
172,336,295983,1,2,0:0:0:0:
420,332,296074,6,0,P|484:300|496:252,1,118.75,2|2,0:0|0:0,0:0:0:0:
476,204,296349,1,8,0:0:0:0:
422,185,296440,2,0,L|352:184,1,59.375,2|2,0:0|0:0,0:0:0:0:
440,184,296623,2,0,L|444:108,1,59.375,8|0,0:0|0:0,0:0:0:0:
244,188,296806,2,0,L|240:124,1,59.375,8|8,0:0|0:0,0:0:0:0:
332,184,296989,2,0,L|336:252,1,59.375,2|2,0:0|0:0,0:0:0:0:
156,128,297172,2,0,L|92:128,1,59.375,8|8,0:0|0:0,0:0:0:0:
276,243,297355,2,0,L|340:243,1,59.375,2|2,0:0|0:0,0:0:0:0:
140,232,297538,6,0,L|136:128,1,95,4|0,0:0|0:0,0:0:0:0:
331,337,297904,2,0,L|335:243,1,95,8|2,0:0|0:0,0:0:0:0:
48,216,298269,2,0,L|44:280,1,47.5,8|2,0:0|0:0,0:0:0:0:
240,320,298544,2,0,P|288:272|244:232,1,142.5,8|2,0:0|0:0,0:0:0:0:
180,232,298910,1,2,0:0:0:0:
380,240,299001,5,2,0:0:0:0:
431,209,299093,1,0,0:0:0:0:
427,149,299184,1,2,0:0:0:0:
371,127,299275,1,0,0:0:0:0:
191,128,299367,2,0,L|144:112,1,47.5,8|8,0:0|0:0,0:0:0:0:
208,128,299550,2,0,L|256:128,2,47.5,2|2|8,0:0|0:0|0:0,0:0:0:0:
464,44,299916,2,0,L|468:108,1,47.5,2|2,0:0|0:0,0:0:0:0:
356,156,300099,1,8,0:0:0:0:
304,156,300190,1,8,0:0:0:0:
304,156,300282,1,2,0:0:0:0:
356,156,300373,1,2,0:0:0:0:
172,192,300464,6,0,L|168:296,1,95,6|0,0:0|0:0,0:0:0:0:
364,112,300830,2,0,L|368:216,1,95,8|0,0:0|0:0,0:0:0:0:
80,208,301196,2,0,L|76:144,1,47.5,8|2,0:0|0:0,0:0:0:0:
272,104,301471,2,0,P|268:168|204:208,1,142.5,8|2,0:0|0:0,0:0:0:0:
148,208,301836,1,2,0:0:0:0:
340,192,301928,6,0,L|344:240,1,47.5,8|8,0:0|0:0,0:0:0:0:
276,288,302111,2,0,L|212:288,1,47.5,2|0,0:0|0:0,0:0:0:0:
420,192,302294,2,0,L|364:192,1,47.5,8|8,0:0|0:0,0:0:0:0:
304,240,302477,2,0,L|300:176,1,47.5,2|2,0:0|0:0,0:0:0:0:
488,192,302660,1,8,0:0:0:0:
500,136,302751,1,0,0:0:0:0:
468,88,302843,1,8,0:0:0:0:
412,76,302934,1,0,0:0:0:0:
224,76,303025,2,0,L|176:76,1,47.5,8|8,0:0|0:0,0:0:0:0:
176,152,303208,2,0,L|224:152,1,47.5,2|2,0:0|0:0,0:0:0:0:
384,192,303391,6,0,L|388:300,1,95,6|0,0:0|0:0,0:0:0:0:
200,288,303757,2,0,L|104:288,1,95,8|0,0:0|0:0,0:0:0:0:
392,192,304123,2,0,L|396:256,1,47.5,8|2,0:0|0:0,0:0:0:0:
200,288,304397,2,0,P|156:244|200:192,1,142.5,8|0,0:0|0:0,0:0:0:0:
260,192,304763,1,0,0:0:0:0:
72,192,304855,5,2,0:0:0:0:
36,144,304946,1,0,0:0:0:0:
56,88,305038,1,2,0:0:0:0:
112,79,305129,1,2,0:0:0:0:
300,80,305221,2,0,L|345:54,1,47.5,8|2,0:0|0:0,0:0:0:0:
276,80,305404,2,0,L|321:54,1,47.5,8|2,0:0|0:0,0:0:0:0:
380,56,305586,1,8,0:0:0:0:
120,80,305769,2,0,L|116:144,1,47.5,2|2,0:0|0:0,0:0:0:0:
300,188,305952,2,0,L|356:188,1,47.5,8|8,0:0|0:0,0:0:0:0:
280,188,306135,2,0,L|276:120,1,47.5,2|2,0:0|0:0,0:0:0:0:
462,188,306318,6,0,L|366:188,1,95,6|0,0:0|0:0,0:0:0:0:
172,188,306684,2,0,L|168:292,1,95,8|0,0:0|0:0,0:0:0:0:
459,235,307050,2,0,L|463:171,1,47.5,8|2,0:0|0:0,0:0:0:0:
171,75,307324,2,0,P|168:144|256:216,1,189.524992191811,8|2,0:0|0:0,0:0:0:0:
336,216,307690,1,2,0:0:0:0:
136,216,307782,6,0,B|32:216,1,95,6|2,0:0|0:0,0:0:0:0:
244,356,308056,2,0,L|144:356,1,95,8|8,0:0|0:0,0:0:0:0:
408,356,308422,2,0,L|504:356,1,95,8|8,0:0|0:0,0:0:0:0:
388,356,308788,1,2,0:0:0:0:
189,356,308879,1,8,0:0:0:0:
125,356,308971,1,8,0:0:0:0:
125,292,309062,1,8,0:0:0:0:
189,292,309154,1,8,0:0:0:0:
388,296,309245,6,0,L|392:200,1,95,4|0,0:0|0:0,0:0:0:0:
196,192,309611,2,0,L|192:72,1,95,8|0,0:0|0:0,0:0:0:0:
480,48,309977,2,0,L|424:48,1,47.5,8|2,0:0|0:0,0:0:0:0:
240,48,310251,2,0,P|216:88|272:152,1,142.5,8|2,0:0|0:0,0:0:0:0:
332,152,310617,1,2,0:0:0:0:
148,192,310708,6,0,L|144:264,1,47.5,8|0,0:0|0:0,0:0:0:0:
220,240,310891,2,0,L|224:308,1,47.5,2|0,0:0|0:0,0:0:0:0:
40,192,311074,2,0,L|36:136,1,47.5,8|0,0:0|0:0,0:0:0:0:
240,32,311257,2,0,P|288:48|304:136,1,142.5,2|0,0:0|0:0,0:0:0:0:
124,144,311623,2,0,L|75:116,1,47.5,2|2,0:0|0:0,0:0:0:0:
180,216,311806,2,0,L|238:182,1,47.5,8|8,0:0|0:0,0:0:0:0:
164,216,311989,2,0,L|160:292,1,47.5,2|2,0:0|0:0,0:0:0:0:
360,344,312172,6,0,L|364:248,1,95,6|0,0:0|0:0,0:0:0:0:
182,191,312538,2,0,L|286:191,1,95,8|0,0:0|0:0,0:0:0:0:
24,88,312904,2,0,L|20:140,1,47.5,8|2,0:0|0:0,0:0:0:0:
208,88,313178,2,0,P|272:136|260:192,1,142.5,8|2,0:0|0:0,0:0:0:0:
196,192,313544,1,2,0:0:0:0:
387,191,313635,6,0,L|391:251,1,47.5,8|8,0:0|0:0,0:0:0:0:
323,299,313818,2,0,L|319:251,1,47.5,2|2,0:0|0:0,0:0:0:0:
135,323,314001,2,0,L|131:271,1,47.5,8|8,0:0|0:0,0:0:0:0:
204,272,314184,2,0,L|208:220,1,47.5,2|2,0:0|0:0,0:0:0:0:
24,192,314367,1,2,0:0:0:0:
76,192,314458,1,0,0:0:0:0:
76,192,314550,1,2,0:0:0:0:
24,192,314641,1,2,0:0:0:0:
264,144,314733,2,0,L|325:122,2,47.5,8|8|2,0:0|0:0|0:0,0:0:0:0:
200,144,315007,1,2,0:0:0:0:
27,286,315099,6,0,L|24:192,1,95,6|0,0:0|0:0,0:0:0:0:
219,206,315464,2,0,L|315:206,1,95,8|0,0:0|0:0,0:0:0:0:
43,190,315830,2,0,L|99:190,1,47.5,8|2,0:0|0:0,0:0:0:0:
280,112,316105,2,0,L|160:188,1,142.5,8|2,0:0|0:0,0:0:0:0:
220,188,316471,1,2,0:0:0:0:
404,112,316562,5,8,0:0:0:0:
456,124,316654,1,0,0:0:0:0:
456,176,316745,1,2,0:0:0:0:
404,188,316836,1,0,0:0:0:0:
300,188,316928,2,0,L|296:132,1,47.5,8|8,0:0|0:0,0:0:0:0:
488,88,317111,2,0,P|483:155|422:186,1,142.5,2|0,0:0|0:0,0:0:0:0:
228,188,317477,2,0,L|179:160,1,47.5,2|2,0:0|0:0,0:0:0:0:
285,260,317660,2,0,L|343:226,1,47.5,8|8,0:0|0:0,0:0:0:0:
424,328,317843,2,0,L|375:300,1,47.5,2|2,0:0|0:0,0:0:0:0:
190,260,318025,6,0,L|286:260,1,95,6|0,0:0|0:0,0:0:0:0:
90,260,318391,2,0,L|86:165,1,95,8|0,0:0|0:0,0:0:0:0:
374,260,318757,2,0,L|378:196,1,47.5,8|2,0:0|0:0,0:0:0:0:
84,120,319032,2,0,P|81:189|169:261,1,189.524992191811,8|2,0:0|0:0,0:0:0:0:
80,260,319397,1,2,0:0:0:0:
292,192,319489,6,0,L|348:192,2,47.5,6|2|2,0:0|0:0|0:0,0:0:0:0:
196,104,319763,2,0,L|248:104,1,47.5,8|2,0:0|0:0,0:0:0:0:
340,192,319946,2,0,L|288:192,1,47.5,8|2,0:0|0:0,0:0:0:0:
104,192,320129,2,0,L|156:192,1,47.5,8|2,0:0|0:0,0:0:0:0:
336,280,320312,1,8,0:0:0:0:
284,280,320404,1,8,0:0:0:0:
232,280,320495,1,2,0:0:0:0:
416,280,320586,1,8,0:0:0:0:
472,280,320678,1,8,0:0:0:0:
472,224,320769,1,2,0:0:0:0:
416,224,320861,1,2,0:0:0:0:
224,192,320952,5,4,0:0:0:0:
256,192,321135,12,0,331196,0:0:0:0:
