osu file format v14

[General]
AudioFilename: audio.mp3
AudioLeadIn: 0
PreviewTime: 180464
Countdown: 0
SampleSet: Soft
StackLeniency: 0.7
Mode: 2
LetterboxInBreaks: 0
WidescreenStoryboard: 0

[Editor]
Bookmarks: 3391,39977,51684,63391,75099,86806,133635,145343,157050,168757,180465,239001,250709,262416,297538,320952
DistanceSpacing: 1
BeatDivisor: 4
GridSize: 4
TimelineZoom: 2.599999

[Metadata]
Title:Drive Your Fire
TitleUnicode:Drive Your Fire
Artist:A-One
ArtistUnicode:A-One
Creator:JBHyperion
Version:GIGACHAD and Hyperion's Overdose
Source:東方永夜抄 ~ Imperishable Night.
Tags:Dako GIGACHAD ZiRoX wonjae Paranoid Grapes 東方Touhou Project TOHO EUROBEAT VOL.16 永夜抄 Comiket 92 エクステンドアッシュ ~ 蓬莱人 Extend Ash ~ Hourai Victim Extra Stage Theme 月まで届け、不死の煙 Reach for the Moon Immortal Smoke Fujiwara no Mokou Boss 藤原 妹紅 上白沢 慧音 Kamishirasawa Keine 越田 隆人 あき Aki Rute AbsoRute Zero Koshida Takahito Yassie DJ Command ZUN 上海アリス幻樂団 Team Shanghai Alice eurobeat electronic rock japanese
BeatmapID:3036447
BeatmapSetID:1480185

[Difficulty]
HPDrainRate:6
CircleSize:4.2
OverallDifficulty:9.2
ApproachRate:9.2
SliderMultiplier:2
SliderTickRate:2

[Events]
//Background and Video events
0,0,"24324280_p0.jpg",0,0
//Break Periods
//Storyboard Layer 0 (Background)
//Storyboard Layer 1 (Fail)
//Storyboard Layer 2 (Pass)
//Storyboard Layer 3 (Foreground)
//Storyboard Layer 4 (Overlay)
//Storyboard Sound Samples

[TimingPoints]
465,365.853658536585,4,2,1,20,1,0
1562,-100,4,2,1,25,0,0
1928,-100,4,2,1,30,0,0
2294,-100,4,2,1,35,0,0
2660,-100,4,2,1,40,0,0
3025,-100,4,2,1,45,0,0
3391,-100,4,2,77,60,0,0
3483,-100,4,2,1,60,0,0
9062,-100,4,3,1,60,0,0
9336,-100,4,2,1,60,0,0
14733,-100,4,3,1,65,0,0
15099,-80,4,2,2,70,0,0
15464,-100,4,2,2,60,0,0
17843,-100,4,2,1,60,0,0
18025,-100,4,2,2,60,0,0
18940,-100,4,2,0,80,0,0
19123,-100,4,2,2,60,0,0
19306,-100,4,2,0,80,0,0
19489,-100,4,2,2,60,0,0
22416,-100,4,2,2,65,0,0
23879,-100,4,2,2,70,0,0
25343,-100,4,2,2,75,0,0
26074,-80,4,2,2,75,0,0
26440,-66.6666666666667,4,2,2,75,0,0
26623,-100,4,2,2,75,0,0
26989,-100,4,2,1,25,0,0
27172,-100,4,2,1,30,0,0
27538,-100,4,2,1,35,0,0
27904,-100,4,2,1,40,0,0
28086,-100,4,2,1,5,0,0
28269,-100,4,2,77,80,0,0
28361,-100,4,2,2,90,0,0
34123,-100,4,2,2,90,0,0
38056,-75.187969924812,4,2,2,90,0,0
38330,-100,4,2,2,90,0,0
38513,-75.187969924812,4,2,2,90,0,0
38696,-100,4,2,2,90,0,0
39977,-100,4,2,2,90,0,0
40068,-100,4,2,1,80,0,0
47294,-100,4,2,10,80,0,0
47477,-100,4,2,1,80,0,0
51318,-100,4,3,0,80,0,0
51684,-100,4,2,1,80,0,0
56074,-100,4,2,10,80,0,0
56257,-100,4,2,1,80,0,0
60099,-100,4,2,2,80,0,0
60464,-100,4,2,1,80,0,0
62660,-100,4,2,2,80,0,0
63391,-100,4,2,1,80,0,0
63574,-100,4,2,10,80,0,0
63757,-100,4,2,1,80,0,0
65038,-100,4,2,10,80,0,0
65221,-100,4,2,1,80,0,0
69428,-100,4,2,10,80,0,0
69611,-100,4,2,1,80,0,0
70708,-66.6666666666667,4,2,1,80,0,0
71074,-100,4,2,1,80,0,0
72172,-100,4,2,2,90,0,0
72263,-100,4,2,2,80,0,0
73635,-100,4,2,1,100,0,0
75190,-100,4,2,1,90,0,0
79489,-66.6666666666667,4,2,1,90,0,0
79855,-100,4,2,1,90,0,0
83513,-100,4,2,2,80,0,0
83879,-100,4,2,1,80,0,0
84245,-100,4,3,0,80,0,0
84428,-100,4,2,1,80,0,0
84611,-100,4,3,0,80,0,0
84794,-100,4,2,1,80,0,0
85160,-100,4,3,0,80,0,0
85343,-100,4,2,1,80,0,0
86806,-100,4,2,77,90,0,1
86989,-100,4,2,2,90,0,1
87904,-62.5,4,2,2,90,0,1
88178,-100,4,2,2,90,0,1
95586,-50,4,2,2,90,0,1
95747,-100,4,2,2,5,0,1
95769,-100,4,2,2,90,0,1
95929,-100,4,2,2,5,0,1
95952,-45.4545454545455,4,2,2,90,0,1
96112,-100,4,2,2,5,0,1
96135,-38.4615384615385,4,2,2,90,0,1
96318,-100,4,2,2,90,0,1
97050,-50,4,2,2,90,0,1
97210,-100,4,2,2,5,0,1
97233,-100,4,2,2,90,0,1
97393,-100,4,2,2,5,0,1
97416,-38.4615384615385,4,3,0,90,0,1
97576,-100,4,2,2,5,0,1
97599,-50,4,3,0,90,0,1
97759,-100,4,2,2,5,0,1
97782,-35.7142857142857,4,3,0,90,0,1
97964,-35.7142857142857,4,2,2,90,0,1
98147,-100,4,2,2,90,0,1
107294,-50,4,2,2,90,0,1
107455,-100,4,2,2,5,0,1
107477,-100,4,2,2,90,0,1
107637,-100,4,2,2,5,0,1
107660,-50,4,2,2,90,0,1
107820,-100,4,2,2,5,0,1
107843,-38.4615384615385,4,2,2,90,0,1
108003,-38.4615384615385,4,2,2,5,0,1
108026,-100,4,2,2,90,0,1
108757,-50,4,2,2,90,0,1
108917,-100,4,2,2,5,0,1
108940,-100,4,2,2,90,0,1
109100,-100,4,2,2,5,0,1
109123,-50,4,2,2,90,0,1
109283,-100,4,2,2,5,0,1
109306,-50,4,2,2,90,0,1
109466,-100,4,2,2,5,0,1
109489,-33.3333333333333,4,2,2,90,0,1
110129,-100,4,2,2,90,0,0
110221,-100,4,2,2,90,0,1
115708,-100,4,3,0,90,0,1
116074,-41.6666666666667,4,2,2,90,0,1
116257,-100,4,2,2,90,0,1
121836,-100,4,2,2,90,0,0
121928,-100,4,2,77,80,0,1
122019,-100,4,2,2,90,0,0
124489,-100,4,3,0,90,0,0
124580,-100,4,2,2,90,0,0
133635,-100,4,2,1,90,0,0
133727,-100,4,2,1,80,0,0
135099,-100,4,2,10,80,0,0
135282,-100,4,2,1,80,0,0
138025,-100,4,2,10,80,0,0
138208,-100,4,2,1,80,0,0
140952,-100,4,2,10,80,0,0
141135,-100,4,2,1,80,0,0
144977,-100,4,3,0,80,0,0
145343,-100,4,2,1,80,0,0
146806,-100,4,2,10,80,0,0
146989,-100,4,2,1,80,0,0
148452,-100,4,2,10,80,0,0
148544,-100,4,2,1,80,0,0
153757,-100,4,2,2,80,0,0
154122,-100,4,2,1,80,0,0
156318,-100,4,2,1,80,0,0
157233,-100,4,2,1,80,0,0
165830,-100,4,2,2,90,0,0
165876,-100,4,2,2,80,0,0
166196,-40,4,2,1,80,0,0
166379,-100,4,2,2,80,0,0
167294,-100,4,2,1,90,0,0
168849,-100,4,2,1,80,0,0
169489,-100,4,2,10,80,0,0
169672,-100,4,2,1,80,0,0
170955,-100,4,2,10,80,0,0
171138,-100,4,2,1,80,0,0
177172,-100,4,2,2,80,0,0
177538,-100,4,2,1,90,0,0
177721,-100,4,2,1,80,0,0
177904,-100,4,3,0,80,0,0
178087,-100,4,2,1,80,0,0
178270,-100,4,3,0,80,0,0
178453,-100,4,2,1,80,0,0
178819,-100,4,3,0,80,0,0
179002,-100,4,2,1,80,0,0
180464,-100,4,2,77,90,0,1
180647,-100,4,2,2,90,0,1
191440,-40,4,2,2,90,0,1
191623,-100,4,2,2,90,0,1
202576,-100,4,2,2,5,0,1
202599,-66.6666666666667,4,2,2,90,0,1
202759,-66.6666666666667,4,2,2,5,0,1
202782,-50,4,2,2,90,0,1
203330,-100,4,2,2,90,0,1
203696,-100,4,3,0,90,0,1
203788,-100,4,3,0,90,0,0
203879,-100,4,2,2,90,0,1
209184,-100,4,3,0,90,0,1
209367,-100,4,2,1,90,0,1
209458,-100,4,3,0,90,0,1
209733,-100,4,2,2,90,0,1
215495,-100,4,2,2,90,0,0
215586,-100,4,2,1,90,0,1
215678,-100,4,2,1,90,0,0
218513,-66.6666666666667,4,2,1,90,0,0
218696,-100,4,2,1,90,0,0
219245,-100,4,2,1,90,0,0
219794,-100,4,2,1,90,0,0
220525,-100,4,3,0,90,0,0
220891,-100,4,2,1,90,0,0
222172,-66.6666666666667,4,2,1,90,0,0
222446,-100,4,2,1,90,0,0
222721,-100,4,2,1,90,0,0
226562,-100,4,2,2,90,0,0
227294,-100,4,2,1,90,0,0
229397,-66.6666666666667,4,2,1,90,0,0
229580,-100,4,2,1,90,0,0
232782,-100,4,3,0,90,0,0
233147,-100,4,2,1,90,0,0
235251,-66.6666666666667,4,2,1,90,0,0
235434,-100,4,2,1,90,0,0
237538,-100,4,2,1,90,0,0
239001,-100,4,2,1,90,0,0
249245,-100,4,2,1,75,0,0
250708,-100,4,2,1,90,0,0
259489,-100,4,2,1,80,0,0
259855,-100,4,3,0,80,0,0
260038,-100,4,2,1,80,0,0
260221,-100,4,3,0,80,0,0
260404,-100,4,2,1,80,0,0
260770,-100,4,3,0,80,0,0
260953,-100,4,2,1,80,0,0
261501,-83.3333333333333,4,2,1,80,0,0
261867,-100,4,2,1,80,0,0
262416,-100,4,2,77,90,0,1
262599,-100,4,2,2,90,0,1
263513,-62.5,4,2,2,90,0,1
263787,-100,4,2,2,90,0,1
271195,-50,4,2,2,90,0,1
271356,-100,4,2,2,5,0,1
271378,-100,4,2,2,90,0,1
271538,-100,4,2,2,5,0,1
271561,-45.4545454545455,4,2,2,90,0,1
271721,-100,4,2,2,5,0,1
271744,-38.4615384615385,4,2,2,90,0,1
271927,-100,4,2,2,90,0,1
272659,-50,4,2,2,90,0,1
272819,-100,4,2,2,5,0,1
272842,-100,4,2,2,90,0,1
273002,-100,4,2,2,5,0,1
273025,-38.4615384615385,4,3,0,90,0,1
273185,-100,4,2,2,5,0,1
273208,-50,4,2,2,90,0,1
273368,-100,4,2,2,5,0,1
273391,-35.7142857142857,4,3,0,90,0,1
273756,-100,4,2,2,90,0,1
282903,-50,4,2,2,90,0,1
283064,-100,4,2,2,5,0,1
283086,-100,4,2,2,90,0,1
283246,-100,4,2,2,5,0,1
283269,-50,4,2,2,90,0,1
283429,-100,4,2,2,5,0,1
283452,-38.4615384615385,4,2,2,90,0,1
283612,-38.4615384615385,4,2,2,5,0,1
283635,-100,4,2,2,90,0,1
284366,-50,4,2,2,90,0,1
284526,-100,4,2,2,5,0,1
284549,-100,4,2,2,90,0,1
284709,-100,4,2,2,5,0,1
284732,-50,4,2,2,90,0,1
284892,-100,4,2,2,5,0,1
284915,-50,4,2,2,90,0,1
285075,-100,4,2,2,5,0,1
285098,-33.3333333333333,4,2,2,90,0,1
285282,-33.3333333333333,4,3,0,90,0,1
285647,-33.3333333333333,4,2,2,90,0,1
285739,-100,4,2,2,90,0,0
285830,-100,4,2,2,90,0,1
291683,-41.6666666666667,4,2,2,90,0,1
291866,-100,4,2,2,90,0,1
297446,-100,4,2,2,90,0,0
297538,-100,4,2,77,90,0,1
297629,-100,4,2,2,90,0,0
298269,-80,4,2,2,90,0,0
298544,-100,4,2,2,90,0,0
307324,-80,4,2,2,90,0,0
307599,-100,4,2,2,90,0,0
307782,-80,4,2,2,100,0,0
309245,-100,4,2,77,80,0,0
309428,-100,4,2,2,90,0,0
309977,-80,4,2,2,90,0,0
310251,-100,4,2,2,90,0,0
319032,-80,4,2,2,90,0,0
319306,-100,4,2,2,90,0,0
319489,-80,4,2,2,100,0,0
320952,-80,4,2,77,100,0,0
321135,-100,4,2,1,60,0,0
321318,-100,4,2,1,59,0,0
321684,-100,4,2,1,57,0,0
322050,-100,4,2,1,55,0,0
322416,-100,4,2,1,53,0,0
322782,-100,4,2,1,51,0,0
323148,-100,4,2,1,49,0,0
323513,-100,4,2,1,47,0,0
323879,-100,4,2,1,45,0,0
324245,-100,4,2,1,43,0,0
324611,-100,4,2,1,41,0,0
324977,-100,4,2,1,39,0,0
325343,-100,4,2,1,37,0,0
325709,-100,4,2,1,35,0,0
326074,-100,4,2,1,33,0,0
326440,-100,4,2,1,31,0,0
326806,-100,4,2,1,29,0,0
327172,-100,4,2,1,27,0,0
327538,-100,4,2,1,25,0,0
327904,-100,4,2,1,23,0,0
328270,-100,4,2,1,21,0,0
328635,-100,4,2,1,19,0,0
329001,-100,4,2,1,17,0,0
329367,-100,4,2,1,15,0,0
329733,-100,4,2,1,13,0,0
330099,-100,4,2,1,11,0,0
330465,-100,4,2,1,9,0,0
330831,-100,4,2,1,7,0,0
331196,-100,4,2,1,5,0,0

[Colours]
Combo1 : 100,230,230
Combo2 : 210,40,40
Combo3 : 220,120,40
Combo4 : 60,120,60
Combo5 : 60,45,150
Combo6 : 180,180,240

[HitObjects]
256,192,1379,12,0,3208,0:0:0:0:
232,192,3391,6,0,P|176:168|232:72,1,200,4|8,0:0|0:0,0:0:0:0:
332,72,3940,2,0,L|336:136,1,50,0|0,0:0|0:0,0:0:0:0:
260,132,4123,2,0,L|208:132,2,50,2|2|2,0:0|0:0|0:0,0:0:0:0:
444,228,4489,2,0,L|340:228,1,100,8|2,0:0|0:0,0:0:0:0:
300,228,4763,1,8,0:0:0:0:
472,328,4855,6,0,L|476:224,1,100,2|0,0:0|0:0,0:0:0:0:
292,308,5221,1,8,0:0:0:0:
242,283,5312,1,0,0:0:0:0:
220,233,5404,1,0,0:0:0:0:
235,180,5495,1,0,0:0:0:0:
281,149,5586,2,0,L|348:148,2,50,2|2|2,0:0|0:0|0:0,0:0:0:0:
100,148,5952,1,8,0:0:0:0:
208,148,6135,2,0,L|212:84,1,50,8|2,0:0|0:0,0:0:0:0:
24,52,6318,6,0,L|176:52,1,150,6|2,0:0|0:0,0:0:0:0:
228,52,6684,1,8,0:0:0:0:
48,192,6867,2,0,L|4:148,2,50,6|0|0,0:0|0:0|0:0,0:0:0:0:
112,252,7141,2,0,L|164:252,2,50,2|2|0,0:0|0:0|0:0,0:0:0:0:
216,252,7416,1,8,0:0:0:0:
261,252,7507,1,8,0:0:0:0:
306,252,7599,1,6,0:0:0:0:
52,312,7782,6,0,P|24:264|112:172,1,200,6|8,0:0|0:0,0:0:0:0:
220,176,8330,1,0,0:0:0:0:
276,176,8422,1,0,0:0:0:0:
328,176,8513,2,0,L|396:176,2,50,2|2|2,0:0|0:0|0:0,0:0:0:0:
140,280,8879,2,0,L|136:216,1,50,8|8,0:0|0:0,0:0:0:0:
240,96,9062,2,0,L|296:96,1,50,6|0,0:0|0:0,0:0:0:0:
464,96,9245,6,0,L|468:152,1,50,6|0,0:0|0:0,0:0:0:0:
372,156,9428,2,0,L|368:216,1,50
272,208,9611,1,8,0:0:0:0:
369,206,9794,1,0,0:0:0:0:
388,252,9885,1,0,0:0:0:0:
380,300,9977,1,2,0:0:0:0:
340,332,10068,1,2,0:0:0:0:
292,332,10160,1,2,0:0:0:0:
108,332,10343,2,0,L|8:332,1,100,8|2,0:0|0:0,0:0:0:0:
68,332,10617,1,8,0:0:0:0:
248,332,10708,6,0,L|256:228,1,100,2|0,0:0|0:0,0:0:0:0:
68,192,11074,2,0,L|172:192,1,100,8|0,0:0|0:0,0:0:0:0:
212,192,11349,1,0,0:0:0:0:
160,192,11440,2,0,L|148:132,2,50,2|2|2,0:0|0:0|0:0,0:0:0:0:
344,192,11806,1,8,0:0:0:0:
236,192,11989,2,0,L|240:132,1,50,2|2,0:0|0:0,0:0:0:0:
420,192,12172,6,0,B|424:144|424:144|380:108,1,100,6|0,0:0|0:0,0:0:0:0:
324,148,12446,1,0,0:0:0:0:
212,148,12538,1,8,0:0:0:0:
168,128,12629,1,0,0:0:0:0:
168,80,12721,1,0,0:0:0:0:
212,56,12812,1,0,0:0:0:0:
284,32,12904,2,0,L|288:92,1,50,2|2,0:0|0:0,0:0:0:0:
217,105,13086,2,0,L|212:56,1,50,2|0,0:0|0:0,0:0:0:0:
324,32,13269,2,0,L|376:32,2,50,8|8|6,0:0|0:0|0:0,0:0:0:0:
272,32,13544,1,0,0:0:0:0:
92,32,13635,6,0,L|88:96,1,50,6|0,0:0|0:0,0:0:0:0:
288,140,13910,2,0,L|284:208,1,50,6|8,0:0|0:0,0:0:0:0:
84,252,14184,2,0,L|88:312,1,50,6|0,0:0|0:0,0:0:0:0:
288,296,14458,1,2,0:0:0:0:
344,296,14550,2,0,L|348:268,2,25,8|8|8,0:0|0:0|0:0,0:0:0:0:
228,296,14733,2,0,L|224:240,1,50,8|8,0:0|0:0,0:0:0:0:
336,192,14916,2,0,L|388:192,1,50,8|8,0:0|0:0,0:0:0:0:
160,192,15099,6,0,P|80:152|164:56,1,250,6|2,0:0|0:0,0:0:0:0:
264,56,15647,1,0,0:0:0:0:
140,56,15830,1,2,0:0:0:0:
340,56,16013,2,0,L|428:108,2,100,0|2|0,0:0|0:0|0:0,0:0:0:0:
188,56,16562,5,2,0:0:0:0:
324,56,16745,1,0,0:0:0:0:
136,56,16928,2,0,L|132:156,1,100,2|0,0:0|0:0,0:0:0:0:
232,192,17294,2,0,L|332:192,1,100,2|0,0:0|0:0,0:0:0:0:
270,192,17568,1,0,0:0:0:0:
208,192,17660,1,2,0:0:0:0:
380,192,17843,1,4,0:0:0:0:
88,312,18025,6,0,P|36:256|80:216,1,150,6|0,0:0|0:0,0:0:0:0:
152,192,18391,1,2,0:0:0:0:
312,192,18574,2,0,P|372:156|328:108,1,150,8|0,0:0|0:0,0:0:0:0:
256,92,18940,1,2,0:0:0:0:
356,52,19123,1,2,0:0:0:0:
188,52,19306,1,4,0:0:0:0:
364,52,19489,6,0,L|368:164,1,100,2|0,0:0|0:0,0:0:0:0:
176,192,19855,2,0,L|76:192,1,100,2|8,0:0|0:3,0:0:0:0:
140,192,20129,1,8,0:3:0:0:
196,192,20221,2,0,L|200:252,1,50,4|0,0:3|0:0,0:0:0:0:
120,308,20404,2,0,L|124:248,1,50,8|8,0:3|0:3,0:0:0:0:
246,192,20586,2,0,L|195:192,1,50,4|0,0:3|0:0,0:0:0:0:
80,120,20769,2,0,L|140:120,1,50,8|0,0:3|0:0,0:0:0:0:
328,192,20952,6,0,L|428:192,1,100,6|2,0:0|0:0,0:0:0:0:
224,292,21318,2,0,L|124:292,1,100,8|2,0:0|0:0,0:0:0:0:
180,292,21593,1,0,0:0:0:0:
236,292,21684,2,0,L|304:292,2,50,2|0|2,0:0|0:0|0:0,0:0:0:0:
408,192,22050,1,8,0:0:0:0:
308,192,22233,1,2,0:0:0:0:
256,192,22324,1,0,0:0:0:0:
200,192,22416,6,0,L|196:92,1,100,2|2,0:0|0:0,0:0:0:0:
388,24,22782,2,0,L|288:24,1,100,8|2,0:0|0:0,0:0:0:0:
236,24,23056,1,0,0:0:0:0:
300,24,23147,2,0,L|356:24,2,50,2|0|2,0:0|0:0|0:0,0:0:0:0:
128,24,23513,1,8,0:0:0:0:
236,24,23696,2,0,L|240:76,1,50,2|0,0:0|0:0,0:0:0:0:
60,24,23879,6,0,L|56:124,1,100,2|2,0:0|0:0,0:0:0:0:
260,192,24245,2,0,L|160:192,1,100,8|2,0:0|0:0,0:0:0:0:
108,192,24519,1,0,0:0:0:0:
56,192,24611,1,2,0:0:0:0:
256,280,24794,2,0,L|316:280,2,50,2|0|8,0:0|0:0|0:0,0:0:0:0:
60,304,25160,2,0,L|128:304,1,50,2|2,0:0|0:0,0:0:0:0:
360,280,25343,5,2,0:0:0:0:
387,261,25388,1,2,0:0:0:0:
400,230,25434,1,2,0:0:0:0:
394,198,25480,1,2,0:0:0:0:
372,173,25525,1,2,0:0:0:0:
300,160,25617,1,2,0:0:0:0:
192,160,25708,2,0,L|188:96,1,50,10|2,0:0|0:0,0:0:0:0:
264,60,25891,2,0,L|268:116,1,50,2|2,0:0|0:0,0:0:0:0:
152,160,26074,6,0,L|88:160,3,62.5,2|2|2|2,0:0|0:0|0:0|0:0,0:0:0:0:
324,60,26440,2,0,P|368:80|320:144,1,150.000005722046,8|2,0:0|0:0,0:0:0:0:
256,144,26714,1,2,0:0:0:0:
28,144,26806,5,6,0:0:0:0:
256,192,26989,12,0,28086,0:0:0:0:
348,192,28269,6,0,L|352:84,1,100,4|0,0:0|0:0,0:0:0:0:
52,292,28635,2,0,L|48:192,1,100,8|0,0:0|0:0,0:0:0:0:
300,192,29001,1,2,0:0:0:0:
220,192,29093,1,2,0:0:0:0:
472,192,29275,2,0,P|508:144|452:92,1,150,8|0,0:0|0:0,0:0:0:0:
384,92,29641,1,0,0:0:0:0:
192,92,29733,5,2,0:0:0:0:
136,124,29824,1,0,0:0:0:0:
132,188,29916,1,0,0:0:0:0:
180,232,30007,1,0,0:0:0:0:
292,292,30099,2,0,L|296:236,1,50,8|0,0:0|0:0,0:0:0:0:
112,244,30282,2,0,L|56:244,2,50,0|0|2,0:0|0:0|0:0,0:0:0:0:
164,244,30556,1,0,0:0:0:0:
364,244,30647,2,0,L|420:244,1,50
204,244,30830,2,0,L|200:180,1,50,8|0,0:0|0:0,0:0:0:0:
312,172,31013,2,0,L|316:116,1,50,0|0,0:0|0:0,0:0:0:0:
124,196,31196,6,0,L|120:88,1,100,6|0,0:0|0:0,0:0:0:0:
444,284,31562,2,0,L|448:184,1,100,8|0,0:0|0:0,0:0:0:0:
196,184,31928,1,2,0:0:0:0:
276,184,32019,1,2,0:0:0:0:
24,184,32202,2,0,P|12:128|84:84,1,150,8|0,0:0|0:0,0:0:0:0:
152,84,32568,1,0,0:0:0:0:
364,84,32660,6,0,L|420:84,1,50,2|0,0:0|0:0,0:0:0:0:
324,84,32843,2,0,L|320:144,1,50,0|0,0:0|0:0,0:0:0:0:
440,164,33025,2,0,L|444:224,1,50,8|0,0:0|0:0,0:0:0:0:
328,252,33208,2,0,L|324:200,1,50
120,252,33391,2,0,L|56:252,1,50,2|0,0:0|0:0,0:0:0:0:
240,288,33574,2,0,L|244:340,1,50,2|2,0:0|0:0,0:0:0:0:
440,252,33757,2,0,L|492:252,1,50,8|8,0:3|0:3,0:0:0:0:
276,192,33940,2,0,L|220:192,1,50,4|4,0:3|0:3,0:0:0:0:
490,252,34123,6,0,L|494:152,1,100,6|0,0:0|0:0,0:0:0:0:
172,192,34489,2,0,L|72:192,1,100,8|0,0:0|0:0,0:0:0:0:
324,192,34855,1,2,0:0:0:0:
244,192,34946,1,2,0:0:0:0:
496,192,35129,2,0,P|508:136|436:92,1,150,8|0,0:0|0:0,0:0:0:0:
368,92,35495,1,0,0:0:0:0:
168,92,35586,5,2,0:0:0:0:
126,141,35678,1,0,0:0:0:0:
156,192,35769,1,0,0:0:0:0:
216,192,35861,1,0,0:0:0:0:
100,240,35952,2,0,L|96:184,1,50,8|0,0:0|0:0,0:0:0:0:
288,192,36135,2,0,L|344:192,1,50,0|0,0:0|0:0,0:0:0:0:
224,92,36318,2,0,L|220:152,1,50,2|0,0:0|0:0,0:0:0:0:
420,192,36501,2,0,L|356:192,1,50,0|0,0:0|0:0,0:0:0:0:
156,264,36684,2,0,L|152:200,1,50,8|0,0:0|0:0,0:0:0:0:
268,192,36867,2,0,L|330:192,1,50,0|0,0:0|0:0,0:0:0:0:
114,192,37050,6,0,L|110:84,1,100,6|0,0:0|0:0,0:0:0:0:
448,292,37416,2,0,L|452:192,1,100,8|0,0:0|0:0,0:0:0:0:
200,193,37782,1,2,0:0:0:0:
288,193,37873,1,2,0:0:0:0:
36,289,38056,2,0,L|236:289,1,199.499991780854,8|2,0:0|0:0,0:0:0:0:
300,288,38422,1,2,0:0:0:0:
72,192,38513,6,0,P|28:160|72:112,1,132.999994520569,6|0,0:0|0:0,0:0:0:0:
172,192,38788,2,0,L|224:192,1,50,8|0,0:0|0:0,0:0:0:0:
124,192,38971,2,0,L|120:124,1,50,8|0,0:0|0:0,0:0:0:0:
348,192,39154,2,0,L|352:124,1,50,8|0,0:0|0:0,0:0:0:0:
124,192,39336,2,0,L|68:192,1,50,8|0,0:0|0:0,0:0:0:0:
324,192,39519,1,2,0:0:0:0:
100,192,39611,1,8,0:0:0:0:
80,254,39702,1,2,0:0:0:0:
105,314,39794,1,2,0:0:0:0:
168,336,39885,1,2,0:0:0:0:
376,272,39977,6,0,L|272:272,1,100,6|0,0:0|0:0,0:0:0:0:
328,216,40251,1,0,0:0:0:0:
440,144,40343,2,0,L|320:144,1,100,8|0,0:0|0:0,0:0:0:0:
168,104,40708,1,2,0:0:0:0:
312,88,40891,2,0,L|320:192,1,100,0|8,0:0|0:0,0:0:0:0:
144,200,41257,1,0,0:0:0:0:
384,184,41440,6,0,L|496:184,1,100,2|0,0:0|0:0,0:0:0:0:
488,136,41714,1,0,0:0:0:0:
368,328,41806,2,0,L|360:208,1,100,8|0,0:0|0:0,0:0:0:0:
216,240,42172,1,2,0:0:0:0:
360,111,42355,2,0,L|286:38,2,100,2|8|0,0:0|0:0|0:0,0:0:0:0:
104,200,42904,6,0,L|112:88,1,100,2|0,0:0|0:0,0:0:0:0:
168,104,43178,1,0,0:0:0:0:
280,104,43269,1,8,0:0:0:0:
128,320,43452,1,0,0:0:0:0:
304,320,43635,1,2,0:0:0:0:
160,240,43818,1,2,0:0:0:0:
216,240,43910,1,0,0:0:0:0:
272,240,44001,1,8,0:0:0:0:
24,240,44184,2,0,L|32:176,1,50,2|0,0:0|0:0,0:0:0:0:
232,184,44367,6,0,L|288:184,1,50,2|0,0:0|0:0,0:0:0:0:
176,176,44550,2,0,L|168:120,1,50,2|0,0:0|0:0,0:0:0:0:
264,128,44733,2,0,L|256:72,1,50,8|0,0:0|0:0,0:0:0:0:
104,320,44916,2,0,L|96:264,1,50,0|0,0:0|0:0,0:0:0:0:
200,264,45099,2,0,L|256:264,1,50,2|0,0:0|0:0,0:0:0:0:
416,256,45282,2,0,L|336:256,1,50,2|0,0:0|0:0,0:0:0:0:
264,192,45464,2,0,L|176:192,1,50,8|0,0:0|0:0,0:0:0:0:
376,168,45647,2,0,L|384:104,1,50,2|2,0:0|0:0,0:0:0:0:
184,96,45830,6,0,L|288:96,1,100,2|0,0:0|0:0,0:0:0:0:
288,40,46105,1,0,0:0:0:0:
176,272,46196,1,8,0:0:0:0:
352,280,46379,1,0,0:0:0:0:
208,272,46562,1,2,0:0:0:0:
312,272,46745,2,0,L|320:168,1,100,0|8,0:0|0:0,0:0:0:0:
72,200,47111,6,0,P|80:144|200:80,1,200,0|0,0:0|0:0,0:0:0:0:
344,88,47660,1,8,0:0:0:0:
168,280,47843,1,0,0:0:0:0:
416,224,48025,2,0,L|368:176,2,50,2|0|2,0:0|0:0|0:0,0:0:0:0:
472,224,48300,1,2,0:0:0:0:
296,224,48391,1,8,0:0:0:0:
240,224,48483,1,2,0:0:0:0:
296,224,48574,1,2,0:0:0:0:
240,224,48666,1,2,0:0:0:0:
64,232,48757,6,0,L|56:128,1,100,2|0,0:0|0:0,0:0:0:0:
112,128,49032,1,0,0:0:0:0:
224,192,49123,2,0,L|216:88,1,100,8|0,0:0|0:0,0:0:0:0:
392,88,49489,1,2,0:0:0:0:
224,192,49672,2,0,L|328:192,1,100,2|8,0:0|0:0,0:0:0:0:
152,304,50038,2,0,L|144:232,1,50,2|0,0:0|0:0,0:0:0:0:
336,304,50221,5,2,0:0:0:0:
192,304,50404,1,0,0:0:0:0:
376,304,50586,1,8,0:0:0:0:
192,240,50769,2,0,L|264:240,1,50
440,240,50952,2,0,L|496:240,1,50,2|2,0:0|0:0,0:0:0:0:
312,192,51135,2,0,L|240:192,1,50,2|2,0:0|0:0,0:0:0:0:
448,176,51318,2,0,L|456:112,1,50,8|8,0:0|0:0,0:0:0:0:
280,144,51501,2,0,L|272:80,1,50,4|4,0:0|0:0,0:0:0:0:
72,192,51684,6,0,L|68:88,1,100,6|0,0:0|0:0,0:0:0:0:
268,304,52050,2,0,L|156:304,1,100,8|0,0:0|0:0,0:0:0:0:
368,192,52416,2,0,L|472:192,2,100,2|2|8,0:0|0:0|0:0,0:0:0:0:
100,192,52964,6,0,L|228:192,1,100,2|2,0:0|0:0,0:0:0:0:
300,192,53330,1,0,0:0:0:0:
92,192,53513,2,0,L|88:88,1,100,8|0,0:0|0:0,0:0:0:0:
372,32,53879,2,0,L|472:32,1,100,2|2,0:0|0:0,0:0:0:0:
272,140,54245,1,8,0:0:0:0:
320,140,54336,1,0,0:0:0:0:
372,140,54428,1,2,0:0:0:0:
176,284,54611,6,0,L|168:184,1,100,2|0,0:0|0:0,0:0:0:0:
368,184,54977,2,0,L|376:84,1,100,8|0,0:0|0:0,0:0:0:0:
276,44,55251,1,0,0:0:0:0:
176,44,55343,2,0,L|280:44,1,100,2|2,0:0|0:0,0:0:0:0:
136,44,55708,1,8,0:0:0:0:
448,44,55891,6,0,P|508:96|436:172,1,200,2|0,0:0|0:0,0:0:0:0:
240,168,56440,2,0,L|140:168,1,100,8|2,0:0|0:0,0:0:0:0:
208,168,56714,1,2,0:0:0:0:
40,168,56806,2,0,P|16:216|32:256,1,100,2|2,0:0|0:0,0:0:0:0:
132,268,57080,1,2,0:0:0:0:
232,268,57172,1,8,0:0:0:0:
324,208,57355,1,2,0:0:0:0:
252,192,57446,1,2,0:0:0:0:
76,192,57538,6,0,L|72:76,1,100,6|0,0:0|0:0,0:0:0:0:
276,92,57904,2,0,L|168:92,1,100,8|0,0:0|0:0,0:0:0:0:
376,92,58269,1,2,0:0:0:0:
326,92,58361,1,0,0:0:0:0:
276,92,58452,1,2,0:0:0:0:
164,92,58635,1,8,0:0:0:0:
460,192,58818,6,0,L|360:192,2,100,2|2|0,0:0|0:0|0:0,0:0:0:0:
156,192,59367,1,8,0:0:0:0:
476,192,59550,1,2,0:0:0:0:
296,192,59733,1,2,0:0:0:0:
294,241,59824,1,2,0:0:0:0:
292,291,59916,1,2,0:0:0:0:
92,192,60099,2,0,L|88:136,1,50,8|8,0:0|0:0,0:0:0:0:
212,240,60282,2,0,L|216:180,1,50,2|2,0:0|0:0,0:0:0:0:
24,192,60464,6,0,L|20:132,1,50,6|0,0:0|0:0,0:0:0:0:
136,60,60647,2,0,L|192:60,1,50
376,60,60830,2,0,L|272:60,1,100,8|2,0:0|0:0,0:0:0:0:
332,60,61105,1,2,0:0:0:0:
144,136,61196,2,0,L|84:136,2,50,2|0|2,0:0|0:0|0:0,0:0:0:0:
336,136,61562,1,8,0:0:0:0:
36,136,61745,5,2,0:0:0:0:
34,185,61836,1,0,0:0:0:0:
33,235,61928,1,2,0:0:0:0:
144,236,62111,1,2,0:0:0:0:
344,236,62294,2,0,L|452:236,1,100,8|2,0:0|0:0,0:0:0:0:
344,236,62568,1,2,0:0:0:0:
144,236,62660,2,0,L|200:236,1,50,2|2,0:0|0:0,0:0:0:0:
376,148,62843,2,0,L|326:121,1,50,2|2,0:0|0:0,0:0:0:0:
208,124,63025,2,0,L|239:77,1,50,8|8,0:3|0:3,0:0:0:0:
344,124,63208,2,0,L|337:60,1,50,4|4,0:3|0:3,0:0:0:0:
152,344,63391,6,0,P|88:296|168:240,1,200,6|8,0:0|0:0,0:0:0:0:
336,240,63940,2,0,L|400:240,1,50,2|0,0:0|0:0,0:0:0:0:
280,192,64123,2,0,P|232:160|288:112,1,150,2|0,0:0|0:0,0:0:0:0:
120,152,64489,2,0,L|56:152,1,50,8|0,0:0|0:0,0:0:0:0:
176,112,64672,2,0,L|240:112,1,50,2|0,0:0|0:0,0:0:0:0:
408,160,64855,6,0,B|424:256|424:256|312:256,1,200,2|8,0:0|0:0,0:0:0:0:
144,256,65404,2,0,L|208:256,1,50,2|0,0:0|0:0,0:0:0:0:
88,208,65586,2,0,L|80:272,1,50,2|2,0:0|0:0,0:0:0:0:
144,256,65769,1,2,0:0:0:0:
320,152,65952,2,0,L|384:152,1,50,8|0,0:0|0:0,0:0:0:0:
376,104,66135,2,0,L|312:104,1,50,2|0,0:0|0:0,0:0:0:0:
152,136,66318,6,0,L|176:88,1,50,2|0,0:0|0:0,0:0:0:0:
224,88,66501,2,0,L|288:88,2,50,2|2|8,0:0|0:0|0:0,0:0:0:0:
392,288,66867,2,0,L|400:232,1,50,2|2,0:0|0:0,0:0:0:0:
296,200,67050,1,0,0:0:0:0:
346,200,67141,1,0,0:0:0:0:
396,200,67232,1,0,0:0:0:0:
336,152,67324,1,0,0:0:0:0:
184,152,67416,2,0,L|192:96,1,50,8|0,0:0|0:0,0:0:0:0:
248,96,67599,2,0,L|304:96,1,50,2|2,0:0|0:0,0:0:0:0:
136,320,67782,6,0,L|16:320,2,100,2|2|8,0:0|0:0|0:0,0:0:0:0:
312,272,68330,2,0,L|248:272,1,50,2|2,0:0|0:0,0:0:0:0:
424,224,68513,2,0,L|488:224,1,50,2|2,0:0|0:0,0:0:0:0:
368,184,68696,2,0,L|296:184,1,50,2|0,0:0|0:0,0:0:0:0:
256,184,68879,1,8,0:0:0:0:
256,96,69062,1,2,0:0:0:0:
16,248,69245,6,0,P|80:240|144:112,1,200,6|8,0:0|0:0,0:0:0:0:
296,328,69794,2,0,L|360:328,1,50,2|0,0:0|0:0,0:0:0:0:
456,272,69977,1,2,0:0:0:0:
406,272,70068,1,0,0:0:0:0:
356,272,70159,1,2,0:0:0:0:
96,272,70343,2,0,L|208:272,1,100,8|2,0:0|0:0,0:0:0:0:
456,136,70708,6,0,L|280:136,2,150.000005722046,2|2|8,0:0|0:0|0:0,0:0:0:0:
456,136,71257,1,2,0:0:0:0:
280,192,71440,2,0,L|272:304,1,100,2|0,0:0|0:0,0:0:0:0:
216,296,71714,1,0,0:0:0:0:
160,296,71806,2,0,L|152:192,1,100,8|2,0:0|0:0,0:0:0:0:
248,200,72080,1,0,0:0:0:0:
424,128,72172,6,0,L|304:128,1,100,6|2,0:0|0:0,0:0:0:0:
392,72,72446,1,2,0:0:0:0:
216,104,72538,2,0,L|208:224,1,100,8|2,0:0|0:0,0:0:0:0:
272,208,72812,1,0,0:0:0:0:
96,288,72904,2,0,L|32:288,2,50,2|2|2,0:0|0:0|0:0,0:0:0:0:
152,288,73178,1,2,0:0:0:0:
320,296,73269,2,0,L|384:296,1,50,8|0,0:0|0:0,0:0:0:0:
192,240,73452,2,0,L|184:160,1,50,2|0,0:0|0:0,0:0:0:0:
344,144,73635,5,2,0:0:0:0:
256,144,73727,1,0,0:0:0:0:
168,144,73818,1,2,0:0:0:0:
480,136,74001,1,8,0:0:0:0:
430,136,74093,1,0,0:0:0:0:
380,136,74184,1,2,0:0:0:0:
208,304,74367,2,0,L|200:240,2,50,2|2|2,0:0|0:0|0:0,0:0:0:0:
264,304,74641,1,0,0:0:0:0:
376,304,74733,2,0,L|400:248,2,50,8|2|2,0:0|0:0|0:0,0:0:0:0:
320,304,75007,1,2,0:0:0:0:
119,303,75099,6,0,P|61:287|48:236,1,100,6|2,0:0|0:0,0:0:0:0:
64,200,75373,1,2,0:0:0:0:
120,192,75464,1,8,0:0:0:0:
320,192,75647,1,2,0:0:0:0:
200,192,75830,1,2,0:0:0:0:
198,142,75922,1,2,0:0:0:0:
196,92,76013,1,2,0:0:0:0:
404,92,76196,2,0,L|310:38,1,100,8|2,0:0|0:0,0:0:0:0:
56,92,76562,6,0,L|0:92,2,50,2|0|2,0:0|0:0|0:0,0:0:0:0:
116,92,76836,1,2,0:0:0:0:
176,92,76928,1,8,0:0:0:0:
56,92,77111,2,0,L|52:152,1,50,2|0,0:0|0:0,0:0:0:0:
176,192,77294,1,2,0:0:0:0:
128,192,77385,1,2,0:0:0:0:
76,192,77477,1,2,0:0:0:0:
352,192,77660,2,0,L|472:192,1,100,8|2,0:0|0:0,0:0:0:0:
152,288,78025,6,0,L|252:288,1,100,2|2,0:0|0:0,0:0:0:0:
312,288,78300,1,2,0:0:0:0:
372,288,78391,1,8,0:0:0:0:
172,288,78574,1,2,0:0:0:0:
464,192,78757,2,0,L|472:132,1,50,2|2,0:0|0:0,0:0:0:0:
412,112,78940,1,2,0:0:0:0:
136,112,79123,1,8,0:0:0:0:
316,112,79306,1,2,0:0:0:0:
36,192,79489,6,0,L|200:192,2,150.000005722046,2|2|8,0:0|0:0|0:0,0:0:0:0:
236,192,80038,1,2,0:0:0:0:
296,192,80129,1,2,0:0:0:0:
356,192,80221,2,0,L|368:256,2,50,2|2|2,0:0|0:0|0:0,0:0:0:0:
156,280,80586,1,8,0:0:0:0:
256,280,80678,1,2,0:0:0:0:
356,280,80769,1,2,0:0:0:0:
76,192,80952,6,0,B|24:192|24:192|80:192,1,100,2|2,0:0|0:0,0:0:0:0:
132,192,81227,1,2,0:0:0:0:
192,192,81318,1,8,0:0:0:0:
384,192,81501,2,0,L|388:132,1,50,2|0,0:0|0:0,0:0:0:0:
264,100,81684,1,2,0:0:0:0:
204,100,81775,1,2,0:0:0:0:
144,100,81867,1,2,0:0:0:0:
424,192,82050,2,0,L|320:192,1,100,8|2,0:0|0:0,0:0:0:0:
40,192,82416,5,2,0:0:0:0:
100,192,82507,1,2,0:0:0:0:
160,192,82599,1,2,0:0:0:0:
356,192,82782,1,8,0:0:0:0:
236,192,82964,1,2,0:0:0:0:
436,192,83147,2,0,L|440:124,1,50,2|2,0:0|0:0,0:0:0:0:
364,96,83330,2,0,L|416:96,1,50,2|2,0:0|0:0,0:0:0:0:
220,52,83513,2,0,L|168:52,1,50,2|2,0:0|0:0,0:0:0:0:
292,52,83696,2,0,L|296:128,1,50,2|2,0:0|0:0,0:0:0:0:
92,104,83879,6,0,P|40:124|92:224,1,200,6|2,0:0|0:0,0:0:0:0:
392,224,84428,2,0,L|288:192,2,100,2|2|0,0:0|0:0|0:0,0:0:0:0:
332,224,84885,1,0,0:0:0:0:
144,224,84977,2,0,L|140:164,1,50,2|0,0:0|0:0,0:0:0:0:
264,192,85160,2,0,L|260:241,1,50,2|0,0:0|0:0,0:0:0:0:
72,192,85343,5,2,0:0:0:0:
336,192,85525,1,2,0:0:0:0:
152,192,85708,1,2,0:0:0:0:
452,192,85891,2,0,P|492:152|404:72,1,200,6|2,0:0|0:0,0:0:0:0:
376,68,86303,1,2,0:0:0:0:
332,68,86349,1,2,0:0:0:0:
144,68,86440,2,0,L|196:68,1,50,10|2,0:0|0:0,0:0:0:0:
308,160,86623,2,0,L|358:160,1,50,10|2,0:0|0:0,0:0:0:0:
160,304,86806,6,0,L|40:304,1,100,4|0,0:0|0:0,0:0:0:0:
112,256,87080,1,0,0:0:0:0:
56,264,87172,2,0,L|48:200,1,50,8|0,0:0|0:0,0:0:0:0:
216,216,87355,1,0,0:0:0:0:
160,216,87446,2,0,L|152:160,1,50,0|2,0:0|0:0,0:0:0:0:
328,168,87721,2,0,L|320:104,1,50,2|0,0:0|0:0,0:0:0:0:
152,120,87904,2,0,L|408:120,1,240,8|0,0:0|0:0,0:0:0:0:
216,64,88269,6,0,L|208:128,1,50,2|0,0:0|0:0,0:0:0:0:
312,312,88452,2,0,L|384:312,1,50,2|0,0:0|0:0,0:0:0:0:
192,312,88635,2,0,L|184:200,1,100,8|0,0:0|0:0,0:0:0:0:
248,216,88910,1,2,0:0:0:0:
80,168,89001,2,0,L|136:168,1,50
304,176,89184,2,0,L|312:112,1,50,2|0,0:0|0:0,0:0:0:0:
200,128,89367,2,0,L|128:128,1,50,8|0,0:0|0:0,0:0:0:0:
272,80,89550,2,0,L|336:80,1,50,0|0,0:0|0:0,0:0:0:0:
128,328,89733,6,0,L|120:224,1,100,2|0,0:0|0:0,0:0:0:0:
64,232,90007,1,0,0:0:0:0:
240,352,90099,2,0,L|248:240,1,100,8|0,0:0|0:0,0:0:0:0:
304,256,90373,1,0,0:0:0:0:
136,216,90464,2,0,L|256:216,1,100,2|0,0:0|0:0,0:0:0:0:
296,208,90739,1,0,0:0:0:0:
128,96,90830,2,0,L|0:96,1,100,8|0,0:0|0:0,0:0:0:0:
24,168,91105,1,0,0:0:0:0:
200,352,91196,6,0,L|208:280,1,50,2|0,0:0|0:0,0:0:0:0:
32,256,91379,2,0,L|112:256,1,50,2|0,0:0|0:0,0:0:0:0:
192,256,91562,2,0,L|264:256,1,50,8|2,0:0|0:0,0:0:0:0:
88,208,91745,2,0,L|80:144,1,50,2|2,0:0|0:0,0:0:0:0:
264,160,91928,2,0,L|214:160,2,50,8|2|2,0:0|0:0|0:0,0:0:0:0:
88,72,92294,2,0,L|80:128,1,50,8|0,0:0|0:0,0:0:0:0:
192,120,92477,2,0,L|184:64,1,50,2|0,0:0|0:0,0:0:0:0:
384,104,92660,6,0,L|512:104,1,100,2|0,0:0|0:0,0:0:0:0:
488,48,92934,1,0,0:0:0:0:
432,56,93025,2,0,L|424:120,1,50,8|0,0:0|0:0,0:0:0:0:
264,264,93208,2,0,L|256:192,1,50,0|0,0:0|0:0,0:0:0:0:
360,216,93391,1,2,0:0:0:0:
416,216,93483,1,0,0:0:0:0:
312,216,93574,2,0,L|304:280,1,50,0|0,0:0|0:0,0:0:0:0:
472,168,93757,2,0,L|480:48,1,100,8|0,0:0|0:0,0:0:0:0:
416,72,94032,1,0,0:0:0:0:
240,352,94123,6,0,L|352:352,1,100,2|0,0:0|0:0,0:0:0:0:
280,304,94397,1,0,0:0:0:0:
340,352,94489,1,8,0:0:0:0:
496,240,94672,1,0,0:0:0:0:
448,240,94763,1,0,0:0:0:0:
400,240,94855,2,0,L|392:176,1,50,2|0,0:0|0:0,0:0:0:0:
456,184,95038,2,0,L|448:112,1,50,2|0,0:0|0:0,0:0:0:0:
344,176,95221,2,0,L|280:176,1,50,8|0,0:0|0:0,0:0:0:0:
400,96,95404,2,0,L|344:96,1,50,0|0,0:0|0:0,0:0:0:0:
184,216,95586,6,0,L|368:216,1,175,2|0,0:0|0:0,0:0:0:0:
359,216,95769,2,0,L|296:280,1,87.5,0|0,0:0|0:0,0:0:0:0:
298,279,95952,2,0,L|498:279,1,192.500005874634,8|0,0:0|0:0,0:0:0:0:
491,279,96135,2,0,L|212:279,1,259.999988098145,0|2,0:0|0:0,0:0:0:0:
392,224,96501,2,0,L|400:144,1,50,0|0,0:0|0:0,0:0:0:0:
304,192,96684,2,0,L|312:128,1,50,8|0,0:0|0:0,0:0:0:0:
424,112,96867,2,0,L|374:112,1,50
192,112,97050,6,0,L|8:112,1,175,2|0,0:0|0:0,0:0:0:0:
17,112,97233,2,0,L|80:176,1,87.5,2|0,0:0|0:0,0:0:0:0:
78,174,97416,2,0,L|312:176,1,227.499989585877,8|0,0:0|0:0,0:0:0:0:
305,175,97599,2,0,L|119:175,1,175,8|0,0:0|0:0,0:0:0:0:
130,175,97782,2,0,L|424:176,2,279.999991455078,4|2|8,0:0|0:0|0:0,0:0:0:0:
72,176,98239,1,2,0:0:0:0:
72,176,98330,1,2,0:0:0:0:
130,175,98422,1,2,0:0:0:0:
304,320,98513,6,0,L|176:320,1,100,6|0,0:0|0:0,0:0:0:0:
264,264,98788,1,0,0:0:0:0:
328,264,98879,1,8,0:0:0:0:
152,256,99062,2,0,L|144:200,1,50,0|0,0:0|0:0,0:0:0:0:
248,192,99245,1,2,0:0:0:0:
80,168,99428,2,0,L|72:96,1,50,2|0,0:0|0:0,0:0:0:0:
248,120,99611,2,0,L|56:120,1,150,8|0,0:0|0:0,0:0:0:0:
264,344,99977,6,0,L|272:264,1,50,2|0,0:0|0:0,0:0:0:0:
104,336,100160,2,0,L|112:256,1,50
280,248,100343,2,0,P|328:208|272:168,1,150,8|0,0:0|0:0,0:0:0:0:
176,168,100708,2,0,L|168:112,1,50,2|0,0:0|0:0,0:0:0:0:
336,120,100891,2,0,L|392:120,1,50,0|0,0:0|0:0,0:0:0:0:
200,64,101074,1,8,0:0:0:0:
368,64,101257,2,0,L|296:64,1,50,2|0,0:0|0:0,0:0:0:0:
144,280,101440,6,0,L|304:280,1,150,2|0,0:0|0:0,0:0:0:0:
464,208,101806,2,0,L|296:208,1,150,8|0,0:0|0:0,0:0:0:0:
488,136,102172,1,2,0:0:0:0:
472,88,102263,1,0,0:0:0:0:
456,48,102355,1,2,0:0:0:0:
440,144,102446,1,0,0:0:0:0:
256,168,102538,2,0,L|416:168,1,150,8|0,0:0|0:0,0:0:0:0:
192,168,102904,5,2,0:0:0:0:
145,151,102995,1,0,0:0:0:0:
113,113,103086,1,0,0:0:0:0:
103,65,103178,1,0,0:0:0:0:
200,64,103269,2,0,L|280:64,1,50,8|0,0:0|0:0,0:0:0:0:
416,56,103452,2,0,L|488:56,1,50
360,328,103635,2,0,L|352:256,1,50,2|0,0:0|0:0,0:0:0:0:
192,312,103818,2,0,L|120:312,1,50,2|0,0:0|0:0,0:0:0:0:
312,224,104001,1,10,0:0:0:0:
368,224,104093,1,2,0:0:0:0:
312,224,104184,1,2,0:0:0:0:
368,224,104275,1,2,0:0:0:0:
184,224,104367,6,0,L|176:160,1,50,2|0,0:0|0:0,0:0:0:0:
272,144,104550,2,0,L|192:144,1,50,0|0,0:0|0:0,0:0:0:0:
216,88,104733,2,0,L|304:88,1,50,8|0,0:0|0:0,0:0:0:0:
368,48,104916,2,0,L|288:48,1,50,0|0,0:0|0:0,0:0:0:0:
144,56,105099,1,2,0:0:0:0:
136,128,105282,1,2,0:0:0:0:
376,320,105464,1,8,0:0:0:0:
320,312,105556,1,0,0:0:0:0:
288,264,105647,1,0,0:0:0:0:
280,216,105739,1,0,0:0:0:0:
448,208,105830,6,0,L|456:120,1,50,2|0,0:0|0:0,0:0:0:0:
360,168,106013,2,0,L|368:80,1,50,2|0,0:0|0:0,0:0:0:0:
272,144,106196,2,0,L|280:56,1,50,8|0,0:0|0:0,0:0:0:0:
112,136,106379,2,0,L|120:72,1,50,0|0,0:0|0:0,0:0:0:0:
176,96,106562,1,2,0:0:0:0:
328,64,106745,2,0,L|336:120,1,50,2|0,0:0|0:0,0:0:0:0:
168,288,106928,2,0,L|218:288,1,50,8|2,0:0|0:0,0:0:0:0:
392,288,107111,2,0,L|312:288,1,50,2|0,0:0|0:0,0:0:0:0:
120,224,107294,6,0,L|312:224,1,175,2|0,0:0|0:0,0:0:0:0:
295,224,107477,2,0,L|208:224,1,87.5,2|0,0:0|0:0,0:0:0:0:
207,224,107660,2,0,L|391:224,1,175,8|0,0:0|0:0,0:0:0:0:
382,224,107843,2,0,L|150:224,1,227.499989585877,2|0,0:0|0:0,0:0:0:0:
125,224,108025,1,2,0:0:0:0:
120,160,108208,2,0,L|112:96,1,50
200,112,108391,2,0,L|272:112,1,50,8|0,0:0|0:0,0:0:0:0:
144,64,108574,2,0,L|136:120,1,50,0|0,0:0|0:0,0:0:0:0:
304,304,108757,6,0,L|480:304,1,175,2|0,0:0|0:0,0:0:0:0:
479,304,108940,2,0,L|416:240,1,87.5,2|0,0:0|0:0,0:0:0:0:
417,241,109123,2,0,L|232:240,1,175,8|0,0:0|0:0,0:0:0:0:
242,240,109306,2,0,L|432:240,1,175,2|0,0:0|0:0,0:0:0:0:
417,241,109489,2,0,L|88:240,3,300.000011444092,8|2|8|2,0:0|0:0|0:0|0:0,0:0:0:0:
168,184,110129,1,2,0:0:0:0:
344,184,110221,6,0,L|352:48,1,100,6|0,0:0|0:0,0:0:0:0:
296,80,110495,1,0,0:0:0:0:
120,72,110586,2,0,L|256:72,1,100,8|0,0:0|0:0,0:0:0:0:
272,32,110861,1,0,0:0:0:0:
104,144,110952,2,0,L|56:96,3,50,2|0|0|0,0:0|0:0|0:0|0:0,0:0:0:0:
168,152,111318,2,0,L|240:152,1,50,8|0,0:0|0:0,0:0:0:0:
384,256,111501,5,2,0:0:0:0:
428,236,111593,1,0,0:0:0:0:
441,190,111684,1,2,0:0:0:0:
415,149,111775,1,0,0:0:0:0:
367,144,111867,1,0,0:0:0:0:
120,88,112050,1,8,0:0:0:0:
288,88,112233,1,0,0:0:0:0:
48,96,112416,2,0,L|40:176,1,50,2|0,0:0|0:0,0:0:0:0:
144,144,112599,2,0,L|138:193,1,50,2|0,0:0|0:0,0:0:0:0:
312,168,112782,2,0,L|400:168,1,50,12|2,0:0|0:0,0:0:0:0:
184,336,112964,2,0,L|176:264,1,50,2|2,0:0|0:0,0:0:0:0:
360,328,113147,6,0,P|352:288|256:240,1,150,2|0,0:0|0:0,0:0:0:0:
104,128,113513,2,0,L|248:128,1,100,8|0,0:0|0:0,0:0:0:0:
264,128,113788,1,0,0:0:0:0:
104,288,113879,2,0,P|56:248|112:208,1,150,2|0,0:0|0:0,0:0:0:0:
280,208,114245,1,8,0:0:0:0:
456,208,114428,6,0,L|384:208,1,50
216,152,114611,1,2,0:0:0:0:
376,152,114794,1,0,0:0:0:0:
136,96,114977,1,8,0:0:0:0:
392,320,115160,2,0,L|480:320,1,50,2|2,0:0|0:0,0:0:0:0:
288,280,115343,2,0,L|216:280,1,50,8|8,0:0|0:0,0:0:0:0:
424,208,115525,2,0,L|352:208,1,50,2|2,0:0|0:0,0:0:0:0:
168,176,115708,2,0,L|224:176,1,50,12|8,0:0|0:0,0:0:0:0:
440,128,115891,2,0,L|352:128,1,50,4|4,0:0|0:0,0:0:0:0:
112,72,116074,6,0,L|384:72,2,239.999992675781,6|0|8,0:0|0:0|0:0,0:0:0:0:
56,80,116532,2,0,L|48:152,1,50,0|0,0:0|0:0,0:0:0:0:
112,128,116714,1,0,0:0:0:0:
264,288,116806,1,2,0:0:0:0:
314,288,116897,1,2,0:0:0:0:
364,288,116989,1,2,0:0:0:0:
414,288,117080,1,0,0:0:0:0:
320,248,117172,2,0,L|312:176,1,50,8|0,0:0|0:0,0:0:0:0:
472,168,117355,5,2,0:0:0:0:
422,168,117446,1,0,0:0:0:0:
372,168,117538,1,2,0:0:0:0:
322,168,117629,1,0,0:0:0:0:
272,168,117721,1,0,0:0:0:0:
128,160,117904,2,0,L|112:280,1,100,8|0,0:0|0:0,0:0:0:0:
360,80,118269,2,0,L|288:80,1,50,2|0,0:0|0:0,0:0:0:0:
150,72,118452,1,2,0:0:0:0:
310,80,118544,1,2,0:0:0:0:
470,80,118635,1,12,0:0:0:0:
222,72,118818,2,0,L|214:128,1,50,2|0,0:0|0:0,0:0:0:0:
368,296,119001,6,0,P|464:256|328:128,1,350,6|0,0:0|0:0,0:0:0:0:
352,160,119733,2,0,P|256:40|160:168,1,350,8|0,0:0|0:0,0:0:0:0:
157,156,120464,6,0,P|41:258|160:356,1,350,2|0,0:0|0:0,0:0:0:0:
312,240,121196,2,0,L|224:240,1,50,8|8,0:0|0:0,0:0:0:0:
96,200,121379,2,0,L|176:200,1,50,2|2,0:0|0:0,0:0:0:0:
320,160,121562,2,0,L|240:160,1,50,8|8,0:0|0:0,0:0:0:0:
432,104,121745,2,0,L|360:104,1,50,2|2,0:0|0:0,0:0:0:0:
144,64,121928,5,4,0:0:0:0:
144,64,122111,2,0,L|144:128,1,50
304,304,122294,2,0,L|216:304,1,50,8|0,0:0|0:0,0:0:0:0:
344,264,122477,2,0,L|408:264,1,50,0|0,0:0|0:0,0:0:0:0:
240,216,122660,1,2,0:0:0:0:
88,216,122751,1,2,0:0:0:0:
88,216,122934,1,8,0:0:0:0:
240,216,123025,2,0,L|320:216,1,50,2|0,0:0|0:0,0:0:0:0:
112,152,123208,2,0,L|192:152,1,50,0|0,0:0|0:0,0:0:0:0:
320,160,123391,6,0,L|240:160,1,50,2|0,0:0|0:0,0:0:0:0:
448,96,123574,2,0,L|368:96,1,50,0|0,0:0|0:0,0:0:0:0:
240,96,123757,1,8,0:0:0:0:
240,72,123940,2,0,L|168:72,1,50,0|0,0:0|0:0,0:0:0:0:
32,72,124123,2,0,L|32:144,1,50,2|0,0:0|0:0,0:0:0:0:
200,232,124306,2,0,L|128:232,1,50,0|0,0:0|0:0,0:0:0:0:
320,192,124489,2,0,L|416:192,3,50,2|0|0|0,0:0|0:0|0:0|0:0,0:0:0:0:
168,176,124855,5,6,0:0:0:0:
312,152,125038,2,0,L|312:80,1,50
144,120,125221,2,0,L|144:48,1,50,8|0,0:0|0:0,0:0:0:0:
240,72,125404,2,0,L|296:72,1,50,0|0,0:0|0:0,0:0:0:0:
448,272,125586,1,2,0:0:0:0:
290,72,125678,1,2,0:0:0:0:
290,72,125861,1,8,0:0:0:0:
136,272,125952,2,0,L|200:272,1,50,2|0,0:0|0:0,0:0:0:0:
280,240,126135,2,0,L|208:240,1,50,0|0,0:0|0:0,0:0:0:0:
48,144,126318,6,0,L|128:144,3,50,2|0|0|0,0:0|0:0|0:0|0:0,0:0:0:0:
272,144,126684,2,0,L|352:144,3,50,8|0|0|0,0:0|0:0|0:0|0:0,0:0:0:0:
144,288,127050,2,0,L|144:224,1,50,2|0,0:0|0:0,0:0:0:0:
240,232,127233,2,0,L|240:160,1,50,2|0,0:0|0:0,0:0:0:0:
424,288,127416,2,0,L|424:224,1,50,8|0,0:0|0:0,0:0:0:0:
328,232,127599,2,0,L|328:160,1,50,0|0,0:0|0:0,0:0:0:0:
112,184,127782,5,6,0:0:0:0:
112,112,127964,2,0,L|176:112,1,50
320,104,128147,2,0,L|320:192,1,50,8|0,0:0|0:0,0:0:0:0:
224,112,128330,2,0,L|224:200,1,50,0|0,0:0|0:0,0:0:0:0:
64,256,128513,1,2,0:0:0:0:
224,264,128605,1,2,0:0:0:0:
224,264,128788,1,8,0:0:0:0:
384,264,128879,2,0,L|384:192,1,50,2|0,0:0|0:0,0:0:0:0:
288,176,129062,2,0,L|360:176,1,50
144,176,129245,6,0,L|144:120,1,50,2|0,0:0|0:0,0:0:0:0:
240,128,129428,2,0,L|304:128,1,50,0|0,0:0|0:0,0:0:0:0:
120,256,129611,1,8,0:0:0:0:
120,256,129794,2,0,L|120:344,1,50,0|0,0:0|0:0,0:0:0:0:
288,312,129977,2,0,L|360:312,1,50,2|0,0:0|0:0,0:0:0:0:
176,256,130160,2,0,L|240:256,1,50,2|0,0:0|0:0,0:0:0:0:
392,256,130343,2,0,L|392:192,1,50,8|0,0:0|0:0,0:0:0:0:
224,168,130525,2,0,L|288:168,1,50,2|0,0:0|0:0,0:0:0:0:
96,136,130708,5,6,0:0:0:0:
96,136,130891,2,0,L|96:200,1,50
256,96,131074,2,0,L|320:96,1,50,8|0,0:0|0:0,0:0:0:0:
400,56,131257,2,0,L|456:56,1,50,0|0,0:0|0:0,0:0:0:0:
296,224,131440,1,2,0:0:0:0:
136,208,131532,1,2,0:0:0:0:
136,208,131714,1,2,0:0:0:0:
296,224,131806,1,8,0:0:0:0:
128,296,131989,1,2,0:0:0:0:
368,200,132172,5,6,0:0:0:0:
96,176,132355,1,2,0:0:0:0:
272,184,132446,1,8,0:0:0:0:
32,176,132629,1,8,0:0:0:0:
272,184,132812,1,8,0:0:0:0:
32,176,132995,1,8,0:0:0:0:
304,120,133178,1,2,0:0:0:0:
152,120,133269,1,8,0:0:0:0:
304,120,133361,1,8,0:0:0:0:
456,120,133452,1,2,0:0:0:0:
304,120,133544,1,2,0:0:0:0:
480,120,133635,6,0,L|484:236,1,100,6|0,0:0|0:0,0:0:0:0:
308,340,134001,2,0,L|304:240,1,100,8|0,0:0|0:0,0:0:0:0:
204,240,134275,1,0,0:0:0:0:
104,240,134367,2,0,L|208:240,1,100,2|2,0:0|0:0,0:0:0:0:
324,240,134733,1,8,0:0:0:0:
48,128,134916,6,0,B|148:128|148:128|44:128,1,200,2|2,0:0|0:0,0:0:0:0:
228,128,135464,2,0,L|328:128,1,100,8|0,0:0|0:0,0:0:0:0:
152,224,135830,1,2,0:0:0:0:
202,224,135922,1,2,0:0:0:0:
252,224,136013,1,2,0:0:0:0:
372,224,136196,1,8,0:0:0:0:
240,224,136379,1,2,0:0:0:0:
300,224,136471,1,2,0:0:0:0:
424,224,136562,6,0,L|428:328,1,100,2|0,0:0|0:0,0:0:0:0:
252,324,136928,2,0,L|144:324,1,100,8|2,0:0|0:0,0:0:0:0:
212,324,137202,1,2,0:0:0:0:
272,324,137294,1,2,0:0:0:0:
140,324,137477,1,2,0:0:0:0:
312,324,137660,1,8,0:0:0:0:
52,324,137843,6,0,P|12:276|96:192,1,200,2|2,0:0|0:0,0:0:0:0:
264,192,138391,2,0,L|268:88,1,100,8|0,0:0|0:0,0:0:0:0:
88,44,138757,2,0,L|32:44,2,50,2|0|2,0:0|0:0|0:0,0:0:0:0:
148,44,139032,1,0,0:0:0:0:
272,92,139123,2,0,L|276:156,1,50,8|8,0:0|0:0,0:0:0:0:
151,93,139306,2,0,L|147:33,1,50,2|2,0:0|0:0,0:0:0:0:
336,40,139489,6,0,L|444:40,1,100,6|0,0:0|0:0,0:0:0:0:
252,220,139855,2,0,L|166:148,1,100,8|0,0:0|0:0,0:0:0:0:
356,156,140221,2,0,L|376:270,1,100,2|0,0:0|0:0,0:0:0:0:
244,252,140586,1,8,0:0:0:0:
496,252,140769,6,0,L|288:252,1,200,2|2,0:0|0:0,0:0:0:0:
112,252,141318,2,0,L|220:252,1,100,8|0,0:0|0:0,0:0:0:0:
476,152,141684,2,0,L|416:152,1,50,2|2,0:0|0:0,0:0:0:0:
364,80,141867,2,0,L|420:80,1,50,2|2,0:0|0:0,0:0:0:0:
208,80,142050,2,0,L|260:80,1,50,10|2,0:0|0:0,0:0:0:0:
196,152,142233,2,0,L|140:152,1,50,2|2,0:0|0:0,0:0:0:0:
328,192,142416,6,0,B|428:192,1,100,6|0,0:0|0:0,0:0:0:0:
356,192,142690,1,0,0:0:0:0:
180,288,142782,1,8,0:0:0:0:
240,288,142873,1,2,0:0:0:0:
300,288,142964,1,2,0:0:0:0:
40,288,143147,2,0,L|144:288,2,100,2|2|8,0:0|0:0|0:0,0:0:0:0:
332,288,143696,1,2,0:0:0:0:
412,288,143788,1,2,0:0:0:0:
492,288,143879,6,0,L|496:188,1,100,2|2,0:0|0:0,0:0:0:0:
220,192,144245,2,0,B|168:192|168:192|224:192,1,100,8|2,0:0|0:0,0:0:0:0:
288,192,144519,1,2,0:0:0:0:
408,192,144611,1,2,0:0:0:0:
308,96,144794,1,2,0:0:0:0:
368,96,144885,1,2,0:0:0:0:
248,96,144977,2,0,L|244:164,1,50,8|8,0:0|0:0,0:0:0:0:
364,192,145160,2,0,L|304:192,1,50,4|4,0:0|0:0,0:0:0:0:
96,208,145343,6,0,L|88:88,1,100,6|0,0:0|0:0,0:0:0:0:
256,104,145708,1,8,0:0:0:0:
89,108,145891,1,0,0:0:0:0:
272,272,146074,1,2,0:0:0:0:
96,208,146257,1,2,0:0:0:0:
146,208,146349,1,2,0:0:0:0:
196,208,146440,1,8,0:0:0:0:
440,208,146623,6,0,P|496:176|424:96,1,200,2|2,0:0|0:0,0:0:0:0:
240,104,147172,2,0,L|352:104,1,100,8|0,0:0|0:0,0:0:0:0:
160,176,147538,1,2,0:0:0:0:
320,176,147721,1,0,0:0:0:0:
323,225,147812,1,0,0:0:0:0:
327,275,147904,1,8,0:0:0:0:
432,280,148086,1,2,0:0:0:0:
177,275,148269,6,0,L|337:275,1,150,2|0,0:0|0:0,0:0:0:0:
224,224,148635,2,0,L|104:224,1,100,8|0,0:0|0:0,0:0:0:0:
304,168,149001,1,2,0:0:0:0:
144,128,149184,1,2,0:0:0:0:
200,128,149275,1,0,0:0:0:0:
256,128,149367,1,8,0:0:0:0:
16,72,149550,2,0,L|72:72,1,50,2|2,0:0|0:0,0:0:0:0:
248,72,149733,5,2,0:0:0:0:
488,80,149916,2,0,L|496:144,1,50,2|0,0:0|0:0,0:0:0:0:
392,128,150099,2,0,L|400:192,1,50,8|0,0:0|0:0,0:0:0:0:
216,192,150282,2,0,L|288:192,1,50
360,200,150464,2,0,L|368:264,1,50,2|2,0:0|0:0,0:0:0:0:
200,304,150647,2,0,L|250:304,1,50,2|2,0:0|0:0,0:0:0:0:
424,288,150830,2,0,L|432:344,1,50,8|0,0:0|0:0,0:0:0:0:
232,336,151013,2,0,L|152:336,1,50,2|2,0:0|0:0,0:0:0:0:
392,160,151196,6,0,L|504:160,2,100,6|0|8,0:0|0:0|0:0,0:0:0:0:
224,160,151745,1,0,0:0:0:0:
408,104,151928,2,0,L|296:104,2,100,2|0|8,0:0|0:0|0:0,0:0:0:0:
152,288,152477,5,2,0:0:0:0:
202,288,152568,1,0,0:0:0:0:
252,288,152660,2,0,L|352:288,1,100,2|0,0:0|0:0,0:0:0:0:
184,224,153025,1,8,0:0:0:0:
456,160,153208,2,0,L|328:160,1,100,0|2,0:0|0:0,0:0:0:0:
112,160,153574,2,0,L|104:88,1,50,2|2,0:0|0:0,0:0:0:0:
288,112,153757,2,0,L|188:112,1,100,8|2,0:0|0:0,0:0:0:0:
440,320,154123,5,2,0:0:0:0:
272,320,154306,2,0,L|264:208,1,100,2|8,0:0|0:0,0:0:0:0:
368,200,154672,1,0,0:0:0:0:
200,184,154855,1,2,0:0:0:0:
368,200,155038,2,0,L|376:312,1,100,2|8,0:0|0:0,0:0:0:0:
120,280,155404,2,0,L|184:280,1,50,2|2,0:0|0:0,0:0:0:0:
336,288,155586,6,0,L|232:288,1,100,2|2,0:0|0:0,0:0:0:0:
400,224,155952,1,8,0:0:0:0:
216,216,156135,1,2,0:0:0:0:
480,152,156318,2,0,L|416:152,1,50,2|2,0:0|0:0,0:0:0:0:
248,152,156501,2,0,L|328:152,1,50,2|2,0:0|0:0,0:0:0:0:
492,104,156684,2,0,L|428:104,1,50,2|2,0:0|0:0,0:0:0:0:
236,104,156867,2,0,L|324:104,1,50,2|2,0:0|0:0,0:0:0:0:
104,32,157050,6,0,L|4:32,2,100,6|0|8,0:0|0:0|0:0,0:0:0:0:
264,32,157599,1,0,0:0:0:0:
144,32,157782,1,2,0:0:0:0:
194,32,157873,1,2,0:0:0:0:
244,32,157964,1,2,0:0:0:0:
296,32,158056,1,2,0:0:0:0:
96,32,158147,2,0,L|92:144,1,100,8|2,0:0|0:0,0:0:0:0:
396,32,158513,6,0,P|464:80|464:92,1,100,2|2,0:0|0:0,0:0:0:0:
444,136,158788,1,0,0:0:0:0:
388,152,158879,1,8,0:0:0:0:
108,192,159062,2,0,L|44:192,1,50,2|0,0:0|0:0,0:0:0:0:
176,192,159245,2,0,L|228:192,2,50,2|2|2,0:0|0:0|0:0,0:0:0:0:
360,192,159611,1,8,0:0:0:0:
410,192,159702,1,2,0:0:0:0:
460,192,159794,1,2,0:0:0:0:
156,320,159977,6,0,L|152:264,1,50,2|0,0:0|0:0,0:0:0:0:
232,272,160160,2,0,L|228:216,1,50,2|2,0:0|0:0,0:0:0:0:
104,192,160343,2,0,L|108:132,1,50,8|0,0:0|0:0,0:0:0:0:
184,96,160525,2,0,L|248:96,1,50,2|0,0:0|0:0,0:0:0:0:
352,96,160708,1,2,0:0:0:0:
402,96,160800,1,2,0:0:0:0:
452,96,160891,1,2,0:0:0:0:
172,192,161074,2,0,L|276:192,1,100,8|2,0:0|0:0,0:0:0:0:
332,192,161349,1,0,0:0:0:0:
128,192,161440,6,0,L|28:192,1,100,2|0,0:0|0:0,0:0:0:0:
80,192,161714,1,0,0:0:0:0:
128,192,161806,1,8,0:0:0:0:
408,192,161989,2,0,L|352:192,1,50
156,104,162172,2,0,L|224:104,2,50,2|2|2,0:0|0:0|0:0,0:0:0:0:
340,104,162538,2,0,L|344:160,1,50,10|2,0:0|0:0,0:0:0:0:
220,24,162721,2,0,L|224:84,1,50,10|2,0:0|0:0,0:0:0:0:
412,24,162904,6,0,P|456:36|488:80,1,100,6|2,0:0|0:0,0:0:0:0:
472,140,163178,1,0,0:0:0:0:
412,156,163269,1,8,0:0:0:0:
132,192,163452,1,2,0:0:0:0:
308,192,163635,1,2,0:0:0:0:
309,241,163727,1,2,0:0:0:0:
311,291,163818,1,2,0:0:0:0:
140,192,164001,1,8,0:0:0:0:
320,292,164184,1,2,0:0:0:0:
40,292,164367,6,0,P|16:244|32:204,1,100,2|2,0:0|0:0,0:0:0:0:
132,192,164641,1,0,0:0:0:0:
232,192,164733,2,0,L|340:192,1,100,8|2,0:0|0:0,0:0:0:0:
48,92,165099,2,0,L|156:92,1,100,2|2,0:0|0:0,0:0:0:0:
408,92,165464,1,8,0:0:0:0:
128,92,165647,1,2,0:0:0:0:
460,92,165830,5,6,0:0:0:0:
484,124,165876,1,2,0:0:0:0:
492,168,165922,1,2,0:0:0:0:
476,208,165968,1,2,0:0:0:0:
440,232,166013,1,2,0:0:0:0:
356,232,166105,1,2,0:0:0:0:
164,232,166196,2,0,B|36:232|36:232|36:108,1,250,8|2,0:0|0:0,0:0:0:0:
288,64,166562,2,0,L|224:64,1,50,2|2,0:0|0:0,0:0:0:0:
420,172,166745,2,0,L|364:172,1,50,2|2,0:0|0:0,0:0:0:0:
140,192,166928,2,0,L|192:192,1,50,8|0,0:0|0:0,0:0:0:0:
444,64,167111,1,2,0:0:0:0:
324,64,167294,6,0,L|320:188,1,100,2|0,0:0|0:0,0:0:0:0:
140,192,167660,1,8,0:0:0:0:
141,241,167751,1,2,0:0:0:0:
143,291,167843,1,2,0:0:0:0:
324,332,168025,2,0,L|328:276,1,50,2|0,0:0|0:0,0:0:0:0:
248,244,168208,2,0,L|244:180,1,50,2|0,0:0|0:0,0:0:0:0:
368,168,168391,2,0,L|304:168,3,50,10|2|2|2,0:0|0:0|0:0|0:0,0:0:0:0:
120,176,168757,5,6,0:0:0:0:
272,80,168940,2,0,L|280:144,2,50,2|2|8,0:0|0:0|0:0,0:0:0:0:
96,40,169306,2,0,L|312:40,1,200,2|2,0:0|0:0,0:0:0:0:
136,232,169855,2,0,L|240:232,1,100
488,232,170221,5,2,0:0:0:0:
336,184,170404,1,2,0:0:0:0:
286,184,170495,1,2,0:0:0:0:
236,184,170586,1,8,0:0:0:0:
392,344,170769,2,0,P|456:296|392:224,1,200,2|2,0:0|0:0,0:0:0:0:
216,216,171318,2,0,L|128:216,1,50,8|2,0:0|0:0,0:0:0:0:
160,168,171501,2,0,L|224:168,1,50,2|0,0:0|0:0,0:0:0:0:
376,168,171684,5,2,0:0:0:0:
480,176,171867,2,0,L|488:112,2,50,2|2|8,0:0|0:0|0:0,0:0:0:0:
328,120,172233,1,2,0:0:0:0:
88,336,172416,2,0,L|80:264,3,50,2|2|2|0,0:0|0:0|0:0|0:0,0:0:0:0:
176,336,172782,2,0,L|248:336,1,50,8|0,0:0|0:0,0:0:0:0:
120,224,172964,2,0,L|32:224,1,50,2|2,0:0|0:0,0:0:0:0:
248,224,173147,5,2,0:0:0:0:
400,224,173330,2,0,L|472:224,2,50,2|0|8,0:0|0:0|0:0,0:0:0:0:
224,184,173696,2,0,L|216:112,1,50,2|2,0:0|0:0,0:0:0:0:
328,96,173879,1,2,0:0:0:0:
176,104,174062,1,2,0:0:0:0:
424,40,174245,1,8,0:0:0:0:
176,48,174428,2,0,L|168:112,1,50,2|0,0:0|0:0,0:0:0:0:
368,288,174611,6,0,L|408:232,4,50,6|0|2|2|8,0:0|0:0|0:0|0:0|0:0,0:0:0:0:
208,296,175160,2,0,L|168:240,4,50,2|2|2|2|2,0:0|0:0|0:0|0:0|0:0,0:0:0:0:
384,232,175708,2,0,L|472:232,2,50,8|0|2,0:0|0:0|0:0,0:0:0:0:
144,232,176074,5,2,0:0:0:0:
96,226,176166,1,2,0:0:0:0:
71,185,176257,1,2,0:0:0:0:
88,139,176349,1,0,0:0:0:0:
134,125,176440,1,8,0:0:0:0:
304,120,176623,2,0,L|312:184,1,50,2|0,0:0|0:0,0:0:0:0:
208,312,176806,2,0,L|200:248,1,50,2|2,0:0|0:0,0:0:0:0:
392,288,176989,2,0,L|384:232,1,50,2|2,0:0|0:0,0:0:0:0:
184,112,177172,2,0,L|256:112,1,50,2|2,0:0|0:0,0:0:0:0:
408,112,177355,2,0,L|328:112,1,50,2|2,0:0|0:0,0:0:0:0:
136,320,177538,6,0,L|212:243,2,100,6|0|2,0:0|0:0|0:0,0:0:0:0:
408,320,178086,2,0,L|325:237,2,100,2|2|0,0:0|0:0|0:0,0:0:0:0:
80,328,178635,2,0,L|72:216,1,100,2|2,0:0|0:0,0:0:0:0:
320,208,179001,5,2,0:0:0:0:
472,208,179184,1,2,0:0:0:0:
224,160,179367,1,2,0:0:0:0:
488,112,179550,2,0,L|272:112,1,200,6|2,0:0|0:0,0:0:0:0:
320,64,179961,1,2,0:0:0:0:
352,64,180007,1,2,0:0:0:0:
440,272,180099,2,0,L|432:344,1,50,8|8,0:0|0:0,0:0:0:0:
264,264,180282,2,0,L|256:336,1,50,8|8,0:0|0:0,0:0:0:0:
467,192,180464,6,0,P|499:152|491:88,1,100,4|0,0:0|0:0,0:0:0:0:
467,60,180739,1,0,0:0:0:0:
415,60,180830,1,8,0:0:0:0:
239,60,181013,1,0,0:0:0:0:
295,60,181105,1,0,0:0:0:0:
351,60,181196,1,2,0:0:0:0:
179,60,181379,1,0,0:0:0:0:
479,60,181562,2,0,L|491:116,2,50,8|0|0,0:0|0:0|0:0,0:0:0:0:
155,192,181928,5,2,0:0:0:0:
105,192,182019,1,2,0:0:0:0:
55,192,182111,1,2,0:0:0:0:
311,280,182294,2,0,L|199:280,1,100,8|0,0:0|0:0,0:0:0:0:
395,192,182568,2,0,L|495:192,1,100,2|0,0:0|0:0,0:0:0:0:
279,192,182843,2,0,L|275:136,1,50,2|0,0:0|0:0,0:0:0:0:
475,100,183025,2,0,L|479:36,1,50,8|0,0:0|0:0,0:0:0:0:
227,32,183208,2,0,L|159:32,1,50
478,50,183391,6,0,L|486:158,1,100,2|0,0:0|0:0,0:0:0:0:
215,288,183757,2,0,L|211:236,1,50,8|0,0:0|0:0,0:0:0:0:
287,220,183940,2,0,L|283:160,1,50,0|0,0:0|0:0,0:0:0:0:
95,192,184123,2,0,L|195:192,1,100,2|0,0:0|0:0,0:0:0:0:
19,192,184489,1,8,0:0:0:0:
11,136,184580,1,0,0:0:0:0:
47,92,184672,1,0,0:0:0:0:
99,84,184763,1,0,0:0:0:0:
287,84,184855,6,0,L|339:84,1,50,2|0,0:0|0:0,0:0:0:0:
363,84,184992,1,0,0:0:0:0:
387,84,185038,1,0,0:0:0:0:
127,192,185221,2,0,L|71:192,1,50,8|0,0:0|0:0,0:0:0:0:
139,192,185404,2,0,L|83:192,1,50,2|0,0:0|0:0,0:0:0:0:
287,192,185586,2,0,L|407:192,1,100,2|0,0:0|0:0,0:0:0:0:
215,192,185952,1,8,0:0:0:0:
379,192,186135,1,0,0:0:0:0:
119,296,186318,6,0,L|19:296,1,100,2|0,0:0|0:0,0:0:0:0:
71,296,186593,1,0,0:0:0:0:
119,296,186684,1,8,0:0:0:0:
359,192,186867,2,0,L|259:192,2,100,0|2|0,0:0|0:0|0:0,0:0:0:0:
91,192,187416,2,0,L|87:84,1,100,8|0,0:0|0:0,0:0:0:0:
359,64,187782,6,0,L|463:64,1,100,2|0,0:0|0:0,0:0:0:0:
407,64,188056,1,0,0:0:0:0:
219,64,188147,2,0,L|215:132,1,50,8|0,0:0|0:0,0:0:0:0:
307,136,188330,2,0,L|311:188,1,50,0|0,0:0|0:0,0:0:0:0:
216,113,188513,1,2,0:0:0:0:
319,64,188696,1,2,0:0:0:0:
143,64,188879,2,0,L|139:184,1,100,8|0,0:0|0:0,0:0:0:0:
199,192,189154,1,0,0:0:0:0:
383,192,189245,6,0,L|279:192,1,100,2|0,0:0|0:0,0:0:0:0:
455,192,189611,1,8,0:0:0:0:
195,280,189794,1,0,0:0:0:0:
145,280,189885,1,0,0:0:0:0:
95,280,189977,1,2,0:0:0:0:
215,280,190160,1,2,0:0:0:0:
39,280,190343,2,0,L|35:380,1,100,8|2,0:0|0:0,0:0:0:0:
315,380,190708,6,0,L|415:380,1,100,2|0,0:0|0:0,0:0:0:0:
131,192,191074,2,0,L|183:192,1,50,10|2,0:0|0:0,0:0:0:0:
375,192,191257,2,0,L|323:192,1,50,2|2,0:0|0:0,0:0:0:0:
139,80,191440,2,0,L|391:80,1,250,8|2,0:0|0:0,0:0:0:0:
298,80,191714,1,0,0:0:0:0:
207,80,191806,1,8,0:0:0:0:
487,80,191989,1,2,0:0:0:0:
163,192,192172,6,0,L|63:192,2,100,6|2|8,0:0|0:0|0:0,0:0:0:0:
339,192,192721,1,0,0:0:0:0:
283,192,192812,1,0,0:0:0:0:
227,192,192904,1,2,0:0:0:0:
399,192,193086,2,0,L|403:136,1,50,0|0,0:0|0:0,0:0:0:0:
199,80,193269,1,8,0:0:0:0:
149,80,193361,1,0,0:0:0:0:
99,80,193452,1,0,0:0:0:0:
403,32,193635,5,2,0:0:0:0:
459,32,193727,1,2,0:0:0:0:
403,32,193818,1,2,0:0:0:0:
143,296,194001,2,0,L|255:296,1,100,8|0,0:0|0:0,0:0:0:0:
43,192,194275,2,0,L|143:192,1,100,2|0,0:0|0:0,0:0:0:0:
347,192,194550,2,0,L|343:136,1,50,2|0,0:0|0:0,0:0:0:0:
119,192,194733,2,0,L|154:138,1,50,8|0,0:0|0:0,0:0:0:0:
407,192,194916,2,0,L|343:168,1,50,2|0,0:0|0:0,0:0:0:0:
59,92,195099,6,0,L|51:204,1,100,2|0,0:0|0:0,0:0:0:0:
322,330,195464,2,0,L|367:304,3,50,8|0|0|0,0:0|0:0|0:0|0:0,0:0:0:0:
163,192,195830,2,0,L|63:192,1,100,2|2,0:0|0:0,0:0:0:0:
119,192,196105,1,0,0:0:0:0:
319,104,196196,2,0,L|323:40,1,50,8|0,0:0|0:0,0:0:0:0:
251,180,196379,2,0,L|247:128,1,50
447,52,196562,5,2,0:0:0:0:
466,113,196654,1,0,0:0:0:0:
437,171,196745,1,2,0:0:0:0:
375,192,196836,1,2,0:0:0:0:
275,260,196928,2,0,L|320:234,3,50,8|0|0|0,0:0|0:0|0:0|0:0,0:0:0:0:
223,192,197294,2,0,L|219:140,1,50,2|2,0:0|0:0,0:0:0:0:
331,64,197477,2,0,L|279:64,1,50,2|2,0:0|0:0,0:0:0:0:
79,64,197660,2,0,L|139:64,1,50,8|2,0:0|0:0,0:0:0:0:
331,192,197843,2,0,L|387:192,1,50,8|8,0:0|0:0,0:0:0:0:
155,192,198025,6,0,L|51:192,1,100,2|2,0:0|0:0,0:0:0:0:
111,192,198300,1,0,0:0:0:0:
167,192,198391,1,8,0:0:0:0:
47,192,198574,2,0,L|43:256,1,50
151,320,198757,2,0,L|99:320,1,50,2|0,0:0|0:0,0:0:0:0:
99,260,198940,2,0,L|155:260,1,50,0|0,0:0|0:0,0:0:0:0:
351,260,199123,1,8,0:0:0:0:
403,232,199214,1,0,0:0:0:0:
403,172,199306,1,0,0:0:0:0:
351,140,199397,1,0,0:0:0:0:
151,140,199489,6,0,L|47:140,1,100,2|0,0:0|0:0,0:0:0:0:
103,140,199763,1,0,0:0:0:0:
211,140,199855,2,0,L|267:140,1,50,8|0,0:0|0:0,0:0:0:0:
263,88,200038,2,0,L|207:88,1,50,2|2,0:0|0:0,0:0:0:0:
323,88,200221,2,0,L|319:36,1,50,2|0,0:0|0:0,0:0:0:0:
247,192,200404,2,0,L|251:136,1,50,2|0,0:0|0:0,0:0:0:0:
447,88,200586,2,0,L|499:88,1,50,8|0,0:0|0:0,0:0:0:0:
303,272,200769,2,0,L|243:272,1,50
51,276,200952,6,0,L|47:376,1,100,2|0,0:0|0:0,0:0:0:0:
227,376,201318,2,0,L|231:320,1,50,8|0,0:0|0:0,0:0:0:0:
127,248,201501,2,0,L|183:248,1,50,2|2,0:0|0:0,0:0:0:0:
375,252,201684,2,0,L|431:252,1,50,2|0,0:0|0:0,0:0:0:0:
319,252,201867,2,0,L|315:188,1,50
421,351,202050,2,0,L|425:252,1,100,8|2,0:0|0:0,0:0:0:0:
163,192,202416,6,0,L|255:192,1,87.5,8|0,0:0|0:0,0:0:0:0:
251,272,202599,2,0,L|119:272,1,131.25000500679,2|0,0:0|0:0,0:0:0:0:
119,348,202782,2,0,L|319:348,1,200,8|2,0:0|0:0,0:0:0:0:
223,192,203056,1,2,0:0:0:0:
423,192,203147,2,0,P|487:136|423:68,1,200,2|2,0:0|0:0,0:0:0:0:
363,68,203422,1,2,0:0:0:0:
255,192,203513,2,0,L|267:140,1,50,8|8,0:0|0:0,0:0:0:0:
371,192,203696,2,0,L|359:140,1,50,8|8,0:0|0:0,0:0:0:0:
115,144,203879,6,0,L|63:144,2,50,6|0|0,0:0|0:0|0:0,0:0:0:0:
355,292,204245,1,8,0:0:0:0:
291,292,204336,1,0,0:0:0:0:
227,292,204428,1,0,0:0:0:0:
467,192,204611,2,0,L|363:192,1,100,2|2,0:0|0:0,0:0:0:0:
427,192,204885,1,0,0:0:0:0:
367,192,204977,1,8,0:0:0:0:
191,196,205160,2,0,L|187:144,1,50,2|2,0:0|0:0,0:0:0:0:
391,56,205343,6,0,L|499:56,1,100,2|0,0:0|0:0,0:0:0:0:
207,56,205708,2,0,L|203:128,1,50,8|2,0:0|0:0,0:0:0:0:
307,120,205891,2,0,L|303:200,1,50,2|2,0:0|0:0,0:0:0:0:
103,104,206074,2,0,L|99:172,1,50,2|0,0:0|0:0,0:0:0:0:
375,172,206257,2,0,L|427:172,1,50,2|0,0:0|0:0,0:0:0:0:
147,320,206440,1,12,0:0:0:0:
95,320,206532,1,2,0:0:0:0:
95,264,206623,1,2,0:0:0:0:
147,264,206714,1,0,0:0:0:0:
351,264,206806,6,0,L|407:264,2,50,2|0|0,0:0|0:0|0:0,0:0:0:0:
107,132,207172,2,0,L|207:132,1,100,8|0,0:0|0:0,0:0:0:0:
263,132,207446,1,0,0:0:0:0:
63,132,207538,2,0,L|59:28,1,100,2|0,0:0|0:0,0:0:0:0:
239,32,207904,2,0,L|243:96,1,50,8|0,0:0|0:0,0:0:0:0:
139,132,208086,2,0,L|195:132,1,50,0|0,0:0|0:0,0:0:0:0:
391,128,208269,6,0,L|447:128,1,50,2|0,0:0|0:0,0:0:0:0:
441,184,208452,2,0,L|391:184,1,50,2|0,0:0|0:0,0:0:0:0:
279,192,208635,2,0,L|275:252,1,50,8|0,0:0|0:0,0:0:0:0:
387,288,208818,2,0,L|331:288,1,50,2|2,0:0|0:0,0:0:0:0:
139,192,209001,2,0,L|135:128,1,50,8|8,0:0|0:0,0:0:0:0:
247,80,209184,2,0,L|191:80,1,50,8|8,0:0|0:0,0:0:0:0:
399,80,209367,1,6,0:0:0:0:
455,88,209458,1,8,0:0:0:0:
491,128,209550,1,4,0:0:0:0:
499,184,209641,1,4,0:0:0:0:
283,192,209733,6,0,L|183:192,1,100,6|0,0:0|0:0,0:0:0:0:
343,192,210099,1,8,0:0:0:0:
167,192,210282,1,0,0:0:0:0:
427,192,210464,2,0,L|479:192,1,50,2|2,0:0|0:0,0:0:0:0:
479,256,210647,2,0,L|421:256,1,50,2|2,0:0|0:0,0:0:0:0:
239,256,210830,2,0,L|135:256,1,100,8|0,0:0|0:0,0:0:0:0:
319,192,211196,5,2,0:0:0:0:
322,241,211288,1,0,0:0:0:0:
326,291,211379,1,0,0:0:0:0:
151,348,211562,2,0,L|263:348,1,100,8|0,0:0|0:0,0:0:0:0:
307,348,211836,1,0,0:0:0:0:
107,192,211928,2,0,L|211:192,1,100,2|2,0:0|0:0,0:0:0:0:
147,192,212202,1,2,0:0:0:0:
359,192,212294,1,6,0:0:0:0:
411,176,212385,1,0,0:0:0:0:
411,120,212477,1,2,0:0:0:0:
359,100,212568,1,2,0:0:0:0:
147,100,212660,6,0,L|47:100,1,100,6|0,0:0|0:0,0:0:0:0:
219,192,213025,2,0,L|119:192,1,100,8|0,0:0|0:0,0:0:0:0:
59,192,213300,1,0,0:0:0:0:
283,192,213391,1,2,0:0:0:0:
343,192,213483,1,2,0:0:0:0:
403,192,213574,1,2,0:0:0:0:
227,280,213757,2,0,L|327:280,1,100,8|2,0:0|0:0,0:0:0:0:
267,280,214032,1,2,0:0:0:0:
471,356,214123,6,0,L|363:356,1,100,2|2,0:0|0:0,0:0:0:0:
271,380,214397,1,8,0:0:0:0:
269,330,214488,1,0,0:0:0:0:
267,280,214579,1,0,0:0:0:0:
367,192,214672,2,0,L|419:192,1,50,2|0,0:0|0:0,0:0:0:0:
211,192,214855,2,0,L|159:192,1,50,8|8,0:0|0:0,0:0:0:0:
387,108,215038,2,0,L|335:108,1,50,2|2,0:0|0:0,0:0:0:0:
83,108,215221,2,0,L|23:108,1,50,8|8,0:0|0:0,0:0:0:0:
311,24,215404,2,0,L|363:24,1,50,8|8,0:0|0:0,0:0:0:0:
84,8,215586,5,6,0:0:0:0:
38,31,215647,1,0,0:0:0:0:
12,74,215708,1,0,0:0:0:0:
12,125,215769,1,2,0:0:0:0:
38,168,215830,1,0,0:0:0:0:
84,192,215891,1,0,0:0:0:0:
292,192,215952,2,0,L|328:192,2,33.3333333333333,8|0|0,0:0|0:0|0:0,0:0:0:0:
244,192,216135,2,2,L|208:192,2,33.3333333333333
460,156,216318,5,2,0:0:0:0:
491,201,216379,1,0,0:0:0:0:
499,258,216440,1,0,0:0:0:0:
478,310,216501,1,2,0:0:0:0:
435,349,216562,1,0,0:0:0:0:
381,362,216623,1,0,0:0:0:0:
180,360,216684,1,8,0:0:0:0:
146,360,216745,1,0,0:0:0:0:
113,360,216806,1,0,0:0:0:0:
168,288,216867,1,2,0:0:0:0:
134,288,216928,1,2,0:0:0:0:
101,288,216989,1,2,0:0:0:0:
288,192,217050,6,0,L|328:192,2,33.3333333333333,2|0|0,0:0|0:0|0:0,0:0:0:0:
240,192,217233,2,0,L|200:192,2,33.3333333333333,2|0|0,0:0|0:0|0:0,0:0:0:0:
412,192,217416,2,0,L|416:144,1,33.3333333333333,8|0,0:0|0:0,0:0:0:0:
372,120,217538,1,0,0:0:0:0:
440,120,217599,2,2,L|444:72,1,33.3333333333333,2|0,0:0|0:0,0:0:0:0:
400,48,217721,1,0,0:0:0:0:
232,48,217782,6,0,L|188:48,2,33.3333333333333,2|2|2,0:0|0:0|0:0,0:0:0:0:
412,192,217964,2,0,L|460:192,2,33.3333333333333,6|0|0,0:0|0:0|0:0,0:0:0:0:
196,192,218147,2,0,L|136:192,1,50,8|0,0:0|0:0,0:0:0:0:
308,192,218330,2,0,L|310:256,1,50,2|2,0:0|0:0,0:0:0:0:
44,192,218513,6,0,P|4:232|44:304,1,150.000005722046,2|2,0:0|0:0,0:0:0:0:
104,304,218788,1,2,0:0:0:0:
296,304,218879,2,0,L|300:248,1,50,8|0,0:0|0:0,0:0:0:0:
224,252,219062,2,0,L|228:188,1,50,2|2,0:0|0:0,0:0:0:0:
424,192,219245,2,0,L|368:192,2,50,2|0|2,0:0|0:0|0:0,0:0:0:0:
248,120,219519,2,0,L|300:120,2,50,2|8|0,0:0|0:0|0:0,0:0:0:0:
68,120,219794,2,0,L|64:64,1,50,2|0,0:0|0:0,0:0:0:0:
268,40,219977,6,0,L|368:40,1,100,2|2,0:0|0:0,0:0:0:0:
192,40,220343,2,0,L|188:104,1,50,8|0,0:0|0:0,0:0:0:0:
264,92,220525,2,0,L|268:152,1,50,8|8,0:0|0:0,0:0:0:0:
156,192,220708,2,0,L|216:192,1,50,4|4,0:0|0:0,0:0:0:0:
404,192,220891,1,6,0:0:0:0:
445,219,220983,1,2,0:0:0:0:
464,264,221074,1,8,0:0:0:0:
455,313,221166,1,8,0:0:0:0:
422,349,221257,1,2,0:0:0:0:
374,360,221349,1,2,0:0:0:0:
168,360,221440,6,0,L|112:360,1,50,6|0,0:0|0:0,0:0:0:0:
180,292,221623,2,0,L|124:292,1,50,2|2,0:0|0:0,0:0:0:0:
332,192,221806,2,0,L|432:192,1,100,8|2,0:0|0:0,0:0:0:0:
372,192,222080,1,0,0:0:0:0:
144,192,222172,2,0,L|300:192,1,150,2|2,0:0|0:0,0:0:0:0:
80,92,222446,2,0,L|140:92,2,50,2|8|2,0:0|0:0|0:0,0:0:0:0:
296,92,222721,2,0,L|300:16,1,50,2|2,0:0|0:0,0:0:0:0:
74,42,222904,6,0,L|82:110,1,50,2|0,0:0|0:0,0:0:0:0:
332,192,223086,2,0,L|384:192,1,50,2|0,0:0|0:0,0:0:0:0:
156,192,223269,2,0,L|152:136,1,50,8|0,0:0|0:0,0:0:0:0:
384,192,223452,1,2,0:0:0:0:
233,192,223544,1,2,0:0:0:0:
84,192,223635,1,2,0:0:0:0:
244,192,223818,2,0,L|248:260,1,50,2|2,0:0|0:0,0:0:0:0:
56,280,224001,2,2,B|4:280|4:280|60:280,1,100,14|2,0:0|0:0,0:0:0:0:
112,280,224275,1,2,0:0:0:0:
316,192,224367,5,2,0:0:0:0:
352,144,224428,1,0,0:0:0:0:
324,92,224489,1,0,0:0:0:0:
280,92,224550,1,2,0:0:0:0:
248,144,224611,1,0,0:0:0:0:
280,192,224672,1,0,0:0:0:0:
452,256,224733,2,0,L|492:256,2,33.3333333333333,8|0|0,0:0|0:0|0:0,0:0:0:0:
248,336,224916,2,0,L|204:336,2,33.3333333333333,2|2|2,0:0|0:0|0:0,0:0:0:0:
452,256,225099,5,2,0:0:0:0:
477,204,225160,1,0,0:0:0:0:
476,146,225221,1,0,0:0:0:0:
449,95,225282,1,2,0:0:0:0:
401,62,225343,1,0,0:0:0:0:
345,55,225404,1,0,0:0:0:0:
156,116,225464,1,8,0:0:0:0:
189,116,225525,1,0,0:0:0:0:
223,116,225586,1,0,0:0:0:0:
438,255,225647,1,2,0:0:0:0:
405,255,225708,1,2,0:0:0:0:
372,255,225769,1,2,0:0:0:0:
168,224,225830,6,0,L|116:224,2,33.3333333333333,2|0|0,0:0|0:0|0:0,0:0:0:0:
356,336,226013,1,2,0:0:0:0:
322,336,226074,1,0,0:0:0:0:
289,336,226135,1,0,0:0:0:0:
460,192,226196,2,0,L|500:192,2,33.3333333333333,8|0|0,0:0|0:0|0:0,0:0:0:0:
412,192,226379,1,2,0:0:0:0:
340,192,226471,1,2,0:0:0:0:
140,192,226562,6,0,L|136:132,1,50,2|2,0:0|0:0,0:0:0:0:
340,192,226745,2,0,L|369:139,1,50,2|2,0:0|0:0,0:0:0:0:
100,192,226928,2,0,L|52:156,1,50,10|2,0:0|0:0,0:0:0:0:
364,188,227111,2,0,L|423:176,1,50,2|2,0:0|0:0,0:0:0:0:
67,261,227294,6,0,L|60:162,1,100,6|0,0:0|0:0,0:0:0:0:
248,84,227568,1,0,0:0:0:0:
198,84,227660,1,8,0:0:0:0:
148,84,227751,1,2,0:0:0:0:
324,84,227934,1,2,0:0:0:0:
384,84,228025,2,0,L|388:148,1,50,2|0,0:0|0:0,0:0:0:0:
284,192,228208,2,0,L|344:192,1,50,2|0,0:0|0:0,0:0:0:0:
140,192,228391,2,0,L|84:192,1,50,8|2,0:0|0:0,0:0:0:0:
316,280,228574,2,0,L|372:280,1,50,8|2,0:0|0:0,0:0:0:0:
112,352,228757,6,0,L|108:296,1,50,6|2,0:0|0:0,0:0:0:0:
292,192,228940,2,0,L|296:128,1,50,2|0,0:0|0:0,0:0:0:0:
480,192,229123,2,0,L|484:136,1,50,8|2,0:0|0:0,0:0:0:0:
280,192,229306,1,2,0:0:0:0:
480,192,229397,2,0,P|496:140|432:80,1,150.000005722046,8|2,0:0|0:0,0:0:0:0:
228,80,229672,2,0,L|168:80,1,50,2|0,0:0|0:0,0:0:0:0:
380,80,229855,2,0,L|384:144,1,50,8|2,0:0|0:0,0:0:0:0:
180,192,230038,2,0,L|236:192,1,50,2|2,0:0|0:0,0:0:0:0:
432,236,230221,6,0,B|484:236|484:236|428:236,1,100,6|2,0:0|0:0,0:0:0:0:
224,324,230495,2,0,L|220:272,1,50,2|8,0:0|0:0,0:0:0:0:
320,192,230678,2,0,L|316:128,1,50,2|0,0:0|0:0,0:0:0:0:
116,144,230861,1,0,0:0:0:0:
48,144,230952,2,0,L|44:88,1,50,2|0,0:0|0:0,0:0:0:0:
116,144,231135,2,0,L|60:144,1,50,2|0,0:0|0:0,0:0:0:0:
266,142,231318,2,0,L|322:142,1,50,8|2,0:0|0:0,0:0:0:0:
116,40,231501,2,0,L|168:40,1,50,8|2,0:0|0:0,0:0:0:0:
416,40,231684,6,0,L|364:40,1,50,6|2,0:0|0:0,0:0:0:0:
368,112,231867,2,0,L|428:112,1,50,2|2,0:0|0:0,0:0:0:0:
216,112,232050,2,0,L|212:168,1,50,8|2,0:0|0:0,0:0:0:0:
416,192,232233,2,0,L|412:248,1,50,2|2,0:0|0:0,0:0:0:0:
188,292,232416,2,0,L|136:292,3,50,8|0|2|2,0:0|0:0|0:0|0:0,0:0:0:0:
364,292,232782,2,0,L|368:236,1,50,8|8,0:0|0:0,0:0:0:0:
168,192,232964,2,0,L|116:192,1,50,4|4,0:0|0:0,0:0:0:0:
340,88,233147,6,0,L|448:88,1,100,6|2,0:0|0:0,0:0:0:0:
236,20,233422,1,2,0:0:0:0:
292,20,233513,1,8,0:0:0:0:
348,20,233605,1,2,0:0:0:0:
172,20,233788,1,2,0:0:0:0:
112,20,233879,2,0,L|108:84,1,50,2|0,0:0|0:0,0:0:0:0:
212,128,234062,2,0,L|152:128,1,50,2|0,0:0|0:0,0:0:0:0:
356,128,234245,2,0,L|412:128,1,50,8|2,0:0|0:0,0:0:0:0:
196,216,234428,2,0,L|140:216,1,50,8|2,0:0|0:0,0:0:0:0:
376,348,234611,6,0,L|380:292,1,50,6|0,0:0|0:0,0:0:0:0:
196,192,234794,2,0,L|256:192,1,50,2|0,0:0|0:0,0:0:0:0:
64,192,234977,2,0,L|60:136,1,50,8|2,0:0|0:0,0:0:0:0:
246,192,235160,1,8,0:0:0:0:
48,192,235251,2,0,P|32:140|96:80,1,150.000005722046,2|2,0:0|0:0,0:0:0:0:
304,80,235525,2,0,L|307:130,1,50,2|0,0:0|0:0,0:0:0:0:
124,192,235708,2,0,L|176:192,1,50,8|8,0:0|0:0,0:0:0:0:
368,192,235891,2,0,L|312:192,1,50,2|2,0:0|0:0,0:0:0:0:
112,192,236074,6,0,B|8:192,1,100,6|2,0:0|0:0,0:0:0:0:
224,60,236349,2,0,L|228:112,1,50,2|8,0:0|0:0,0:0:0:0:
128,192,236532,2,0,L|132:256,1,50,2|0,0:0|0:0,0:0:0:0:
332,240,236714,1,2,0:0:0:0:
400,240,236806,2,0,L|404:296,1,50,2|0,0:0|0:0,0:0:0:0:
332,240,236989,2,0,L|388:240,1,50,2|0,0:0|0:0,0:0:0:0:
182,242,237172,2,0,L|180:296,1,50,8|2,0:0|0:0,0:0:0:0:
384,340,237355,2,0,L|380:280,1,50,8|2,0:0|0:0,0:0:0:0:
180,140,237538,6,0,L|232:140,1,50,12|2,0:0|0:0,0:0:0:0:
416,72,237721,2,0,L|360:72,1,50,2|2,0:0|0:0,0:0:0:0:
180,140,237904,1,12,0:0:0:0:
352,140,237995,1,2,0:0:0:0:
180,140,238086,1,2,0:0:0:0:
368,140,238178,2,0,L|408:180,1,50,2|12,0:0|0:0,0:0:0:0:
216,240,238361,1,2,0:0:0:0:
400,240,238452,2,0,L|440:280,1,50,2|2,0:0|0:0,0:0:0:0:
244,332,238635,1,8,0:0:0:0:
196,332,238727,1,8,0:0:0:0:
164,288,238818,1,8,0:0:0:0:
188,240,238910,1,8,0:0:0:0:
380,96,239001,6,0,P|444:120|364:184,1,200,6|8,0:0|0:0,0:0:0:0:
200,40,239550,2,0,L|408:40,1,200,2|2,0:0|0:0,0:0:0:0:
224,248,240099,1,8,0:0:0:0:
220,198,240190,1,0,0:0:0:0:
216,148,240282,1,0,0:0:0:0:
408,128,240464,6,0,P|416:200|304:256,1,200,2|8,0:0|0:0,0:0:0:0:
144,304,241013,2,0,L|136:88,1,200,2|2,0:0|0:0,0:0:0:0:
304,112,241562,1,8,0:0:0:0:
354,112,241654,1,0,0:0:0:0:
404,112,241745,1,0,0:0:0:0:
160,352,241928,6,0,L|152:224,1,100,2|0,0:0|0:0,0:0:0:0:
208,256,242202,1,0,0:0:0:0:
152,216,242294,1,8,0:0:0:0:
328,216,242477,1,0,0:0:0:0:
232,144,242660,2,0,L|224:248,1,100,2|2,0:0|0:0,0:0:0:0:
416,144,243025,2,0,L|352:144,2,50,8|0|0,0:0|0:0|0:0,0:0:0:0:
248,104,243391,6,0,B|352:104|352:104|360:232,1,200,2|8,0:0|0:0,0:0:0:0:
192,288,243940,2,0,L|256:288,1,50
144,240,244123,2,0,L|96:192,2,50,2|2|2,0:0|0:0|0:0,0:0:0:0:
260,174,244489,2,0,L|316:174,1,50,2|2,0:0|0:0,0:0:0:0:
368,176,244672,2,0,L|376:232,1,50,2|2,0:0|0:0,0:0:0:0:
184,72,244855,6,0,B|176:168|176:168|288:168,1,200,2|8,0:0|0:0,0:0:0:0:
448,120,245404,2,0,L|376:120,1,50,2|0,0:0|0:0,0:0:0:0:
296,264,245586,2,0,L|408:264,1,100,0|2,0:0|0:0,0:0:0:0:
224,272,245952,2,0,L|216:216,2,50,8|0|0,0:0|0:0|0:0,0:0:0:0:
472,184,246318,5,2,0:0:0:0:
422,184,246410,1,0,0:0:0:0:
372,184,246501,1,2,0:0:0:0:
422,184,246593,1,0,0:0:0:0:
372,184,246684,1,8,0:0:0:0:
360,104,246867,1,2,0:0:0:0:
184,112,247050,2,0,L|296:112,2,100,2|2|8,0:0|0:0|0:0,0:0:0:0:
352,72,247599,2,0,L|280:72,1,50,2|2,0:0|0:0,0:0:0:0:
112,280,247782,6,2,L|112:232,2,25
112,216,247919,1,2,0:0:0:0:
112,208,247964,2,2,L|112:160,2,25,2|2|2,0:0|0:0|0:0,0:0:0:0:
288,216,248147,2,0,L|400:216,1,100,12|0,0:0|0:0,0:0:0:0:
407,201,248376,1,0,0:0:0:0:
415,178,248422,1,0,0:0:0:0:
409,154,248468,1,0,0:0:0:0:
390,138,248513,5,2,0:0:0:0:
448,96,248605,1,2,0:0:0:0:
344,64,248696,2,0,L|336:128,1,50,2|2,0:0|0:0,0:0:0:0:
168,64,248879,2,0,L|176:136,1,50,8|0,0:0|0:0,0:0:0:0:
360,288,249062,2,0,L|432:288,1,50,2|0,0:0|0:0,0:0:0:0:
200,280,249245,6,0,L|192:216,3,50,2|0|2|0,0:0|0:0|0:0|0:0,0:0:0:0:
368,232,249611,2,0,L|376:168,3,50,8|0|2|0,0:0|0:0|0:0|0:0,0:0:0:0:
272,192,249977,2,0,L|264:120,1,50,2|2,0:0|0:0,0:0:0:0:
168,160,250160,2,0,L|160:104,1,50,2|2,0:0|0:0,0:0:0:0:
328,104,250343,2,0,L|392:104,1,50,8|0,0:0|0:0,0:0:0:0:
280,48,250525,2,0,L|360:48,1,50,2|2,0:0|0:0,0:0:0:0:
140,48,250708,6,0,L|36:48,1,100,6|0,0:0|0:0,0:0:0:0:
96,48,250983,1,0,0:0:0:0:
152,48,251074,1,8,0:0:0:0:
328,192,251257,2,0,L|324:256,1,50,2|2,0:0|0:0,0:0:0:0:
124,192,251440,2,0,L|72:192,2,50,2|2|2,0:0|0:0|0:0,0:0:0:0:
396,48,251806,2,0,L|288:48,1,100,8|0,0:0|0:0,0:0:0:0:
356,48,252080,1,0,0:0:0:0:
156,48,252172,5,2,0:0:0:0:
92,68,252263,1,2,0:0:0:0:
56,128,252355,1,2,0:0:0:0:
74,192,252446,1,2,0:0:0:0:
136,224,252538,1,8,0:0:0:0:
312,224,252721,2,0,L|256:224,1,50,2|2,0:0|0:0,0:0:0:0:
156,224,252904,1,2,0:0:0:0:
216,224,252995,1,2,0:0:0:0:
276,224,253086,1,2,0:0:0:0:
100,316,253269,2,0,L|200:316,1,100,8|2,0:0|0:0,0:0:0:0:
260,312,253544,1,0,0:0:0:0:
76,192,253635,6,0,B|24:192|24:192|80:192,1,100,2|2,0:0|0:0,0:0:0:0:
173,192,253910,1,2,0:0:0:0:
272,192,254001,1,8,0:0:0:0:
32,192,254184,1,2,0:0:0:0:
332,192,254367,1,2,0:0:0:0:
380,192,254458,1,2,0:0:0:0:
432,192,254550,1,2,0:0:0:0:
112,100,254733,2,0,L|12:100,1,100,8|2,0:0|0:0,0:0:0:0:
68,100,255007,1,0,0:0:0:0:
280,100,255099,6,0,L|388:100,1,100,2|2,0:0|0:0,0:0:0:0:
320,100,255373,1,2,0:0:0:0:
380,100,255464,1,8,0:0:0:0:
204,100,255647,2,0,L|200:48,1,50,2|2,0:0|0:0,0:0:0:0:
404,20,255830,1,2,0:0:0:0:
344,20,255922,1,2,0:0:0:0:
284,20,256013,1,2,0:0:0:0:
460,20,256196,2,0,L|464:80,1,50,8|8,0:0|0:0,0:0:0:0:
360,112,256379,2,0,L|416:112,1,50,2|2,0:0|0:0,0:0:0:0:
208,112,256562,6,0,L|104:112,1,100,2|2,0:0|0:0,0:0:0:0:
164,112,256836,1,2,0:0:0:0:
284,112,256928,1,8,0:0:0:0:
164,192,257111,2,0,L|160:260,1,50,2|0,0:0|0:0,0:0:0:0:
356,292,257294,2,0,L|288:292,2,50,2|2|2,0:0|0:0|0:0,0:0:0:0:
84,344,257660,2,0,L|208:344,1,100,8|2,0:0|0:0,0:0:0:0:
128,344,257934,1,0,0:0:0:0:
306,360,258025,6,0,L|362:360,1,50,2|0,0:0|0:0,0:0:0:0:
356,292,258208,2,0,L|306:292,1,50,2|0,0:0|0:0,0:0:0:0:
488,192,258391,2,0,L|436:192,3,50,8|2|2|2,0:0|0:0|0:0|0:0,0:0:0:0:
236,192,258757,2,0,L|304:192,1,50,2|0,0:0|0:0,0:0:0:0:
396,100,258940,2,0,L|340:100,1,50,2|0,0:0|0:0,0:0:0:0:
144,100,259123,2,0,L|140:40,1,50,8|0,0:0|0:0,0:0:0:0:
368,28,259306,2,0,L|420:28,1,50,2|2,0:0|0:0,0:0:0:0:
192,192,259489,6,0,L|88:192,1,100,6|2,0:0|0:0,0:0:0:0:
142,192,259763,1,2,0:0:0:0:
192,192,259855,1,2,0:0:0:0:
472,192,260038,2,0,L|368:192,2,100,2|2|2,0:0|0:0|0:0,0:0:0:0:
192,192,260586,2,0,L|188:256,1,50,2|2,0:0|0:0,0:0:0:0:
388,344,260769,2,0,L|384:284,1,50,8|8,0:0|0:0,0:0:0:0:
128,192,260952,5,2,0:0:0:0:
388,192,261135,1,2,0:0:0:0:
88,192,261318,1,2,0:0:0:0:
436,192,261501,2,0,P|380:88|352:128,1,239.999992675781,12|2,0:0|0:0,0:0:0:0:
352,164,261913,1,2,0:0:0:0:
372,192,261958,1,2,0:0:0:0:
404,200,262004,1,2,0:0:0:0:
264,192,262050,2,0,L|212:192,1,50,8|8,0:0|0:0,0:0:0:0:
428,320,262233,2,0,L|484:320,1,50,8|2,0:0|0:0,0:0:0:0:
240,240,262416,6,0,L|352:240,1,100,4|2,0:0|0:0,0:0:0:0:
400,240,262690,1,0,0:0:0:0:
456,264,262782,2,0,L|464:200,1,50,8|0,0:0|0:0,0:0:0:0:
296,216,262964,1,2,0:0:0:0:
352,216,263056,2,0,L|360:160,1,50,2|2,0:0|0:0,0:0:0:0:
184,168,263330,2,0,L|192:104,1,50,2|0,0:0|0:0,0:0:0:0:
360,120,263513,2,0,L|104:120,1,240,8|0,0:0|0:0,0:0:0:0:
296,64,263879,6,0,L|304:128,1,50,2|0,0:0|0:0,0:0:0:0:
200,312,264062,2,0,L|128:312,1,50,2|0,0:0|0:0,0:0:0:0:
320,312,264245,2,0,L|328:200,1,100,8|2,0:0|0:0,0:0:0:0:
264,216,264519,1,8,0:0:0:0:
432,168,264611,2,0,L|376:168,1,50,2|2,0:0|0:0,0:0:0:0:
208,176,264794,2,0,L|200:112,1,50,2|0,0:0|0:0,0:0:0:0:
312,128,264977,2,0,L|384:128,1,50,8|0,0:0|0:0,0:0:0:0:
240,80,265160,2,0,L|176:80,1,50,2|0,0:0|0:0,0:0:0:0:
384,328,265343,6,0,L|392:224,1,100,2|2,0:0|0:0,0:0:0:0:
448,232,265617,1,2,0:0:0:0:
272,352,265708,2,0,L|264:240,1,100,8|2,0:0|0:0,0:0:0:0:
208,256,265983,1,2,0:0:0:0:
376,216,266074,2,0,L|256:216,1,100,2|2,0:0|0:0,0:0:0:0:
216,208,266349,1,0,0:0:0:0:
384,96,266440,2,0,L|512:96,1,100,8|2,0:0|0:0,0:0:0:0:
488,168,266714,1,2,0:0:0:0:
312,352,266806,6,0,L|304:280,1,50,2|0,0:0|0:0,0:0:0:0:
480,256,266989,2,0,L|400:256,1,50,2|0,0:0|0:0,0:0:0:0:
320,256,267172,2,0,L|248:256,1,50,8|0,0:0|0:0,0:0:0:0:
424,208,267355,2,0,L|432:144,1,50,2|2,0:0|0:0,0:0:0:0:
248,160,267538,2,0,L|298:160,2,50,2|0|2,0:0|0:0|0:0,0:0:0:0:
424,72,267904,2,0,L|432:128,1,50,8|0,0:0|0:0,0:0:0:0:
320,120,268086,2,0,L|328:64,1,50,2|0,0:0|0:0,0:0:0:0:
128,104,268269,6,0,L|0:104,1,100,2|0,0:0|0:0,0:0:0:0:
24,48,268544,1,0,0:0:0:0:
80,56,268635,2,0,L|88:120,1,50,8|0,0:0|0:0,0:0:0:0:
248,264,268818,2,0,L|256:192,1,50,2|0,0:0|0:0,0:0:0:0:
152,216,269001,1,2,0:0:0:0:
96,216,269093,1,0,0:0:0:0:
200,216,269184,2,0,L|208:280,1,50
40,168,269367,2,0,L|32:48,1,100,8|2,0:0|0:0,0:0:0:0:
96,72,269641,1,2,0:0:0:0:
272,352,269733,6,0,L|160:352,1,100,2|2,0:0|0:0,0:0:0:0:
232,304,270007,1,0,0:0:0:0:
172,352,270099,1,8,0:0:0:0:
16,240,270282,1,2,0:0:0:0:
64,240,270373,1,2,0:0:0:0:
112,240,270464,2,0,L|120:176,1,50,2|0,0:0|0:0,0:0:0:0:
56,184,270647,2,0,L|64:112,1,50,2|0,0:0|0:0,0:0:0:0:
168,176,270830,2,0,L|224:176,1,50,8|0,0:0|0:0,0:0:0:0:
112,104,271013,2,0,L|168:104,1,50,2|0,0:0|0:0,0:0:0:0:
328,216,271196,6,0,L|144:216,1,175,2|0,0:0|0:0,0:0:0:0:
153,216,271379,2,0,L|216:280,1,87.5,2|0,0:0|0:0,0:0:0:0:
214,279,271562,2,0,L|14:279,1,192.500005874634,8|0,0:0|0:0,0:0:0:0:
21,279,271745,2,0,L|300:279,1,259.999988098145,2|2,0:0|0:0,0:0:0:0:
120,224,272111,2,0,L|112:144,1,50,2|2,0:0|0:0,0:0:0:0:
208,192,272294,2,0,L|200:128,1,50,8|0,0:0|0:0,0:0:0:0:
88,112,272477,2,0,L|138:112,1,50,2|0,0:0|0:0,0:0:0:0:
320,112,272660,6,0,L|504:112,1,175,2|0,0:0|0:0,0:0:0:0:
495,112,272843,2,0,L|432:176,1,87.5,2|0,0:0|0:0,0:0:0:0:
434,174,273025,2,0,L|200:176,1,227.499989585877,8|0,0:0|0:0,0:0:0:0:
207,175,273208,2,0,L|393:175,1,175,2|0,0:0|0:0,0:0:0:0:
382,175,273391,2,0,L|88:176,2,279.999991455078,4|2|8,0:0|0:0|0:0,0:0:0:0:
440,176,273849,1,0,0:0:0:0:
440,176,273940,1,2,0:0:0:0:
382,175,274032,1,0,0:0:0:0:
208,320,274123,6,0,L|336:320,1,100,6|2,0:0|0:0,0:0:0:0:
248,264,274397,1,2,0:0:0:0:
184,264,274489,1,8,0:0:0:0:
360,256,274672,2,0,L|368:200,1,50,2|0,0:0|0:0,0:0:0:0:
264,192,274855,1,2,0:0:0:0:
432,168,275038,2,0,L|440:96,1,50,2|2,0:0|0:0,0:0:0:0:
264,120,275221,2,0,L|456:120,1,150,8|0,0:0|0:0,0:0:0:0:
248,344,275586,6,0,L|240:264,1,50,2|0,0:0|0:0,0:0:0:0:
408,336,275769,2,0,L|400:256,1,50,2|0,0:0|0:0,0:0:0:0:
232,248,275952,2,0,P|184:208|240:168,1,150,8|8,0:0|0:0,0:0:0:0:
336,168,276318,2,0,L|344:112,1,50,2|2,0:0|0:0,0:0:0:0:
176,120,276501,2,0,L|120:120,1,50,2|2,0:0|0:0,0:0:0:0:
312,64,276684,1,8,0:0:0:0:
144,64,276867,2,0,L|216:64,1,50,2|0,0:0|0:0,0:0:0:0:
368,280,277050,6,0,L|208:280,1,150,2|2,0:0|0:0,0:0:0:0:
48,208,277416,2,0,L|216:208,1,150,8|0,0:0|0:0,0:0:0:0:
24,136,277782,1,2,0:0:0:0:
40,88,277873,1,2,0:0:0:0:
56,48,277964,1,2,0:0:0:0:
72,144,278056,1,2,0:0:0:0:
256,168,278147,2,0,L|96:168,1,150,8|0,0:0|0:0,0:0:0:0:
320,168,278513,5,2,0:0:0:0:
367,151,278605,1,0,0:0:0:0:
399,113,278696,1,2,0:0:0:0:
409,65,278788,1,0,0:0:0:0:
312,64,278879,2,0,L|232:64,1,50,8|2,0:0|0:0,0:0:0:0:
96,56,279062,2,0,L|24:56,1,50,2|2,0:0|0:0,0:0:0:0:
152,328,279245,2,0,L|160:256,1,50,8|2,0:0|0:0,0:0:0:0:
320,312,279428,2,0,L|392:312,1,50,2|2,0:0|0:0,0:0:0:0:
200,224,279611,1,8,0:0:0:0:
144,224,279702,1,8,0:0:0:0:
200,224,279794,1,8,0:0:0:0:
144,224,279885,1,8,0:0:0:0:
328,224,279977,6,0,L|336:160,1,50,2|0,0:0|0:0,0:0:0:0:
240,144,280160,2,0,L|320:144,1,50,2|0,0:0|0:0,0:0:0:0:
296,88,280343,2,0,L|208:88,1,50,8|0,0:0|0:0,0:0:0:0:
144,48,280525,2,0,L|224:48,1,50,2|2,0:0|0:0,0:0:0:0:
368,56,280708,1,2,0:0:0:0:
376,128,280891,1,2,0:0:0:0:
136,320,281074,1,8,0:0:0:0:
192,312,281166,1,0,0:0:0:0:
224,264,281257,1,2,0:0:0:0:
232,216,281349,1,0,0:0:0:0:
64,208,281440,6,0,L|56:120,1,50,2|0,0:0|0:0,0:0:0:0:
152,168,281623,2,0,L|144:80,1,50,2|2,0:0|0:0,0:0:0:0:
240,144,281806,2,0,L|232:56,1,50,8|0,0:0|0:0,0:0:0:0:
400,136,281989,2,0,L|392:72,1,50,2|0,0:0|0:0,0:0:0:0:
336,96,282172,1,2,0:0:0:0:
184,64,282355,2,0,L|176:120,1,50,2|2,0:0|0:0,0:0:0:0:
344,288,282538,2,0,L|294:288,1,50,8|8,0:0|0:0,0:0:0:0:
120,288,282721,2,0,L|200:288,1,50,2|2,0:0|0:0,0:0:0:0:
392,224,282904,6,0,L|200:224,1,175,2|0,0:0|0:0,0:0:0:0:
217,224,283086,2,0,L|304:224,1,87.5,2|0,0:0|0:0,0:0:0:0:
305,224,283269,2,0,L|121:224,1,175,8|0,0:0|0:0,0:0:0:0:
130,224,283452,2,0,L|362:224,1,227.499989585877,2|0,0:0|0:0,0:0:0:0:
387,224,283635,1,2,0:0:0:0:
392,160,283818,2,0,L|400:96,1,50,2|2,0:0|0:0,0:0:0:0:
312,112,284001,2,0,L|240:112,1,50,8|8,0:0|0:0,0:0:0:0:
368,64,284184,2,0,L|376:120,1,50,2|2,0:0|0:0,0:0:0:0:
208,304,284367,6,0,L|32:304,1,175,10|0,0:0|0:0,0:0:0:0:
33,304,284550,2,0,L|96:240,1,87.5,2|0,0:0|0:0,0:0:0:0:
95,241,284733,2,0,L|280:240,1,175,10|0,0:0|0:0,0:0:0:0:
270,240,284916,2,0,L|80:240,1,175,2|0,0:0|0:0,0:0:0:0:
95,241,285099,2,0,L|424:240,3,300.000011444092,10|8|2|2,0:0|0:0|0:0|0:0,0:0:0:0:
344,184,285739,1,2,0:0:0:0:
168,184,285830,6,0,L|160:48,1,100,6|0,0:0|0:0,0:0:0:0:
216,80,286105,1,0,0:0:0:0:
392,72,286196,2,0,L|256:72,1,100,8|0,0:0|0:0,0:0:0:0:
240,32,286471,1,0,0:0:0:0:
408,144,286562,2,0,L|456:96,3,50,2|0|2|0,0:0|0:0|0:0|0:0,0:0:0:0:
344,152,286928,2,0,L|272:152,1,50,8|0,0:0|0:0,0:0:0:0:
128,256,287111,5,2,0:0:0:0:
84,236,287202,1,2,0:0:0:0:
71,190,287294,1,2,0:0:0:0:
97,149,287385,1,0,0:0:0:0:
145,144,287477,1,2,0:0:0:0:
392,88,287660,1,8,0:0:0:0:
224,88,287843,1,2,0:0:0:0:
464,96,288025,2,0,L|472:176,1,50,2|2,0:0|0:0,0:0:0:0:
368,144,288208,2,0,L|374:193,1,50,8|2,0:0|0:0,0:0:0:0:
200,168,288391,2,0,L|112:168,1,50,12|0,0:0|0:0,0:0:0:0:
328,336,288574,2,0,L|336:264,1,50,2|2,0:0|0:0,0:0:0:0:
152,328,288757,6,0,P|160:288|256:240,1,150,2|2,0:0|0:0,0:0:0:0:
408,128,289123,2,0,L|264:128,1,100,8|2,0:0|0:0,0:0:0:0:
248,128,289397,1,2,0:0:0:0:
408,288,289489,2,0,P|456:248|400:208,1,150,2|2,0:0|0:0,0:0:0:0:
232,208,289855,1,8,0:0:0:0:
56,208,290038,6,0,L|128:208,1,50,2|0,0:0|0:0,0:0:0:0:
296,152,290221,1,2,0:0:0:0:
136,152,290404,1,2,0:0:0:0:
376,96,290586,1,8,0:0:0:0:
120,320,290769,2,0,L|32:320,1,50,2|2,0:0|0:0,0:0:0:0:
224,280,290952,2,0,L|296:280,1,50,2|2,0:0|0:0,0:0:0:0:
88,208,291135,2,0,L|160:208,1,50,2|2,0:0|0:0,0:0:0:0:
344,176,291318,2,0,L|288:176,1,50,12|8,0:0|0:0,0:0:0:0:
72,128,291501,2,0,L|160:128,1,50,2|2,0:0|0:0,0:0:0:0:
400,72,291684,6,0,L|128:72,2,239.999992675781,6|2|8,0:0|0:0|0:0,0:0:0:0:
456,80,292141,2,0,L|464:152,1,50,0|2,0:0|0:0,0:0:0:0:
400,128,292324,1,0,0:0:0:0:
248,288,292416,1,2,0:0:0:0:
198,288,292507,1,0,0:0:0:0:
148,288,292599,1,2,0:0:0:0:
98,288,292690,1,2,0:0:0:0:
192,248,292782,2,0,L|200:176,1,50,8|0,0:0|0:0,0:0:0:0:
40,168,292964,5,2,0:0:0:0:
90,168,293056,1,2,0:0:0:0:
140,168,293147,1,2,0:0:0:0:
190,168,293239,1,2,0:0:0:0:
240,168,293330,1,2,0:0:0:0:
384,160,293513,2,0,L|400:280,1,100,8|0,0:0|0:0,0:0:0:0:
152,80,293879,2,0,L|224:80,1,50,2|0,0:0|0:0,0:0:0:0:
362,72,294062,1,8,0:0:0:0:
202,80,294154,1,2,0:0:0:0:
42,80,294245,1,12,0:0:0:0:
290,72,294428,2,0,L|298:128,1,50,2|2,0:0|0:0,0:0:0:0:
144,296,294611,6,0,P|48:256|184:128,1,350,6|0,0:0|0:0,0:0:0:0:
160,160,295343,2,0,P|256:40|352:168,1,350,8|0,0:0|0:0,0:0:0:0:
355,156,296074,6,0,P|471:258|352:356,1,350,2|0,0:0|0:0,0:0:0:0:
200,240,296806,2,0,L|288:240,1,50,8|8,0:0|0:0,0:0:0:0:
416,200,296989,2,0,L|336:200,1,50,2|2,0:0|0:0,0:0:0:0:
192,160,297172,2,0,L|272:160,1,50,8|8,0:0|0:0,0:0:0:0:
80,104,297355,2,0,L|152:104,1,50,2|2,0:0|0:0,0:0:0:0:
332,104,297538,6,0,L|436:104,1,100,4|0,0:0|0:0,0:0:0:0:
392,104,297782,1,0,0:0:0:0:
352,104,297843,1,0,0:0:0:0:
180,304,297904,2,0,L|72:304,1,100,8|2,0:0|0:0,0:0:0:0:
436,192,298269,2,0,L|368:192,2,62.5,8|2|2,0:0|0:0|0:0,0:0:0:0:
208,204,298544,2,0,P|164:152|208:92,1,150,8|2,0:0|0:0,0:0:0:0:
264,92,298910,1,2,0:0:0:0:
76,92,299001,6,0,L|20:92,1,50,2|0,0:0|0:0,0:0:0:0:
88,92,299184,2,0,L|28:92,1,50,2|0,0:0|0:0,0:0:0:0:
264,192,299367,2,0,L|328:192,1,50,8|8,0:0|0:0,0:0:0:0:
108,308,299550,1,2,0:0:0:0:
79,249,299641,1,2,0:0:0:0:
101,188,299733,1,8,0:0:0:0:
160,159,299824,1,0,0:0:0:0:
376,192,299916,2,0,L|380:136,1,50,2|2,0:0|0:0,0:0:0:0:
184,44,300099,2,0,L|128:44,1,50,8|8,0:0|0:0,0:0:0:0:
244,44,300282,2,0,L|248:104,1,50,2|2,0:0|0:0,0:0:0:0:
48,144,300464,6,0,P|20:180|24:236,1,100,6|0,0:0|0:0,0:0:0:0:
44,256,300708,1,0,0:0:0:0:
80,264,300769,1,0,0:0:0:0:
248,264,300830,2,0,L|376:264,1,100,8|0,0:0|0:0,0:0:0:0:
288,264,301105,1,0,0:0:0:0:
100,192,301196,1,8,0:0:0:0:
172,192,301288,1,2,0:0:0:0:
100,192,301379,1,2,0:0:0:0:
324,192,301471,2,0,P|372:156|324:100,1,150,8|2,0:0|0:0,0:0:0:0:
256,100,301836,1,2,0:0:0:0:
72,100,301928,6,0,L|68:48,1,50,8|8,0:0|0:0,0:0:0:0:
256,284,302111,2,0,L|200:284,1,50,2|0,0:0|0:0,0:0:0:0:
400,192,302294,2,0,L|464:192,3,50,8|8|2|2,0:0|0:0|0:0|0:0,0:0:0:0:
188,284,302660,1,8,0:0:0:0:
131,253,302751,1,0,0:0:0:0:
129,190,302843,1,8,0:0:0:0:
182,156,302934,1,0,0:0:0:0:
392,192,303025,2,0,L|396:136,1,50,8|8,0:0|0:0,0:0:0:0:
204,40,303208,2,0,L|148:40,1,50,2|2,0:0|0:0,0:0:0:0:
404,40,303391,6,0,B|456:40|456:40|400:40,1,100,6|0,0:0|0:0,0:0:0:0:
368,40,303635,1,0,0:0:0:0:
328,40,303696,1,0,0:0:0:0:
160,40,303757,2,0,L|56:40,1,100,8|0,0:0|0:0,0:0:0:0:
360,192,304123,1,8,0:0:0:0:
300,192,304214,1,2,0:0:0:0:
240,192,304306,1,2,0:0:0:0:
448,192,304397,2,0,P|492:236|448:296,1,150,8|0,0:0|0:0,0:0:0:0:
388,296,304763,1,0,0:0:0:0:
192,296,304855,6,0,L|140:296,1,50,2|0,0:0|0:0,0:0:0:0:
204,296,305038,2,0,L|152:296,1,50,2|2,0:0|0:0,0:0:0:0:
352,296,305221,2,0,L|356:232,1,50,8|2,0:0|0:0,0:0:0:0:
160,112,305404,2,0,L|104:112,2,50,8|2|8,0:0|0:0|0:0,0:0:0:0:
444,192,305769,2,0,L|392:192,1,50,2|2,0:0|0:0,0:0:0:0:
192,192,305952,2,0,L|149:156,1,50,8|8,0:0|0:0,0:0:0:0:
356,192,306135,2,0,L|344:128,1,50,2|2,0:0|0:0,0:0:0:0:
100,192,306318,6,0,B|48:192|48:192|104:192,1,100,6|0,0:0|0:0,0:0:0:0:
136,192,306562,1,0,0:0:0:0:
176,192,306623,1,0,0:0:0:0:
344,192,306684,2,0,L|444:192,1,100,8|0,0:0|0:0,0:0:0:0:
164,88,307050,1,8,0:0:0:0:
252,88,307141,1,2,0:0:0:0:
340,88,307233,1,2,0:0:0:0:
99,87,307324,2,0,P|44:124|100:208,1,187.5,8|2,0:0|0:0,0:0:0:0:
160,208,307690,1,2,0:0:0:0:
348,208,307782,6,0,L|476:208,1,125,6|2,0:0|0:0,0:0:0:0:
252,308,308056,2,0,L|316:308,1,62.5,8|0,0:0|0:0,0:0:0:0:
96,116,308239,2,0,L|168:116,1,62.5,8|0,0:0|0:0,0:0:0:0:
396,116,308422,2,0,L|320:116,1,62.5,8|0,0:0|0:0,0:0:0:0:
80,192,308605,2,0,L|152:192,2,62.5,8|2|2,0:0|0:0|0:0,0:0:0:0:
396,192,308879,1,8,0:0:0:0:
465,230,308971,1,8,0:0:0:0:
464,310,309062,1,8,0:0:0:0:
395,348,309154,1,8,0:0:0:0:
184,348,309245,6,0,L|80:348,1,100,4|0,0:0|0:0,0:0:0:0:
124,348,309489,1,0,0:0:0:0:
164,348,309550,1,0,0:0:0:0:
332,192,309611,2,0,L|440:192,1,100,8|0,0:0|0:0,0:0:0:0:
116,192,309977,2,0,L|184:192,2,62.5,8|2|2,0:0|0:0|0:0,0:0:0:0:
320,192,310251,2,0,B|320:116|320:116|240:116,1,150,8|2,0:0|0:0,0:0:0:0:
184,116,310617,1,2,0:0:0:0:
384,116,310708,6,0,L|440:116,1,50,8|0,0:0|0:0,0:0:0:0:
250,28,310891,2,0,L|310:28,1,50,2|0,0:0|0:0,0:0:0:0:
116,192,311074,2,0,L|52:192,1,50,8|0,0:0|0:0,0:0:0:0:
280,192,311257,1,2,0:0:0:0:
340,192,311349,1,2,0:0:0:0:
400,192,311440,1,8,0:0:0:0:
116,192,311623,2,0,L|112:248,1,50,2|2,0:0|0:0,0:0:0:0:
308,340,311806,2,0,L|248:340,1,50,8|8,0:0|0:0,0:0:0:0:
152,340,311989,2,0,L|156:280,1,50,2|2,0:0|0:0,0:0:0:0:
408,340,312172,6,0,P|436:304|432:248,1,100,6|0,0:0|0:0,0:0:0:0:
408,220,312416,1,0,0:0:0:0:
368,212,312477,1,0,0:0:0:0:
200,188,312538,2,0,B|148:188|148:188|204:188,1,100,8|0,0:0|0:0,0:0:0:0:
256,188,312812,1,0,0:0:0:0:
72,108,312904,1,8,0:0:0:0:
12,108,312995,1,2,0:0:0:0:
72,108,313086,1,2,0:0:0:0:
272,96,313178,2,0,P|324:128|332:212,1,150,8|2,0:0|0:0,0:0:0:0:
272,256,313544,1,2,0:0:0:0:
72,256,313635,6,0,L|124:256,1,50,8|8,0:0|0:0,0:0:0:0:
336,352,313818,2,0,L|340:296,1,50,2|2,0:0|0:0,0:0:0:0:
128,352,314001,2,0,L|64:352,1,50,8|8,0:0|0:0,0:0:0:0:
272,256,314184,2,0,L|208:256,1,50,2|2,0:0|0:0,0:0:0:0:
420,256,314367,1,2,0:0:0:0:
448,204,314458,1,0,0:0:0:0:
420,152,314550,1,2,0:0:0:0:
360,152,314641,1,2,0:0:0:0:
120,164,314733,2,0,L|124:220,1,50,8|8,0:0|0:0,0:0:0:0:
324,84,314916,2,0,L|320:28,1,50,2|2,0:0|0:0,0:0:0:0:
109,32,315099,6,0,B|57:32|57:32|113:32,1,100,6|0,0:0|0:0,0:0:0:0:
145,32,315343,1,0,0:0:0:0:
185,32,315404,1,0,0:0:0:0:
353,32,315464,2,0,L|457:32,1,100,8|0,0:0|0:0,0:0:0:0:
153,184,315830,1,8,0:0:0:0:
304,184,315922,1,2,0:0:0:0:
456,184,316013,1,2,0:0:0:0:
232,184,316105,2,0,P|188:228|232:288,1,150,8|2,0:0|0:0,0:0:0:0:
304,288,316471,1,2,0:0:0:0:
108,288,316562,6,0,L|56:288,1,50,8|0,0:0|0:0,0:0:0:0:
244,356,316745,2,0,L|192:356,1,50,2|0,0:0|0:0,0:0:0:0:
380,192,316928,2,0,L|328:192,1,50,8|8,0:0|0:0,0:0:0:0:
144,192,317111,1,2,0:0:0:0:
128,128,317202,1,2,0:0:0:0:
160,71,317294,1,8,0:0:0:0:
222,51,317385,1,0,0:0:0:0:
436,192,317477,2,0,L|384:192,1,50,2|2,0:0|0:0,0:0:0:0:
184,192,317660,2,0,L|227:156,1,50,8|8,0:0|0:0,0:0:0:0:
436,192,317843,2,0,L|424:128,1,50,2|2,0:0|0:0,0:0:0:0:
216,52,318025,6,0,B|100:52,1,100,6|0,0:0|0:0,0:0:0:0:
160,52,318269,1,0,0:0:0:0:
204,52,318330,1,0,0:0:0:0:
372,52,318391,2,0,L|472:52,1,100,8|0,0:0|0:0,0:0:0:0:
412,52,318666,1,0,0:0:0:0:
212,192,318757,1,8,0:0:0:0:
388,192,318849,1,2,0:0:0:0:
200,192,318940,1,2,0:0:0:0:
400,192,319032,2,0,P|455:229|399:313,1,187.5,8|2,0:0|0:0,0:0:0:0:
339,313,319397,1,2,0:0:0:0:
112,192,319489,6,0,L|176:192,2,62.5,6|2|2,0:0|0:0|0:0,0:0:0:0:
310,192,319763,2,0,L|382:192,1,62.5,8|2,0:0|0:0,0:0:0:0:
176,112,319946,2,0,L|260:112,1,62.5,8|2,0:0|0:0,0:0:0:0:
41,32,320129,2,0,L|125:32,1,62.5,8|2,0:0|0:0,0:0:0:0:
348,192,320312,1,8,0:0:0:0:
199,192,320404,1,8,0:0:0:0:
52,192,320495,1,2,0:0:0:0:
276,352,320586,2,0,L|348:352,1,62.5,8|8,0:0|0:0,0:0:0:0:
340,288,320769,2,0,L|276:288,1,62.5,2|2,0:0|0:0,0:0:0:0:
40,288,320952,5,4,0:0:0:0:
256,192,321135,12,0,331196,0:0:0:0:
