osu file format v14

[General]
AudioFilename: audio.mp3
AudioLeadIn: 0
PreviewTime: 180464
Countdown: 0
SampleSet: Soft
StackLeniency: 0.7
Mode: 2
LetterboxInBreaks: 0
WidescreenStoryboard: 1

[Editor]
Bookmarks: 3391,15099,28269,39977
DistanceSpacing: 1
BeatDivisor: 4
GridSize: 4
TimelineZoom: 1.4

[Metadata]
Title:Drive Your Fire
TitleUnicode:Drive Your Fire
Artist:A-One
ArtistUnicode:A-One
Creator:JBHyperion
Version:Cup
Source:東方永夜抄 ~ Imperishable Night.
Tags:Dako GIGACHAD ZiRoX wonjae Paranoid Grapes 東方Touhou Project TOHO EUROBEAT VOL.16 永夜抄 Comiket 92 エクステンドアッシュ ~ 蓬莱人 Extend Ash ~ Hourai Victim Extra Stage Theme 月まで届け、不死の煙 Reach for the Moon Immortal Smoke Fujiwara no Mokou Boss 藤原 妹紅 上白沢 慧音 Kamishirasawa Keine 越田 隆人 あき Aki Rute AbsoRute Zero Koshida Takahito Yassie DJ Command ZUN 上海アリス幻樂団 Team Shanghai Alice eurobeat electronic rock japanese
BeatmapID:3172290
BeatmapSetID:1480185

[Difficulty]
HPDrainRate:3
CircleSize:2.4
OverallDifficulty:6
ApproachRate:6
SliderMultiplier:1.5
SliderTickRate:1

[Events]
//Background and Video events
0,0,"24324280_p0.jpg",0,0
//Break Periods
2,122128,132172
2,215786,223317
2,239201,249245
//Storyboard Layer 0 (Background)
//Storyboard Layer 1 (Fail)
//Storyboard Layer 2 (Pass)
//Storyboard Layer 3 (Foreground)
//Storyboard Layer 4 (Overlay)
//Storyboard Sound Samples

[TimingPoints]
465,365.853658536585,4,2,1,20,1,0
1562,-100,4,2,1,25,0,0
1928,-100,4,2,1,30,0,0
2294,-100,4,2,1,35,0,0
2660,-100,4,2,1,40,0,0
3025,-100,4,2,1,45,0,0
3391,-100,4,2,77,60,0,0
3483,-100,4,2,1,60,0,0
9062,-100,4,3,1,60,0,0
9336,-100,4,2,1,60,0,0
13635,-100,4,2,1,60,0,0
14550,-100,4,2,1,60,0,0
14733,-100,4,3,1,65,0,0
15099,-100,4,2,2,70,0,0
15464,-100,4,2,2,60,0,0
17843,-100,4,2,1,60,0,0
18025,-100,4,2,2,60,0,0
18940,-100,4,2,0,80,0,0
19123,-100,4,2,2,60,0,0
19306,-100,4,2,0,80,0,0
19489,-100,4,2,2,60,0,0
22416,-100,4,2,2,65,0,0
23879,-100,4,2,2,70,0,0
25343,-100,4,2,2,75,0,0
26074,-100,4,2,2,75,0,0
26440,-100,4,2,2,75,0,0
26623,-100,4,2,2,75,0,0
26989,-100,4,2,1,25,0,0
27172,-100,4,2,1,30,0,0
27538,-100,4,2,1,35,0,0
27904,-100,4,2,1,40,0,0
28086,-100,4,2,1,5,0,0
28269,-100,4,2,77,80,0,0
28361,-100,4,2,2,90,0,0
34123,-100,4,2,2,90,0,0
38056,-100,4,2,2,90,0,0
38330,-100,4,2,2,90,0,0
38513,-100,4,2,2,90,0,0
38696,-100,4,2,2,90,0,0
39977,-100,4,2,2,90,0,0
40160,-100,4,2,1,80,0,0
47294,-100,4,2,10,80,0,0
47477,-100,4,2,1,80,0,0
51318,-100,4,3,0,80,0,0
51684,-100,4,2,1,80,0,0
56074,-100,4,2,10,80,0,0
56257,-100,4,2,1,80,0,0
60099,-100,4,2,2,80,0,0
60464,-100,4,2,1,80,0,0
62660,-100,4,2,2,80,0,0
63391,-100,4,2,1,80,0,0
63574,-100,4,2,10,80,0,0
63757,-100,4,2,1,80,0,0
65038,-100,4,2,10,80,0,0
65221,-100,4,2,1,80,0,0
69428,-100,4,2,10,80,0,0
69611,-100,4,2,1,80,0,0
70708,-100,4,2,1,80,0,0
71074,-100,4,2,1,80,0,0
72172,-100,4,2,2,80,0,0
73635,-100,4,2,1,100,0,0
75282,-100,4,2,1,90,0,0
79489,-100,4,2,1,80,0,0
79855,-100,4,2,1,80,0,0
83513,-100,4,2,2,80,0,0
83879,-100,4,2,1,80,0,0
84245,-100,4,3,0,80,0,0
84428,-100,4,2,1,80,0,0
84611,-100,4,3,0,80,0,0
84794,-100,4,2,1,80,0,0
85160,-100,4,3,0,80,0,0
85343,-100,4,2,1,80,0,0
86806,-100,4,2,77,90,0,1
86989,-100,4,2,2,90,0,1
87904,-100,4,2,2,90,0,1
88178,-100,4,2,2,90,0,1
91562,-100,4,2,11,90,0,1
91745,-100,4,2,2,90,0,1
95586,-100,4,2,2,90,0,1
95747,-100,4,2,2,5,0,1
95769,-100,4,2,2,90,0,1
95929,-100,4,2,2,5,0,1
95952,-100,4,2,2,90,0,1
96112,-100,4,2,2,5,0,1
96135,-100,4,2,2,90,0,1
96318,-100,4,2,2,90,0,1
97050,-100,4,2,2,90,0,1
97210,-100,4,2,2,5,0,1
97233,-100,4,2,2,90,0,1
97393,-100,4,2,2,5,0,1
97416,-100,4,3,0,90,0,1
97576,-100,4,2,2,5,0,1
97599,-100,4,3,0,90,0,1
97759,-100,4,2,2,5,0,1
97782,-80,4,3,0,90,0,1
97964,-100,4,2,2,90,0,1
98147,-100,4,2,2,90,0,1
107294,-100,4,2,2,90,0,1
107455,-100,4,2,2,5,0,1
107477,-100,4,2,2,90,0,1
107637,-100,4,2,2,5,0,1
107660,-100,4,2,2,90,0,1
107820,-100,4,2,2,5,0,1
107843,-100,4,2,2,90,0,1
108003,-100,4,2,2,5,0,1
108026,-100,4,2,2,90,0,1
108757,-100,4,2,2,90,0,1
108917,-100,4,2,2,5,0,1
108940,-100,4,2,2,90,0,1
109100,-100,4,2,2,5,0,1
109123,-100,4,2,2,90,0,1
109283,-100,4,2,2,5,0,1
109306,-100,4,2,2,90,0,1
109466,-100,4,2,2,5,0,1
109489,-80,4,2,2,90,0,1
110129,-100,4,2,2,90,0,0
110221,-100,4,2,2,90,0,1
115708,-100,4,3,0,90,0,1
116074,-100,4,2,2,90,0,1
116257,-100,4,2,2,90,0,1
119001,-100,4,2,1,90,0,1
121836,-100,4,2,2,90,0,0
121928,-100,4,2,77,80,0,1
122019,-100,4,2,2,90,0,0
124489,-100,4,3,0,90,0,0
133635,-100,4,2,1,80,0,0
135099,-100,4,2,10,80,0,0
135282,-100,4,2,1,80,0,0
138025,-100,4,2,10,80,0,0
138208,-100,4,2,1,80,0,0
140952,-100,4,2,10,80,0,0
141135,-100,4,2,1,80,0,0
144977,-100,4,3,0,80,0,0
145343,-100,4,2,1,80,0,0
146806,-100,4,2,10,80,0,0
146989,-100,4,2,1,80,0,0
148452,-100,4,2,10,80,0,0
148544,-100,4,2,1,80,0,0
153757,-100,4,2,2,80,0,0
154122,-100,4,2,1,80,0,0
156318,-100,4,2,1,80,0,0
157233,-100,4,2,1,80,0,0
166196,-100,4,2,2,80,0,0
166379,-100,4,2,2,80,0,0
167294,-100,4,2,1,80,0,0
173147,-100,4,2,1,80,0,0
173513,-100,4,2,1,80,0,0
177172,-100,4,2,2,80,0,0
177538,-100,4,2,1,80,0,0
177904,-100,4,3,0,80,0,0
178087,-100,4,2,1,80,0,0
178270,-100,4,3,0,80,0,0
178453,-100,4,2,1,80,0,0
178819,-100,4,3,0,80,0,0
179002,-100,4,2,1,80,0,0
180464,-100,4,2,77,90,0,1
180647,-100,4,2,2,90,0,1
191440,-80,4,2,2,90,0,1
191623,-100,4,2,2,90,0,1
191806,-100,4,2,2,90,0,1
202576,-100,4,2,2,5,0,1
202599,-100,4,2,2,90,0,1
202759,-100,4,2,2,5,0,1
202782,-100,4,2,2,90,0,1
203147,-80,4,2,1,90,0,1
203330,-100,4,2,2,90,0,1
203513,-100,4,2,1,90,0,1
203696,-100,4,3,0,90,0,1
203788,-100,4,3,0,90,0,0
203879,-100,4,2,2,90,0,1
209184,-100,4,3,0,90,0,1
209367,-100,4,2,1,90,0,1
209458,-100,4,3,0,90,0,1
209733,-100,4,2,2,90,0,1
212660,-100,4,2,1,90,0,1
215221,-100,4,2,1,90,0,1
215495,-100,4,2,2,90,0,0
215586,-100,4,2,77,90,0,1
215678,-100,4,2,1,90,0,0
217964,-100,4,2,1,80,0,0
218147,-100,4,2,1,80,0,0
218513,-100,4,2,1,90,0,0
218696,-100,4,2,1,90,0,0
218788,-100,4,2,1,80,0,0
218971,-100,4,2,1,80,0,0
219245,-100,4,2,1,90,0,0
219428,-100,4,2,1,80,0,0
219794,-100,4,2,1,90,0,0
220525,-100,4,3,0,90,0,0
220891,-100,4,2,1,90,0,0
222172,-100,4,2,1,90,0,0
222721,-100,4,2,1,90,0,0
224367,-100,4,2,1,60,0,0
225830,-100,4,2,1,70,0,0
226562,-100,4,2,2,90,0,0
227294,-100,4,2,1,90,0,0
229306,-100,4,2,1,70,0,0
229397,-100,4,2,1,90,0,0
229580,-100,4,2,1,90,0,0
229672,-100,4,2,1,70,0,0
232782,-100,4,3,0,90,0,0
233147,-100,4,2,1,90,0,0
235251,-100,4,2,1,90,0,0
235434,-100,4,2,1,90,0,0
237538,-100,4,2,1,90,0,0
239001,-100,4,2,1,90,0,0
249245,-100,4,2,1,75,0,0
250708,-100,4,2,1,90,0,0
259489,-100,4,2,1,80,0,0
259672,-100,4,2,1,80,0,0
259855,-100,4,3,0,80,0,0
260038,-100,4,2,1,80,0,0
260221,-100,4,3,0,80,0,0
260404,-100,4,2,1,80,0,0
260770,-100,4,3,0,80,0,0
260953,-100,4,2,1,80,0,0
261501,-100,4,2,1,80,0,0
261867,-100,4,2,1,80,0,0
262416,-100,4,2,77,90,0,1
262599,-100,4,2,2,90,0,1
263513,-100,4,2,2,90,0,1
263787,-100,4,2,2,90,0,1
271195,-100,4,2,2,90,0,1
271356,-100,4,2,2,5,0,1
271378,-100,4,2,2,90,0,1
271538,-100,4,2,2,5,0,1
271561,-100,4,2,2,90,0,1
271721,-100,4,2,2,5,0,1
271744,-100,4,2,2,90,0,1
271927,-100,4,2,2,90,0,1
272659,-100,4,2,2,90,0,1
272819,-100,4,2,2,5,0,1
272842,-100,4,2,2,90,0,1
273002,-100,4,2,2,5,0,1
273025,-100,4,3,0,90,0,1
273185,-100,4,2,2,5,0,1
273208,-100,4,2,2,90,0,1
273368,-100,4,2,2,5,0,1
273391,-80,4,3,0,90,0,1
273573,-100,4,2,1,90,0,1
273756,-100,4,2,2,90,0,1
273757,-100,4,2,1,90,0,1
282903,-100,4,2,2,90,0,1
283064,-100,4,2,2,5,0,1
283086,-100,4,2,2,90,0,1
283246,-100,4,2,2,5,0,1
283269,-100,4,2,2,90,0,1
283429,-100,4,2,2,5,0,1
283452,-100,4,2,2,90,0,1
283612,-100,4,2,2,5,0,1
283635,-100,4,2,2,90,0,1
284366,-100,4,2,2,90,0,1
284526,-100,4,2,2,5,0,1
284549,-100,4,2,2,90,0,1
284709,-100,4,2,2,5,0,1
284732,-100,4,2,2,90,0,1
284892,-100,4,2,2,5,0,1
284915,-100,4,2,2,90,0,1
285075,-100,4,2,2,5,0,1
285098,-100,4,2,2,90,0,1
285099,-80,4,2,1,90,0,1
285282,-100,4,3,0,90,0,1
285464,-100,4,2,1,90,0,1
285647,-100,4,2,2,90,0,1
285739,-100,4,2,2,90,0,0
285830,-100,4,2,2,90,0,1
291683,-100,4,2,2,90,0,1
291866,-100,4,2,2,90,0,1
294611,-100,4,2,1,90,0,1
296074,-100,4,2,2,90,0,1
297446,-100,4,2,2,90,0,0
297538,-100,4,2,77,90,0,1
297629,-100,4,2,2,90,0,0
298269,-100,4,2,2,90,0,0
298544,-100,4,2,2,90,0,0
307324,-100,4,2,2,90,0,0
307599,-100,4,2,2,90,0,0
307782,-100,4,2,2,100,0,0
308605,-100,4,2,1,80,0,0
309245,-100,4,2,77,80,0,0
309428,-100,4,2,2,90,0,0
309977,-100,4,2,2,90,0,0
310160,-100,4,2,2,90,0,0
319032,-100,4,2,2,90,0,0
319306,-100,4,2,2,90,0,0
319489,-100,4,2,2,100,0,0
320952,-100,4,2,77,100,0,0
321135,-100,4,2,1,60,0,0
321318,-100,4,2,1,59,0,0
321684,-100,4,2,1,57,0,0
322050,-100,4,2,1,55,0,0
322416,-100,4,2,1,53,0,0
322782,-100,4,2,1,51,0,0
323148,-100,4,2,1,49,0,0
323513,-100,4,2,1,47,0,0
323879,-100,4,2,1,45,0,0
324245,-100,4,2,1,43,0,0
324611,-100,4,2,1,41,0,0
324977,-100,4,2,1,39,0,0
325343,-100,4,2,1,37,0,0
325709,-100,4,2,1,35,0,0
326074,-100,4,2,1,33,0,0
326440,-100,4,2,1,31,0,0
326806,-100,4,2,1,29,0,0
327172,-100,4,2,1,27,0,0
327538,-100,4,2,1,25,0,0
327904,-100,4,2,1,23,0,0
328270,-100,4,2,1,21,0,0
328635,-100,4,2,1,19,0,0
329001,-100,4,2,1,17,0,0
329367,-100,4,2,1,15,0,0
329733,-100,4,2,1,13,0,0
330099,-100,4,2,1,11,0,0
330465,-100,4,2,1,9,0,0
330831,-100,4,2,1,7,0,0
331196,-100,4,2,1,5,0,0

[Colours]
Combo1 : 100,230,230
Combo2 : 210,40,40
Combo3 : 220,120,40
Combo4 : 60,120,60
Combo5 : 60,45,150
Combo6 : 180,180,240

[HitObjects]
256,192,1379,12,0,3025,0:0:0:0:
232,192,3391,6,0,L|236:28,1,150,4|8,0:0|0:0,0:0:0:0:
100,44,4123,2,0,B|83:120|83:120|104:44,1,150,2|8,0:0|0:0,0:0:0:0:
236,44,4855,6,0,L|240:200,1,150,2|8,0:0|0:0,0:0:0:0:
376,192,5586,2,0,B|445:231|445:231|380:192,1,150,2|8,0:0|0:0,0:0:0:0:
232,192,6318,6,0,L|228:320,1,112.5,6|2,0:0|0:0,0:0:0:0:
340,80,6867,2,0,L|336:208,1,112.5,6|2,0:0|0:0,0:0:0:0:
448,196,7416,1,8,0:0:0:0:
372,192,7599,1,6,0:0:0:0:
296,192,7782,6,0,P|264:60|348:192,1,450,6|8,0:0|0:0,0:0:0:0:
276,192,9062,1,6,0:0:0:0:
201,191,9245,6,0,L|196:348,1,150,6|8,0:0|0:0,0:0:0:0:
348,192,9977,2,0,L|352:296,1,75,2|2,0:0|0:0,0:0:0:0:
280,324,10343,1,8,0:0:0:0:
160,324,10708,6,0,L|156:168,1,150,2|8,0:0|0:0,0:0:0:0:
292,176,11440,2,0,B|360:216|360:216|288:176,1,150,2|8,0:0|0:0,0:0:0:0:
156,176,12172,6,0,P|104:128|152:88,1,150,6|8,0:0|0:0,0:0:0:0:
288,88,12904,1,2,0:0:0:0:
140,88,13269,2,0,L|136:176,1,75,8|6,0:0|0:0,0:0:0:0:
212,192,13635,6,0,L|328:192,3,112.5,6|6|6|2,0:0|0:0|0:0|0:0,0:0:0:0:
436,192,14733,2,0,L|440:288,1,75,8|8,0:0|0:0,0:0:0:0:
364,268,15099,6,0,L|208:268,1,150,6|2,0:0|0:0,0:0:0:0:
64,268,15830,2,0,L|56:176,1,75,2|0,0:0|0:0,0:0:0:0:
240,324,16562,6,0,L|248:160,1,150,2|2,0:0|0:0,0:0:0:0:
396,180,17294,2,0,L|400:88,1,75,2|0,0:0|0:0,0:0:0:0:
248,104,17843,1,4,0:0:0:0:
164,220,18025,6,0,L|160:107,1,112.5,6|0,0:0|0:0,0:0:0:0:
268,332,18574,2,0,L|272:220,1,112.5,8|0,0:0|0:0,0:0:0:0:
380,220,19123,1,2,0:0:0:0:
296,220,19306,1,4,0:0:0:0:
212,220,19489,6,0,P|112:304|216:384,1,300,2|4,0:0|0:3,0:0:0:0:
364,384,20586,2,0,L|288:384,1,75,4|8,0:3|0:3,0:0:0:0:
212,384,20952,6,0,L|208:232,1,150,6|8,0:0|0:0,0:0:0:0:
352,192,21684,2,0,L|428:148,2,75,2|2|8,0:0|0:0|0:0,0:0:0:0:
216,192,22416,6,0,L|372:192,1,150,2|8,0:0|0:0,0:0:0:0:
216,192,23147,1,2,0:0:0:0:
140,192,23330,1,2,0:0:0:0:
64,192,23513,1,8,0:0:0:0:
228,192,23879,6,0,L|232:40,1,150,2|8,0:0|0:0,0:0:0:0:
396,300,24611,2,0,L|392:148,1,150,2|8,0:0|0:0,0:0:0:0:
256,192,25343,12,6,26806,0:0:0:0:
152,188,28269,6,0,L|148:32,1,150,4|8,0:0|0:0,0:0:0:0:
300,36,29001,2,0,L|436:36,1,112.5,2|8,0:0|0:0,0:0:0:0:
220,36,29733,6,0,P|172:84|220:136,1,150,2|8,0:0|0:0,0:0:0:0:
296,136,30282,1,0,0:0:0:0:
444,136,30647,1,0,0:0:0:0:
368,136,30830,2,0,L|364:232,1,75,8|0,0:0|0:0,0:0:0:0:
448,212,31196,6,0,L|452:368,1,150,6|8,0:0|0:0,0:0:0:0:
296,364,31928,2,0,L|164:364,1,112.5,2|8,0:0|0:0,0:0:0:0:
380,364,32660,6,0,L|224:364,1,150,2|8,0:0|0:0,0:0:0:0:
80,364,33391,1,2,0:0:0:0:
52,276,33574,1,2,0:0:0:0:
100,200,33757,1,8,0:3:0:0:
184,188,33940,1,4,0:3:0:0:
268,188,34123,6,0,L|272:36,1,150,6|8,0:0|0:0,0:0:0:0:
136,40,34855,2,0,L|0:40,1,112.5,2|8,0:0|0:0,0:0:0:0:
216,40,35586,6,0,P|264:88|216:140,1,150,2|8,0:0|0:0,0:0:0:0:
140,140,36135,1,0,0:0:0:0:
288,140,36501,1,0,0:0:0:0:
364,140,36684,2,0,L|452:140,1,75,8|0,0:0|0:0,0:0:0:0:
356,140,37050,6,0,L|352:296,1,150,6|8,0:0|0:0,0:0:0:0:
212,288,37782,1,2,0:0:0:0:
324,288,38056,2,0,P|364:260|324:232,1,112.5,8|2,0:0|0:0,0:0:0:0:
248,232,38513,6,0,L|132:232,1,112.5,6|8,0:0|0:0,0:0:0:0:
228,232,39154,1,8,0:0:0:0:
146,232,39336,1,8,0:0:0:0:
64,232,39519,1,8,0:0:0:0:
204,108,39977,6,0,L|354:53,2,150,6|8|2,0:0|0:0|0:0,0:0:0:0:
128,108,40891,1,2,0:0:0:0:
280,108,41257,6,0,P|348:140|372:212,1,150,2|0,0:0|0:0,0:0:0:0:
288,208,41806,1,8,0:0:0:0:
140,284,42172,2,0,L|136:208,1,75,2|2,0:0|0:0,0:0:0:0:
336,196,42904,6,0,P|380:152|336:92,1,150,2|8,0:0|0:0,0:0:0:0:
252,92,43452,1,0,0:0:0:0:
168,92,43635,2,0,L|164:4,1,75,2|8,0:0|0:0,0:0:0:0:
316,16,44184,6,0,L|480:16,1,150,2|2,0:0|0:0,0:0:0:0:
392,16,44733,1,8,0:0:0:0:
268,140,45099,2,0,L|184:140,2,75,2|2|8,0:0|0:0|0:0,0:0:0:0:
420,140,45830,6,0,L|280:196,2,150,2|8|2,0:0|0:0|0:0,0:0:0:0:
488,140,46745,1,8,0:0:0:0:
336,140,47111,6,0,P|268:172|244:244,1,150,0|0,0:0|0:0,0:0:0:0:
328,240,47660,1,8,0:0:0:0:
412,240,47843,2,0,P|484:292|412:376,1,225,0|8,0:0|0:0,0:0:0:0:
244,376,48757,5,2,0:0:0:0:
108,376,49123,1,8,0:0:0:0:
256,376,49489,2,0,L|260:288,1,75,2|2,0:0|0:0,0:0:0:0:
108,252,50038,6,0,P|32:188|108:124,1,225,2|8,0:0|0:0,0:0:0:0:
188,124,50769,1,2,0:0:0:0:
272,124,50952,2,0,L|104:124,1,150,2|8,0:0|0:0,0:0:0:0:
288,124,51684,6,0,L|292:284,1,150,6|8,0:0|0:0,0:0:0:0:
140,348,52416,2,0,L|136:272,1,75,2|2,0:0|0:0,0:0:0:0:
284,196,52964,6,0,P|328:224|284:292,1,150,2|0,0:0|0:0,0:0:0:0:
204,292,53513,2,0,L|339:214,1,150,8|2,0:0|0:0,0:0:0:0:
333,217,54062,1,2,0:0:0:0:
132,196,54611,6,0,L|12:95,2,150,2|8|2,0:0|0:0|0:0,0:0:0:0:
208,196,55525,1,2,0:0:0:0:
360,196,55891,6,0,B|436:196|436:196|436:120,1,150,2|0,0:0|0:0,0:0:0:0:
352,124,56440,1,8,0:0:0:0:
203,122,56806,2,0,L|119:122,2,75,2|2|8,0:0|0:0|0:0,0:0:0:0:
352,124,57538,6,0,L|356:284,1,150,6|8,0:0|0:0,0:0:0:0:
204,348,58269,2,0,L|200:272,1,75,2|2,0:0|0:0,0:0:0:0:
348,196,58818,6,0,P|392:224|348:292,1,150,2|0,0:0|0:0,0:0:0:0:
268,292,59367,1,8,0:0:0:0:
350,291,59550,2,0,P|422:239|350:155,1,225,2|8,0:0|0:0,0:0:0:0:
266,155,60282,1,0,0:0:0:0:
182,155,60464,5,6,0:0:0:0:
332,156,60830,1,8,0:0:0:0:
484,156,61196,2,0,L|488:244,1,75,2|2,0:0|0:0,0:0:0:0:
336,232,61745,6,0,L|164:232,1,150,2|2,0:0|0:0,0:0:0:0:
184,232,62294,1,8,0:0:0:0:
336,232,62660,1,2,0:0:0:0:
340,164,62843,1,0,0:0:0:0:
344,92,63025,1,8,0:3:0:0:
198,82,63391,6,0,P|146:126|194:170,1,150,6|8,0:0|0:0,0:0:0:0:
342,309,64123,2,0,L|348:135,1,150,0|8,0:0|0:0,0:0:0:0:
264,156,64672,1,0,0:0:0:0:
180,156,64855,6,0,L|32:192,1,150,2|8,0:0|0:0,0:0:0:0:
180,156,65586,2,0,L|184:324,1,150,0|8,0:0|0:0,0:0:0:0:
260,304,66135,1,0,0:0:0:0:
332,304,66318,6,0,L|328:152,1,150,2|8,0:0|0:0,0:0:0:0:
164,188,67050,2,0,L|309:152,1,150,0|8,0:0|0:0,0:0:0:0:
460,152,67782,6,0,P|456:88|328:4,1,225,2|0,0:0|0:0,0:0:0:0:
256,4,68513,1,2,0:0:0:0:
408,0,68879,2,0,L|412:96,1,75,8|0,0:0|0:0,0:0:0:0:
336,72,69245,6,0,L|200:150,1,150,6|8,0:0|0:0,0:0:0:0:
56,147,69977,2,0,L|216:147,2,150,0|8|2,0:0|0:0|0:0,0:0:0:0:
252,192,71440,2,0,L|256:272,1,75,2|0,0:0|0:0,0:0:0:0:
174,320,71806,1,2,0:0:0:0:
92,324,71989,6,0,P|24:256|92:168,1,225,2|8,0:0|0:0,0:0:0:0:
240,168,72904,2,0,L|312:192,2,75,2|2|8,0:0|0:0|0:0,0:0:0:0:
164,168,73452,6,0,P|84:116|164:92,1,225,2|8,0:0|0:0,0:0:0:0:
240,92,74367,1,2,0:0:0:0:
120,168,74733,1,8,0:0:0:0:
272,168,75099,6,0,L|420:192,1,150,6|8,0:0|0:0,0:0:0:0:
272,192,75830,1,2,0:0:0:0:
196,192,76013,1,2,0:0:0:0:
120,192,76196,1,8,0:0:0:0:
272,192,76562,6,0,P|376:148|408:40,2,225,2|2|8,0:0|0:0|0:0,0:0:0:0:
108,192,78025,6,0,L|100:352,1,150,2|8,0:0|0:0,0:0:0:0:
236,344,78757,1,2,0:0:0:0:
88,340,79123,1,8,0:0:0:0:
252,344,79489,6,0,P|312:288|236:192,1,225,2|2,0:0|0:0,0:0:0:0:
164,192,80221,1,2,0:0:0:0:
88,192,80586,1,8,0:0:0:0:
239,192,80952,6,0,L|464:192,2,225,2|2|8,0:0|0:0|0:0,0:0:0:0:
88,192,82416,6,0,L|84:24,1,150,2|8,0:0|0:0,0:0:0:0:
236,40,83147,1,0,0:0:0:0:
84,42,83513,2,0,L|18:80,1,75,2|0,0:0|0:0,0:0:0:0:
84,42,83879,6,0,P|156:116|84:192,1,225,6|2,0:0|0:0,0:0:0:0:
88,191,84977,1,2,0:0:0:0:
240,192,85343,5,2,0:0:0:0:
316,192,85525,1,2,0:0:0:0:
316,192,85708,1,2,0:0:0:0:
240,192,85891,1,6,0:0:0:0:
428,192,86440,2,0,L|432:280,1,75,10|10,0:0|0:0,0:0:0:0:
356,268,86806,6,0,L|196:268,1,150,4|8,0:0|0:0,0:0:0:0:
356,268,87538,2,0,L|192:268,1,150,0|8,0:0|0:0,0:0:0:0:
56,268,88269,6,0,L|188:192,2,150,2|8|0,0:0|0:0|0:0,0:0:0:0:
208,192,89367,1,8,0:0:0:0:
284,192,89550,1,0,0:0:0:0:
360,192,89733,6,0,L|364:36,1,150,2|8,0:0|0:0,0:0:0:0:
212,44,90464,2,0,L|60:44,1,150,2|8,0:0|0:0,0:0:0:0:
212,44,91196,6,0,L|76:122,1,150,2|8,0:0|0:0,0:0:0:0:
146,81,91745,1,2,0:0:0:0:
212,44,91928,1,8,0:0:0:0:
82,119,92294,1,8,0:0:0:0:
232,120,92660,6,0,L|236:284,1,150,2|8,0:0|0:0,0:0:0:0:
312,268,93208,1,2,0:0:0:0:
388,268,93391,2,0,L|256:192,1,150,0|8,0:0|0:0,0:0:0:0:
108,192,94123,6,0,B|32:192|32:192|16:268,2,150,2|8|0,0:0|0:0|0:0,0:0:0:0:
260,192,95221,2,0,L|336:192,1,75,8|0,0:0|0:0,0:0:0:0:
412,192,95586,6,0,P|456:136|412:80,1,150,2|8,0:0|0:0,0:0:0:0:
340,80,96135,1,0,0:0:0:0:
188,80,96501,1,0,0:0:0:0:
264,80,96684,1,8,0:0:0:0:
400,80,97050,5,2,0:0:0:0:
248,80,97416,1,8,0:0:0:0:
412,80,97782,2,0,P|472:144|412:196,1,187.5,4|8,0:0|0:0,0:0:0:0:
328,196,98330,1,2,0:0:0:0:
244,196,98513,6,0,L|240:356,1,150,6|8,0:0|0:0,0:0:0:0:
404,348,99245,2,0,L|255:348,1,150,0|8,0:0|0:0,0:0:0:0:
88,268,99977,6,0,L|220:192,2,150,2|8|2,0:0|0:0|0:0,0:0:0:0:
240,192,101074,1,8,0:0:0:0:
316,192,101257,1,2,0:0:0:0:
392,192,101440,6,0,L|396:36,1,150,2|8,0:0|0:0,0:0:0:0:
232,44,102172,2,0,L|384:44,1,150,2|8,0:0|0:0,0:0:0:0:
232,44,102904,6,0,P|188:96|232:152,1,150,2|8,0:0|0:0,0:0:0:0:
308,152,103452,1,0,0:0:0:0:
231,151,103635,1,2,0:0:0:0:
81,150,104001,1,10,0:0:0:0:
231,151,104367,6,0,L|235:315,1,150,2|8,0:0|0:0,0:0:0:0:
160,300,104916,1,0,0:0:0:0:
84,300,105099,2,0,L|216:224,1,150,2|8,0:0|0:0,0:0:0:0:
331,193,105830,6,0,B|407:193|407:193|423:269,2,150,2|8|0,0:0|0:0|0:0,0:0:0:0:
179,193,106928,2,0,L|176:108,1,75,8|2,0:0|0:0,0:0:0:0:
256,192,107294,6,0,P|300:136|256:80,1,150,2|8,0:0|0:0,0:0:0:0:
184,80,107843,1,2,0:0:0:0:
32,80,108208,1,2,0:0:0:0:
108,80,108391,1,8,0:0:0:0:
244,80,108757,5,2,0:0:0:0:
92,80,109123,1,8,0:0:0:0:
256,80,109489,2,0,B|352:80|352:80|352:172,1,187.5,8|8,0:0|0:0,0:0:0:0:
272,192,110038,1,2,0:0:0:0:
192,192,110221,6,0,L|188:344,1,150,6|8,0:0|0:0,0:0:0:0:
352,344,110952,2,0,P|396:292|352:236,1,150,2|8,0:0|0:0,0:0:0:0:
276,236,111501,6,0,P|208:152|276:80,1,225,2|8,0:0|0:0,0:0:0:0:
412,80,112416,1,2,0:0:0:0:
248,80,112782,1,12,0:0:0:0:
396,80,113147,6,0,L|400:240,1,150,2|8,0:0|0:0,0:0:0:0:
248,228,113879,2,0,L|100:192,1,150,2|8,0:0|0:0,0:0:0:0:
102,192,114428,5,2,0:0:0:0:
284,192,114977,2,0,P|294:112|288:32,1,150,8|8,0:0|0:0,0:0:0:0:
140,44,115708,1,8,0:0:0:0:
216,44,115891,1,4,0:0:0:0:
292,44,116074,6,0,L|448:44,1,150,6|8,0:0|0:0,0:0:0:0:
276,44,116806,2,0,P|232:100|276:152,1,150,2|8,0:0|0:0,0:0:0:0:
352,152,117355,6,0,P|424:216|352:292,1,225,2|8,0:0|0:0,0:0:0:0:
216,292,118269,1,2,0:0:0:0:
380,292,118635,1,12,0:0:0:0:
228,292,119001,6,0,L|224:136,1,150,6|8,0:0|0:0,0:0:0:0:
88,200,119733,2,0,L|92:44,1,150,2|8,0:0|0:0,0:0:0:0:
240,52,120464,6,0,L|382:103,1,150,2|8,0:0|0:0,0:0:0:0:
216,52,121196,2,0,L|144:77,2,75,8|2|8,0:0|0:0|0:0,0:0:0:0:
380,52,121928,5,4,0:0:0:0:
256,192,133635,6,0,L|106:137,2,150,6|8|2,0:0|0:0|0:0,0:0:0:0:
256,192,134550,1,2,0:0:0:0:
120,192,134916,6,0,P|52:224|28:296,1,150,2|2,0:0|0:0,0:0:0:0:
27,290,135464,1,8,0:0:0:0:
176,368,135830,2,0,L|180:292,1,75,2|2,0:0|0:0,0:0:0:0:
360,292,136562,6,0,P|404:248|360:188,1,150,2|8,0:0|0:0,0:0:0:0:
276,188,137111,1,0,0:0:0:0:
360,188,137294,2,0,L|364:100,1,75,2|2,0:0|0:0,0:0:0:0:
228,112,137843,6,0,L|64:112,1,150,2|2,0:0|0:0,0:0:0:0:
78,112,138391,1,8,0:0:0:0:
212,112,138757,2,0,L|296:112,2,75,2|2|8,0:0|0:0|0:0,0:0:0:0:
78,112,139489,6,0,L|218:168,2,150,6|8|2,0:0|0:0|0:0,0:0:0:0:
78,112,140404,1,0,0:0:0:0:
209,67,140769,6,0,P|277:99|301:171,1,150,2|2,0:0|0:0,0:0:0:0:
220,168,141318,1,8,0:0:0:0:
301,165,141501,2,0,P|373:217|301:301,1,225,0|10,0:0|0:0,0:0:0:0:
168,300,142416,5,6,0:0:0:0:
316,300,142782,1,8,0:0:0:0:
152,300,143147,2,0,L|148:212,1,75,2|2,0:0|0:0,0:0:0:0:
300,192,143696,6,0,P|376:128|300:64,1,225,2|8,0:0|0:0,0:0:0:0:
220,64,144428,1,2,0:0:0:0:
136,64,144611,2,0,L|304:64,1,150,2|8,0:0|0:0,0:0:0:0:
436,64,145343,6,0,L|440:224,1,150,6|8,0:0|0:0,0:0:0:0:
288,288,146074,2,0,L|284:212,1,75,2|2,0:0|0:0,0:0:0:0:
434,214,146623,6,0,L|283:213,1,150,2|2,0:0|0:0,0:0:0:0:
284,213,147172,1,8,0:0:0:0:
132,212,147538,2,0,L|128:292,1,75,2|0,0:0|0:0,0:0:0:0:
308,348,148269,6,0,L|428:247,2,150,2|8|2,0:0|0:0|0:0,0:0:0:0:
308,348,149184,1,2,0:0:0:0:
156,348,149550,6,0,B|80:348|80:348|80:272,1,150,2|2,0:0|0:0,0:0:0:0:
164,276,150099,1,8,0:0:0:0:
313,274,150464,2,0,L|397:274,2,75,2|2|8,0:0|0:0|0:0,0:0:0:0:
164,276,151196,6,0,L|160:116,1,150,6|8,0:0|0:0,0:0:0:0:
312,52,151928,2,0,L|316:128,1,75,2|0,0:0|0:0,0:0:0:0:
156,192,152477,6,0,P|112:220|156:288,1,150,2|0,0:0|0:0,0:0:0:0:
236,288,153025,1,8,0:0:0:0:
316,288,153208,2,0,P|388:236|316:152,1,225,2|8,0:0|0:0,0:0:0:0:
238,151,153940,1,0,0:0:0:0:
160,152,154123,5,2,0:0:0:0:
160,152,154489,1,8,0:0:0:0:
312,152,154855,2,0,L|316:240,1,75,2|2,0:0|0:0,0:0:0:0:
164,228,155404,6,0,B|87:227|87:227|168:228,1,150,2|2,0:0|0:0,0:0:0:0:
236,228,155952,1,8,0:0:0:0:
383,268,156318,1,2,0:0:0:0:
309,248,156501,1,2,0:0:0:0:
236,228,156684,1,2,0:0:0:0:
84,228,157050,6,0,P|32:184|80:140,1,150,6|8,0:0|0:0,0:0:0:0:
228,1,157782,2,0,L|234:175,1,150,0|8,0:0|0:0,0:0:0:0:
150,154,158330,1,0,0:0:0:0:
68,152,158513,6,0,L|216:188,1,150,2|8,0:0|0:0,0:0:0:0:
364,192,159245,2,0,L|360:360,1,150,0|8,0:0|0:0,0:0:0:0:
284,340,159794,1,0,0:0:0:0:
212,340,159977,6,0,L|208:188,1,150,2|8,0:0|0:0,0:0:0:0:
56,192,160708,2,0,L|60:36,1,150,0|8,0:0|0:0,0:0:0:0:
212,40,161440,6,0,P|311:83|339:188,1,225,2|0,0:0|0:0,0:0:0:0:
264,188,162172,1,2,0:0:0:0:
112,184,162538,2,0,L|116:280,1,75,10|0,0:0|0:0,0:0:0:0:
192,260,162904,6,0,L|328:338,1,150,6|8,0:0|0:0,0:0:0:0:
472,336,163635,2,0,L|312:336,2,150,0|8|2,0:0|0:0|0:0,0:0:0:0:
228,336,165099,1,2,0:0:0:0:
152,336,165282,1,0,0:0:0:0:
152,260,165464,1,8,0:0:0:0:
228,260,165647,6,0,P|327:217|355:112,1,225,2|8,0:0|0:0,0:0:0:0:
204,112,166562,2,0,L|124:112,2,75,2|2|8,0:0|0:0|0:0,0:0:0:0:
280,112,167111,6,0,P|356:172|284:248,1,225,2|8,0:0|0:0,0:0:0:0:
164,248,168025,1,2,0:0:0:0:
136,248,168391,1,10,0:0:0:0:
272,248,168757,6,0,L|276:96,1,150,6|8,0:0|0:0,0:0:0:0:
156,96,169489,1,2,0:0:0:0:
88,96,169672,1,2,0:0:0:0:
156,96,169855,1,8,0:0:0:0:
292,96,170221,6,0,B|400:120|400:120|420:236,2,225,2|2|8,0:0|0:0|0:0,0:0:0:0:
140,96,171684,6,0,L|132:256,1,150,2|8,0:0|0:0,0:0:0:0:
268,248,172416,1,2,0:0:0:0:
404,248,172782,1,8,0:0:0:0:
252,248,173147,6,0,P|192:192|268:96,1,225,2|2,0:0|0:0,0:0:0:0:
340,96,173879,1,2,0:0:0:0:
416,96,174245,1,8,0:0:0:0:
273,192,174611,6,0,L|48:192,2,225,6|2|8,0:0|0:0|0:0,0:0:0:0:
124,192,176074,6,0,L|120:40,1,150,2|8,0:0|0:0,0:0:0:0:
272,40,176806,1,2,0:0:0:0:
196,40,176989,1,2,0:0:0:0:
120,40,177172,1,8,0:0:0:0:
276,192,177538,6,0,L|500:192,1,225,6|2,0:0|0:0,0:0:0:0:
276,191,178635,1,2,0:0:0:0:
428,192,179001,5,2,0:0:0:0:
352,192,179184,1,2,0:0:0:0:
276,191,179367,1,2,0:0:0:0:
200,192,179550,1,6,0:0:0:0:
380,192,180099,2,0,L|384:104,1,75,8|8,0:0|0:0,0:0:0:0:
308,116,180464,6,0,L|148:116,1,150,4|8,0:0|0:0,0:0:0:0:
308,116,181196,2,0,L|316:200,2,75,0|0|8,0:0|0:0|0:0,0:0:0:0:
160,268,181928,6,0,L|292:192,2,150,2|8|0,0:0|0:0|0:0,0:0:0:0:
24,268,183025,1,8,0:0:0:0:
100,268,183208,1,0,0:0:0:0:
176,268,183391,6,0,L|180:112,1,150,2|8,0:0|0:0,0:0:0:0:
328,48,184123,2,0,L|332:224,1,150,2|8,0:0|0:0,0:0:0:0:
179,118,184855,6,0,L|315:196,1,150,2|8,0:0|0:0,0:0:0:0:
376,192,185404,1,2,0:0:0:0:
444,192,185586,1,2,0:0:0:0:
309,193,185952,1,8,0:0:0:0:
172,192,186318,6,0,L|176:356,1,150,2|8,0:0|0:0,0:0:0:0:
252,340,186867,1,2,0:0:0:0:
328,340,187050,2,0,L|460:264,1,150,0|8,0:0|0:0,0:0:0:0:
308,264,187782,6,0,L|176:192,2,150,2|8|2,0:0|0:0|0:0,0:0:0:0:
460,116,188879,2,0,L|464:36,1,75,8|0,0:0|0:0,0:0:0:0:
388,40,189245,6,0,L|236:40,1,150,2|8,0:0|0:0,0:0:0:0:
312,40,189794,1,0,0:0:0:0:
312,40,190160,1,2,0:0:0:0:
238,40,190343,1,8,0:0:0:0:
104,40,190708,5,2,0:0:0:0:
256,40,191074,1,10,0:0:0:0:
92,40,191440,2,0,P|44:104|120:156,1,187.5,8|8,0:0|0:0,0:0:0:0:
200,156,191989,1,2,0:0:0:0:
284,156,192172,6,0,L|288:316,1,150,6|8,0:0|0:0,0:0:0:0:
137,305,192904,2,0,L|286:305,1,150,0|8,0:0|0:0,0:0:0:0:
440,228,193635,6,0,L|308:152,2,150,2|8|2,0:0|0:0|0:0,0:0:0:0:
288,152,194733,2,0,L|284:236,1,75,8|2,0:0|0:0,0:0:0:0:
208,228,195099,6,0,L|60:192,1,150,2|8,0:0|0:0,0:0:0:0:
212,104,195830,2,0,L|360:68,1,150,2|8,0:0|0:0,0:0:0:0:
492,64,196562,6,0,P|488:148|476:216,1,150,2|8,0:0|0:0,0:0:0:0:
340,216,197294,1,2,0:0:0:0:
490,215,197660,1,8,0:0:0:0:
324,216,198025,6,0,L|319:383,1,150,2|8,0:0|0:0,0:0:0:0:
244,368,198574,1,2,0:0:0:0:
168,368,198757,2,0,L|36:292,1,150,2|8,0:0|0:0,0:0:0:0:
192,192,199489,6,0,B|268:192|268:192|284:268,2,150,2|8|2,0:0|0:0|0:0,0:0:0:0:
40,192,200586,2,0,L|37:107,1,75,8|0,0:0|0:0,0:0:0:0:
112,192,200952,6,0,L|264:192,1,150,2|8,0:0|0:0,0:0:0:0:
336,192,201501,1,2,0:0:0:0:
336,192,201867,1,0,0:0:0:0:
262,192,202050,1,8,0:0:0:0:
128,192,202416,5,8,0:0:0:0:
280,192,202782,1,8,0:0:0:0:
116,192,203147,2,0,B|24:192|24:192|24:288,1,187.5,2|8,0:0|0:0,0:0:0:0:
108,304,203696,1,8,0:0:0:0:
192,192,203879,6,0,L|196:40,1,150,6|8,0:0|0:0,0:0:0:0:
348,40,204611,2,0,L|490:91,1,150,2|8,0:0|0:0,0:0:0:0:
489,90,205160,6,0,L|285:190,1,225,2|8,0:0|0:0,0:0:0:0:
286,189,206074,1,2,0:0:0:0:
452,188,206440,1,12,0:0:0:0:
304,188,206806,6,0,L|300:348,1,150,2|8,0:0|0:0,0:0:0:0:
154,302,207538,2,0,L|299:337,1,150,2|8,0:0|0:0,0:0:0:0:
300,337,208086,5,2,0:0:0:0:
112,304,208635,2,0,P|102:224|108:144,1,150,8|8,0:0|0:0,0:0:0:0:
256,156,209367,1,6,0:0:0:0:
332,156,209550,1,4,0:0:0:0:
406,156,209733,6,0,L|250:156,1,150,6|8,0:0|0:0,0:0:0:0:
114,105,210464,2,0,L|256:156,1,150,2|8,0:0|0:0,0:0:0:0:
255,155,211013,6,0,L|51:255,1,225,2|8,0:0|0:0,0:0:0:0:
188,256,211928,1,2,0:0:0:0:
24,256,212294,1,6,0:0:0:0:
176,256,212660,6,0,L|180:100,1,150,6|8,0:0|0:0,0:0:0:0:
316,220,213391,2,0,L|320:64,1,150,2|8,0:0|0:0,0:0:0:0:
184,68,214123,6,0,L|42:119,1,150,2|8,0:0|0:0,0:0:0:0:
184,68,214855,2,0,L|256:93,2,75,8|2|8,0:0|0:0|0:0,0:0:0:0:
20,68,215586,5,6,0:0:0:0:
256,192,224367,12,4,226562,0:0:0:0:
368,192,227294,6,0,P|381:137|344:56,1,150,6|8,0:0|0:0,0:0:0:0:
268,56,227843,1,2,0:0:0:0:
192,56,228025,1,2,0:0:0:0:
56,56,228391,1,8,0:0:0:0:
208,192,228757,6,0,P|248:264|208:304,1,150,6|8,0:0|0:0,0:0:0:0:
132,304,229306,1,2,0:0:0:0:
284,304,229672,2,0,L|368:304,2,75,2|8|2,0:0|0:0|0:0,0:0:0:0:
252,304,230221,6,0,B|248:228|248:228|312:192,1,150,6|8,0:0|0:0,0:0:0:0:
380,192,230769,1,2,0:0:0:0:
456,192,230952,1,2,0:0:0:0:
320,192,231318,1,8,0:0:0:0:
172,100,231684,5,6,0:0:0:0:
336,100,232050,1,8,0:0:0:0:
184,100,232416,1,8,0:0:0:0:
120,136,232599,1,2,0:0:0:0:
100,208,232782,1,8,0:0:0:0:
120,284,232964,1,4,0:0:0:0:
184,320,233147,6,0,L|336:320,1,150,6|8,0:0|0:0,0:0:0:0:
400,320,233696,1,2,0:0:0:0:
334,320,233879,1,2,0:0:0:0:
200,320,234245,1,8,0:0:0:0:
336,192,234611,6,0,P|376:120|336:80,1,150,6|8,0:0|0:0,0:0:0:0:
260,80,235160,1,2,0:0:0:0:
124,80,235525,2,0,L|40:80,2,75,2|8|2,0:0|0:0|0:0,0:0:0:0:
200,80,236074,6,0,B|204:156|204:156|140:192,1,150,6|8,0:0|0:0,0:0:0:0:
64,192,236623,1,2,0:0:0:0:
140,192,236806,1,2,0:0:0:0:
276,192,237172,1,8,0:0:0:0:
124,192,237538,5,12,0:0:0:0:
288,192,237904,1,12,0:0:0:0:
140,192,238269,1,12,0:0:0:0:
116,272,238452,1,2,0:0:0:0:
152,348,238635,1,8,0:0:0:0:
228,376,238818,1,8,0:0:0:0:
312,376,239001,5,6,0:0:0:0:
120,192,250708,6,0,P|25:244|11:351,2,225,6|2|8,0:0|0:0|0:0,0:0:0:0:
256,192,252172,6,0,L|472:128,2,225,2|2|8,0:0|0:0|0:0,0:0:0:0:
104,192,253635,6,0,B|104:80|104:80|212:36,2,225,2|2|8,0:0|0:0|0:0,0:0:0:0:
268,192,255099,6,0,P|340:256|268:332,1,225,2|0,0:0|0:0,0:0:0:0:
184,332,255830,1,2,0:0:0:0:
100,332,256196,1,8,0:0:0:0:
264,332,256562,6,0,P|348:312|400:192,2,225,2|2|8,0:0|0:0|0:0,0:0:0:0:
128,192,258025,6,0,L|321:80,2,225,2|2|8,0:0|0:0|0:0,0:0:0:0:
292,192,259489,5,6,0:0:0:0:
383,192,260038,1,2,0:0:0:0:
472,192,260586,1,2,0:0:0:0:
320,192,260952,5,2,0:0:0:0:
244,192,261135,1,2,0:0:0:0:
244,192,261318,1,2,0:0:0:0:
320,192,261501,1,12,0:0:0:0:
104,192,262050,2,0,L|100:280,1,75,8|8,0:0|0:0,0:0:0:0:
177,266,262416,6,0,L|337:266,1,150,4|8,0:0|0:0,0:0:0:0:
177,266,263147,2,0,L|108:232,2,75,0|2|8,0:0|0:0|0:0,0:0:0:0:
327,266,263879,6,0,L|195:190,2,150,2|8|2,0:0|0:0|0:0,0:0:0:0:
184,192,264977,1,8,0:0:0:0:
108,192,265160,1,2,0:0:0:0:
32,192,265343,6,0,L|28:36,1,150,2|8,0:0|0:0,0:0:0:0:
178,42,266074,2,0,L|28:42,1,150,2|8,0:0|0:0,0:0:0:0:
178,42,266806,6,0,L|314:120,1,150,2|8,0:0|0:0,0:0:0:0:
244,80,267355,1,2,0:0:0:0:
178,43,267538,1,2,0:0:0:0:
178,42,267904,1,8,0:0:0:0:
328,44,268269,6,0,L|332:208,1,150,2|8,0:0|0:0,0:0:0:0:
408,192,268818,1,2,0:0:0:0:
484,192,269001,2,0,L|352:116,1,150,2|8,0:0|0:0,0:0:0:0:
204,116,269733,6,0,B|128:116|128:116|112:192,2,150,2|8|2,0:0|0:0|0:0,0:0:0:0:
340,228,270830,2,0,L|344:312,1,75,8|2,0:0|0:0,0:0:0:0:
268,304,271196,6,0,P|224:248|268:192,1,150,2|8,0:0|0:0,0:0:0:0:
340,192,271745,1,2,0:0:0:0:
188,193,272111,1,2,0:0:0:0:
264,193,272294,1,8,0:0:0:0:
400,192,272660,5,2,0:0:0:0:
248,192,273025,1,8,0:0:0:0:
412,192,273391,2,0,P|472:256|412:308,1,187.5,4|8,0:0|0:0,0:0:0:0:
328,308,273940,1,2,0:0:0:0:
246,308,274123,6,0,L|110:230,2,150,6|8|2,0:0|0:0|0:0,0:0:0:0:
396,308,275221,1,8,0:0:0:0:
232,308,275586,6,0,L|364:232,2,150,2|8|2,0:0|0:0|0:0,0:0:0:0:
80,308,276684,2,0,L|76:233,1,75,8|2,0:0|0:0,0:0:0:0:
152,232,277050,6,0,L|300:196,1,150,2|8,0:0|0:0,0:0:0:0:
140,120,277782,2,0,L|288:84,1,150,2|8,0:0|0:0,0:0:0:0:
436,88,278513,6,0,P|456:164|440:232,1,150,2|8,0:0|0:0,0:0:0:0:
288,232,279245,1,2,0:0:0:0:
136,232,279611,2,0,L|130:317,1,75,8|8,0:0|0:0,0:0:0:0:
205,310,279977,6,0,L|357:310,1,150,2|8,0:0|0:0,0:0:0:0:
205,310,280708,2,0,L|129:306,2,75,2|2|8,0:0|0:0|0:0,0:0:0:0:
355,310,281440,6,0,B|367:150,2,150,2|8|2,0:0|0:0|0:0,0:0:0:0:
221,154,282538,2,0,L|129:154,1,75,8|2,0:0|0:0,0:0:0:0:
221,154,282904,6,0,L|373:154,1,150,2|8,0:0|0:0,0:0:0:0:
296,156,283452,1,2,0:0:0:0:
371,154,283818,1,2,0:0:0:0:
296,156,284001,1,8,0:0:0:0:
448,156,284367,5,10,0:0:0:0:
296,156,284733,1,10,0:0:0:0:
148,152,285099,2,0,B|56:152|56:152|56:248,1,187.5,10|2,0:0|0:0,0:0:0:0:
144,244,285647,1,2,0:0:0:0:
232,152,285830,6,0,L|236:304,1,150,6|8,0:0|0:0,0:0:0:0:
72,304,286562,2,0,P|28:252|72:196,1,150,2|8,0:0|0:0,0:0:0:0:
148,196,287111,6,0,L|341:84,1,225,2|8,0:0|0:0,0:0:0:0:
342,83,288025,1,2,0:0:0:0:
178,83,288391,1,12,0:0:0:0:
328,84,288757,6,0,L|332:244,1,150,2|8,0:0|0:0,0:0:0:0:
180,232,289489,2,0,L|32:196,1,150,2|8,0:0|0:0,0:0:0:0:
34,196,290038,5,2,0:0:0:0:
224,232,290586,1,8,0:0:0:0:
296,212,290769,1,2,0:0:0:0:
368,192,290952,1,2,0:0:0:0:
204,232,291318,1,12,0:0:0:0:
356,192,291684,6,0,L|432:192,2,75,6|2|8,0:0|0:0|0:0,0:0:0:0:
204,339,292416,2,0,P|160:283|204:231,1,150,2|8,0:0|0:0,0:0:0:0:
280,231,292964,6,0,P|352:167|280:91,1,225,2|8,0:0|0:0,0:0:0:0:
204,92,293696,1,0,0:0:0:0:
128,92,293879,1,2,0:0:0:0:
292,92,294245,1,12,0:0:0:0:
124,241,294611,6,0,L|128:85,1,150,6|8,0:0|0:0,0:0:0:0:
264,313,295343,2,0,L|260:160,1,150,2|8,0:0|0:0,0:0:0:0:
108,112,296074,6,0,L|250:163,1,150,2|8,0:0|0:0,0:0:0:0:
385,161,296806,1,8,0:0:0:0:
465,185,296989,1,2,0:0:0:0:
489,265,297172,1,8,0:0:0:0:
465,345,297355,1,2,0:0:0:0:
385,373,297538,6,0,L|380:224,1,150,4|8,0:0|0:0,0:0:0:0:
232,204,298269,2,0,L|96:204,1,112.5,8|8,0:0|0:0,0:0:0:0:
312,204,299001,6,0,P|360:252|312:304,1,150,2|8,0:0|0:0,0:0:0:0:
236,304,299550,1,2,0:0:0:0:
88,304,299916,1,2,0:0:0:0:
164,304,300099,2,0,L|168:400,1,75,8|2,0:0|0:0,0:0:0:0:
64,212,300464,6,0,L|60:368,1,150,6|8,0:0|0:0,0:0:0:0:
216,364,301196,2,0,L|348:364,1,112.5,8|8,0:0|0:0,0:0:0:0:
132,364,301928,6,0,L|288:364,1,150,8|8,0:0|0:0,0:0:0:0:
432,364,302660,1,8,0:0:0:0:
360,340,302843,1,8,0:0:0:0:
328,268,303025,1,8,0:0:0:0:
360,196,303208,1,2,0:0:0:0:
428,164,303391,6,0,L|432:12,1,150,6|8,0:0|0:0,0:0:0:0:
280,16,304123,2,0,L|416:16,1,112.5,8|8,0:0|0:0,0:0:0:0:
204,16,304855,6,0,P|156:64|204:116,1,150,2|8,0:0|0:0,0:0:0:0:
280,116,305404,1,8,0:0:0:0:
432,116,305769,1,2,0:0:0:0:
356,116,305952,2,0,L|268:116,1,75,8|2,0:0|0:0,0:0:0:0:
204,116,306318,6,0,L|199:269,1,150,6|8,0:0|0:0,0:0:0:0:
348,268,307050,1,8,0:0:0:0:
236,268,307324,2,0,B|180:268|180:268|240:268,1,112.5,8|2,0:0|0:0,0:0:0:0:
312,268,307782,6,0,L|428:268,1,112.5,6|8,0:0|0:0,0:0:0:0:
425,268,308239,1,2,0:0:0:0:
348,268,308422,2,0,L|264:268,2,75,2|8|2,0:0|0:0|0:0,0:0:0:0:
180,268,309245,6,0,L|176:108,1,150,4|8,0:0|0:0,0:0:0:0:
328,120,309977,2,0,L|464:120,1,112.5,8|8,0:0|0:0,0:0:0:0:
248,120,310708,6,0,P|200:168|248:220,1,150,8|8,0:0|0:0,0:0:0:0:
324,220,311257,1,2,0:0:0:0:
172,220,311623,1,2,0:0:0:0:
96,220,311806,2,0,L|92:316,1,75,8|2,0:0|0:0,0:0:0:0:
168,296,312172,6,0,L|320:296,1,150,6|8,0:0|0:0,0:0:0:0:
172,220,312904,2,0,L|40:220,1,112.5,8|8,0:0|0:0,0:0:0:0:
248,220,313635,6,0,L|92:220,1,150,8|8,0:0|0:0,0:0:0:0:
264,220,314367,1,2,0:0:0:0:
336,196,314550,1,2,0:0:0:0:
368,124,314733,1,8,0:0:0:0:
336,52,314916,1,2,0:0:0:0:
268,20,315099,6,0,L|116:20,1,150,6|8,0:0|0:0,0:0:0:0:
268,20,315830,2,0,L|404:20,1,112.5,8|8,0:0|0:0,0:0:0:0:
192,20,316562,6,0,P|144:68|192:120,1,150,8|8,0:0|0:0,0:0:0:0:
268,120,317111,1,2,0:0:0:0:
416,120,317477,1,2,0:0:0:0:
342,120,317660,1,8,0:0:0:0:
268,120,317843,1,2,0:0:0:0:
192,120,318025,6,0,L|187:273,1,150,6|8,0:0|0:0,0:0:0:0:
336,268,318757,1,8,0:0:0:0:
216,268,319032,2,0,B|160:268|160:268|220:268,1,112.5,8|2,0:0|0:0,0:0:0:0:
292,268,319489,6,0,L|408:268,1,112.5,6|8,0:0|0:0,0:0:0:0:
328,268,319946,1,2,0:0:0:0:
252,268,320129,2,0,L|168:268,2,75,8|8|2,0:0|0:0|0:0,0:0:0:0:
64,268,320952,5,4,0:0:0:0:
256,192,321318,12,0,331196,0:0:0:0:
