osu file format v14

[General]
AudioFilename: audio.mp3
AudioLeadIn: 0
PreviewTime: 125993
Countdown: 0
SampleSet: None
StackLeniency: 0.6
Mode: 0
LetterboxInBreaks: 0
WidescreenStoryboard: 1

[Editor]
Bookmarks: 12704,25335,37967,63230,88493,101125,126388,151651,164283,176914,189546,202178,214809,227441,240072,252704,265335
DistanceSpacing: 1.3
BeatDivisor: 4
GridSize: 8
TimelineZoom: 1

[Metadata]
Title:White Drop
TitleUnicode:ホワイト ドロップ
Artist:A-ONE
ArtistUnicode:A-ONE
Creator:Kradfiz
Version:Lunatic
Source:東方
Tags:FN2 Cocoa TOHO EUROBEAT VOL.7 東方風神録 ~ Mountain of Faith 封印されし神々 神々が恋した幻想郷
BeatmapID:1171574
BeatmapSetID:540681

[Difficulty]
HPDrainRate:6
CircleSize:4
OverallDifficulty:7
ApproachRate:8
SliderMultiplier:1
SliderTickRate:1

[Events]
//Background and Video events
0,0,"bg.png",0,0
//Break Periods
//Storyboard Layer 0 (Background)
//Storyboard Layer 1 (Fail)
//Storyboard Layer 2 (Pass)
//Storyboard Layer 3 (Foreground)
//Storyboard Sound Samples

[TimingPoints]
72.7982223843022,394.736842105263,4,1,0,100,1,0
12704,-100,4,2,0,60,0,0
25335,-100,4,1,0,90,0,0
37967,-100,4,2,0,70,0,0
63230,-100,4,1,0,80,0,1
88493,-100,4,1,0,90,0,0
101125,-100,4,2,0,70,0,0
126388,-100,4,1,0,80,0,1
151651,-100,4,1,0,90,0,0
164283,-100,4,2,0,50,0,0
176914,-100,4,2,0,60,0,0
189546,-100,4,2,0,80,0,0
202178,-100,4,1,0,90,0,0
214809,-100,4,2,0,70,0,0
227441,-100,4,2,0,80,0,0
240072,-100,4,1,0,80,0,1
252704,-100,4,1,0,90,0,0
265335,-100,4,2,0,60,0,0

[Colours]
Combo1 : 0,255,255
Combo2 : 89,172,255
Combo3 : 196,255,255
Combo4 : 0,128,255

[HitObjects]
328,120,12704,6,0,P|352:152|352:208,1,75
256,192,13296,1,0,0:0:0:0:
184,184,13493,2,0,P|199:147|248:119,1,75
282,210,14085,1,0,0:0:0:0:
352,240,14283,2,0,P|328:272|256:280,1,100
160,224,15072,5,0,0:0:0:0:
112,136,15368,1,0,0:0:0:0:
208,136,15664,1,0,0:0:0:0:
72,224,15862,1,0,0:0:0:0:
248,224,16257,1,0,0:0:0:0:
160,320,16651,1,0,0:0:0:0:
160,128,17046,1,0,0:0:0:0:
272,64,17441,6,0,B|312:112|280:168|280:168|256:208|288:264,2,200
200,128,19316,2,0,P|152:120|120:96,1,75
264,64,19809,1,0,0:0:0:0:
360,64,20105,2,0,P|392:72|432:96,1,75
320,136,20599,1,0,0:0:0:0:
234,229,21388,1,0,0:0:0:0:
299,192,21684,1,0,0:0:0:0:
234,154,21980,1,0,0:0:0:0:
169,192,22178,5,0,0:0:0:0:
299,267,22474,1,0,0:0:0:0:
299,117,22770,1,0,0:0:0:0:
191,79,22967,5,0,0:0:0:0:
191,304,23263,1,0,0:0:0:0:
385,192,23559,1,0,0:0:0:0:
342,42,23757,5,0,0:0:0:0:
342,341,24151,1,0,0:0:0:0:
82,191,24349,2,0,P|72:176|64:160,4,25
176,96,25335,5,0,0:0:0:0:
200,94,25433,1,0,0:0:0:0:
225,95,25532,1,0,0:0:0:0:
250,98,25631,1,0,0:0:0:0:
274,104,25729,1,0,0:0:0:0:
298,113,25828,1,0,0:0:0:0:
320,124,25927,1,0,0:0:0:0:
352,200,26125,2,0,P|376:184|400:104,1,100
344,48,26717,1,0,0:0:0:0:
325,58,26815,1,0,0:0:0:0:
309,72,26914,5,0,0:0:0:0:
297,90,27013,1,0,0:0:0:0:
290,110,27111,1,0,0:0:0:0:
288,131,27210,1,0,0:0:0:0:
290,153,27309,1,0,0:0:0:0:
298,173,27407,1,0,0:0:0:0:
376,232,27704,2,0,P|312:264|272:264,1,100
224,208,28296,1,0,0:0:0:0:
204,199,28394,1,0,0:0:0:0:
183,200,28493,5,0,0:0:0:0:
165,210,28592,1,0,0:0:0:0:
153,228,28690,1,0,0:0:0:0:
151,249,28789,1,0,0:0:0:0:
159,269,28888,1,0,0:0:0:0:
175,283,28986,1,0,0:0:0:0:
256,336,29283,2,0,P|304:312|312:264,1,100
317,252,29776,1,0,0:0:0:0:
329,238,29875,1,0,0:0:0:0:
346,231,29974,1,0,0:0:0:0:
408,144,30270,6,0,L|337:131,1,50
272,80,30664,2,0,L|311:86,1,25
224,144,30960,2,0,L|137:128,1,75
