osu file format v14

[General]
AudioFilename: audio.mp3
AudioLeadIn: 0
PreviewTime: 86997
Countdown: 0
SampleSet: Soft
StackLeniency: 0.7
Mode: 0
LetterboxInBreaks: 0
WidescreenStoryboard: 0

[Editor]
DistanceSpacing: 0.8
BeatDivisor: 4
GridSize: 32
TimelineZoom: 0.3999999

[Metadata]
Title:Gei Wo Yi Ge Li You Wang Ji
TitleUnicode:給我一個理由忘記
Artist:A-Lin
ArtistUnicode:A-Lin
Creator:Regraz
Version:Normal
Source:
Tags:黄丽玲 邬裕康 游政豪 给我一个理由忘记 寂寞不痛 avex 爱贝克斯 愛貝克思 Chinese Geiwo Yige Liyou Wangji
BeatmapID:1367845
BeatmapSetID:645502

[Difficulty]
HPDrainRate:3
CircleSize:3
OverallDifficulty:3
ApproachRate:3.5
SliderMultiplier:1.4
SliderTickRate:1

[Events]
//Background and Video events
0,0,"BG.jpg",0,0
//Break Periods
2,42420,44422
//Storyboard Layer 0 (Background)
//Storyboard Layer 1 (Fail)
//Storyboard Layer 2 (Pass)
//Storyboard Layer 3 (Foreground)
//Storyboard Sound Samples

[TimingPoints]
132,895.522388059701,4,2,1,18,1,0
45803,-100,4,2,1,10,0,0
74460,-100,4,2,1,27,0,0
86997,-100,4,2,1,35,0,0
88788,-100,4,2,1,45,0,1
102221,-100,4,2,1,45,0,0
103117,-100,4,2,1,45,0,1
113822,923.076923076923,4,2,1,18,1,0
114758,967.741935483871,4,2,1,18,1,0
119596,-100,4,2,1,12,0,0

[Colours]
Combo1 : 119,167,255
Combo2 : 69,96,139
Combo3 : 0,93,247
Combo4 : 183,205,232

[HitObjects]
163,99,15803,6,0,L|75:111,2,70
210,68,17146,2,0,P|194:149|289:214,2,210,2|2|2,0:0|0:0|0:0,0:0:0:0:
257,38,20280,1,0,0:0:0:0:
257,38,20728,6,0,L|421:48,1,140,2|0,0:0|0:0,0:0:0:0:
450,30,22071,2,0,P|474:98|445:177,1,140,2|0,0:0|0:0,0:0:0:0:
407,189,23414,1,2,0:0:0:0:
295,203,24310,2,0,B|248:192|248:192|144:222|144:222|77:208,1,210,2|0,0:0|0:0,0:0:0:0:
35,208,26101,2,0,P|67:137|32:65,1,140,2|2,0:0|0:0,0:0:0:0:
16,36,27445,1,0,0:0:0:0:
16,36,27892,6,0,L|166:43,2,140,2|2|2,0:0|0:0|0:0,0:0:0:0:
33,146,30579,2,0,P|26:218|35:246,1,70,2|0,0:0|0:0,0:0:0:0:
11,269,31474,2,0,B|67:261|67:261|145:283|145:283|235:275,1,210,2|2,0:0|0:0,0:0:0:0:
358,185,34161,2,0,L|450:190,1,70,2|0,0:0|0:0,0:0:0:0:
483,183,35056,6,0,P|501:118|454:38,1,140,2|0,0:0|0:0,0:0:0:0:
417,49,36399,1,0,0:0:0:0:
417,49,36847,2,0,L|254:62,1,140,2|2,0:0|0:0,0:0:0:0:
165,54,38638,2,0,L|9:41,2,140,2|0|0,0:0|0:0|0:0,0:0:0:0:
234,142,41325,1,0,0:0:0:0:
166,231,42220,1,2,0:0:0:0:
432,302,45802,6,0,L|447:150,2,140,2|0|2,0:0|0:0|0:0,0:0:0:0:
209,331,49384,2,0,P|115:337|70:173,1,280,2|2,0:0|0:0,0:0:0:0:
102,145,51624,2,0,L|92:70,2,70,0|2|0,0:0|0:0|0:0,0:0:0:0:
157,142,52966,6,0,P|304:158|363:273,1,280,2|2,0:0|0:0,0:0:0:0:
152,342,56548,2,0,L|1:334,2,140,2|0|2,0:0|0:0|0:0,0:0:0:0:
195,306,58788,2,0,L|284:312,2,70,0|2|0,0:0|0:0|0:0,0:0:0:0:
146,278,60131,6,0,P|100:232|170:55,1,280,2|2,0:0|0:0,0:0:0:0:
343,193,63713,2,0,L|506:167,2,140,2|0|2,0:0|0:0|0:0,0:0:0:0:
256,121,66399,1,2,0:0:0:0:
163,184,67296,6,0,P|78:216|168:350,1,280,2|2,0:0|0:0,0:0:0:0:
232,288,69981,1,0,0:0:0:0:
327,343,70877,2,0,P|409:336|459:362,2,140,2|0|2,0:0|0:0|0:0,0:0:0:0:
306,233,73564,2,0,L|313:152,1,70
298,108,74459,6,0,P|226:90|150:116,1,140,2|0,0:0|0:0,0:0:0:0:
76,176,76250,2,0,L|-2:169,2,70,2|0|2,0:0|0:0|0:0,0:0:0:0:
113,217,77593,1,0,0:0:0:0:
113,217,78041,2,0,P|94:268|132:355,1,140,2|0,0:0|0:0,0:0:0:0:
209,275,79832,1,2,0:0:0:0:
265,337,80504,2,0,L|343:325,1,70,0|2,0:0|0:0,0:0:0:0:
416,342,81624,6,0,P|451:249|432:199,1,140,2|2,0:0|0:0,0:0:0:0:
382,117,83415,2,0,L|234:134,1,140,2|2,0:0|0:0,0:0:0:0:
196,102,84757,1,0,0:0:0:0:
196,102,85206,2,0,P|146:86|61:100,1,140,2|0,0:0|0:0,0:0:0:0:
23,141,86549,2,0,L|31:221,1,70,0|8,0:0|0:0,0:0:0:0:
26,322,87892,2,0,L|105:307,1,70,8|8,0:0|0:0,0:0:0:0:
147,326,88787,6,0,P|124:264|145:186,2,140,4|8|4,0:0|0:0|0:3,0:0:0:0:
202,317,91026,1,4,0:3:0:0:
202,317,91475,2,0,L|286:320,1,70,8|0,0:0|0:0,0:0:0:0:
321,292,92369,2,0,L|479:297,2,140,4|8|4,0:3|0:0|0:3,0:0:0:0:
280,253,94608,1,4,0:3:0:0:
280,253,95057,2,0,P|276:214|286:177,1,70,8|8,0:0|0:0,0:0:0:0:
311,136,95951,6,0,P|234:93|168:111,2,140,4|8|4,0:0|0:0|0:3,0:0:0:0:
354,100,98190,1,4,0:3:0:0:
354,100,98639,2,0,L|435:106,1,70,8|0,0:0|0:0,0:0:0:0:
472,132,99534,2,0,P|451:218|399:242,1,140,4|0,0:0|0:0,0:0:0:0:
363,209,100878,1,4,0:0:0:0:
255,253,101773,2,0,L|168:246,2,70,8|8|4,0:0|0:0|0:3,0:0:0:0:
300,285,103117,6,0,P|288:224|298:146,1,140
339,110,104460,2,0,L|464:121,2,105,8|4|0,0:0|0:3|0:0,0:0:0:0:
235,67,106699,2,0,L|142:54,1,70,4|0,0:0|0:0,0:0:0:0:
112,75,107594,2,0,P|100:140|113:170,1,70,8|0,0:0|0:0,0:0:0:0:
63,184,108489,2,0,P|127:171|205:212,1,140,4|0,0:3|0:0,0:0:0:0:
216,250,109832,1,4,0:3:0:0:
216,250,110280,6,0,L|368:234,1,140,4|8,0:0|0:0,0:0:0:0:
402,205,111623,1,4,0:3:0:0:
402,205,112071,2,4,P|402:290|454:335,1,140,4|8,0:3|0:0,0:3:0:0:
495,241,113822,1,4,0:0:0:0:
439,147,114758,2,0,L|293:151,1,140,4|4,0:0|0:1,0:0:0:0:
256,192,115967,12,2,119596,0:0:0:0:
