osu file format v14

[General]
AudioFilename: audio.mp3
AudioLeadIn: 0
PreviewTime: 59805
Countdown: 0
SampleSet: Soft
StackLeniency: 0.7
Mode: 0
LetterboxInBreaks: 0
WidescreenStoryboard: 1

[Editor]
Bookmarks: 12087,60087,84087,192087
DistanceSpacing: 1
BeatDivisor: 4
GridSize: 8
TimelineZoom: 1

[Metadata]
Title:Praise The Lord (Da Shine) [feat. Skepta] (Cut Ver.)
TitleUnicode:Praise The Lord (Da Shine) [feat. Skepta] (Cut Ver.)
Artist:A$AP Rocky
ArtistUnicode:A$AP Rocky
Creator:tadahitotsu
Version:Rain Dance
Source:
Tags:english hip-hop hiphop rap testing asap
BeatmapID:3221046
BeatmapSetID:1577474

[Difficulty]
HPDrainRate:7
CircleSize:4.4
OverallDifficulty:8.5
ApproachRate:8.8
SliderMultiplier:1.8
SliderTickRate:1

[Events]
//Background and Video events
0,0,"bgbg.jpg",0,0
//Break Periods
//Storyboard Layer 0 (Background)
//Storyboard Layer 1 (Fail)
//Storyboard Layer 2 (Pass)
//Storyboard Layer 3 (Foreground)
//Storyboard Layer 4 (Overlay)
//Storyboard Sound Samples

[TimingPoints]
87,375,4,2,1,50,1,0
12087,-100,4,2,1,55,0,0
22118,-100,4,2,1,5,0,0
22212,-100,4,2,1,55,0,0
26618,-100,4,2,1,5,0,0
26712,-100,4,2,1,55,0,0
29618,-100,4,2,1,5,0,0
29712,-100,4,2,1,55,0,0
32993,-100,4,2,1,5,0,0
33087,-100,4,2,1,55,0,0
60087,-500,4,2,1,70,0,1
72087,-66.6666666666667,4,2,1,70,0,1
83618,-100,4,2,1,5,0,0
83712,-100,4,2,1,55,0,0
84087,-83.3333333333333,4,2,1,70,0,0

[Colours]
Combo1 : 193,132,255
Combo2 : 128,128,192
Combo3 : 151,151,255
Combo4 : 214,242,183

[HitObjects]
52,241,12087,6,0,B|150:242|134:327|222:321,1,180,0|0,3:2|0:0,0:0:0:0:
279,250,12649,1,0,3:2:0:0:
201,178,12837,2,0,P|192:126|192:82,1,90,8|0,0:0|0:0,0:0:0:0:
254,19,13212,1,2,3:2:0:0:
335,74,13399,1,2,1:2:0:0:
462,37,13587,6,0,L|451:142,1,90,2|2,0:0|1:2,0:0:0:0:
315,189,13962,2,0,P|375:195|395:161,1,90,2|0,3:2|0:0,0:0:0:0:
504,259,14337,2,0,P|444:253|424:287,1,90,10|0,0:0|3:2,0:0:0:0:
329,291,14712,2,0,P|346:341|351:385,1,90,2|0,0:0|0:0,0:0:0:0:
220,223,15087,6,0,P|227:126|242:30,1,180,0|0,3:2|0:0,0:0:0:0:
132,21,15649,1,0,3:2:0:0:
39,104,15837,2,0,P|34:57|25:13,1,90,10|2,0:0|0:0,0:0:0:0:
146,144,16212,1,2,3:2:0:0:
22,194,16399,1,2,1:2:0:0:
131,307,16587,6,0,P|141:256|139:206,1,90,2|2,0:0|1:2,0:0:0:0:
233,75,16962,2,0,P|223:126|226:185,1,90,2|0,3:2|0:0,0:0:0:0:
297,217,17337,1,10,0:0:0:0:
399,197,17524,1,2,3:2:0:0:
270,298,17712,1,2,0:0:0:0:
250,286,17899,1,2,0:0:0:0:
366,341,18087,6,0,P|452:345|444:248,1,180,0|0,3:2|0:0,0:0:0:0:
399,197,18649,1,0,3:2:0:0:
453,60,18837,2,0,L|467:159,1,90,10|2,0:0|0:0,0:0:0:0:
320,135,19212,2,0,L|306:234,1,90,2|2,3:2|1:2,0:0:0:0:
238,44,19587,6,0,P|197:28|139:31,1,90,2|0,0:0|1:2,0:0:0:0:
89,142,19962,2,0,P|47:119|43:68,1,90,2|0,3:2|0:0,0:0:0:0:
191,107,20337,2,0,P|233:130|237:181,1,90,10|0,0:0|3:2,0:0:0:0:
4,179,20712,2,0,P|18:225|26:270,1,90,2|0,0:0|0:0,0:0:0:0:
124,342,21087,6,0,B|164:351|186:322|186:322|157:201,1,180,0|2,3:2|0:0,0:0:0:0:
248,164,21649,1,2,3:2:0:0:
317,245,21837,2,0,P|391:257|485:295,1,135,10|0,0:0|0:0,0:0:0:0:
447,276,22212,2,0,P|435:333|390:339,1,90,2|0,3:2|1:2,0:0:0:0:
293,344,22587,5,2,0:0:0:0:
302,367,22774,1,2,1:2:0:0:
317,245,22962,2,0,P|328:164|357:58,1,180,2|8,3:2|0:0,0:0:0:0:
352,69,23712,1,2,0:0:0:0:
442,50,23899,1,2,0:0:0:0:
420,135,24087,5,2,3:2:0:0:
268,108,24274,1,2,0:0:0:0:
199,176,24462,5,2,0:0:0:0:
122,187,24649,1,2,3:2:0:0:
29,81,24837,5,10,0:0:0:0:
102,102,25024,1,2,0:0:0:0:
193,30,25212,5,2,3:2:0:0:
162,37,25399,1,2,1:2:0:0:
261,94,25587,5,2,0:0:0:0:
272,218,25774,1,2,1:2:0:0:
356,246,25962,5,2,3:2:0:0:
312,366,26149,1,2,0:0:0:0:
209,303,26337,2,0,P|147:318|72:328,1,135,10|0,0:0|0:0,0:0:0:0:
76,327,26712,2,0,B|34:302|34:302|41:238,1,90,2|0,0:0|0:0,0:0:0:0:
79,75,27087,6,0,B|123:73|144:97|144:97|152:152|119:219,1,180,0|0,3:2|0:0,0:0:0:0:
24,185,27649,1,2,3:2:0:0:
114,164,27837,5,10,0:0:0:0:
220,192,28024,1,2,0:0:0:0:
258,120,28212,5,2,3:2:0:0:
381,108,28399,1,2,1:2:0:0:
326,46,28587,5,2,0:0:0:0:
365,203,28774,1,2,1:2:0:0:
442,176,28962,5,2,3:2:0:0:
408,342,29149,1,2,0:0:0:0:
252,289,29337,2,0,P|229:241|294:225,1,135,10|0,0:0|0:0,0:0:0:0:
291,222,29712,2,0,P|289:175|279:126,1,90,2|0,0:0|0:0,0:0:0:0:
174,39,30087,6,0,P|192:116|207:218,1,180,0|0,3:2|0:0,0:0:0:0:
114,237,30649,1,0,3:2:0:0:
12,176,30837,2,0,P|48:138|103:153,1,90,8|0,0:0|0:0,0:0:0:0:
105,255,31212,2,0,L|93:356,1,90,2|2,3:2|1:2,0:0:0:0:
204,343,31587,6,0,P|277:357|307:269,1,180,2|0,0:0|3:2,0:0:0:0:
308,271,32337,2,0,L|409:249,1,90,10|0,0:0|3:2,0:0:0:0:
497,164,32712,2,0,L|342:142,1,135,2|0,0:0|0:0,0:0:0:0:
363,145,33087,6,0,P|301:127|327:35,1,180,0|2,3:2|0:0,0:0:0:0:
405,50,33649,1,2,3:2:0:0:
260,126,33837,2,0,P|266:177|270:237,1,90,10|2,0:0|0:0,0:0:0:0:
198,353,34212,2,0,P|201:308|207:263,1,90,2|2,3:2|1:2,0:0:0:0:
141,210,34587,5,2,0:0:0:0:
32,258,34774,1,2,1:2:0:0:
109,334,34962,1,2,3:2:0:0:
117,316,35149,1,2,0:0:0:0:
9,184,35337,2,0,P|20:134|37:81,1,90,10|0,0:0|3:2,0:0:0:0:
178,74,35712,2,0,P|132:43|90:63,1,90,2|0,0:0|0:0,0:0:0:0:
230,155,36087,6,0,L|328:136,1,90,0|0,3:2|0:0,0:0:0:0:
414,57,36462,5,2,0:0:0:0:
498,91,36649,1,2,3:2:0:0:
493,198,36837,1,10,0:0:0:0:
409,164,37024,1,2,0:0:0:0:
318,137,37212,5,2,3:2:0:0:
234,171,37399,1,2,1:2:0:0:
239,278,37587,1,2,0:0:0:0:
323,244,37774,1,2,1:2:0:0:
401,294,37962,5,2,3:2:0:0:
394,320,38149,1,2,0:0:0:0:
323,357,38337,5,10,0:0:0:0:
227,299,38524,1,2,3:2:0:0:
164,343,38712,5,2,0:0:0:0:
55,359,38899,1,2,0:0:0:0:
30,230,39087,6,0,P|86:229|101:268,1,90,0|0,3:2|0:0,0:0:0:0:
180,223,39462,1,2,0:0:0:0:
190,204,39649,1,2,3:2:0:0:
100,137,39837,2,0,L|85:39,1,90,10|0,0:0|0:0,0:0:0:0:
227,129,40212,6,0,P|280:145|312:179,1,90,2|0,3:2|1:2,0:0:0:0:
421,102,40587,2,0,P|368:86|336:52,1,90,2|0,0:0|1:2,0:0:0:0:
401,200,40962,2,0,L|410:320,1,90,2|0,3:2|0:0,0:0:0:0:
317,337,41337,1,10,0:0:0:0:
435,361,41524,1,2,3:2:0:0:
287,261,41712,2,0,P|240:300|241:350,1,90,2|0,0:0|0:0,0:0:0:0:
321,188,42087,5,2,3:2:0:0:
211,167,42274,1,2,0:0:0:0:
266,51,42462,1,2,0:0:0:0:
279,71,42649,1,2,3:2:0:0:
171,74,42837,6,0,L|69:56,1,90,8|0,0:0|0:0,0:0:0:0:
6,122,43212,1,2,3:2:0:0:
32,231,43399,1,2,1:2:0:0:
132,167,43587,1,2,0:0:0:0:
136,148,43774,1,0,1:2:0:0:
196,290,43962,6,0,P|198:245|207:201,1,90,2|0,3:2|0:0,0:0:0:0:
243,368,44337,1,10,0:0:0:0:
130,328,44524,1,2,3:2:0:0:
283,273,44712,1,2,0:0:0:0:
290,293,44899,1,2,0:0:0:0:
344,186,45087,6,0,L|444:170,1,90,0|2,3:2|0:0,0:0:0:0:
475,253,45462,5,2,0:0:0:0:
468,280,45649,1,2,3:2:0:0:
445,158,45837,5,10,0:0:0:0:
461,51,46024,1,2,0:0:0:0:
331,20,46212,5,2,3:2:0:0:
353,98,46399,1,2,1:2:0:0:
273,115,46587,1,2,0:0:0:0:
48,348,48087,6,0,L|66:238,1,90,0|0,3:2|0:0,0:0:0:0:
142,311,48462,5,2,0:0:0:0:
112,190,48649,1,2,3:2:0:0:
183,223,48837,5,10,0:0:0:0:
148,98,49024,1,2,0:0:0:0:
237,45,49212,5,2,3:2:0:0:
218,149,49399,1,2,1:2:0:0:
301,131,49587,5,2,0:0:0:0:
426,178,49774,1,2,1:2:0:0:
379,241,49962,5,2,3:2:0:0:
259,260,50149,1,2,0:0:0:0:
305,318,50337,5,10,0:0:0:0:
298,347,50524,1,2,3:2:0:0:
386,365,50712,5,2,0:0:0:0:
368,260,50899,1,2,0:0:0:0:
244,274,51087,6,0,L|139:288,1,90,0|0,3:2|0:0,0:0:0:0:
101,340,51462,5,2,0:0:0:0:
123,216,51649,1,2,3:2:0:0:
46,248,51837,5,10,0:0:0:0:
74,123,52024,1,2,0:0:0:0:
17,66,52212,5,2,3:2:0:0:
162,110,52399,1,2,1:2:0:0:
229,44,52587,5,2,0:0:0:0:
221,24,52774,1,2,1:2:0:0:
217,173,52962,5,2,3:2:0:0:
320,134,53149,1,2,0:0:0:0:
427,100,53337,5,10,0:0:0:0:
307,56,53524,1,2,3:2:0:0:
365,207,53712,5,2,0:0:0:0:
385,196,53899,1,2,0:0:0:0:
436,307,54087,6,0,B|351:295|351:295|341:285|341:285|255:270,1,180,2|0,3:2|0:0,0:0:0:0:
208,326,54649,1,2,3:2:0:0:
254,258,54837,1,2,0:0:0:0:
29,247,55399,1,2,0:0:0:0:
29,247,55587,6,0,P|73:318|145:247,1,180,2|0,0:0|3:2,0:0:0:0:
115,196,56149,1,2,0:0:0:0:
142,267,56337,1,2,0:0:0:0:
68,51,56899,1,2,0:0:0:0:
68,51,57087,6,0,B|177:66|129:130|238:135,1,180,2|0,3:2|0:0,0:0:0:0:
266,45,57649,1,2,3:2:0:0:
225,119,57837,2,0,B|188:151|197:188|197:188|234:222|251:309,1,180,10|0,0:0|3:2,0:0:0:0:
305,340,58399,1,2,1:2:0:0:
252,286,58587,6,0,P|287:248|421:241,1,180,2|0,0:0|3:2,0:0:0:0:
466,317,59149,1,2,0:0:0:0:
417,251,59337,2,0,L|443:68,1,180,10|0,0:0|0:0,0:0:0:0:
359,31,59899,1,2,0:0:0:0:
343,165,60087,6,0,L|348:203,1,36,6|0,3:2|0:0,0:0:0:0:
280,120,60649,1,2,3:2:0:0:
30,74,60837,6,0,L|25:112,1,36,10|0,0:0|3:2,0:0:0:0:
93,29,61399,1,2,1:2:0:0:
296,259,61587,6,0,L|301:297,1,36,2|0,0:0|3:2,0:0:0:0:
233,214,62149,1,2,0:0:0:0:
60,175,62337,6,0,L|55:213,1,36,10|0,0:0|0:0,0:0:0:0:
123,130,62899,1,2,0:0:0:0:
122,368,63087,6,0,L|80:361,1,36,2|0,3:2|0:0,0:0:0:0:
30,313,63649,1,2,3:2:0:0:
292,81,63837,6,0,L|250:88,1,36,10|0,0:0|3:2,0:0:0:0:
200,136,64399,1,2,1:2:0:0:
231,346,64587,6,0,L|189:339,1,36,2|0,0:0|3:2,0:0:0:0:
139,291,65149,1,2,0:0:0:0:
394,114,65337,6,0,L|352:121,1,36,10|0,0:0|0:0,0:0:0:0:
302,169,65899,1,2,0:0:0:0:
462,348,66087,6,0,P|474:328|476:313,1,36,6|0,3:2|0:0,0:0:0:0:
429,251,66649,1,2,3:2:0:0:
200,136,66837,6,0,P|188:156|186:171,1,36,10|0,0:0|3:2,0:0:0:0:
233,233,67399,1,2,1:2:0:0:
491,136,67587,6,0,P|483:113|473:102,1,36,2|0,0:0|3:2,0:0:0:0:
395,98,68149,1,2,0:0:0:0:
258,338,68337,6,0,P|265:360|275:371,1,36,10|0,0:0|0:0,0:0:0:0:
353,375,68899,1,2,0:0:0:0:
395,98,69087,6,0,L|391:135,1,36,2|0,3:2|0:0,0:0:0:0:
381,203,69649,1,2,3:2:0:0:
303,72,69837,6,0,L|299:109,1,36,10|0,0:0|3:2,0:0:0:0:
281,241,70399,1,2,1:2:0:0:
201,42,70587,6,0,L|197:79,1,36,2|0,0:0|3:2,0:0:0:0:
172,282,71149,1,2,0:0:0:0:
74,14,71337,6,0,L|70:51,1,36,10|0,0:0|0:0,0:0:0:0:
43,328,71899,1,2,0:0:0:0:
186,157,72087,6,0,B|336:177|257:284|424:287,1,270.000010299683,6|0,3:2|0:0,0:0:0:0:
158,152,72649,1,2,3:2:0:0:
393,152,72837,6,0,B|245:172|324:279|172:282,1,270.000010299683,8|0,0:0|3:2,0:0:0:0:
415,161,73399,1,2,1:2:0:0:
276,55,73587,6,0,P|140:56|217:170,1,270.000010299683,2|0,0:0|3:2,0:0:0:0:
276,78,74149,1,2,0:0:0:0:
103,224,74337,6,0,P|111:301|276:266,1,270.000010299683,10|0,0:0|0:0,0:0:0:0:
113,208,74899,1,2,0:0:0:0:
359,80,75087,6,0,P|348:201|342:353,1,270.000010299683,2|0,3:2|0:0,0:0:0:0:
368,62,75649,1,2,3:2:0:0:
205,342,75837,6,0,P|199:207|188:72,1,270.000010299683,10|0,0:0|3:2,0:0:0:0:
194,363,76399,1,2,1:2:0:0:
32,178,76587,6,0,B|150:160|150:160|168:172|168:172|312:146,1,270.000010299683,2|0,0:0|3:2,0:0:0:0:
20,195,77149,1,2,0:0:0:0:
351,286,77337,6,0,B|232:268|232:268|215:280|215:280|71:254,1,270.000010299683,10|0,0:0|0:0,0:0:0:0:
363,303,77899,1,2,0:0:0:0:
488,62,78087,6,0,B|422:53|388:120|388:120|313:164|231:82,1,270.000010299683,6|0,3:2|0:0,0:0:0:0:
498,80,78649,1,2,3:2:0:0:
209,230,78837,6,0,B|275:221|309:288|309:288|384:332|466:250,1,270.000010299683,10|0,0:0|3:2,0:0:0:0:
199,248,79399,1,2,1:2:0:0:
78,166,79587,6,0,B|11:97|19:28|63:-10|187:7|132:125,1,270.000010299683,2|0,0:0|3:2,0:0:0:0:
93,182,80149,1,2,0:0:0:0:
199,248,80337,6,0,B|265:316|257:385|214:424|89:406|145:289,1,270.000010299683,10|0,0:0|0:0,0:0:0:0:
184,232,80899,1,2,0:0:0:0:
303,97,81087,6,0,B|365:69|433:103|433:103|465:177|399:262,1,270.000010299683,2|0,3:2|0:0,0:0:0:0:
288,113,81649,1,2,3:2:0:0:
486,301,81837,6,0,B|446:356|370:360|370:360|305:312|320:206,1,270.000010299683,10|0,0:0|3:2,0:0:0:0:
490,279,82399,1,2,1:2:0:0:
238,189,82587,6,0,B|146:186|127:248|127:248|130:184|2:131,1,270.000010299683,2|0,0:0|3:2,0:0:0:0:
257,202,83149,1,2,0:0:0:0:
111,39,83337,6,0,B|171:55|193:97|193:97|192:53|262:-4,1,202.500007724762,10|0,0:0|0:0,0:0:0:0:
241,13,83712,2,0,P|258:30|242:10,1,90,2|0,0:0|0:0,0:0:0:0:
257,202,84087,1,2,3:2:0:0:
