osu file format v14

[General]
AudioFilename: audio.mp3
AudioLeadIn: 0
PreviewTime: 59805
Countdown: 0
SampleSet: Soft
StackLeniency: 0.7
Mode: 0
LetterboxInBreaks: 0
WidescreenStoryboard: 1

[Editor]
Bookmarks: 12087,60087,84087,192087
DistanceSpacing: 0.8
BeatDivisor: 4
GridSize: 8
TimelineZoom: 1

[Metadata]
Title:Praise The Lord (Da Shine) [feat. Skepta] (Cut Ver.)
TitleUnicode:Praise The Lord (Da Shine) [feat. Skepta] (Cut Ver.)
Artist:A$AP Rocky
ArtistUnicode:A$AP Rocky
Creator:tadahitotsu
Version:Normal
Source:
Tags:english hip-hop hiphop rap testing asap
BeatmapID:3227887
BeatmapSetID:1577474

[Difficulty]
HPDrainRate:4
CircleSize:3.8
OverallDifficulty:5
ApproachRate:5
SliderMultiplier:1.4
SliderTickRate:1

[Events]
//Background and Video events
0,0,"bgbg.jpg",0,0
//Break Periods
//Storyboard Layer 0 (Background)
//Storyboard Layer 1 (Fail)
//Storyboard Layer 2 (Pass)
//Storyboard Layer 3 (Foreground)
//Storyboard Layer 4 (Overlay)
//Storyboard Sound Samples

[TimingPoints]
87,375,4,2,1,50,1,0
12087,-111.111111111111,4,2,1,55,0,0
60087,-100,4,2,1,70,0,1
72087,-100,4,2,1,70,0,1
84087,-100,4,2,1,70,0,0

[Colours]
Combo1 : 193,132,255
Combo2 : 128,128,192
Combo3 : 151,151,255
Combo4 : 214,242,183

[HitObjects]
64,58,12087,6,0,P|124:59|148:122,1,125.999996154785,0|0,3:2|0:0,0:0:0:0:
117,151,12649,2,0,P|103:209|97:276,1,125.999996154785,0|0,3:2|0:0,0:0:0:0:
129,313,13212,2,0,P|161:332|194:326,1,62.9999980773926,2|2,3:2|1:2,0:0:0:0:
210,285,13587,1,2,0:0:0:0:
305,316,13962,2,0,L|435:296,1,125.999996154785,2|10,3:2|0:0,0:0:0:0:
460,256,14524,1,0,3:2:0:0:
460,256,14712,2,0,P|459:217|438:195,1,62.9999980773926,2|0,0:0|0:0,0:0:0:0:
394,200,15087,6,0,P|335:217|312:106,2,188.999994232178,0|0|2,3:2|3:2|3:2,0:0:0:0:
476,142,16587,2,0,L|465:66,1,62.9999980773926,2|2,0:0|1:2,0:0:0:0:
420,61,16962,2,0,P|370:47|288:35,1,125.999996154785,2|10,3:2|0:0,0:0:0:0:
249,19,17524,1,2,3:2:0:0:
249,19,17712,1,2,0:0:0:0:
228,110,18087,6,0,L|209:248,1,125.999996154785,0|0,3:2|0:0,0:0:0:0:
243,272,18649,2,0,P|232:325|155:332,1,125.999996154785,0|2,3:2|0:0,0:0:0:0:
133,303,19212,2,0,L|65:289,1,62.9999980773926,2|2,3:2|1:2,0:0:0:0:
45,247,19587,1,2,0:0:0:0:
27,147,19962,2,0,P|58:126|88:120,1,62.9999980773926,2|0,3:2|0:0,0:0:0:0:
119,155,20337,1,10,0:0:0:0:
219,161,20712,1,2,0:0:0:0:
269,69,21087,6,0,B|304:84|341:61|341:61|403:49|459:105,2,188.999994232178,0|2|2,3:2|3:2|3:2,0:0:0:0:
188,129,22587,2,0,P|152:152|114:156,1,62.9999980773926,2|2,0:0|1:2,0:0:0:0:
84,141,22962,2,0,P|42:175|57:249,1,125.999996154785,2|8,3:2|0:0,0:0:0:0:
109,322,23712,2,0,L|178:308,1,62.9999980773926,2|2,0:0|0:0,0:0:0:0:
213,336,24087,6,0,P|260:315|266:233,1,125.999996154785,2|2,3:2|0:0,0:0:0:0:
231,218,24649,1,2,3:2:0:0:
231,218,24837,2,0,L|221:143,1,62.9999980773926,10|2,0:0|0:0,0:0:0:0:
254,116,25212,2,0,L|264:41,1,62.9999980773926,2|2,3:2|1:2,0:0:0:0:
304,25,25587,1,2,0:0:0:0:
391,74,25962,2,0,P|414:103|426:126,1,62.9999980773926,2|2,3:2|0:0,0:0:0:0:
470,150,26337,2,0,P|469:187|463:212,1,62.9999980773926,10|0,0:0|3:2,0:0:0:0:
421,240,26712,1,2,0:0:0:0:
369,326,27087,6,0,L|245:310,1,125.999996154785,0|0,3:2|0:0,0:0:0:0:
196,326,27649,1,2,3:2:0:0:
196,326,27837,2,0,P|159:289|160:268,1,62.9999980773926,10|2,0:0|0:0,0:0:0:0:
122,245,28212,2,0,P|134:207|156:191,1,62.9999980773926,2|2,3:2|1:2,0:0:0:0:
201,193,28587,2,0,P|255:150|248:90,1,125.999996154785,2|2,0:0|3:2,0:0:0:0:
173,35,29337,2,0,L|107:50,1,62.9999980773926,10|0,0:0|3:2,0:0:0:0:
70,78,29712,1,2,0:0:0:0:
26,168,30087,6,0,P|41:234|50:302,1,125.999996154785,0|0,3:2|0:0,0:0:0:0:
79,331,30649,2,0,P|139:353|178:304,1,125.999996154785,0|0,3:2|0:0,0:0:0:0:
152,268,31212,2,0,P|174:228|195:221,1,62.9999980773926,2|2,3:2|1:2,0:0:0:0:
237,232,31587,2,0,L|365:264,1,125.999996154785,2|0,0:0|3:2,0:0:0:0:
428,336,32337,2,0,P|476:320|485:293,1,62.9999980773926,10|0,0:0|3:2,0:0:0:0:
484,261,32712,1,2,0:0:0:0:
463,162,33087,6,0,L|324:131,1,125.999996154785,0|2,3:2|0:0,0:0:0:0:
318,89,33649,1,2,3:2:0:0:
318,89,33837,2,0,P|281:93|253:113,1,62.9999980773926,10|2,0:0|0:0,0:0:0:0:
250,155,34212,2,0,P|195:179|151:132,1,125.999996154785,2|2,3:2|0:0,0:0:0:0:
68,82,34962,2,0,L|51:144,1,62.9999980773926,2|2,3:2|0:0,0:0:0:0:
66,190,35337,1,10,0:0:0:0:
55,290,35712,1,2,0:0:0:0:
157,345,36087,6,0,B|221:365|221:365|292:321,1,125.999996154785,0|2,3:2|0:0,0:0:0:0:
254,286,36649,1,2,3:2:0:0:
254,286,36837,2,0,P|256:247|264:214,1,62.9999980773926,10|2,0:0|0:0,0:0:0:0:
307,203,37212,2,0,P|305:164|294:129,1,62.9999980773926,2|2,3:2|1:2,0:0:0:0:
260,108,37587,1,2,0:0:0:0:
347,57,37962,2,0,L|415:74,1,62.9999980773926,2|2,3:2|0:0,0:0:0:0:
457,60,38337,2,0,P|483:94|486:118,1,62.9999980773926,10|2,0:0|3:2,0:0:0:0:
459,155,38712,1,2,0:0:0:0:
471,255,39087,6,0,P|435:313|379:302,1,125.999996154785,0|2,3:2|0:0,0:0:0:0:
354,266,39649,1,2,3:2:0:0:
354,266,39837,2,0,L|214:250,1,125.999996154785,10|2,0:0|3:2,0:0:0:0:
155,320,40587,1,2,0:0:0:0:
65,272,40962,1,2,3:2:0:0:
20,181,41337,2,0,P|50:161|84:160,1,62.9999980773926,10|2,0:0|3:2,0:0:0:0:
123,176,41712,1,2,0:0:0:0:
200,111,42087,6,0,P|236:130|281:128,1,62.9999980773926,2|2,3:2|0:0,0:0:0:0:
297,101,42462,2,0,P|339:104|368:120,1,62.9999980773926,2|2,0:0|3:2,0:0:0:0:
382,156,42837,1,8,0:0:0:0:
448,231,43212,2,0,P|435:266|430:300,1,62.9999980773926,2|2,3:2|1:2,0:0:0:0:
462,330,43587,2,0,P|405:355|336:326,1,125.999996154785,2|2,0:0|3:2,0:0:0:0:
302,245,44337,1,10,0:0:0:0:
227,313,44712,1,2,0:0:0:0:
157,239,45087,6,0,P|163:179|179:101,1,125.999996154785,0|2,3:2|0:0,0:0:0:0:
212,80,45649,1,2,3:2:0:0:
212,80,45837,2,0,P|182:49|140:48,1,62.9999980773926,10|2,0:0|0:0,0:0:0:0:
115,58,46212,1,2,3:2:0:0:
40,125,46587,1,2,0:0:0:0:
285,336,48087,6,0,B|331:355|331:355|422:318,1,125.999996154785,0|2,3:2|0:0,0:0:0:0:
431,286,48649,1,2,3:2:0:0:
431,286,48837,2,0,P|435:246|424:199,1,62.9999980773926,10|2,0:0|0:0,0:0:0:0:
383,207,49212,2,0,P|372:168|375:138,1,62.9999980773926,2|2,3:2|1:2,0:0:0:0:
412,114,49587,1,2,0:0:0:0:
333,50,49962,2,0,L|262:37,1,62.9999980773926,2|2,3:2|0:0,0:0:0:0:
229,66,50337,2,0,L|158:53,1,62.9999980773926,10|2,0:0|3:2,0:0:0:0:
120,74,50712,1,2,0:0:0:0:
49,146,51087,6,0,P|34:217|93:244,1,125.999996154785,0|2,3:2|0:0,0:0:0:0:
120,234,51649,1,2,3:2:0:0:
120,234,51837,2,0,L|137:303,1,62.9999980773926,10|2,0:0|0:0,0:0:0:0:
110,339,52212,1,2,3:2:0:0:
208,358,52587,2,0,P|253:348|265:335,1,62.9999980773926,2|2,0:0|1:2,0:0:0:0:
263,286,52962,1,2,3:2:0:0:
330,210,53337,1,10,0:0:0:0:
246,153,53712,1,2,0:0:0:0:
303,71,54087,6,0,B|391:52|368:135|497:89,1,188.999994232178,2|2,3:2|3:2,0:0:0:0:
492,43,54837,1,2,0:0:0:0:
486,244,55587,6,0,P|472:293|361:251,1,188.999994232178,2|2,0:0|0:0,0:0:0:0:
370,219,56337,1,2,0:0:0:0:
228,362,57087,6,0,P|142:346|30:296,1,188.999994232178,2|2,3:2|3:2,0:0:0:0:
35,258,57837,1,10,0:0:0:0:
69,163,58212,2,0,P|90:139|131:131,1,62.9999980773926,0|2,3:2|1:2,0:0:0:0:
162,156,58587,2,0,P|216:175|260:107,1,125.999996154785,2|0,0:0|3:2,0:0:0:0:
234,87,59149,1,2,0:0:0:0:
234,87,59337,2,0,L|223:18,1,62.9999980773926,10|0,0:0|3:2,0:0:0:0:
387,64,60087,6,0,P|401:172|407:283,1,210,6|2,3:2|3:2,0:0:0:0:
355,296,60837,2,0,P|298:329|222:219,1,210,10|2,0:0|1:2,0:0:0:0:
258,201,61587,2,0,P|263:142|120:127,1,210,2|2,0:0|0:0,0:0:0:0:
115,152,62337,1,10,0:0:0:0:
227,345,63087,6,0,B|278:336|278:336|292:340|292:340|376:327|376:327|388:330|388:330|443:321,1,210,2|2,3:2|3:2,0:0:0:0:
473,282,63837,2,0,B|495:249|495:229|495:229|449:162|340:177,1,210,10|2,0:0|1:2,0:0:0:0:
319,212,64587,2,0,B|264:230|214:213|214:213|201:139|248:98,1,210,2|2,0:0|0:0,0:0:0:0:
283,91,65337,1,10,0:0:0:0:
63,45,66087,6,0,B|31:144|128:132|82:260,1,210,6|2,3:2|3:2,0:0:0:0:
43,280,66837,2,0,P|72:344|189:308,1,210,10|2,0:0|1:2,0:0:0:0:
182,257,67587,2,0,B|219:218|265:237|265:237|289:298|372:306,1,210,2|2,0:0|0:0,0:0:0:0:
396,265,68337,1,10,0:0:0:0:
488,60,69087,6,0,B|446:97|439:145|439:145|397:148|330:106,1,210,2|2,3:2|3:2,0:0:0:0:
328,54,69837,2,0,P|263:39|116:48,1,210,10|2,0:0|1:2,0:0:0:0:
85,90,70587,2,0,B|58:127|67:162|67:162|145:217|224:188,1,210,2|2,0:0|0:0,0:0:0:0:
230,155,71337,1,10,0:0:0:0:
446,212,72087,6,0,P|430:312|320:326,1,210,6|2,3:2|3:2,0:0:0:0:
302,288,72837,2,0,B|146:270|146:270|123:289|124:330,1,210,8|2,0:0|1:2,0:0:0:0:
83,355,73587,2,0,B|40:357|10:328|10:328|15:246|52:187,1,210,2|2,0:0|0:0,0:0:0:0:
93,179,74337,1,10,0:0:0:0:
269,41,75087,6,0,B|330:30|330:30|461:100,1,210,2|2,3:2|3:2,0:0:0:0:
493,144,75837,2,0,P|465:202|323:229,1,210,10|2,0:0|1:2,0:0:0:0:
305,184,76587,2,0,B|264:172|243:137|243:137|188:168|96:128,1,210,2|2,0:0|0:0,0:0:0:0:
63,152,77337,1,10,0:0:0:0:
155,355,78087,6,0,B|206:326|206:326|312:357|312:357|382:331,1,210,6|2,3:2|3:2,0:0:0:0:
405,352,78837,2,0,P|478:335|414:249,1,210,10|2,0:0|1:2,0:0:0:0:
382,212,79587,2,0,P|339:232|214:152,1,210,2|2,0:0|0:0,0:0:0:0:
245,107,80337,1,10,0:0:0:0:
160,314,81087,6,0,B|124:356|80:347|80:347|37:222,1,210,2|2,3:2|3:2,0:0:0:0:
6,190,81837,2,0,P|19:126|143:133,1,210,10|2,0:0|1:2,0:0:0:0:
154,184,82587,2,0,L|365:229,1,210,2|2,0:0|0:0,0:0:0:0:
382,278,83337,1,10,0:0:0:0:
455,193,83712,1,2,0:0:0:0:
372,116,84087,1,2,3:2:0:0:
