osu file format v14

[General]
AudioFilename: audio.mp3
AudioLeadIn: 0
PreviewTime: 59805
Countdown: 0
SampleSet: Soft
StackLeniency: 0.7
Mode: 0
LetterboxInBreaks: 0
WidescreenStoryboard: 1

[Editor]
Bookmarks: 12087,60087,84087,192087
DistanceSpacing: 1.2
BeatDivisor: 4
GridSize: 8
TimelineZoom: 1

[Metadata]
Title:Praise The Lord (Da Shine) [feat. Skepta] (Cut Ver.)
TitleUnicode:Praise The Lord (Da Shine) [feat. Skepta] (Cut Ver.)
Artist:A$AP Rocky
ArtistUnicode:A$AP Rocky
Creator:tadahitotsu
Version:Hard
Source:
Tags:english hip-hop hiphop rap testing asap
BeatmapID:3221044
BeatmapSetID:1577474

[Difficulty]
HPDrainRate:4
CircleSize:4
OverallDifficulty:6
ApproachRate:6.5
SliderMultiplier:1.6
SliderTickRate:1

[Events]
//Background and Video events
0,0,"bgbg.jpg",0,0
//Break Periods
//Storyboard Layer 0 (Background)
//Storyboard Layer 1 (Fail)
//Storyboard Layer 2 (Pass)
//Storyboard Layer 3 (Foreground)
//Storyboard Layer 4 (Overlay)
//Storyboard Sound Samples

[TimingPoints]
87,375,4,2,1,50,1,0
12087,-125,4,2,1,55,0,0
60087,-100,4,2,1,70,0,1
72087,-100,4,2,1,70,0,1
84087,-100,4,2,1,70,0,0

[Colours]
Combo1 : 193,132,255
Combo2 : 128,128,192
Combo3 : 151,151,255
Combo4 : 214,242,183

[HitObjects]
83,44,12087,6,0,P|145:46|164:119,1,128,0|0,3:2|0:0,0:0:0:0:
119,158,12649,1,0,3:2:0:0:
119,158,12837,2,0,L|129:240,1,64,8|0,0:0|0:0,0:0:0:0:
91,290,13212,2,0,P|132:320|161:312,1,64,2|2,3:2|1:2,0:0:0:0:
205,274,13587,5,2,0:0:0:0:
318,208,13962,2,0,L|381:218,1,64,2|0,3:2|0:0,0:0:0:0:
421,284,14337,2,0,P|472:274|484:196,1,128,10|2,0:0|0:0,0:0:0:0:
444,145,14899,1,0,0:0:0:0:
398,83,15087,6,0,P|335:75|261:60,1,128,0|0,3:2|0:0,0:0:0:0:
209,107,15649,1,0,3:2:0:0:
209,107,15837,2,0,P|220:146|222:171,1,64,10|2,0:0|0:0,0:0:0:0:
287,210,16212,2,0,P|276:249|274:274,1,64,2|2,3:2|1:2,0:0:0:0:
301,344,16587,6,0,P|252:364|181:325,1,128,2|2,0:0|3:2,0:0:0:0:
145,269,17149,1,0,0:0:0:0:
77,312,17337,2,0,P|58:281|59:247,1,64,10|2,0:0|3:2,0:0:0:0:
89,184,17712,1,2,0:0:0:0:
33,72,18087,6,0,L|163:115,1,128,0|0,3:2|0:0,0:0:0:0:
218,70,18649,1,0,3:2:0:0:
218,70,18837,2,0,L|287:57,1,64,10|2,0:0|0:0,0:0:0:0:
348,94,19212,2,0,L|410:105,1,64,2|2,3:2|1:2,0:0:0:0:
450,171,19587,6,0,B|453:203|421:230|421:230|388:231|351:193,1,128,2|2,0:0|3:2,0:0:0:0:
302,165,20149,1,0,0:0:0:0:
253,224,20337,2,0,L|263:302,1,64,10|0,0:0|3:2,0:0:0:0:
320,336,20712,1,2,0:0:0:0:
169,365,21087,6,0,L|149:238,1,128,0|2,3:2|0:0,0:0:0:0:
87,193,21649,1,2,3:2:0:0:
87,193,21837,2,0,P|100:155|126:139,1,64,10|0,0:0|0:0,0:0:0:0:
156,75,22212,2,0,P|220:71|257:146,1,128,2|2,3:2|0:0,0:0:0:0:
233,190,22774,5,2,1:2:0:0:
268,258,22962,2,0,L|249:337,1,64,2|0,3:2|0:0,0:0:0:0:
311,369,23337,1,8,0:0:0:0:
417,258,23712,1,2,0:0:0:0:
417,258,23899,1,2,0:0:0:0:
364,193,24087,6,0,L|383:111,1,64,2|2,3:2|0:0,0:0:0:0:
312,90,24462,2,0,L|293:8,1,64,2|2,0:0|3:2,0:0:0:0:
223,46,24837,1,10,0:0:0:0:
223,46,25024,1,2,0:0:0:0:
148,64,25212,2,0,L|69:46,1,64,2|2,3:2|1:2,0:0:0:0:
33,106,25587,6,0,P|17:141|21:176,1,64,2|2,0:0|1:2,0:0:0:0:
91,189,25962,2,0,P|107:224|103:259,1,64,2|2,3:2|0:0,0:0:0:0:
65,314,26337,1,10,0:0:0:0:
201,357,26712,1,2,0:0:0:0:
350,347,27087,6,0,P|409:326|389:254,1,128,0|0,3:2|0:0,0:0:0:0:
343,225,27649,1,2,3:2:0:0:
272,255,27837,2,0,L|192:231,1,64,10|2,0:0|0:0,0:0:0:0:
143,274,28212,2,0,L|63:250,1,64,2|2,3:2|1:2,0:0:0:0:
35,194,28587,5,2,0:0:0:0:
35,194,28774,1,2,1:2:0:0:
105,163,28962,2,0,P|128:129|124:96,1,64,2|2,3:2|0:0,0:0:0:0:
86,45,29337,2,0,P|110:4|184:20,1,128,10|2,0:0|0:0,0:0:0:0:
211,166,30087,6,0,L|342:149,1,128,0|0,3:2|0:0,0:0:0:0:
379,84,30649,1,0,3:2:0:0:
379,84,30837,2,0,P|425:96|440:117,1,64,8|0,0:0|0:0,0:0:0:0:
438,184,31212,2,0,P|429:220|425:253,1,64,2|2,3:2|1:2,0:0:0:0:
383,310,31587,6,0,B|327:278|318:334|253:290,1,128,2|0,0:0|3:2,0:0:0:0:
123,363,32337,2,0,P|92:342|82:313,1,64,10|0,0:0|3:2,0:0:0:0:
94,242,32712,2,0,L|159:226,1,64,2|0,0:0|0:0,0:0:0:0:
230,248,33087,6,0,P|274:207|265:142,1,128,0|2,3:2|0:0,0:0:0:0:
189,140,33649,1,2,3:2:0:0:
190,59,33837,2,0,L|105:75,1,64,10|2,0:0|0:0,0:0:0:0:
66,118,34212,2,0,B|50:154|50:154|63:198,1,64,2|2,3:2|1:2,0:0:0:0:
119,222,34587,5,2,0:0:0:0:
119,222,34774,1,2,1:2:0:0:
72,283,34962,2,0,L|1:300,1,64,2|2,3:2|0:0,0:0:0:0:
116,343,35337,2,0,L|187:353,1,64,10|0,0:0|3:2,0:0:0:0:
234,298,35712,1,2,0:0:0:0:
377,348,36087,6,0,P|364:308|350:214,1,128,0|2,3:2|0:0,0:0:0:0:
410,175,36649,1,2,3:2:0:0:
455,113,36837,2,0,P|432:82|396:71,1,64,10|2,0:0|0:0,0:0:0:0:
339,104,37212,5,2,3:2:0:0:
339,104,37399,1,2,1:2:0:0:
272,64,37587,1,2,0:0:0:0:
272,64,37774,1,2,1:2:0:0:
208,106,37962,6,0,L|216:177,1,64,2|2,3:2|0:0,0:0:0:0:
268,225,38337,1,10,0:0:0:0:
268,225,38524,1,2,3:2:0:0:
260,301,38712,2,0,P|236:332|203:330,1,64,2|2,0:0|0:0,0:0:0:0:
154,278,39087,6,0,L|24:256,1,128,0|2,3:2|0:0,0:0:0:0:
12,181,39649,1,2,3:2:0:0:
12,181,39837,1,10,0:0:0:0:
149,60,40212,6,0,L|216:64,1,64,2|0,3:2|1:2,0:0:0:0:
240,135,40587,2,0,L|303:131,1,64,2|0,0:0|1:2,0:0:0:0:
368,89,40962,2,0,P|409:129|420:210,1,128,2|10,3:2|0:0,0:0:0:0:
380,261,41524,1,2,3:2:0:0:
380,261,41712,1,2,0:0:0:0:
293,362,42087,5,2,3:2:0:0:
293,362,42274,1,2,0:0:0:0:
228,310,42462,1,2,0:0:0:0:
228,310,42649,1,2,3:2:0:0:
174,365,42837,2,0,P|112:350|105:285,1,128,8|2,0:0|3:2,0:0:0:0:
149,234,43399,1,2,1:2:0:0:
83,193,43587,6,0,L|67:122,1,64,2|0,0:0|1:2,0:0:0:0:
120,73,43962,2,0,P|154:59|192:78,1,64,2|0,3:2|0:0,0:0:0:0:
206,138,44337,1,10,0:0:0:0:
206,138,44524,1,2,3:2:0:0:
277,166,44712,2,0,L|346:171,1,64,2|2,0:0|0:0,0:0:0:0:
363,95,45087,6,0,P|418:97|433:175,1,128,0|2,3:2|0:0,0:0:0:0:
398,222,45649,1,2,3:2:0:0:
398,222,45837,2,0,P|400:257|405:293,1,64,10|2,0:0|0:0,0:0:0:0:
326,291,46212,2,0,P|324:326|319:362,1,64,2|2,3:2|1:2,0:0:0:0:
392,381,46587,1,2,0:0:0:0:
79,45,48087,6,0,P|65:115|57:196,1,128,0|2,3:2|0:0,0:0:0:0:
114,224,48649,1,2,3:2:0:0:
66,284,48837,2,0,P|86:317|114:327,1,64,10|2,0:0|0:0,0:0:0:0:
175,363,49212,2,0,P|213:362|236:342,1,64,2|2,3:2|1:2,0:0:0:0:
224,270,49587,5,2,0:0:0:0:
224,270,49774,1,2,1:2:0:0:
270,208,49962,1,2,3:2:0:0:
270,208,50149,1,2,0:0:0:0:
209,160,50337,2,0,L|198:86,1,64,10|2,0:0|3:2,0:0:0:0:
248,36,50712,1,2,0:0:0:0:
389,65,51087,6,0,L|404:212,1,128,0|2,3:2|0:0,0:0:0:0:
465,235,51649,1,2,3:2:0:0:
465,235,51837,2,0,P|457:276|435:293,1,64,10|2,0:0|0:0,0:0:0:0:
379,335,52212,2,0,L|303:314,1,64,2|2,3:2|1:2,0:0:0:0:
267,259,52587,5,2,0:0:0:0:
267,259,52774,1,2,1:2:0:0:
218,318,52962,2,0,P|192:349|163:349,1,64,2|2,3:2|0:0,0:0:0:0:
121,291,53337,2,0,L|49:278,1,64,10|2,0:0|3:2,0:0:0:0:
78,205,53712,2,0,L|140:216,1,64,2|2,0:0|0:0,0:0:0:0:
198,164,54087,6,0,L|335:139,1,128,2|0,3:2|0:0,0:0:0:0:
394,85,54649,1,2,3:2:0:0:
394,85,54837,1,2,0:0:0:0:
483,297,55399,1,2,0:0:0:0:
483,297,55587,6,0,L|346:272,1,128,2|0,0:0|3:2,0:0:0:0:
300,222,56149,1,2,0:0:0:0:
300,222,56337,1,2,0:0:0:0:
139,56,56899,1,2,0:0:0:0:
139,56,57086,6,0,P|197:60|216:130,1,128,2|0,3:2|0:0,0:0:0:0:
165,173,57649,1,2,3:2:0:0:
165,173,57837,2,0,P|172:234|177:304,1,128,10|0,0:0|3:2,0:0:0:0:
113,343,58399,1,2,1:2:0:0:
113,343,58587,6,0,B|163:298|163:298|231:315,1,128,2|0,0:0|3:2,0:0:0:0:
293,339,59149,1,2,0:0:0:0:
293,339,59337,1,10,0:0:0:0:
290,213,59899,1,2,0:0:0:0:
351,139,60087,6,0,P|324:73|238:88,1,160,6|0,3:2|0:0,0:0:0:0:
168,135,60649,1,2,3:2:0:0:
168,135,60837,2,0,L|184:300,1,160,10|0,0:0|3:2,0:0:0:0:
93,325,61399,1,2,1:2:0:0:
93,325,61587,6,0,L|77:160,1,160,2|0,0:0|3:2,0:0:0:0:
114,77,62149,1,2,0:0:0:0:
114,77,62337,2,0,P|174:46|237:112,1,160,10|0,0:0|0:0,0:0:0:0:
327,131,62899,1,2,0:0:0:0:
362,220,63087,6,0,P|275:228|194:248,1,160,2|0,3:2|0:0,0:0:0:0:
218,339,63649,1,2,3:2:0:0:
218,339,63837,2,0,P|305:331|386:311,1,160,10|0,0:0|3:2,0:0:0:0:
451,256,64399,1,2,1:2:0:0:
451,256,64587,6,0,B|455:176|455:176|466:166|466:166|469:93,1,160,2|0,0:0|3:2,0:0:0:0:
389,47,65149,1,2,0:0:0:0:
389,47,65337,2,0,P|351:92|251:56,1,160,10|0,0:0|0:0,0:0:0:0:
97,96,66087,6,0,B|180:131|101:201|199:241,1,160,6|0,3:2|0:0,0:0:0:0:
242,160,66649,1,2,3:2:0:0:
242,160,66837,2,0,B|159:195|238:265|140:305,1,160,10|0,0:0|3:2,0:0:0:0:
83,340,67399,1,2,1:2:0:0:
83,340,67587,6,0,B|130:324|130:324|204:331|204:331|251:315,1,160,2|0,0:0|3:2,0:0:0:0:
329,348,68149,1,2,0:0:0:0:
329,348,68337,2,0,B|383:288|383:288|343:202,1,160,10|0,0:0|0:0,0:0:0:0:
265,170,68899,1,2,0:0:0:0:
330,99,69087,6,0,P|441:118|436:158,1,160,2|0,3:2|0:0,0:0:0:0:
389,214,69649,1,2,3:2:0:0:
389,214,69837,2,0,P|334:246|231:277,1,160,10|0,0:0|3:2,0:0:0:0:
167,335,70399,1,2,1:2:0:0:
167,335,70587,6,0,P|99:330|85:244,1,160,2|0,0:0|3:2,0:0:0:0:
160,197,71149,1,2,0:0:0:0:
160,197,71337,2,0,P|128:142|97:39,1,160,10|0,0:0|0:0,0:0:0:0:
254,95,72087,6,0,B|296:72|325:80|325:80|355:125|434:118,1,160,6|0,3:2|0:0,0:0:0:0:
478,170,72649,1,2,3:2:0:0:
478,170,72837,2,0,B|436:147|407:155|407:155|377:200|298:193,1,160,8|0,0:0|3:2,0:0:0:0:
260,255,73399,1,2,1:2:0:0:
260,255,73587,6,0,B|283:231|323:235|323:235|343:271|332:331,1,160,2|0,0:0|3:2,0:0:0:0:
246,363,74149,1,2,0:0:0:0:
246,363,74337,2,0,P|194:331|81:302,1,160,10|0,0:0|0:0,0:0:0:0:
41,226,74899,1,2,0:0:0:0:
93,145,75087,6,0,B|88:105|115:91|115:91|175:114|226:61,1,160,2|0,3:2|0:0,0:0:0:0:
289,127,75649,1,2,3:2:0:0:
289,127,75837,2,0,L|268:298,1,160,10|0,0:0|3:2,0:0:0:0:
348,341,76399,1,2,1:2:0:0:
348,341,76587,6,0,P|404:358|431:273,1,160,2|0,0:0|3:2,0:0:0:0:
374,204,77149,1,2,0:0:0:0:
374,204,77337,2,0,L|393:45,1,160,10|0,0:0|0:0,0:0:0:0:
212,63,78087,6,0,B|165:93|165:93|107:79|107:79|51:116,1,160,6|0,3:2|0:0,0:0:0:0:
22,186,78649,1,2,3:2:0:0:
22,186,78837,2,0,B|69:216|69:216|127:202|127:202|183:239,1,160,10|0,0:0|3:2,0:0:0:0:
208,311,79399,1,2,1:2:0:0:
208,311,79587,6,0,P|283:314|287:224,1,160,2|0,0:0|3:2,0:0:0:0:
247,163,80149,1,2,0:0:0:0:
247,163,80337,2,0,P|258:117|359:123,1,160,10|0,0:0|0:0,0:0:0:0:
446,141,80899,1,2,0:0:0:0:
384,215,81087,6,0,L|401:374,1,160,2|0,3:2|0:0,0:0:0:0:
305,368,81649,1,2,3:2:0:0:
305,368,81837,2,0,L|288:209,1,160,10|0,0:0|3:2,0:0:0:0:
203,164,82399,1,2,1:2:0:0:
203,164,82587,6,0,P|132:165|26:142,1,160,2|0,0:0|3:2,0:0:0:0:
35,243,83149,1,2,0:0:0:0:
35,243,83337,2,0,P|106:242|212:265,1,160,10|2,0:0|0:0,0:0:0:0:
246,337,83899,1,0,0:0:0:0:
317,272,84087,1,2,3:2:0:0:
