osu file format v14

[General]
AudioFilename: audio.mp3
AudioLeadIn: 0
PreviewTime: 18551
Countdown: 0
SampleSet: Soft
StackLeniency: 0
Mode: 0
LetterboxInBreaks: 0
WidescreenStoryboard: 1

[Editor]
DistanceSpacing: 0.8
BeatDivisor: 4
GridSize: 16
TimelineZoom: 2.3

[Metadata]
Title:Horrible Bits
TitleUnicode:Horrible Bits
Artist:A r M i N
ArtistUnicode:A r M i N
Creator:pre
Version:nether
Source:
Tags:
BeatmapID:4559240
BeatmapSetID:2159357

[Difficulty]
HPDrainRate:5
CircleSize:4
OverallDifficulty:9
ApproachRate:9.3
SliderMultiplier:0.899999999999999
SliderTickRate:1

[Events]
//Background and Video events
0,0,"bg.png",0,0
//Break Periods
//Storyboard Layer 0 (Background)
//Storyboard Layer 1 (Fail)
//Storyboard Layer 2 (Pass)
//Storyboard Layer 3 (Foreground)
//Storyboard Layer 4 (Overlay)
//Storyboard Sound Samples

[TimingPoints]
18,288.461538461538,4,2,0,100,1,0
1171,-50,4,2,0,100,0,0
8960,-133.333333333333,4,2,0,100,0,0
9248,-66.6666666666667,4,2,0,100,0,0
9392,-66.6666666666667,4,2,0,100,0,0
9537,-55.5555555555556,4,2,0,100,0,0
9537,-100,4,2,0,100,0,0
9537,-66.6666666666667,4,2,0,100,0,0
9825,-66.6666666666667,4,2,0,100,0,0
10402,-55.5555555555556,4,2,0,100,0,0
19633,-50,4,2,0,100,0,0
19849,-50,4,2,0,100,0,0
19921,-90.9090909090909,4,2,0,100,0,0
24248,-50,4,2,0,100,0,0
27854,-50,4,2,0,5,0,0
27998,-50,4,2,0,100,0,0
28142,-50,4,2,0,5,0,0
28215,-50,4,2,0,100,0,0

[HitObjects]
131,113,306,6,0,P|115:192|111:215,2,89.9999999999999
275,71,1171,5,0,0:0:0:0:
385,308,1316,1,0,0:0:0:0:
362,77,1460,5,0,0:0:0:0:
274,290,1604,1,0,0:0:0:0:
97,126,1748,6,0,L|211:126,1,99.9999999999999
265,339,2037,2,0,L|166:339,1,99.9999999999999
230,32,2325,5,0,0:0:0:0:
461,145,2469,1,0,0:0:0:0:
254,265,2614,2,0,L|129:267,1,89.9999999999999
408,67,2902,5,0,0:0:0:0:
425,315,3046,1,0,0:0:0:0:
214,174,3191,2,0,L|218:75,1,99.9999999999999
465,137,3479,5,0,0:0:0:0:
166,257,3623,1,0,0:0:0:0:
456,318,3767,5,0,0:0:0:0:
265,58,3912,1,0,0:0:0:0:
353,293,4056,2,0,P|309:313|258:317,1,99.9999999999999
203,58,4344,2,0,P|246:34|335:36,1,99.9999999999999
282,339,4633,5,0,0:0:0:0:
90,103,4777,1,0,0:0:0:0:
336,82,4921,2,0,L|422:142,1,99.9999999999999
84,288,5210,5,0,0:0:0:0:
195,42,5354,1,0,0:0:0:0:
304,294,5497,1,0,0:0:0:0:
304,294,5570,1,0,0:0:0:0:
304,294,5642,2,0,L|305:202,1,50
305,69,5787,5,0,0:0:0:0:
468,249,5931,1,0,0:0:0:0:
222,293,6075,2,0,B|175:302|110:295|92:341,1,99.9999999999999
383,187,6364,2,0,P|438:187|494:196,1,99.9999999999999
209,106,6652,2,0,B|155:106|120:73|116:71,1,99.9999999999999
60,305,6941,5,0,0:0:0:0:
271,292,7085,1,0,0:0:0:0:
63,132,7229,2,0,L|76:26,1,99.9999999999999
59,344,7517,5,0,0:0:0:0:
276,322,7662,1,0,0:0:0:0:
63,131,7806,1,0,0:0:0:0:
63,131,7878,1,0,0:0:0:0:
63,131,7950,2,0,B|124:83|139:140|194:100|202:52|266:102,1,200
380,297,8383,5,0,0:0:0:0:
435,73,8527,1,0,0:0:0:0:
210,106,8671,2,0,L|113:146,1,99.9999999999999
194,313,8960,2,0,L|260:275,1,67.5000025749207
329,110,9392,5,0,0:0:0:0:
129,100,9537,2,0,P|88:99|61:65,1,80.9999975280762
134,312,9825,2,0,P|80:313|60:343,1,67.5000025749207
207,191,10114,2,0,L|287:191,1,67.5000025749207
405,69,10402,6,0,B|408:112|406:137|407:159|376:156|361:157|362:194|360:214|359:232|361:254|362:268|360:278|362:291,1,222.750006797791
84,194,10979,5,0,0:0:0:0:
253,48,11123,1,0,0:0:0:0:
186,303,11267,1,0,0:0:0:0:
121,76,11412,1,0,0:0:0:0:
302,225,11556,2,0,L|302:105,1,80.9999975280762
431,73,11844,5,0,0:0:0:0:
442,313,11989,1,0,0:0:0:0:
243,79,12133,2,0,L|157:81,1,80.9999975280762
73,258,12421,5,0,0:0:0:0:
258,338,12566,1,0,0:0:0:0:
375,147,12710,2,0,L|284:169,1,80.9999975280762
45,73,12998,5,0,0:0:0:0:
134,258,13142,1,0,0:0:0:0:
204,66,13287,1,0,0:0:0:0:
57,201,13431,2,0,L|43:264,1,40.4999987640381
248,166,13575,1,0,0:0:0:0:
250,335,13719,1,0,0:0:0:0:
332,149,13864,6,0,L|355:71,1,80.9999975280762
229,260,14152,2,0,L|194:338,1,80.9999975280762
61,72,14441,5,0,0:0:0:0:
259,74,14585,1,0,0:0:0:0:
63,231,14729,1,0,0:0:0:0:
220,205,14873,5,0,0:0:0:0:
220,205,14945,1,0,0:0:0:0:
220,205,15017,2,0,L|310:208,1,80.9999975280762
395,327,15306,5,0,0:0:0:0:
318,124,15450,1,0,0:0:0:0:
456,209,15594,1,0,0:0:0:0:
396,38,15739,1,0,0:0:0:0:
286,293,15883,1,0,0:0:0:0:
243,104,16027,1,0,0:0:0:0:
131,273,16171,2,0,L|99:186,1,80.9999975280762
274,50,16460,5,0,0:0:0:0:
102,52,16604,1,0,0:0:0:0:
320,196,16748,2,0,L|263:261,1,80.9999975280762
420,91,17037,2,0,L|419:257,1,161.999995056152
255,95,17469,1,0,0:0:0:0:
317,256,17614,1,0,0:0:0:0:
365,129,17758,1,0,0:0:0:0:
240,326,17902,1,0,0:0:0:0:
169,153,18046,1,0,0:0:0:0:
363,324,18191,2,0,B|388:283|434:254|424:175,1,161.999995056152
312,65,18623,5,0,0:0:0:0:
425,246,18767,1,0,0:0:0:0:
459,82,18912,1,0,0:0:0:0:
287,215,19056,2,0,L|253:113,1,80.9999975280762
381,327,19344,2,0,L|468:280,1,80.9999975280762
184,297,19633,6,0,P|160:231|138:159,1,99.9999999999999
267,49,19921,5,0,0:0:0:0:
402,324,20066,1,0,0:0:0:0:
394,49,20210,5,0,0:0:0:0:
254,321,20355,1,0,0:0:0:0:
153,63,20498,5,0,0:0:0:0:
332,261,20642,1,0,0:0:0:0:
108,260,20787,5,0,0:0:0:0:
253,41,20931,1,0,0:0:0:0:
389,284,21075,5,0,0:0:0:0:
332,43,21219,1,0,0:0:0:0:
164,286,21364,5,0,0:0:0:0:
239,63,21508,1,0,0:0:0:0:
349,319,21652,5,0,0:0:0:0:
330,68,21796,1,0,0:0:0:0:
135,334,21941,5,0,0:0:0:0:
111,60,22085,1,0,0:0:0:0:
351,181,22229,1,0,0:0:0:0:
71,327,22373,1,0,0:0:0:0:
183,41,22517,1,0,0:0:0:0:
333,325,22662,1,0,0:0:0:0:
34,132,22806,1,0,0:0:0:0:
349,53,22950,1,0,0:0:0:0:
224,323,23094,2,0,L|161:293,1,55.0000016784668
266,47,23383,2,0,L|333:76,1,55.0000016784668
94,178,23671,2,0,L|121:119,1,55.0000016784668
417,205,23960,2,0,L|390:264,1,55.0000016784668
98,323,24248,6,0,L|98:182,1,99.9999999999999
153,52,24537,5,0,0:0:0:0:
271,299,24681,1,0,0:0:0:0:
341,55,24825,5,0,0:0:0:0:
125,254,24969,1,0,0:0:0:0:
398,212,25114,5,0,0:0:0:0:
161,39,25258,1,0,0:0:0:0:
282,329,25402,5,0,0:0:0:0:
233,32,25546,1,0,0:0:0:0:
368,330,25691,5,0,0:0:0:0:
400,53,25835,1,0,0:0:0:0:
215,316,25979,5,0,0:0:0:0:
295,54,26123,1,0,0:0:0:0:
457,335,26267,5,0,0:0:0:0:
361,74,26412,1,0,0:0:0:0:
300,342,26556,5,0,0:0:0:0:
186,74,26700,1,0,0:0:0:0:
54,329,26844,1,0,0:0:0:0:
326,202,26989,5,0,0:0:0:0:
58,80,27133,1,0,0:0:0:0:
180,330,27277,1,0,0:0:0:0:
286,45,27421,5,0,0:0:0:0:
426,337,27566,1,0,0:0:0:0:
124,79,27710,6,0,L|123:179,1,99.9999999999999
412,262,27998,6,0,L|412:162,1,99.9999999999999
171,99,28287,5,0,0:0:0:0:
171,274,28431,1,0,0:0:0:0:
339,129,28575,5,0,0:0:0:0:
340,306,28719,1,0,0:0:0:0:
256,192,28864,5,0,0:0:0:0:
256,192,28864,12,0,31532,0:0:0:0:
