osu file format v14

[General]
AudioFilename: audio.mp3
AudioLeadIn: 0
PreviewTime: 18551
Countdown: 0
SampleSet: Soft
StackLeniency: 0.7
Mode: 1
LetterboxInBreaks: 0
WidescreenStoryboard: 1

[Editor]
DistanceSpacing: 0.8
BeatDivisor: 4
GridSize: 32
TimelineZoom: 2.799999

[Metadata]
Title:Horrible Bits
TitleUnicode:Horrible Bits
Artist:A r M i N
ArtistUnicode:A r M i N
Creator:pre
Version:Oni
Source:
Tags:
BeatmapID:4553089
BeatmapSetID:2159357

[Difficulty]
HPDrainRate:4.5
CircleSize:4.1
OverallDifficulty:5
ApproachRate:9.2
SliderMultiplier:1.4
SliderTickRate:1

[Events]
//Background and Video events
0,0,"bg.png",0,0
//Break Periods
//Storyboard Layer 0 (Background)
//Storyboard Layer 1 (Fail)
//Storyboard Layer 2 (Pass)
//Storyboard Layer 3 (Foreground)
//Storyboard Layer 4 (Overlay)
//Storyboard Sound Samples

[TimingPoints]
18,288.461538461538,4,2,0,100,1,0
306,-111.111111111111,4,2,0,100,0,0
1748,-111.111111111111,4,2,0,100,0,0
19633,-95.2380952380952,4,2,0,100,0,1
20210,-95.2380952380952,4,2,0,100,0,1
28792,-71.4285714285714,4,2,0,100,0,0
28864,-71.4285714285714,4,2,0,100,0,0

[HitObjects]
256,192,306,5,8,0:0:0:0:
256,192,594,1,8,0:0:0:0:
256,192,883,1,8,0:0:0:0:
256,192,1171,1,4,0:0:0:0:
256,192,1316,1,0,0:0:0:0:
256,192,1460,1,8,0:0:0:0:
256,192,1604,1,0,0:0:0:0:
256,192,1748,1,0,0:0:0:0:
256,192,2037,1,2,0:0:0:0:
256,192,2325,1,2,0:0:0:0:
256,192,2469,1,0,0:0:0:0:
256,192,2614,1,0,0:0:0:0:
256,192,2902,1,0,0:0:0:0:
256,192,3046,1,0,0:0:0:0:
256,192,3191,1,2,0:0:0:0:
256,192,3335,1,0,0:0:0:0:
256,192,3479,1,0,0:0:0:0:
256,192,3623,1,0,0:0:0:0:
256,192,3767,1,8,0:0:0:0:
256,192,3912,1,0,0:0:0:0:
256,192,4056,1,0,0:0:0:0:
256,192,4344,1,2,0:0:0:0:
256,192,4633,1,2,0:0:0:0:
256,192,4777,1,0,0:0:0:0:
256,192,4921,1,0,0:0:0:0:
256,192,5210,1,0,0:0:0:0:
256,192,5354,1,0,0:0:0:0:
256,192,5498,1,2,0:0:0:0:
256,192,5570,1,2,0:0:0:0:
256,192,5642,1,2,0:0:0:0:
256,192,5715,1,2,0:0:0:0:
256,192,5787,1,0,0:0:0:0:
256,192,5931,1,0,0:0:0:0:
256,192,6075,1,2,0:0:0:0:
256,192,6219,1,0,0:0:0:0:
256,192,6364,1,0,0:0:0:0:
256,192,6652,1,2,0:0:0:0:
256,192,6941,1,2,0:0:0:0:
256,192,7085,1,0,0:0:0:0:
256,192,7229,1,0,0:0:0:0:
256,192,7517,1,0,0:0:0:0:
256,192,7662,1,0,0:0:0:0:
256,192,7806,1,2,0:0:0:0:
256,192,7950,1,0,0:0:0:0:
256,192,8094,1,0,0:0:0:0:
256,192,8239,1,0,0:0:0:0:
256,192,8383,1,2,0:0:0:0:
256,192,8527,1,0,0:0:0:0:
256,192,8671,1,2,0:0:0:0:
256,192,8960,1,2,0:0:0:0:
256,192,9392,1,0,0:0:0:0:
256,192,9537,1,0,0:0:0:0:
256,192,9681,1,0,0:0:0:0:
256,192,9969,1,0,0:0:0:0:
256,192,10114,1,2,0:0:0:0:
256,192,10402,1,6,0:0:0:0:
256,192,10546,1,0,0:0:0:0:
256,192,10691,1,2,0:0:0:0:
256,192,10835,1,0,0:0:0:0:
256,192,10979,1,0,0:0:0:0:
256,192,11267,1,2,0:0:0:0:
256,192,11556,1,6,0:0:0:0:
256,192,11700,1,0,0:0:0:0:
256,192,11844,1,0,0:0:0:0:
256,192,12133,1,0,0:0:0:0:
256,192,12277,1,0,0:0:0:0:
256,192,12421,1,2,0:0:0:0:
256,192,12566,1,2,0:0:0:0:
256,192,12710,1,6,0:0:0:0:
256,192,12854,1,0,0:0:0:0:
256,192,12998,1,2,0:0:0:0:
256,192,13142,1,0,0:0:0:0:
256,192,13287,1,0,0:0:0:0:
256,192,13575,1,2,0:0:0:0:
256,192,13864,1,2,0:0:0:0:
256,192,14008,1,0,0:0:0:0:
256,192,14152,1,2,0:0:0:0:
256,192,14441,1,0,0:0:0:0:
256,192,14585,1,0,0:0:0:0:
256,192,14729,1,2,0:0:0:0:
256,192,14801,1,2,0:0:0:0:
256,192,14873,1,2,0:0:0:0:
256,192,14945,1,2,0:0:0:0:
256,192,15017,1,4,0:0:0:0:
256,192,15162,1,4,0:0:0:0:
256,192,15306,1,2,0:0:0:0:
256,192,15450,1,0,0:0:0:0:
256,192,15594,1,0,0:0:0:0:
256,192,15883,1,2,0:0:0:0:
256,192,16171,1,2,0:0:0:0:
256,192,16316,1,0,0:0:0:0:
256,192,16460,1,2,0:0:0:0:
256,192,16748,1,0,0:0:0:0:
256,192,16892,1,0,0:0:0:0:
256,192,17037,1,2,0:0:0:0:
256,192,17181,1,0,0:0:0:0:
256,192,17325,1,0,0:0:0:0:
256,192,17469,1,0,0:0:0:0:
256,192,17614,1,2,0:0:0:0:
256,192,17758,1,0,0:0:0:0:
256,192,17902,1,0,0:0:0:0:
256,192,18191,1,2,0:0:0:0:
256,192,18623,1,0,0:0:0:0:
256,192,18767,1,2,0:0:0:0:
256,192,18912,1,0,0:0:0:0:
256,192,19056,1,6,0:0:0:0:
256,192,19200,1,0,0:0:0:0:
256,192,19344,1,6,0:0:0:0:
256,192,19633,1,4,0:0:0:0:
256,192,19777,1,0,0:0:0:0:
256,192,19921,1,2,0:0:0:0:
256,192,20066,1,0,0:0:0:0:
256,192,20210,1,2,0:0:0:0:
256,192,20354,1,0,0:0:0:0:
256,192,20498,1,2,0:0:0:0:
256,192,20642,1,0,0:0:0:0:
256,192,20787,1,6,0:0:0:0:
256,192,20931,1,0,0:0:0:0:
256,192,21075,1,6,0:0:0:0:
256,192,21219,1,0,0:0:0:0:
256,192,21364,1,2,0:0:0:0:
256,192,21508,1,0,0:0:0:0:
256,192,21652,1,2,0:0:0:0:
256,192,21796,1,2,0:0:0:0:
256,192,21941,1,6,0:0:0:0:
256,192,22085,1,0,0:0:0:0:
256,192,22229,1,2,0:0:0:0:
256,192,22373,1,0,0:0:0:0:
256,192,22517,1,2,0:0:0:0:
256,192,22662,1,0,0:0:0:0:
256,192,22806,1,2,0:0:0:0:
256,192,23094,1,6,0:0:0:0:
256,192,23239,1,4,0:0:0:0:
256,192,23383,1,6,0:0:0:0:
256,192,23527,1,0,0:0:0:0:
256,192,23671,1,2,0:0:0:0:
256,192,23816,1,0,0:0:0:0:
256,192,23960,1,2,0:0:0:0:
256,192,24248,1,6,0:0:0:0:
256,192,24392,1,0,0:0:0:0:
256,192,24537,1,2,0:0:0:0:
256,192,24681,1,0,0:0:0:0:
256,192,24825,1,2,0:0:0:0:
256,192,24969,1,0,0:0:0:0:
256,192,25114,1,6,0:0:0:0:
256,192,25402,1,6,0:0:0:0:
256,192,25546,1,0,0:0:0:0:
256,192,25691,1,2,0:0:0:0:
256,192,25835,1,0,0:0:0:0:
256,192,25979,1,2,0:0:0:0:
256,192,26123,1,0,0:0:0:0:
256,192,26267,1,6,0:0:0:0:
256,192,26556,1,6,0:0:0:0:
256,192,26700,1,0,0:0:0:0:
256,192,26844,1,6,0:0:0:0:
256,192,26989,1,0,0:0:0:0:
256,192,27133,1,6,0:0:0:0:
256,192,27277,1,4,0:0:0:0:
256,192,27421,1,6,0:0:0:0:
256,192,27566,1,4,0:0:0:0:
256,192,27710,1,6,0:0:0:0:
256,192,27854,1,0,0:0:0:0:
256,192,27998,1,2,0:0:0:0:
256,192,28142,1,0,0:0:0:0:
256,192,28287,1,4,0:0:0:0:
256,192,28431,1,0,0:0:0:0:
256,192,28575,1,4,0:0:0:0:
256,192,28719,1,0,0:0:0:0:
256,192,28864,1,6,0:0:0:0:
