osu file format v14

[General]
AudioFilename: audio.mp3
AudioLeadIn: 0
PreviewTime: 18551
Countdown: 0
SampleSet: Soft
StackLeniency: 0.7
Mode: 3
LetterboxInBreaks: 0
SpecialStyle: 1
WidescreenStoryboard: 0

[Editor]
DistanceSpacing: 1
BeatDivisor: 4
GridSize: 32
TimelineZoom: 2.4

[Metadata]
Title:Horrible Bits
TitleUnicode:Horrible Bits
Artist:A r M i N
ArtistUnicode:A r M i N
Creator:pre
Version:010101
Source:
Tags:
BeatmapID:4552867
BeatmapSetID:2159357

[Difficulty]
HPDrainRate:6
CircleSize:4
OverallDifficulty:8
ApproachRate:5
SliderMultiplier:1.4
SliderTickRate:1

[Events]
//Background and Video events
0,0,"bg.png",0,0
//Break Periods
//Storyboard Layer 0 (Background)
//Storyboard Layer 1 (Fail)
//Storyboard Layer 2 (Pass)
//Storyboard Layer 3 (Foreground)
//Storyboard Layer 4 (Overlay)
//Storyboard Sound Samples

[TimingPoints]
18,288.461538461538,4,2,0,100,1,0

[HitObjects]
460,192,306,128,0,1171:0:0:0:0:
320,192,594,128,0,1171:0:0:0:0:
192,192,883,128,0,1171:0:0:0:0:
64,192,1171,1,0,0:0:0:0:
192,192,1316,1,0,0:0:0:0:
320,192,1460,1,0,0:0:0:0:
192,192,1604,1,0,0:0:0:0:
448,192,1748,128,0,2325:0:0:0:0:
192,192,2037,1,0,0:0:0:0:
64,192,2325,128,0,2614:0:0:0:0:
448,192,2469,1,0,0:0:0:0:
320,192,2614,128,0,2902:0:0:0:0:
192,192,2902,1,0,0:0:0:0:
448,192,2902,128,0,3479:0:0:0:0:
64,192,2902,1,0,0:0:0:0:
192,192,3046,1,0,0:0:0:0:
64,192,3046,1,0,0:0:0:0:
64,192,3191,1,0,0:0:0:0:
192,192,3335,1,0,0:0:0:0:
192,192,3479,128,0,3767:0:0:0:0:
320,192,3623,1,0,0:0:0:0:
448,192,3767,1,0,0:0:0:0:
192,192,3912,1,0,0:0:0:0:
320,192,3912,1,0,0:0:0:0:
320,192,4056,1,0,0:0:0:0:
64,192,4056,128,0,4633:0:0:0:0:
448,192,4056,1,0,0:0:0:0:
448,192,4344,1,0,0:0:0:0:
192,192,4633,128,0,4921:0:0:0:0:
320,192,4777,1,0,0:0:0:0:
448,192,4777,1,0,0:0:0:0:
64,192,4921,128,0,5210:0:0:0:0:
448,192,4921,128,0,5210:0:0:0:0:
192,192,5210,1,0,0:0:0:0:
320,192,5354,1,0,0:0:0:0:
64,192,5498,1,0,0:0:0:0:
320,192,5498,1,0,0:0:0:0:
192,192,5570,1,0,0:0:0:0:
448,192,5570,1,0,0:0:0:0:
320,192,5642,1,0,0:0:0:0:
64,192,5642,1,0,0:0:0:0:
448,192,5715,1,0,0:0:0:0:
192,192,5715,1,0,0:0:0:0:
64,192,5787,1,0,0:0:0:0:
320,192,5787,1,0,0:0:0:0:
64,192,5931,1,0,0:0:0:0:
320,192,5931,1,0,0:0:0:0:
320,192,6075,128,0,6941:0:0:0:0:
192,192,6075,1,0,0:0:0:0:
64,192,6219,1,0,0:0:0:0:
192,192,6364,1,0,0:0:0:0:
64,192,6364,128,0,6941:0:0:0:0:
448,192,6652,1,0,0:0:0:0:
192,192,6941,128,0,7517:0:0:0:0:
320,192,7085,1,0,0:0:0:0:
448,192,7229,1,0,0:0:0:0:
448,192,7517,1,0,0:0:0:0:
64,192,7517,128,0,8383:0:0:0:0:
320,192,7517,1,0,0:0:0:0:
320,192,7662,1,0,0:0:0:0:
448,192,7662,1,0,0:0:0:0:
448,192,7806,1,0,0:0:0:0:
320,192,7950,1,0,0:0:0:0:
448,192,7950,1,0,0:0:0:0:
320,192,8094,1,0,0:0:0:0:
448,192,8094,1,0,0:0:0:0:
320,192,8239,1,0,0:0:0:0:
448,192,8383,1,0,0:0:0:0:
192,192,8383,128,0,9248:0:0:0:0:
320,192,8527,128,0,9248:0:0:0:0:
448,192,8671,1,0,0:0:0:0:
64,192,8960,128,0,9248:0:0:0:0:
448,192,8960,1,0,0:0:0:0:
192,192,9392,1,0,0:0:0:0:
64,192,9537,128,0,9825:0:0:0:0:
320,192,9537,1,0,0:0:0:0:
448,192,9537,1,0,0:0:0:0:
320,192,9681,1,0,0:0:0:0:
448,192,9681,1,0,0:0:0:0:
192,192,9825,128,0,10114:0:0:0:0:
320,192,9969,1,0,0:0:0:0:
448,192,10114,1,0,0:0:0:0:
320,192,10114,128,0,10691:0:0:0:0:
64,192,10402,1,0,0:0:0:0:
448,192,10402,1,0,0:0:0:0:
64,192,10546,1,0,0:0:0:0:
192,192,10546,1,0,0:0:0:0:
64,192,10691,1,0,0:0:0:0:
192,192,10691,1,0,0:0:0:0:
192,192,10835,1,0,0:0:0:0:
320,192,10979,1,0,0:0:0:0:
64,192,10979,128,0,11556:0:0:0:0:
448,192,10979,1,0,0:0:0:0:
320,192,11267,1,0,0:0:0:0:
192,192,11556,128,0,11844:0:0:0:0:
448,192,11700,1,0,0:0:0:0:
320,192,11844,1,0,0:0:0:0:
64,192,11844,128,0,12421:0:0:0:0:
320,192,12133,1,0,0:0:0:0:
448,192,12133,1,0,0:0:0:0:
320,192,12277,1,0,0:0:0:0:
448,192,12277,1,0,0:0:0:0:
192,192,12421,128,0,12998:0:0:0:0:
448,192,12421,1,0,0:0:0:0:
320,192,12566,1,0,0:0:0:0:
448,192,12710,1,0,0:0:0:0:
320,192,12854,1,0,0:0:0:0:
448,192,12998,1,0,0:0:0:0:
64,192,12998,128,0,13431:0:0:0:0:
320,192,13142,1,0,0:0:0:0:
448,192,13142,1,0,0:0:0:0:
320,192,13287,1,0,0:0:0:0:
448,192,13287,1,0,0:0:0:0:
192,192,13431,128,0,13575:0:0:0:0:
320,192,13431,1,0,0:0:0:0:
64,192,13575,128,0,13864:0:0:0:0:
320,192,13575,1,0,0:0:0:0:
448,192,13575,1,0,0:0:0:0:
320,192,13719,1,0,0:0:0:0:
448,192,13864,1,0,0:0:0:0:
192,192,13864,128,0,14441:0:0:0:0:
320,192,14008,1,0,0:0:0:0:
448,192,14008,1,0,0:0:0:0:
448,192,14152,1,0,0:0:0:0:
64,192,14296,128,0,14729:0:0:0:0:
448,192,14441,1,0,0:0:0:0:
448,192,14441,1,0,0:0:0:0:
320,192,14441,1,0,0:0:0:0:
192,192,14585,1,0,0:0:0:0:
448,192,14585,1,0,0:0:0:0:
192,192,14729,128,0,15017:0:0:0:0:
320,192,14729,1,0,0:0:0:0:
448,192,14801,1,0,0:0:0:0:
64,192,14801,1,0,0:0:0:0:
320,192,14873,1,0,0:0:0:0:
64,192,14945,1,0,0:0:0:0:
448,192,14945,1,0,0:0:0:0:
448,192,15017,128,0,15306:0:0:0:0:
320,192,15017,1,0,0:0:0:0:
64,192,15162,1,0,0:0:0:0:
192,192,15162,1,0,0:0:0:0:
320,192,15306,128,0,15594:0:0:0:0:
64,192,15306,1,0,0:0:0:0:
192,192,15450,1,0,0:0:0:0:
64,192,15594,1,0,0:0:0:0:
448,192,15594,128,0,15883:0:0:0:0:
192,192,15594,1,0,0:0:0:0:
192,192,15883,1,0,0:0:0:0:
320,192,16027,1,0,0:0:0:0:
192,192,16027,128,0,17037:0:0:0:0:
320,192,16316,1,0,0:0:0:0:
448,192,16316,1,0,0:0:0:0:
320,192,16460,1,0,0:0:0:0:
448,192,16460,1,0,0:0:0:0:
448,192,16748,1,0,0:0:0:0:
320,192,16748,1,0,0:0:0:0:
320,192,16892,1,0,0:0:0:0:
448,192,16892,1,0,0:0:0:0:
64,192,17037,128,0,17469:0:0:0:0:
320,192,17181,1,0,0:0:0:0:
448,192,17181,1,0,0:0:0:0:
320,192,17325,1,0,0:0:0:0:
448,192,17325,1,0,0:0:0:0:
320,192,17469,1,0,0:0:0:0:
192,192,17469,128,0,17758:0:0:0:0:
448,192,17614,1,0,0:0:0:0:
320,192,17758,1,0,0:0:0:0:
448,192,17902,1,0,0:0:0:0:
64,192,17902,128,0,18623:0:0:0:0:
320,192,18191,1,0,0:0:0:0:
448,192,18191,1,0,0:0:0:0:
192,192,18623,128,0,19200:0:0:0:0:
448,192,18767,1,0,0:0:0:0:
320,192,18767,1,0,0:0:0:0:
448,192,18912,1,0,0:0:0:0:
320,192,19056,1,0,0:0:0:0:
448,192,19056,1,0,0:0:0:0:
64,192,19200,1,0,0:0:0:0:
320,192,19200,1,0,0:0:0:0:
320,192,19344,1,0,0:0:0:0:
192,192,19344,128,0,19633:0:0:0:0:
64,192,19344,1,0,0:0:0:0:
448,192,19489,1,0,0:0:0:0:
320,192,19633,1,0,0:0:0:0:
448,192,19633,1,0,0:0:0:0:
64,192,19633,1,0,0:0:0:0:
192,192,19777,1,0,0:0:0:0:
448,192,19777,1,0,0:0:0:0:
320,192,19921,1,0,0:0:0:0:
64,192,19921,1,0,0:0:0:0:
192,192,20066,1,0,0:0:0:0:
448,192,20066,1,0,0:0:0:0:
320,192,20210,1,0,0:0:0:0:
64,192,20210,1,0,0:0:0:0:
448,192,20210,128,0,20787:0:0:0:0:
192,192,20354,1,0,0:0:0:0:
64,192,20498,1,0,0:0:0:0:
320,192,20498,1,0,0:0:0:0:
192,192,20642,1,0,0:0:0:0:
320,192,20787,1,0,0:0:0:0:
64,192,20787,1,0,0:0:0:0:
192,192,20931,1,0,0:0:0:0:
448,192,20931,1,0,0:0:0:0:
64,192,21075,1,0,0:0:0:0:
320,192,21075,1,0,0:0:0:0:
448,192,21075,1,0,0:0:0:0:
192,192,21219,1,0,0:0:0:0:
448,192,21219,1,0,0:0:0:0:
320,192,21364,1,0,0:0:0:0:
64,192,21364,128,0,21941:0:0:0:0:
192,192,21508,1,0,0:0:0:0:
448,192,21508,1,0,0:0:0:0:
320,192,21652,1,0,0:0:0:0:
192,192,21796,1,0,0:0:0:0:
448,192,21796,1,0,0:0:0:0:
320,192,21941,1,0,0:0:0:0:
448,192,21941,1,0,0:0:0:0:
192,192,22085,1,0,0:0:0:0:
448,192,22085,1,0,0:0:0:0:
64,192,22229,1,0,0:0:0:0:
320,192,22229,1,0,0:0:0:0:
192,192,22373,1,0,0:0:0:0:
448,192,22373,1,0,0:0:0:0:
64,192,22517,1,0,0:0:0:0:
320,192,22517,1,0,0:0:0:0:
192,192,22662,1,0,0:0:0:0:
448,192,22662,1,0,0:0:0:0:
64,192,22806,1,0,0:0:0:0:
320,192,22806,1,0,0:0:0:0:
192,192,22950,1,0,0:0:0:0:
448,192,22950,1,0,0:0:0:0:
64,192,23094,1,0,0:0:0:0:
320,192,23094,1,0,0:0:0:0:
448,192,23094,1,0,0:0:0:0:
192,192,23239,1,0,0:0:0:0:
448,192,23239,1,0,0:0:0:0:
64,192,23383,1,0,0:0:0:0:
320,192,23383,1,0,0:0:0:0:
192,192,23527,1,0,0:0:0:0:
448,192,23527,1,0,0:0:0:0:
64,192,23671,1,0,0:0:0:0:
320,192,23671,1,0,0:0:0:0:
192,192,23816,1,0,0:0:0:0:
448,192,23816,1,0,0:0:0:0:
64,192,23960,1,0,0:0:0:0:
320,192,23960,1,0,0:0:0:0:
192,192,24104,1,0,0:0:0:0:
448,192,24104,1,0,0:0:0:0:
64,192,24248,1,0,0:0:0:0:
192,192,24248,1,0,0:0:0:0:
448,192,24248,1,0,0:0:0:0:
320,192,24248,1,0,0:0:0:0:
192,192,24392,1,0,0:0:0:0:
448,192,24392,1,0,0:0:0:0:
64,192,24537,1,0,0:0:0:0:
320,192,24537,1,0,0:0:0:0:
192,192,24681,1,0,0:0:0:0:
448,192,24681,1,0,0:0:0:0:
448,192,24825,128,0,25402:0:0:0:0:
64,192,24825,1,0,0:0:0:0:
320,192,24825,1,0,0:0:0:0:
192,192,24969,1,0,0:0:0:0:
64,192,25114,1,0,0:0:0:0:
320,192,25114,1,0,0:0:0:0:
192,192,25258,1,0,0:0:0:0:
64,192,25402,1,0,0:0:0:0:
320,192,25402,1,0,0:0:0:0:
192,192,25546,1,0,0:0:0:0:
448,192,25546,1,0,0:0:0:0:
64,192,25691,1,0,0:0:0:0:
320,192,25691,1,0,0:0:0:0:
448,192,25835,1,0,0:0:0:0:
192,192,25835,1,0,0:0:0:0:
64,192,25979,128,0,26556:0:0:0:0:
192,192,25979,1,0,0:0:0:0:
448,192,25979,1,0,0:0:0:0:
320,192,26123,1,0,0:0:0:0:
192,192,26267,1,0,0:0:0:0:
448,192,26267,1,0,0:0:0:0:
320,192,26412,1,0,0:0:0:0:
192,192,26556,1,0,0:0:0:0:
448,192,26556,1,0,0:0:0:0:
192,192,26700,1,0,0:0:0:0:
448,192,26700,1,0,0:0:0:0:
64,192,26844,1,0,0:0:0:0:
320,192,26844,1,0,0:0:0:0:
448,192,26989,1,0,0:0:0:0:
192,192,26989,1,0,0:0:0:0:
448,192,27133,128,0,27710:0:0:0:0:
320,192,27133,1,0,0:0:0:0:
64,192,27133,1,0,0:0:0:0:
192,192,27277,1,0,0:0:0:0:
320,192,27421,1,0,0:0:0:0:
64,192,27421,1,0,0:0:0:0:
192,192,27566,1,0,0:0:0:0:
64,192,27710,128,0,28287:0:0:0:0:
320,192,27710,128,0,28287:0:0:0:0:
192,192,27854,1,0,0:0:0:0:
448,192,27854,1,0,0:0:0:0:
192,192,27998,1,0,0:0:0:0:
448,192,27998,1,0,0:0:0:0:
192,192,28142,1,0,0:0:0:0:
448,192,28142,1,0,0:0:0:0:
192,192,28287,128,0,28575:0:0:0:0:
448,192,28431,1,0,0:0:0:0:
64,192,28431,1,0,0:0:0:0:
320,192,28431,1,0,0:0:0:0:
320,192,28575,128,0,31460:0:0:0:0:
64,192,28575,1,0,0:0:0:0:
448,192,28575,1,0,0:0:0:0:
192,192,28719,1,0,0:0:0:0:
448,192,28719,1,0,0:0:0:0:
64,192,28719,1,0,0:0:0:0:
448,192,28864,128,0,31171:0:0:0:0:
64,192,28864,128,0,29729:0:0:0:0:
192,192,28864,128,0,30594:0:0:0:0:
