osu file format v14

[General]
AudioFilename: audio.mp3
AudioLeadIn: 0
PreviewTime: 47142
Countdown: 0
SampleSet: Normal
StackLeniency: 0.4
Mode: 0
LetterboxInBreaks: 0
WidescreenStoryboard: 1

[Editor]
Bookmarks: 47205,57205,62205,69205,73205,76205
DistanceSpacing: 0.3
BeatDivisor: 4
GridSize: 8
TimelineZoom: 2.3

[Metadata]
Title:Parturition
TitleUnicode:Parturition
Artist:A Trust Unclean
ArtistUnicode:A Trust Unclean
Creator:Chanci
Version:FrenZ's Extra
Source:
Tags:groove technical death metal deathcore instrumental daiyouseii- unknown anon frenz396 bloggle
BeatmapID:2098069
BeatmapSetID:951718

[Difficulty]
HPDrainRate:5
CircleSize:4
OverallDifficulty:8.5
ApproachRate:9.4
SliderMultiplier:1.8
SliderTickRate:1

[Events]
//Background and Video events
0,0,"PA.jpg",0,0
//Break Periods
//Storyboard Layer 0 (Background)
//Storyboard Layer 1 (Fail)
//Storyboard Layer 2 (Pass)
//Storyboard Layer 3 (Foreground)
//Storyboard Sound Samples

[TimingPoints]
40205,250,4,1,1,50,1,0
40205,-500,4,1,1,50,0,0
42205,-100,4,3,1,50,0,0
43205,-133.333333333333,4,3,1,50,0,0
43705,-133.333333333333,4,3,2,50,0,0
44205,-133.333333333333,4,3,3,50,0,0
44455,-133.333333333333,4,3,2,50,0,0
44580,-133.333333333333,4,3,1,50,0,0
44705,-133.333333333333,4,3,3,50,0,0
44955,-133.333333333333,4,3,1,50,0,0
45205,-133.333333333333,4,3,3,50,0,0
46580,-133.333333333333,4,3,1,50,0,0
46705,-133.333333333333,4,3,4,50,0,0
47080,-133.333333333333,4,3,1,50,0,0
47205,-100,4,1,1,50,0,0
47267,-100,4,3,5,50,0,0
49205,-100,4,3,6,50,0,0
49267,-100,4,3,5,50,0,0
50205,-100,4,3,6,50,0,0
50267,-100,4,3,5,50,0,0
51205,-100,4,3,6,50,0,0
51267,-100,4,3,5,50,0,0
52205,-100,4,3,6,50,0,0
52267,-100,4,3,5,50,0,0
53205,-100,4,3,6,50,0,0
53267,-100,4,3,5,50,0,0
54205,-100,4,3,6,50,0,0
54267,-100,4,3,5,50,0,0
55205,-100,4,3,6,50,0,0
55267,-100,4,3,5,50,0,0
56705,-100,4,3,2,50,0,0
57205,-100,4,3,6,50,0,0
57955,-100,4,3,5,50,0,0
58017,-100,4,3,6,50,0,0
59580,-100,4,3,5,50,0,0
59705,-100,4,3,6,50,0,0
59955,-100,4,3,5,50,0,0
60017,-100,4,3,6,50,0,0
60205,-125,4,3,6,50,0,0
60455,-111.111111111111,4,3,6,50,0,0
60705,-100,4,3,6,50,0,0
60955,-90.9090909090909,4,3,6,50,0,0
61205,-133.333333333333,4,3,6,50,0,0
61705,-133.333333333333,4,3,1,50,0,0
62205,-100,4,3,7,50,0,0
62288,-100,4,3,5,50,0,0
63205,-100,4,3,6,50,0,0
63288,-100,4,3,5,50,0,0
64204,-100,4,3,6,50,0,0
64288,-100,4,3,5,50,0,0
65204,-100,4,3,6,50,0,0
65288,-100,4,3,5,50,0,0
66205,-100,4,3,6,50,0,0
66288,-100,4,3,5,50,0,0
67038,-100,4,3,6,50,0,0
67288,-100,4,3,5,50,0,0
68205,-100,4,3,6,50,0,0
68288,-100,4,3,5,50,0,0
72705,-100,4,3,4,50,0,0
73080,-100,4,3,1,50,0,0
73205,-100,4,3,3,50,0,0
73955,-100,4,3,2,50,0,0
74205,-100,4,3,3,50,0,0
75455,-100,4,3,5,50,0,0
75705,-100,4,3,3,50,0,0

[Colours]
Combo1 : 85,85,85
Combo2 : 106,0,213
Combo3 : 128,0,128
Combo4 : 0,64,128

[HitObjects]
47,354,40205,6,0,L|73:104,1,252,4|0,0:0|0:0,0:0:0:0:
26,36,42205,5,2,0:0:0:0:
26,36,42455,1,2,0:0:0:0:
26,36,42705,1,2,0:0:0:0:
26,36,42955,1,2,0:0:0:0:
119,14,43205,5,8,0:0:0:0:
127,13,43267,1,8,0:0:0:0:
136,12,43330,1,8,0:0:0:0:
145,11,43392,1,8,0:0:0:0:
156,10,43455,2,0,P|199:12|246:36,1,67.5000025749208,4|0,0:0|0:0,0:0:0:0:
283,109,43705,6,0,L|289:156,3,33.7500012874604,4|4|4|4,0:0|0:0|0:0|0:0,0:0:0:0:
360,55,43955,2,0,L|364:21,3,33.7500012874604,8|8|8|8,0:0|0:0|0:0|0:0,0:0:0:0:
402,139,44205,2,0,P|440:144|484:134,1,67.5000025749208,6|0,0:0|0:0,0:0:0:0:
477,259,44455,5,8,0:0:0:0:
469,258,44517,1,8,0:0:0:0:
460,257,44580,1,8,0:0:0:0:
451,256,44642,1,8,0:0:0:0:
440,255,44705,2,0,P|407:257|388:266,1,33.7500012874604,8|8,0:0|0:0,0:0:0:0:
342,214,44830,2,0,P|327:243|325:264,1,33.7500012874604,8|8,0:0|0:0,0:0:0:0:
354,343,44955,5,8,0:0:0:0:
375,356,45017,1,8,0:0:0:0:
399,364,45080,1,8,0:0:0:0:
424,364,45142,1,8,0:0:0:0:
448,356,45205,1,12,0:0:0:0:
189,356,46455,5,12,0:0:0:0:
81,290,46580,1,8,0:0:0:0:
81,290,46642,1,8,0:0:0:0:
81,290,46705,2,0,L|89:210,1,67.5000025749208,8|8,0:0|0:0,0:0:0:0:
151,120,46955,2,0,L|71:128,1,67.5000025749208,8|8,0:0|0:0,0:0:0:0:
11,54,47205,6,0,B|39:24|39:24|202:9,1,180,12|8,0:0|0:0,0:0:0:0:
256,98,47580,1,8,0:0:0:0:
217,189,47705,2,0,P|212:220|218:249,3,45,12|2|8|2,0:0|0:0|0:0|0:0,0:0:0:0:
340,244,47955,2,0,P|315:224|287:214,3,45,12|2|8|2,0:0|0:0|0:0|0:0,0:0:0:0:
268,299,48205,5,12,0:0:0:0:
269,310,48267,1,2,0:0:0:0:
271,321,48330,1,8,0:0:0:0:
272,332,48392,1,2,0:0:0:0:
275,346,48455,2,0,L|328:338,3,45,12|2|8|2,0:0|0:0|0:0|0:0,0:0:0:0:
421,319,48705,5,12,0:0:0:0:
422,327,48767,1,2,0:0:0:0:
423,335,48830,1,8,0:0:0:0:
424,343,48892,1,2,0:0:0:0:
425,352,48955,2,0,L|474:344,3,45,12|2|12|2,0:0|0:0|0:0|0:0,0:0:0:0:
495,249,49205,6,0,P|500:207|487:156,1,90,12|8,0:0|0:0,0:0:0:0:
338,85,49455,2,0,P|371:110|422:124,1,90,12|8,0:0|0:0,0:0:0:0:
504,22,49705,1,12,0:0:0:0:
493,18,49767,1,2,0:0:0:0:
482,16,49830,1,8,0:0:0:0:
471,15,49892,1,2,0:0:0:0:
459,17,49955,2,0,P|433:25|418:42,3,45,12|2|12|2,0:0|0:0|0:0|0:0,0:0:0:0:
338,85,50205,5,12,0:0:0:0:
338,85,50330,1,8,0:0:0:0:
244,21,50455,2,0,L|137:12,1,90,12|8,0:0|0:0,0:0:0:0:
334,181,50705,5,8,0:0:0:0:
334,181,50830,1,8,0:0:0:0:
236,103,50955,2,0,L|129:94,1,90,12|12,0:0|0:0,0:0:0:0:
57,47,51205,5,12,0:0:0:0:
0,120,51330,1,8,0:0:0:0:
0,212,51455,1,12,0:0:0:0:
57,284,51580,1,8,0:0:0:0:
156,284,51705,2,0,L|151:185,1,90,12|8,0:0|0:0,0:0:0:0:
236,103,51955,2,0,L|129:94,1,90,12|12,0:0|0:0,0:0:0:0:
334,181,52205,6,0,L|329:247,3,45,12|2|8|2,0:0|0:0|0:0|0:0,0:0:0:0:
258,260,52455,2,0,L|301:310,3,45,12|2|8|2,0:0|0:0|0:0|0:0,0:0:0:0:
370,375,52705,5,12,0:0:0:0:
375,358,52767,1,2,0:0:0:0:
375,340,52830,2,0,P|373:310|363:286,1,45,8|2,0:0|0:0,0:0:0:0:
456,298,52955,5,12,0:0:0:0:
451,280,53017,1,2,0:0:0:0:
442,265,53080,2,0,P|425:240|404:224,1,45,12|2,0:0|0:0,0:0:0:0:
407,145,53205,6,0,L|414:48,1,90,12|8,0:0|0:0,0:0:0:0:
229,13,53455,2,0,L|236:110,1,90,12|8,0:0|0:0,0:0:0:0:
334,181,53705,2,0,L|329:247,3,45,12|2|8|2,0:0|0:0|0:0|0:0,0:0:0:0:
258,260,53955,2,0,L|301:310,3,45,12|2|12|2,0:0|0:0|0:0|0:0,0:0:0:0:
101,182,54205,6,0,L|106:248,3,45,12|2|8|2,0:0|0:0|0:0|0:0,0:0:0:0:
177,261,54455,2,0,L|134:311,3,45,12|2|8|2,0:0|0:0|0:0|0:0,0:0:0:0:
210,368,54705,2,0,L|120:374,1,90,12|8,0:0|0:0,0:0:0:0:
13,306,54955,2,0,L|19:217,1,90,12|12,0:0|0:0,0:0:0:0:
77,109,55205,6,0,P|109:106|137:116,3,45,12|2|8|2,0:0|0:0|0:0|0:0,0:0:0:0:
197,46,55455,2,0,P|178:19|173:-9,3,45,12|2|8|2,0:0|0:0|0:0|0:0,0:0:0:0:
215,138,55705,5,12,0:0:0:0:
226,141,55767,1,2,0:0:0:0:
238,142,55830,1,8,0:0:0:0:
249,140,55892,1,2,0:0:0:0:
260,138,55955,2,0,P|285:118|296:99,3,45,12|2|12|2,0:0|0:0|0:0|0:0,0:0:0:0:
344,40,56205,5,8,0:0:0:0:
364,42,56267,1,8,0:0:0:0:
385,44,56330,1,8,0:0:0:0:
405,46,56392,1,8,0:0:0:0:
430,65,56455,5,8,0:0:0:0:
441,63,56517,1,8,0:0:0:0:
452,61,56580,1,8,0:0:0:0:
462,60,56642,1,8,0:0:0:0:
487,46,56705,6,0,L|482:104,1,45,4|4,0:0|0:0,0:0:0:0:
421,144,56830,2,0,L|426:202,1,45,4|4,0:0|0:0,0:0:0:0:
496,228,56955,2,0,P|502:273|490:322,1,90,8|8,0:0|0:0,0:0:0:0:
411,366,57205,5,14,0:0:0:0:
330,316,57330,1,8,0:0:0:0:
239,368,57455,2,0,L|230:267,1,90,2|8,0:0|0:0,0:0:0:0:
402,363,57705,5,2,0:0:0:0:
321,313,57830,1,8,0:0:0:0:
230,365,57955,2,0,L|221:264,1,90,6|8,0:0|0:0,0:0:0:0:
173,160,58205,6,0,P|128:151|74:162,1,90,8|2,0:0|0:0,0:0:0:0:
18,253,58455,2,0,P|63:262|117:251,1,90,12|8,0:0|0:0,0:0:0:0:
254,150,58705,1,10,0:0:0:0:
242,69,58830,1,8,0:0:0:0:
162,80,58955,1,8,0:0:0:0:
173,160,59080,1,8,0:0:0:0:
288,224,59205,6,0,P|356:208|392:103,1,180,14|2,0:0|0:0,0:0:0:0:
327,42,59580,1,8,0:0:0:0:
425,32,59705,2,0,P|409:97|374:124,1,90,2|8,0:0|0:0,0:0:0:0:
506,239,59955,2,0,P|490:174|455:147,1,90,6|8,0:0|0:0,0:0:0:0:
436,313,60205,6,0,L|370:322,2,48,6|2|2,0:0|0:0|0:0,0:0:0:0:
341,231,60455,2,0,L|275:222,2,53.9999983520508,6|2|2,0:0|0:0|0:0,0:0:0:0:
275,365,60705,2,0,L|209:374,2,60,8|8|8,0:0|0:0|0:0,0:0:0:0:
173,160,60955,2,0,L|107:151,2,66.0000020141602,8|8|8,0:0|0:0|0:0,0:0:0:0:
32,278,61205,6,0,P|30:306|35:338,5,45.0000017166138,14|0|0|0|0|0,0:0|0:0|0:0|0:0|0:0|0:0,0:0:0:0:
114,366,61705,1,2,0:0:0:0:
114,366,61955,1,2,0:0:0:0:
173,160,62205,5,6,0:0:0:0:
171,131,62288,1,2,0:0:0:0:
168,101,62371,1,2,0:0:0:0:
146,72,62455,6,0,L|141:5,2,60,6|2|2,0:0|0:0|0:0,0:0:0:0:
266,50,62705,5,6,0:0:0:0:
292,62,62788,1,2,0:0:0:0:
317,75,62871,1,2,0:0:0:0:
350,69,62955,6,0,L|410:98,2,60,6|2|2,0:0|0:0|0:0,0:0:0:0:
299,159,63205,5,6,0:0:0:0:
299,159,63288,2,0,L|243:196,1,60,2|2,0:0|0:0,0:0:0:0:
282,280,63455,5,6,0:0:0:0:
263,294,63538,2,0,L|196:281,1,60,2|2,0:0|0:0,0:0:0:0:
180,355,63705,1,6,0:0:0:0:
156,351,63788,2,0,L|118:295,1,60,2|2,0:0|0:0,0:0:0:0:
56,337,63955,1,6,0:0:0:0:
41,317,64038,2,0,L|53:250,1,60,2|2,0:0|0:0,0:0:0:0:
98,154,64204,5,12,0:0:0:0:
68,145,64288,1,2,0:0:0:0:
38,147,64371,1,2,0:0:0:0:
7,178,64454,6,0,P|2:143|8:107,2,60,6|2|2,0:0|0:0|0:0,0:0:0:0:
99,58,64704,5,6,0:0:0:0:
129,49,64788,1,2,0:0:0:0:
159,51,64871,1,2,0:0:0:0:
190,83,64954,6,0,P|195:48|189:12,2,60,6|2|2,0:0|0:0|0:0,0:0:0:0:
248,192,65204,6,0,P|280:198|323:186,2,60,6|2|2,0:0|0:0|0:0,0:0:0:0:
387,224,65454,2,0,P|393:192|381:149,2,60,6|2|2,0:0|0:0|0:0,0:0:0:0:
416,85,65705,2,0,P|384:79|341:91,2,60,6|0|2,0:0|0:0|0:0,0:0:0:0:
278,53,65955,2,0,P|272:85|284:128,2,60,6|0|2,0:0|0:0|0:0,0:0:0:0:
388,166,66205,5,12,0:0:0:0:
417,170,66288,1,2,0:0:0:0:
447,175,66371,1,2,0:0:0:0:
479,161,66455,5,6,0:0:0:0:
483,191,66538,1,2,0:0:0:0:
488,220,66621,1,2,0:0:0:0:
511,247,66705,6,0,L|504:312,2,60,6|0|2,0:0|0:0|0:0,0:0:0:0:
407,368,66955,2,0,L|400:308,2,60,6|0|2,0:0|0:0|0:0,0:0:0:0:
322,267,67205,5,6,0:0:0:0:
282,292,67288,2,0,L|216:284,1,60,2|2,0:0|0:0,0:0:0:0:
69,344,67455,5,6,0:0:0:0:
95,364,67538,2,0,L|161:356,1,60,2|2,0:0|0:0,0:0:0:0:
151,166,67705,5,6,0:0:0:0:
162,180,67788,2,0,L|154:246,1,60,2|2,0:0|0:0,0:0:0:0:
39,264,67955,5,6,0:0:0:0:
44,258,68038,2,0,L|36:192,1,60,2|2,0:0|0:0,0:0:0:0:
6,78,68205,5,12,0:0:0:0:
20,76,68288,1,2,0:0:0:0:
35,73,68371,1,2,0:0:0:0:
75,51,68455,5,6,0:0:0:0:
104,56,68538,1,2,0:0:0:0:
134,61,68621,1,2,0:0:0:0:
211,91,68705,6,0,L|204:26,2,60,6|2|2,0:0|0:0|0:0,0:0:0:0:
306,14,68955,2,0,B|300:24|300:24|296:58,3,45,12|8|8|8,0:0|0:0|0:0|0:0,0:0:0:0:
331,139,69205,5,12,0:0:0:0:
338,148,69267,1,2,0:0:0:0:
346,155,69330,1,8,0:0:0:0:
356,160,69392,1,2,0:0:0:0:
368,163,69455,2,0,P|390:164|417:154,3,45,12|2|8|2,0:0|0:0|0:0|0:0,0:0:0:0:
438,20,69705,5,12,0:0:0:0:
426,21,69767,1,2,0:0:0:0:
416,24,69830,1,8,0:0:0:0:
407,31,69892,1,2,0:0:0:0:
398,40,69955,2,0,P|386:58|381:86,3,45,12|2|12|2,0:0|0:0|0:0|0:0,0:0:0:0:
496,132,70205,6,0,P|486:112|464:94,3,45,12|2|8|2,0:0|0:0|0:0|0:0,0:0:0:0:
480,254,70455,2,0,P|491:236|496:208,3,45,12|2|8|2,0:0|0:0|0:0|0:0,0:0:0:0:
370,305,70705,2,0,P|391:306|418:296,3,45,12|2|8|2,0:0|0:0|0:0|0:0,0:0:0:0:
267,238,70955,2,0,P|276:257|298:275,3,45,12|2|12|2,0:0|0:0|0:0|0:0,0:0:0:0:
177,193,71205,5,12,0:0:0:0:
175,204,71267,1,2,0:0:0:0:
174,215,71330,1,8,0:0:0:0:
173,226,71392,1,2,0:0:0:0:
172,239,71455,2,0,L|167:293,3,45,12|2|8|2,0:0|0:0|0:0|0:0,0:0:0:0:
88,366,71705,5,12,0:0:0:0:
86,355,71767,1,2,0:0:0:0:
85,344,71830,1,8,0:0:0:0:
84,333,71892,1,2,0:0:0:0:
83,320,71955,2,0,L|78:266,3,45,12|2|12|2,0:0|0:0|0:0|0:0,0:0:0:0:
14,220,72205,6,0,L|19:166,3,45,12|2|8|2,0:0|0:0|0:0|0:0,0:0:0:0:
44,90,72455,2,0,L|-10:95,3,45,12|2|8|2,0:0|0:0|0:0|0:0,0:0:0:0:
117,28,72705,1,8,0:0:0:0:
139,23,72767,1,8,0:0:0:0:
161,22,72830,1,8,0:0:0:0:
183,25,72892,1,8,0:0:0:0:
206,32,72955,2,0,P|256:40|309:30,1,90,8|8,0:0|0:0,0:0:0:0:
411,27,73205,6,0,L|424:182,1,135,6|0,0:0|0:0,0:0:0:0:
390,231,73455,2,0,L|378:96,1,135,4|0,0:0|0:0,0:0:0:0:
294,36,73705,2,0,P|266:101|296:168,1,135,6|0,0:0|0:0,0:0:0:0:
293,171,73955,1,8,0:0:0:0:
298,183,74017,1,8,0:0:0:0:
300,196,74080,1,8,0:0:0:0:
299,209,74142,1,8,0:0:0:0:
297,222,74205,6,0,P|251:228|211:264,1,90,8|8,0:0|0:0,0:0:0:0:
233,365,74455,1,4,0:0:0:0:
233,365,74580,1,4,0:0:0:0:
126,330,74705,2,0,P|97:293|46:276,1,90,2|0,0:0|0:0,0:0:0:0:
7,189,74955,1,4,0:0:0:0:
41,96,75080,1,4,0:0:0:0:
136,58,75205,6,0,L|142:154,1,90,8|8,0:0|0:0,0:0:0:0:
286,158,75455,2,0,L|339:238,1,90,2|0,0:0|0:0,0:0:0:0:
432,108,75705,2,0,L|518:150,1,90,6|4,0:0|0:0,0:0:0:0:
512,7,75955,1,8,0:0:0:0:
432,108,76080,1,4,0:0:0:0:
281,26,76205,5,6,0:0:0:0:
