osu file format v14

[General]
AudioFilename: audio.mp3
AudioLeadIn: 0
PreviewTime: 136
Countdown: 0
SampleSet: Soft
StackLeniency: 0.4
Mode: 0
LetterboxInBreaks: 0
WidescreenStoryboard: 0

[Editor]
Bookmarks: 42101,43853,57868,71882,85897,96408,99912,113926,126189,127941,141955,155970,169985,183999
DistanceSpacing: 1.3
BeatDivisor: 4
GridSize: 32
TimelineZoom: 1

[Metadata]
Title:Re Ai 105C De Ni
TitleUnicode:热爱105°C的你
Artist:A Si
ArtistUnicode:阿肆
Creator:Rosiie
Version:Super Idol
Source:
Tags:chinese pop female vocals vocalist wanpachi cycopton muya- shikibe mayu kazato asa shizuku- love you at 105 degrees
BeatmapID:3330568
BeatmapSetID:1631603

[Difficulty]
HPDrainRate:6
CircleSize:4.6
OverallDifficulty:8.6
ApproachRate:9.2
SliderMultiplier:2.2
SliderTickRate:1

[Events]
//Background and Video events
0,0,"bg.jpg",0,0
//Break Periods
2,100190,113434
//Storyboard Layer 0 (Background)
//Storyboard Layer 1 (Fail)
//Storyboard Layer 2 (Pass)
//Storyboard Layer 3 (Foreground)
//Storyboard Layer 4 (Overlay)
//Storyboard Sound Samples

[TimingPoints]
136,437.956204379562,4,2,1,60,1,0
15902,-111.111111111111,4,2,1,65,0,0
29917,-99.9999999999999,4,2,1,70,0,0
35829,-125,4,2,1,70,0,0
36924,-100,4,2,1,70,0,0
40427,-100,4,2,1,80,0,0
40756,-200,4,2,1,80,0,0
40865,-200,4,2,1,60,0,0
42179,-90.9090909090909,4,2,1,80,0,0
42289,-90.9090909090909,4,2,1,70,0,0
42508,-90.9090909090909,4,2,1,85,0,0
42617,-90.9090909090909,4,2,1,70,0,0
42836,-90.9090909090909,4,2,1,85,0,0
42946,-90.9090909090909,4,2,1,70,0,0
43165,-90.9090909090909,4,2,1,85,0,0
43274,-90.9090909090909,4,2,1,70,0,0
43493,-90.9090909090909,4,2,1,85,0,0
43931,-66.6666666666667,4,2,1,90,0,1
44807,-100,4,2,1,90,0,1
45683,-66.6666666666667,4,2,1,90,0,1
46559,-100,4,2,1,90,0,1
46997,-58.8235294117647,4,2,1,90,0,1
47435,-66.6666666666667,4,2,1,90,0,1
48311,-100,4,2,1,90,0,1
49187,-66.6666666666667,4,2,1,90,0,1
52690,-66.6666666666667,4,2,1,90,0,1
53566,-100,4,2,1,90,0,1
54442,-74.0740740740741,4,2,1,90,0,1
57946,-66.6666666666667,4,2,1,90,0,1
58822,-100,4,2,1,90,0,1
59698,-66.6666666666667,4,2,1,90,0,1
60573,-74.0740740740741,4,2,1,90,0,1
61011,-58.8235294117647,4,2,1,90,0,1
61449,-55.5555555555556,4,2,1,90,0,1
61887,-66.6666666666667,4,2,1,90,0,1
62325,-100,4,2,1,90,0,1
63201,-66.6666666666667,4,2,1,90,0,1
67581,-100,4,2,1,90,0,1
68457,-74.0740740740741,4,2,1,90,0,1
71960,-66.6666666666667,4,2,1,90,0,1
72836,-100,4,2,1,90,0,1
73712,-66.6666666666667,4,2,1,90,0,1
74588,-100,4,2,1,90,0,1
75026,-66.6666666666667,4,2,1,90,0,1
76340,-100,4,2,1,90,0,1
77216,-66.6666666666667,4,2,1,90,0,1
79844,-80,4,2,1,90,0,1
80281,-66.6666666666667,4,2,1,90,0,1
81595,-100,4,2,1,90,0,1
82471,-74.0740740740741,4,2,1,90,0,1
85975,-74.0740740740741,4,2,1,80,0,0
86632,-95.2380952380952,4,2,1,80,0,0
87289,-153.846153846154,4,2,1,80,0,0
87727,-74.0740740740741,4,2,1,80,0,0
88384,-95.2380952380952,4,2,1,80,0,0
89041,-153.846153846154,4,2,1,80,0,0
89479,-111.111111111111,4,2,1,80,0,0
89917,-333.333333333331,4,2,1,80,0,0
92982,-74.0740740740741,4,2,1,80,0,0
93639,-95.2380952380952,4,2,1,80,0,0
94296,-153.846153846154,4,2,1,80,0,0
94734,-74.0740740740741,4,2,1,80,0,0
95391,-95.2380952380952,4,2,1,80,0,0
96048,-153.846153846154,4,2,1,80,0,0
96924,-500,4,2,1,65,0,0
99990,-500,4,2,1,60,0,0
114004,-100,4,2,1,65,0,0
119917,-125,4,2,1,65,0,0
121011,-100,4,2,1,65,0,0
124515,-100,4,2,1,80,0,0
124953,-200,4,2,1,60,0,0
126267,-90.9090909090909,4,2,1,80,0,0
126377,-90.9090909090909,4,2,1,70,0,0
126596,-90.9090909090909,4,2,1,85,0,0
126705,-90.9090909090909,4,2,1,70,0,0
126924,-90.9090909090909,4,2,1,85,0,0
127034,-90.9090909090909,4,2,1,70,0,0
127253,-90.9090909090909,4,2,1,85,0,0
127362,-90.9090909090909,4,2,1,70,0,0
127581,-90.9090909090909,4,2,1,85,0,0
128019,-66.6666666666667,4,2,1,90,0,1
128895,-100,4,2,1,90,0,1
129771,-66.6666666666667,4,2,1,90,0,1
130646,-100,4,2,1,90,0,1
131084,-55.5555555555556,4,2,1,90,0,1
131522,-66.6666666666667,4,2,1,90,0,1
132398,-100,4,2,1,90,0,1
133274,-55.5555555555556,4,2,1,90,0,1
133712,-66.6666666666667,4,2,1,90,0,1
137654,-100,4,2,1,90,0,1
138530,-74.0740740740741,4,2,1,90,0,1
142033,-66.6666666666667,4,2,1,90,0,1
142909,-100,4,2,1,90,0,1
143785,-66.6666666666667,4,2,1,90,0,1
144661,-100,4,2,1,90,0,1
145099,-58.8235294117647,4,2,1,90,0,1
145537,-55.5555555555556,4,2,1,90,0,1
145975,-66.6666666666667,4,2,1,90,0,1
146413,-100,4,2,1,90,0,1
147727,-66.6666666666667,4,2,1,90,0,1
151668,-100,4,2,1,90,0,1
152544,-74.0740740740741,4,2,1,90,0,1
156048,-66.6666666666667,4,2,1,90,0,1
156924,-100,4,2,1,90,0,1
157800,-66.6666666666667,4,2,1,90,0,1
158676,-100,4,2,1,90,0,1
159114,-58.8235294117647,4,2,1,90,0,1
159552,-66.6666666666667,4,2,1,90,0,1
160427,-100,4,2,1,90,0,1
161303,-66.6666666666667,4,2,1,90,0,1
165683,-100,4,2,1,90,0,1
166559,-74.0740740740741,4,2,1,90,0,1
170063,-74.0740740740741,4,2,1,80,0,0
170719,-95.2380952380952,4,2,1,80,0,0
171376,-153.846153846154,4,2,1,80,0,0
171814,-74.0740740740741,4,2,1,80,0,0
172471,-95.2380952380952,4,2,1,80,0,0
173128,-153.846153846154,4,2,1,80,0,0
173566,-111.111111111111,4,2,1,80,0,0
174004,-333.333333333333,4,2,1,80,0,0
177070,-74.0740740740741,4,2,1,80,0,0
177727,-95.2380952380952,4,2,1,80,0,0
178384,-153.846153846154,4,2,1,80,0,0
178822,-74.0740740740741,4,2,1,80,0,0
179479,-95.2380952380952,4,2,1,80,0,0
180135,-153.846153846154,4,2,1,80,0,0
181011,-333.333333333333,4,2,1,65,0,0

[Colours]
Combo1 : 0,128,255
Combo2 : 136,196,255

[HitObjects]
457,348,15026,5,2,0:0:0:0:
457,348,15902,6,0,P|412:333|293:303,1,148.49999546814,6|0,1:2|0:0,0:0:0:0:
249,338,16340,1,2,0:0:0:0:
387,249,16559,6,0,P|321:212|216:287,1,197.99999395752,10|2,0:0|0:0,0:0:0:0:
386,157,17216,1,10,0:0:0:0:
145,11,17654,6,0,B|169:70|200:182|204:188,1,148.49999546814,2|0,1:2|0:0,0:0:0:0:
257,183,18092,1,0,0:0:0:0:
101,100,18311,2,0,P|43:137|56:267,1,197.99999395752,10|2,0:0|0:0,0:0:0:0:
251,116,18968,1,10,0:0:0:0:
433,381,19406,6,0,B|406:342|442:294|450:320|486:275|456:230,1,148.49999546814,2|0,1:2|0:0,0:0:0:0:
497,181,19844,1,2,0:0:0:0:
384,266,20063,2,0,P|323:284|170:349,1,197.99999395752,10|0,0:0|0:0,0:0:0:0:
286,213,20719,1,10,0:0:0:0:
290,205,20938,1,8,0:0:0:0:
67,134,21157,6,0,P|88:196|113:304,1,148.49999546814,2|0,1:2|0:0,0:0:0:0:
158,328,21595,1,0,0:0:0:0:
290,205,21814,2,0,P|393:184|462:260,1,197.99999395752,8|0,0:0|0:0,0:0:0:0:
433,126,22471,1,10,0:0:0:0:
437,119,22690,1,8,0:0:0:0:
241,30,22909,6,0,P|309:56|401:77,1,148.49999546814,2|0,1:2|0:0,0:0:0:0:
437,119,23347,1,2,0:0:0:0:
286,245,23566,2,0,P|269:195|156:88,1,197.99999395752,10|2,0:0|0:0,0:0:0:0:
335,141,24223,1,10,0:0:0:0:
111,295,24661,6,0,P|176:282|248:354,1,148.49999546814,2|0,1:2|0:0,0:0:0:0:
288,378,25099,1,0,0:0:0:0:
416,280,25318,2,0,P|399:227|364:76,1,197.99999395752,10|2,0:0|0:0,0:0:0:0:
277,214,25975,1,10,0:0:0:0:
44,45,26413,6,0,B|119:52|111:96|190:116,1,148.49999546814,2|0,1:2|0:0,0:0:0:0:
233,73,26851,1,2,0:0:0:0:
102,189,27070,1,10,0:0:0:0:
451,253,27508,5,2,0:0:0:0:
355,274,27727,5,10,0:0:0:0:
324,334,27946,5,2,0:0:0:0:
256,192,28055,12,0,29807,0:0:0:0:
54,45,29917,6,0,P|76:111|107:245,1,165,6|0,1:2|0:0,0:0:0:0:
153,259,30354,2,0,P|167:233|170:197,1,55,10|0,0:0|0:0,0:0:0:0:
5,113,30573,1,10,0:0:0:0:
5,113,30792,6,0,P|18:163|37:260,1,110,2|0,0:0|0:0,0:0:0:0:
248,317,31230,2,0,P|155:311|119:402,1,165,10|0,0:0|0:0,0:0:0:0:
170,208,31668,6,0,P|180:174|207:26,1,165,2|0,1:2|0:0,0:0:0:0:
147,4,32106,1,10,0:0:0:0:
280,195,32325,2,0,P|265:161|258:118,1,55,10|0,0:0|0:0,0:0:0:0:
501,71,32544,6,0,P|456:138|365:136,1,165,2|0,0:0|0:0,0:0:0:0:
318,101,32982,1,10,0:0:0:0:
506,286,33420,6,0,P|426:308|352:344,1,165,2|0,1:2|0:0,0:0:0:0:
286,310,33858,2,0,P|318:324|351:348,1,55,10|0,0:0|0:0,0:0:0:0:
428,215,34077,1,10,0:0:0:0:
428,215,34296,2,0,P|436:160|452:107,1,110,2|0,0:0|0:0,0:0:0:0:
318,6,34734,2,0,P|309:60|293:113,1,110,10|0,0:0|0:0,0:0:0:0:
64,222,35172,6,0,P|166:198|237:275,1,220,2|8,1:2|0:0,0:0:0:0:
30,153,35829,2,0,B|64:106|115:124|115:124|75:116|41:148,1,176,8|0,0:0|0:0,0:0:0:0:
136,31,36486,1,10,0:0:0:0:
300,165,36705,5,10,0:0:0:0:
300,165,36814,1,8,0:0:0:0:
304,167,36924,2,0,P|356:178|465:237,1,165,2|0,1:2|0:0,0:0:0:0:
500,164,37362,2,0,P|467:184|425:191,1,55,10|0,0:0|0:0,0:0:0:0:
353,284,37581,1,10,0:0:0:0:
353,284,37800,6,0,P|281:280|213:348,1,165,2|0,0:0|0:0,0:0:0:0:
93,281,38238,2,0,P|155:284|224:372,1,165,10|0,0:0|0:0,0:0:0:0:
284,245,38676,6,0,P|272:215|262:167,1,55,2|0,0:0|0:0,0:0:0:0:
299,110,38895,1,2,0:0:0:0:
161,206,39114,6,0,P|173:176|183:128,1,55,10|0,0:0|0:0,0:0:0:0:
146,71,39333,1,10,0:0:0:0:
171,217,39552,1,2,0:0:0:0:
136,60,39771,5,8,0:0:0:0:
134,51,39990,1,10,0:0:0:0:
133,43,40208,1,8,0:0:0:0:
465,263,40427,5,2,1:2:0:0:
465,263,40865,6,0,P|418:278|356:317,2,110,2|2|2,0:0|0:0|0:0,0:0:0:0:
227,151,42179,5,8,0:0:0:0:
78,44,42398,5,8,0:0:0:0:
64,64,42508,2,0,P|75:92|88:139,1,60.5000018463135,8|8,0:0|0:0,0:0:0:0:
223,196,42727,5,8,0:0:0:0:
212,173,42837,2,0,P|181:168|134:156,1,60.5000018463135,8|8,0:0|0:0,0:0:0:0:
18,245,43055,5,8,0:0:0:0:
44,247,43165,2,0,P|63:222|97:187,2,60.5000018463135,8|8|8,0:0|0:0|0:0,0:0:0:0:
259,358,43493,5,8,0:0:0:0:
272,333,43603,1,8,0:0:0:0:
257,292,43712,1,8,0:0:0:0:
210,240,43822,1,8,0:0:0:0:
282,136,43931,6,0,B|342:48|451:60|515:175|411:247|355:167,1,330.000012588501,14|10,1:3|0:0,0:0:0:0:
215,84,44588,2,0,P|204:44|196:3,1,82.5000031471254,10|0,1:3|0:0,0:0:0:0:
363,177,44807,6,0,P|308:207|229:274,1,165.000006294251,2|0,0:0|0:0,0:0:0:0:
35,132,45245,6,0,B|94:110|115:160|115:160|88:132|50:139,1,165,10|0,0:0|0:0,0:0:0:0:
268,9,45683,6,0,P|234:66|163:265,1,247.500009441376,10|0,1:3|0:0,0:0:0:0:
88,324,46121,2,0,P|77:288|44:226,1,82.5000031471254,10|0,0:0|0:0,0:0:0:0:
299,197,46340,2,0,P|268:241|230:252,1,82.5000031471254,10|0,1:3|0:0,0:0:0:0:
14,136,46559,2,0,P|67:152|114:181,1,110,2|2,0:0|0:0,0:0:0:0:
321,338,46997,6,0,B|304:369|274:367|274:367|296:361|310:339,1,93.500001783371,10|0,0:0|0:0,0:0:0:0:
169,283,47216,2,0,B|186:314|216:312|216:312|194:306|180:284,1,93.500001783371,2|0,0:0|0:0,0:0:0:0:
393,197,47435,6,0,B|327:203|290:266|290:266|318:198|290:152,1,247.500009441376,10|0,1:3|0:0,0:0:0:0:
217,97,47873,2,0,P|243:128|287:137,1,82.5000031471254,10|0,0:0|0:0,0:0:0:0:
421,39,48092,2,0,P|380:46|351:79,1,82.5000031471254,10|0,1:3|0:0,0:0:0:0:
150,232,48311,6,0,B|174:191|231:201|231:201|186:198|171:232,1,165,2|0,0:0|0:0,0:0:0:0:
375,327,48749,6,0,P|335:271|237:281,1,165,10|0,0:0|0:0,0:0:0:0:
65,381,49187,6,0,B|51:356|51:356|94:111,1,247.500009441376,10|0,1:3|0:0,0:0:0:0:
18,80,49625,6,0,P|48:121|86:131,1,82.5000031471254,10|0,0:0|0:0,0:0:0:0:
224,51,49844,1,10,1:3:0:0:
143,211,50063,6,0,P|177:183|215:173,1,82.5000031471254,2|0,0:0|0:0,0:0:0:0:
354,236,50282,1,2,0:0:0:0:
336,90,50500,6,0,P|374:111|418:119,1,82.5000031471254,10|0,0:0|0:0,0:0:0:0:
511,83,50719,1,2,0:0:0:0:
373,228,50938,6,0,P|308:244|163:387,1,247.500009441376,10|0,1:3|0:0,0:0:0:0:
107,332,51376,1,8,0:0:0:0:
238,197,51595,2,0,P|246:167|278:106,1,82.5000031471254,10|0,1:3|0:0,0:0:0:0:
380,358,51814,6,0,P|283:291|155:255,1,247.500009441376,2|0,0:0|0:0,0:0:0:0:
91,247,52252,2,0,P|128:236|155:203,1,82.5000031471254,10|0,0:0|0:0,0:0:0:0:
67,156,52471,1,2,0:0:0:0:
349,0,52690,6,0,B|332:24|332:24|379:236,1,247.500009441376,10|0,1:3|0:0,0:0:0:0:
434,293,53128,2,0,P|456:254|447:208,1,82.5000031471254,10|0,0:0|0:0,0:0:0:0:
276,94,53347,2,0,L|294:174,1,82.5000031471254,10|0,1:3|0:0,0:0:0:0:
68,284,53566,6,0,P|105:283|210:358,1,165.000006294251,2|0,0:0|0:0,0:0:0:0:
300,194,54004,6,0,P|263:193|158:268,1,165.000006294251,10|0,0:0|0:0,0:0:0:0:
16,24,54442,6,0,B|136:-11|112:85|218:123,1,222.750000849724,10|0,1:3|0:0,0:0:0:0:
249,61,54880,5,10,0:0:0:0:
71,186,55099,2,0,P|107:174|145:157,1,74.2500002832413,8|0,1:3|0:0,0:0:0:0:
348,263,55318,2,0,P|300:213|209:222,1,148.500000566483,2|0,0:0|0:0,0:0:0:0:
61,375,55756,6,0,P|50:319|19:204,1,148.500000566483,10|0,0:0|0:0,0:0:0:0:
157,127,56084,1,0,0:0:0:0:
79,84,56194,2,0,P|62:114|72:160,1,74.2500002832413,10|0,1:3|0:0,0:0:0:0:
303,214,56413,5,8,0:0:0:0:
148,294,56632,1,10,0:0:0:0:
312,202,56851,6,0,P|297:171|289:104,1,74.2500002832413,10|0,1:2|0:0,0:0:0:0:
335,56,57070,1,10,0:0:0:0:
3,212,57289,5,10,0:0:0:0:
30,219,57398,1,8,0:0:0:0:
61,227,57508,1,10,0:0:0:0:
156,254,57727,1,10,0:0:0:0:
356,95,57946,6,0,B|440:175|348:276|309:201|223:275|304:376,1,330.000012588501,14|10,1:3|0:0,0:0:0:0:
448,274,58603,2,0,P|406:287|355:318,1,82.5000031471254,10|0,1:3|0:0,0:0:0:0:
271,156,58822,6,0,P|220:147|107:74,1,165,2|0,0:0|0:0,0:0:0:0:
5,246,59260,6,0,P|46:198|149:203,1,165,10|0,0:0|0:0,0:0:0:0:
385,384,59698,6,0,B|401:357|401:357|365:141,1,247.500009441376,10|0,1:3|0:0,0:0:0:0:
308,92,60135,2,0,P|288:124|295:171,1,82.5000031471254,10|0,0:0|0:0,0:0:0:0:
462,276,60354,2,0,L|442:173,1,82.5000031471254,10|0,1:3|0:0,0:0:0:0:
267,283,60573,2,0,B|194:303|216:328|138:371,1,148.500000566483,2|2,0:0|0:0,0:0:0:0:
21,174,61011,6,0,B|-2:157|7:128|7:128|33:144|22:173,1,93.500001783371,10|0,0:0|0:0,0:0:0:0:
104,252,61230,2,0,B|81:269|90:298|90:298|116:282|105:253,1,93.500001783371,2|0,0:0|0:0,0:0:0:0:
290,101,61449,6,0,B|218:25|82:50|79:169|200:220|228:117,1,296.99999093628,10|0,1:3|0:0,0:0:0:0:
344,52,61887,2,0,P|364:96|347:153,1,82.5000031471254,10|0,0:0|0:0,0:0:0:0:
226,231,62106,2,0,B|209:217|209:217|200:143,1,82.5000031471254,10|0,1:3|0:0,0:0:0:0:
471,200,62325,6,0,P|399:215|331:289,1,165,2|0,0:0|0:0,0:0:0:0:
193,306,62763,6,0,P|265:321|333:395,1,165,10|0,0:0|0:0,0:0:0:0:
452,307,63201,6,0,B|425:282|425:282|395:62,1,247.500009441376,10|0,1:3|0:0,0:0:0:0:
445,18,63639,6,0,P|468:52|470:95,1,82.5000031471254,10|0,0:0|0:0,0:0:0:0:
348,233,63858,1,10,1:3:0:0:
219,77,64077,6,0,P|235:43|244:0,1,82.5000031471254,2|0,0:0|0:0,0:0:0:0:
348,233,64296,1,2,0:0:0:0:
156,150,64515,6,0,P|140:116|131:73,1,82.5000031471254,10|0,0:0|0:0,0:0:0:0:
267,170,64734,1,2,0:0:0:0:
14,327,64953,6,0,B|51:308|51:308|255:350,1,247.500009441376,10|0,1:3|0:0,0:0:0:0:
321,313,65391,1,8,0:0:0:0:
156,150,65610,2,0,P|131:183|138:232,1,82.5000031471254,10|0,1:3|0:0,0:0:0:0:
383,381,65829,6,0,P|369:325|340:117,1,247.500009441376,2|0,0:0|0:0,0:0:0:0:
412,88,66267,2,0,P|385:118|343:124,1,82.5000031471254,10|0,0:0|0:0,0:0:0:0:
177,48,66486,1,2,0:0:0:0:
471,292,66705,6,0,P|403:217|268:232,1,247.500009441376,10|0,1:3|0:0,0:0:0:0:
216,287,67143,2,0,P|196:256|202:203,1,82.5000031471254,10|0,0:0|0:0,0:0:0:0:
376,109,67362,2,0,P|378:68|357:33,1,82.5000031471254,10|0,1:3|0:0,0:0:0:0:
64,125,67581,6,0,B|164:133|117:185|209:215,1,165,2|0,0:0|0:0,0:0:0:0:
349,201,68019,2,0,B|249:209|296:261|204:291,1,165,10|0,0:0|0:0,0:0:0:0:
42,361,68457,6,0,B|23:337|23:337|63:136,1,222.750000849724,10|0,1:3|0:0,0:0:0:0:
78,81,68895,5,10,0:0:0:0:
274,266,69114,2,0,B|199:284,1,74.2500002832413,8|0,1:3|0:0,0:0:0:0:
110,337,69333,2,0,B|97:319|97:319|125:177,1,148.500000566483,2|0,0:0|0:0,0:0:0:0:
450,86,69771,6,0,P|390:101|302:136,1,148.500000566483,10|0,0:0|0:0,0:0:0:0:
178,56,70099,1,0,0:0:0:0:
257,1,70208,2,0,P|273:35|265:72,1,74.2500002832413,10|0,1:3|0:0,0:0:0:0:
53,102,70427,5,8,0:0:0:0:
202,185,70646,1,10,0:0:0:0:
38,309,70865,6,0,P|29:275|6:216,1,74.2500002832413,10|0,1:2|0:0,0:0:0:0:
194,374,71084,1,10,0:0:0:0:
289,142,71303,5,10,0:0:0:0:
279,174,71413,1,8,0:0:0:0:
271,203,71522,1,10,0:0:0:0:
160,123,71741,1,10,0:0:0:0:
441,327,71960,6,0,B|358:421|220:397|226:234|352:222|383:318,1,330.000012588501,14|10,1:3|0:0,0:0:0:0:
512,222,72617,2,0,P|482:247|424:246,1,82.5000031471254,10|0,1:3|0:0,0:0:0:0:
277,142,72836,6,0,P|328:205|361:281,1,165,2|0,0:0|0:0,0:0:0:0:
504,93,73274,6,0,P|452:156|419:232,1,165,10|0,0:0|0:0,0:0:0:0:
304,34,73712,6,0,B|262:16|262:16|55:63,1,247.500009441376,10|0,1:3|0:0,0:0:0:0:
13,15,74150,2,0,P|-5:52|7:104,1,82.5000031471254,10|0,0:0|0:0,0:0:0:0:
162,183,74369,2,0,P|180:146|168:94,1,82.5000031471254,10|0,1:3|0:0,0:0:0:0:
0,291,74588,2,0,P|34:258|98:259,1,110,2|2,0:0|0:0,0:0:0:0:
322,376,75026,6,0,B|337:354|328:328|328:328|329:343|317:359,1,82.5000031471254,10|0,0:0|0:0,0:0:0:0:
185,264,75245,2,0,B|170:286|179:312|179:312|178:297|189:281,1,82.5000031471254,2|0,0:0|0:0,0:0:0:0:
491,188,75464,6,0,B|457:173|457:173|244:230,1,247.500009441376,10|0,1:3|0:0,0:0:0:0:
193,187,75902,2,0,P|176:225|187:268,1,82.5000031471254,10|0,0:0|0:0,0:0:0:0:
421,110,76121,2,0,L|402:28,1,82.5000031471254,10|0,1:3|0:0,0:0:0:0:
146,88,76340,6,0,L|311:126,1,165,2|0,0:0|0:0,0:0:0:0:
352,229,76778,6,0,L|517:267,1,165,10|0,0:0|0:0,0:0:0:0:
119,383,77216,6,0,P|102:282|76:139,1,247.500009441376,10|0,1:3|0:0,0:0:0:0:
10,101,77654,6,0,P|40:72|79:67,1,82.5000031471254,10|0,0:0|0:0,0:0:0:0:
267,155,77873,1,10,1:3:0:0:
203,0,78092,6,0,P|236:18|281:34,1,82.5000031471254,2|0,0:0|0:0,0:0:0:0:
429,94,78311,1,2,0:0:0:0:
260,274,78530,6,0,P|293:256|338:240,1,82.5000031471254,10|0,0:0|0:0,0:0:0:0:
428,200,78749,1,2,0:0:0:0:
108,380,78968,6,0,B|88:347|88:347|147:89,1,247.500009441376,10|0,1:3|0:0,0:0:0:0:
152,77,79406,1,8,0:0:0:0:
309,199,79625,2,0,P|272:212|230:239,1,82.5000031471254,10|0,1:3|0:0,0:0:0:0:
20,106,79844,6,0,P|86:85|214:15,1,206.25,2|0,0:0|0:0,0:0:0:0:
282,62,80281,2,0,P|239:87|209:110,1,82.5000031471254,10|0,0:0|0:0,0:0:0:0:
42,25,80500,1,2,0:0:0:0:
303,290,80719,6,0,P|218:206|103:234,1,247.500009441376,10|0,1:3|0:0,0:0:0:0:
42,266,81157,2,0,P|68:296|115:298,1,82.5000031471254,10|0,0:0|0:0,0:0:0:0:
296,160,81376,2,0,P|255:163|224:191,1,82.5000031471254,10|0,1:3|0:0,0:0:0:0:
42,25,81595,6,0,L|217:57,1,165,2|0,0:0|0:0,0:0:0:0:
296,160,82033,6,0,L|458:189,1,165,10|0,0:0|0:0,0:0:0:0:
132,350,82471,6,0,P|114:292|37:129,1,222.750000849724,10|0,1:3|0:0,0:0:0:0:
96,90,82909,5,10,0:0:0:0:
332,282,83128,2,0,P|301:267|260:254,1,74.2500002832413,8|0,1:3|0:0,0:0:0:0:
297,161,83347,2,0,P|242:185|149:211,1,148.500000566483,2|0,0:0|0:0,0:0:0:0:
406,367,83785,6,0,B|423:339|423:339|394:226,1,148.500000566483,10|0,0:0|0:0,0:0:0:0:
499,123,84114,1,0,0:0:0:0:
414,84,84223,2,0,L|435:166,1,74.2500002832413,10|0,1:3|0:0,0:0:0:0:
176,42,84442,5,8,0:0:0:0:
345,117,84661,1,10,0:0:0:0:
105,267,84880,6,0,L|84:185,1,74.2500002832413,8|0,1:2|0:0,0:0:0:0:
345,117,85099,1,10,0:0:0:0:
44,34,85318,1,8,0:0:0:0:
51,58,85427,1,8,0:0:0:0:
56,79,85537,1,10,0:0:0:0:
142,144,85756,1,8,1:3:0:0:
0,318,85975,6,0,B|43:227|172:214|198:312|145:376|83:334,1,297.000001132965,6|0,1:2|0:0,0:0:0:0:
233,217,86632,2,0,P|293:229|451:296,1,230.99999295044,8|0,0:0|0:0,0:0:0:0:
353,167,87289,2,0,P|335:136|317:85,1,71.4999967269899,8|0,0:0|0:0,0:0:0:0:
125,324,87727,6,0,P|142:275|194:32,1,297.000001132965,2|0,1:2|0:0,0:0:0:0:
442,226,88384,2,0,P|367:143|249:164,1,230.99999295044,8|0,0:0|0:0,0:0:0:0:
473,49,89041,2,0,P|440:65|402:73,1,71.4999967269899,8|8,0:0|0:0,0:0:0:0:
346,32,89369,1,8,0:0:0:0:
346,32,89479,6,0,P|286:46|202:103,1,148.49999546814,6|0,1:2|0:0,0:0:0:0:
157,47,89917,6,0,P|147:67|141:90,1,32.99999899292,2|8,0:0|0:0,0:0:0:0:
245,212,90354,2,0,P|250:196|258:181,1,32.99999899292,2|0,0:0|0:0,0:0:0:0:
82,121,90792,6,0,P|91:141|98:164,1,32.99999899292,10|0,0:0|1:2,0:0:0:0:
216,5,91230,1,2,1:2:0:0:
363,202,91668,6,0,P|377:196|393:190,1,32.99999899292,0|8,0:0|0:0,0:0:0:0:
198,117,92105,1,2,0:0:0:0:
491,363,92544,6,0,P|484:344|475:320,1,32.99999899292,10|0,0:0|1:2,0:0:0:0:
286,159,92982,6,0,P|161:225|63:355,1,297.000001132965,2|0,1:2|0:0,0:0:0:0:
50,181,93639,2,0,P|132:195|257:278,1,230.99999295044,8|0,0:0|0:0,0:0:0:0:
341,384,94296,2,0,P|316:357|310:307,1,71.4999967269899,8|0,0:0|0:0,0:0:0:0:
501,186,94734,6,0,B|464:108|370:98|277:147|352:283|428:203,1,297.000001132965,2|0,1:2|0:0,0:0:0:0:
255,102,95391,2,0,P|151:152|39:180,1,230.99999295044,8|0,0:0|0:0,0:0:0:0:
340,44,96048,2,0,P|305:34|259:8,1,71.4999967269899,8|8,0:0|0:0,0:0:0:0:
20,277,96486,5,2,1:2:0:0:
412,355,96924,6,0,L|401:304,1,44,2|2,0:0|0:0,0:0:0:0:
492,375,97800,6,0,L|481:324,1,44,2|2,0:0|0:0,0:0:0:0:
256,192,98347,12,2,99990,0:0:0:0:
43,300,114004,6,0,P|102:313|225:362,1,165,6|0,1:2|0:0,0:0:0:0:
262,309,114442,2,0,P|273:341|267:371,1,55,10|0,0:0|0:0,0:0:0:0:
151,208,114661,1,10,0:0:0:0:
151,208,114880,2,0,P|136:158|122:65,1,110,2|0,0:0|0:0,0:0:0:0:
270,227,115318,2,0,P|338:209|422:300,1,165,10|0,0:0|0:0,0:0:0:0:
480,122,115756,6,0,P|419:154|325:184,1,165,2|0,1:2|0:0,0:0:0:0:
270,227,116194,1,10,0:0:0:0:
125,101,116413,2,0,P|136:129|146:165,1,55,10|0,0:0|0:0,0:0:0:0:
374,38,116632,2,0,P|322:-6|229:7,1,165,2|0,0:0|0:0,0:0:0:0:
170,47,117070,1,10,0:0:0:0:
467,339,117508,6,0,P|389:309|309:292,1,165,2|0,1:2|0:0,0:0:0:0:
246,319,117946,2,0,P|239:292|246:265,1,55,10|0,0:0|0:0,0:0:0:0:
421,134,118165,1,10,0:0:0:0:
421,134,118384,2,0,P|406:183|395:249,1,110,2|0,0:0|0:0,0:0:0:0:
267,114,118822,2,0,P|282:65|293:-1,1,110,10|0,0:0|0:0,0:0:0:0:
61,227,119260,6,0,P|144:161|246:188,1,220,2|8,1:2|0:0,0:0:0:0:
404,295,119917,2,0,B|370:342|319:324|319:324|360:332|389:298,1,176,8|0,0:0|0:0,0:0:0:0:
246,188,120573,1,10,0:0:0:0:
437,133,120792,5,10,0:0:0:0:
437,133,120902,1,8,0:0:0:0:
437,133,121011,2,0,P|419:205|403:301,1,165,2|0,1:2|0:0,0:0:0:0:
463,343,121449,2,0,P|470:310|474:278,1,55,10|0,0:0|0:0,0:0:0:0:
301,234,121668,1,10,0:0:0:0:
301,234,121887,6,0,P|224:262|151:301,1,165,2|0,0:0|0:0,0:0:0:0:
74,244,122325,2,0,P|151:215|224:176,1,165,10|0,0:0|0:0,0:0:0:0:
306,78,122763,6,0,P|294:109|286:144,1,55,2|0,1:2|0:0,0:0:0:0:
368,256,122982,1,2,0:0:0:0:
207,61,123201,6,0,P|219:30|227:-5,1,55,10|0,0:0|0:0,0:0:0:0:
369,132,123420,1,10,0:0:0:0:
182,279,123639,5,2,0:0:0:0:
313,201,123858,5,8,0:0:0:0:
311,210,124077,1,10,0:0:0:0:
310,218,124295,1,8,0:0:0:0:
47,45,124514,5,6,1:2:0:0:
47,45,124953,6,0,P|59:80|78:153,2,110,2|2|2,0:0|0:0|0:0,0:0:0:0:
360,223,126267,5,8,0:0:0:0:
122,350,126486,5,8,0:0:0:0:
107,334,126595,2,0,P|103:306|96:270,1,60.5000018463135,8|8,0:0|0:0,0:0:0:0:
272,211,126814,5,8,0:0:0:0:
265,232,126923,2,0,P|242:248|216:274,1,60.5000018463135,8|8,0:0|0:0,0:0:0:0:
77,150,127143,5,8,0:0:0:0:
97,144,127252,2,0,P|125:156|154:166,2,60.5000018463135,8|8|8,0:0|0:0|0:0,0:0:0:0:
340,42,127581,5,8,0:0:0:0:
356,61,127690,1,8,0:0:0:0:
360,94,127799,1,8,0:0:0:0:
325,158,127909,1,8,0:0:0:0:
235,207,128019,6,0,B|269:159|240:110|227:144|197:91|207:39|207:39|188:122|154:84|133:132|159:179,1,330.000012588501,14|10,1:3|0:0,0:0:0:0:
60,353,128676,2,0,P|49:320|21:274,1,82.5000031471254,10|0,1:3|0:0,0:0:0:0:
235,207,128895,6,0,P|308:226|392:284,1,165,2|0,0:0|0:0,0:0:0:0:
458,149,129333,6,0,B|481:120|517:122|517:122|459:106|433:153,1,165,10|0,0:0|0:0,0:0:0:0:
233,327,129771,6,0,B|214:292|214:292|260:66,1,247.500009441376,10|0,1:3|0:0,0:0:0:0:
243,22,130208,2,0,P|202:45|186:92,1,82.5000031471254,10|0,0:0|0:0,0:0:0:0:
373,292,130427,2,0,L|396:177,1,82.5000031471254,10|0,1:3|0:0,0:0:0:0:
187,75,130646,2,0,L|165:182,1,110,2|2,0:0|0:0,0:0:0:0:
33,342,131084,6,0,B|19:326|0:322|0:322|29:313|53:340,1,98.9999969787599,10|0,0:0|0:0,0:0:0:0:
200,252,131303,2,0,B|224:224|253:233|253:233|234:237|220:253,1,98.9999969787599,2|0,0:0|0:0,0:0:0:0:
0,158,131522,6,0,B|55:164|91:226|91:226|66:151|113:102,1,247.500009441376,10|0,1:3|0:0,0:0:0:0:
112,34,131960,2,0,P|67:50|42:87,1,82.5000031471254,10|0,0:0|0:0,0:0:0:0:
273,154,132179,2,0,P|299:184|338:196,1,82.5000031471254,10|0,1:3|0:0,0:0:0:0:
481,71,132398,6,0,P|405:63|335:158,1,165,2|0,0:0|0:0,0:0:0:0:
209,287,132836,2,0,B|224:255|224:255|190:129,1,165,10|0,0:0|0:0,0:0:0:0:
476,290,133274,6,0,B|449:189|335:164|256:248|332:327|385:294,1,296.99999093628,10|0,1:3|0:0,0:0:0:0:
468,163,133712,6,0,P|453:129|439:75,1,82.5000031471254,10|0,0:0|0:0,0:0:0:0:
372,299,133931,1,10,1:3:0:0:
277,127,134150,6,0,P|262:93|248:39,1,82.5000031471254,2|0,0:0|0:0,0:0:0:0:
188,238,134369,1,2,0:0:0:0:
98,77,134588,6,0,P|83:43|69:-11,1,82.5000031471254,10|0,0:0|0:0,0:0:0:0:
26,158,134807,1,2,0:0:0:0:
299,228,135026,6,0,B|256:222|256:222|64:291,1,247.500009441376,10|0,1:3|0:0,0:0:0:0:
0,317,135464,1,8,0:0:0:0:
144,189,135683,2,0,L|159:107,1,82.5000031471254,10|0,1:3|0:0,0:0:0:0:
302,300,135902,6,0,B|332:365|436:372|468:290|415:235|362:268,1,247.500009441376,2|0,0:0|0:0,0:0:0:0:
175,360,136340,2,0,B|164:334|164:334|176:277,1,82.5000031471254,10|0,0:0|0:0,0:0:0:0:
367,185,136559,2,0,B|378:211|378:211|366:268,1,82.5000031471254,2|0,0:0|0:0,0:0:0:0:
97,148,136778,6,0,P|194:133|300:234,1,247.500009441376,10|0,1:3|0:0,0:0:0:0:
397,89,137216,2,0,P|358:109|314:121,1,82.5000031471254,10|0,0:0|0:0,0:0:0:0:
512,277,137435,2,0,P|473:257|429:245,1,82.5000031471254,10|0,1:3|0:0,0:0:0:0:
218,383,137654,6,0,P|205:307|183:217,1,165,2|0,0:0|0:0,0:0:0:0:
320,119,138092,2,0,P|333:195|355:285,1,165,10|0,0:0|0:0,0:0:0:0:
16,255,138530,6,0,B|120:212|68:144|188:122,1,222.750000849724,10|0,1:3|0:0,0:0:0:0:
244,162,138968,5,10,0:0:0:0:
411,327,139187,2,0,P|446:311|494:298,1,74.2500002832413,8|0,1:3|0:0,0:0:0:0:
390,226,139406,2,0,P|318:247|251:278,1,148.500000566483,2|0,0:0|0:0,0:0:0:0:
88,366,139844,6,0,B|77:342|77:342|126:182,1,148.500000566483,10|0,0:0|0:0,0:0:0:0:
228,124,140172,1,0,0:0:0:0:
143,95,140281,2,0,P|153:130|163:166,1,74.2500002832413,10|0,1:3|0:0,0:0:0:0:
317,249,140500,5,8,0:0:0:0:
79,141,140719,1,10,0:0:0:0:
325,15,140938,6,0,P|313:48|301:99,1,74.2500002832413,10|0,1:2|0:0,0:0:0:0:
222,192,141157,1,10,0:0:0:0:
0,46,141376,5,10,0:0:0:0:
9,72,141486,1,8,0:0:0:0:
18,99,141595,1,10,0:0:0:0:
116,141,141814,1,10,0:0:0:0:
313,5,142033,6,0,B|397:85|305:186|266:111|180:185|252:270,1,330.000012588501,14|10,1:3|0:0,0:0:0:0:
419,333,142690,2,0,P|427:292|441:253,1,82.5000031471254,10|0,1:3|0:0,0:0:0:0:
258,71,142909,6,0,P|194:99|92:129,1,165,2|0,0:0|0:0,0:0:0:0:
73,271,143347,6,0,P|137:243|239:213,1,165,10|0,0:0|0:0,0:0:0:0:
437,379,143785,6,0,B|421:347|421:347|452:138,1,247.500009441376,10|0,1:3|0:0,0:0:0:0:
388,80,144223,2,0,P|421:106|459:116,1,82.5000031471254,10|0,0:0|0:0,0:0:0:0:
248,240,144442,2,0,P|281:214|319:204,1,82.5000031471254,10|0,1:3|0:0,0:0:0:0:
86,67,144661,2,0,L|110:175,1,110,2|2,0:0|0:0,0:0:0:0:
285,329,145099,6,0,B|268:360|238:358|238:358|260:352|274:330,1,93.500001783371,10|0,0:0|0:0,0:0:0:0:
134,263,145318,2,0,B|151:294|181:292|181:292|159:286|145:264,1,93.500001783371,2|0,0:0|0:0,0:0:0:0:
382,222,145537,6,0,B|371:131|259:96|162:165|236:265|294:226,1,296.99999093628,10|0,1:3|0:0,0:0:0:0:
423,104,145975,2,0,P|403:65|383:2,1,82.5000031471254,10|0,0:0|0:0,0:0:0:0:
283,231,146194,2,0,P|297:269|316:306,1,82.5000031471254,10|0,1:3|0:0,0:0:0:0:
83,88,146413,6,0,L|261:127,1,165,2|0,0:0|0:0,0:0:0:0:
60,288,146851,6,0,P|12:223|37:148,1,165,10|0,0:0|0:0,0:0:0:0:
269,44,147289,6,0,P|244:122|226:203,1,165,10|0,1:3|0:0,0:0:0:0:
172,255,147727,6,0,P|153:223|162:172,1,82.5000031471254,10|0,0:0|0:0,0:0:0:0:
341,75,147946,1,10,1:3:0:0:
116,0,148165,6,0,L|134:93,1,82.5000031471254,2|0,0:0|0:0,0:0:0:0:
225,203,148384,1,2,0:0:0:0:
0,105,148603,6,0,L|18:198,1,82.5000031471254,10|0,0:0|0:0,0:0:0:0:
100,275,148822,1,2,0:0:0:0:
463,156,149041,6,0,B|420:147|420:147|224:203,1,247.500009441376,10|0,1:3|0:0,0:0:0:0:
170,158,149479,1,8,0:0:0:0:
379,342,149698,2,0,P|365:303|354:247,1,82.5000031471254,10|0,1:3|0:0,0:0:0:0:
111,112,149917,6,0,P|152:228|178:349,1,247.500009441376,2|0,0:0|0:0,0:0:0:0:
261,383,150354,2,0,P|250:344|242:287,1,82.5000031471254,10|0,0:0|0:0,0:0:0:0:
56,166,150573,2,0,P|72:203|87:259,1,82.5000031471254,2|0,0:0|0:0,0:0:0:0:
362,122,150792,6,0,P|298:40|164:64,1,247.500009441376,10|0,1:3|0:0,0:0:0:0:
115,13,151230,2,0,P|97:39|105:94,1,82.5000031471254,10|0,0:0|0:0,0:0:0:0:
271,199,151449,2,0,L|251:99,1,82.5000031471254,10|0,1:3|0:0,0:0:0:0:
49,334,151668,6,0,P|101:279|189:287,1,165,2|0,0:0|0:0,0:0:0:0:
318,343,152106,6,0,P|397:350|453:293,1,165,10|0,0:0|0:0,0:0:0:0:
152,84,152544,6,0,P|189:187|213:297,1,222.750000849724,10|0,1:3|0:0,0:0:0:0:
234,369,152982,5,10,0:0:0:0:
459,209,153201,2,0,B|443:203|443:203|371:219,1,74.2500002832413,8|0,1:3|0:0,0:0:0:0:
289,306,153420,2,0,L|451:276,1,148.500000566483,2|0,0:0|0:0,0:0:0:0:
364,63,153858,6,0,P|310:77|228:142,1,148.500000566483,10|0,0:0|0:0,0:0:0:0:
100,54,154187,1,0,0:0:0:0:
160,1,154296,2,0,P|180:39|176:75,1,74.2500002832413,10|0,1:3|0:0,0:0:0:0:
55,230,154515,5,8,0:0:0:0:
236,131,154734,1,10,0:0:0:0:
9,13,154953,6,0,L|30:104,1,74.2500002832413,10|0,1:2|0:0,0:0:0:0:
259,204,155172,1,10,0:0:0:0:
55,345,155391,5,10,0:0:0:0:
49,321,155500,1,8,0:0:0:0:
44,300,155610,1,10,0:0:0:0:
97,187,155829,1,10,0:0:0:0:
383,324,156048,6,0,B|357:265|289:234|205:243|150:349|257:430|310:342,1,330.000012588501,14|10,1:3|0:0,0:0:0:0:
473,210,156705,2,0,P|458:171|446:118,1,82.5000031471254,10|0,1:3|0:0,0:0:0:0:
210,53,156924,6,0,P|290:37|366:4,1,165,2|0,0:0|0:0,0:0:0:0:
316,161,157362,6,0,P|396:176|472:209,1,165,10|0,0:0|0:0,0:0:0:0:
143,8,157800,6,0,B|124:43|124:43|174:250,1,247.500009441376,10|0,1:3|0:0,0:0:0:0:
232,302,158238,2,0,P|250:264|251:222,1,82.5000031471254,10|0,0:0|0:0,0:0:0:0:
23,80,158457,2,0,L|48:180,1,82.5000031471254,10|0,1:3|0:0,0:0:0:0:
320,84,158676,2,0,P|262:87|221:122,1,110,2|2,0:0|0:0,0:0:0:0:
19,311,159114,6,0,B|-4:328|5:357|5:357|31:341|20:312,1,93.500001783371,10|0,0:0|0:0,0:0:0:0:
131,214,159333,2,0,B|154:197|145:168|145:168|119:184|130:213,1,93.500001783371,2|0,0:0|0:0,0:0:0:0:
273,365,159552,6,0,B|316:351|316:351|525:391,1,247.500009441376,10|0,1:3|0:0,0:0:0:0:
420,297,159990,2,0,P|402:272|399:221,1,82.5000031471254,10|0,0:0|0:0,0:0:0:0:
204,123,160208,2,0,P|222:148|225:199,1,82.5000031471254,10|0,1:3|0:0,0:0:0:0:
471,100,160427,6,0,B|439:107|414:155|414:155|416:103|372:73,1,165,2|0,0:0|0:0,0:0:0:0:
252,39,160865,6,0,B|284:46|308:94|308:94|307:42|351:12,1,165,10|0,0:0|0:0,0:0:0:0:
457,218,161303,6,0,B|409:202|409:202|200:249,1,247.500009441376,10|0,1:3|0:0,0:0:0:0:
163,192,161741,6,0,P|140:226|146:278,1,82.5000031471254,10|0,0:0|0:0,0:0:0:0:
233,374,161960,1,10,1:3:0:0:
409,173,162179,6,0,L|394:91,1,82.5000031471254,2|0,0:0|0:0,0:0:0:0:
216,245,162398,1,2,0:0:0:0:
475,369,162617,6,0,L|489:287,1,82.5000031471254,10|0,0:0|0:0,0:0:0:0:
348,234,162836,1,2,0:0:0:0:
512,63,163055,6,0,P|442:92|273:131,1,247.500009441376,10|0,1:3|0:0,0:0:0:0:
213,86,163493,1,8,0:0:0:0:
407,194,163712,2,0,P|428:225|419:278,1,82.5000031471254,10|0,1:3|0:0,0:0:0:0:
228,373,163931,6,0,L|278:111,1,247.500009441376,2|0,0:0|0:0,0:0:0:0:
331,76,164369,1,10,0:0:0:0:
156,0,164588,2,0,P|135:34|148:88,1,82.5000031471254,2|0,0:0|0:0,0:0:0:0:
353,245,164807,6,0,B|309:233|309:233|114:285,1,247.500009441376,10|0,1:3|0:0,0:0:0:0:
58,337,165245,2,0,P|40:305|51:253,1,82.5000031471254,10|0,0:0|0:0,0:0:0:0:
264,97,165464,2,0,L|240:199,1,82.5000031471254,10|0,1:3|0:0,0:0:0:0:
9,77,165683,6,0,L|169:114,1,165,2|0,0:0|0:0,0:0:0:0:
245,177,166121,6,0,L|405:214,1,165,10|0,0:0|0:0,0:0:0:0:
512,72,166559,6,0,P|407:48|330:122,1,222.750000849724,10|0,1:3|0:0,0:0:0:0:
305,191,166997,5,10,0:0:0:0:
44,50,167216,2,0,L|138:74,1,74.2500002832413,8|0,1:3|0:0,0:0:0:0:
219,154,167435,2,0,P|256:98|232:25,1,148.500000566483,2|0,0:0|0:0,0:0:0:0:
92,292,167873,6,0,L|115:142,1,148.500000566483,10|0,0:0|0:0,0:0:0:0:
185,89,168201,1,0,0:0:0:0:
45,162,168311,2,0,L|32:240,1,74.2500002832413,10|0,1:3|0:0,0:0:0:0:
329,274,168530,5,8,0:0:0:0:
161,368,168749,1,10,0:0:0:0:
378,222,168968,6,0,L|349:136,1,74.2500002832413,8|0,1:2|0:0,0:0:0:0:
210,52,169187,1,10,0:0:0:0:
439,165,169406,5,8,0:0:0:0:
458,160,169515,1,8,0:0:0:0:
477,156,169625,1,10,0:0:0:0:
304,213,169844,1,8,1:3:0:0:
509,375,170063,6,0,P|434:341|218:285,1,297.000001132965,6|0,1:2|0:0,0:0:0:0:
93,365,170719,2,0,P|117:307|152:131,1,230.99999295044,8|0,0:0|0:0,0:0:0:0:
290,254,171376,2,0,P|252:269|218:293,1,71.4999967269899,8|0,0:0|0:0,0:0:0:0:
57,105,171814,6,0,B|96:20|220:23|236:84|232:130|191:171|137:135,1,297.000001132965,2|0,1:2|0:0,0:0:0:0:
316,10,172471,2,0,P|286:121|263:234,1,230.99999295044,8|0,0:0|0:0,0:0:0:0:
86,316,173128,2,0,P|95:281|102:246,1,71.4999967269899,8|8,0:0|0:0,0:0:0:0:
63,186,173457,1,8,0:0:0:0:
63,186,173566,6,0,P|129:173|186:250,1,148.500000566483,6|0,1:2|0:0,0:0:0:0:
238,274,174004,6,0,L|227:318,1,32.99999899292,2|8,0:0|0:0,0:0:0:0:
399,215,174442,2,0,L|388:259,1,32.99999899292,2|0,0:0|0:0,0:0:0:0:
172,118,174880,6,0,L|216:107,1,32.99999899292,10|0,0:0|1:2,0:0:0:0:
399,215,175318,1,2,1:2:0:0:
260,62,175756,6,0,L|271:106,1,32.99999899292,0|8,0:0|0:0,0:0:0:0:
399,215,176194,1,2,0:0:0:0:
190,43,176632,6,0,L|201:-1,1,32.99999899292,10|0,0:0|1:2,0:0:0:0:
35,208,177070,6,0,B|86:96|237:111|251:256|129:274|118:195,1,297.000001132965,2|0,1:2|0:0,0:0:0:0:
290,129,177727,2,0,P|370:157|515:192,1,230.99999295044,8|0,0:0|0:0,0:0:0:0:
370,302,178384,2,0,P|362:273|336:220,1,71.4999967269899,8|0,0:0|0:0,0:0:0:0:
503,101,178822,6,0,B|452:213|301:198|287:53|409:35|420:114,1,297.000001132965,2|0,1:2|0:0,0:0:0:0:
249,239,179479,2,0,P|233:171|183:11,1,230.99999295044,8|0,0:0|0:0,0:0:0:0:
404,83,180135,2,0,P|378:109|342:113,1,71.4999967269899,8|8,0:0|0:0,0:0:0:0:
102,0,180573,5,2,1:2:0:0:
102,0,181011,6,0,L|89:70,1,65.9999979858399,2|2,0:0|0:0,0:0:0:0:
125,129,181887,6,0,L|112:199,1,65.9999979858399,2|2,0:0|0:0,0:0:0:0:
152,258,182763,6,0,L|139:328,1,65.9999979858399,2|2,0:0|0:0,0:0:0:0:
184,384,183639,5,2,0:0:0:0:
256,192,184077,12,2,191084,0:0:0:0:
