osu file format v14

[General]
AudioFilename: audio.mp3
AudioLeadIn: 0
PreviewTime: 28585
Countdown: 1
SampleSet: Normal
StackLeniency: 0.7
Mode: 0
LetterboxInBreaks: 0
WidescreenStoryboard: 1

[Editor]
DistanceSpacing: 1
BeatDivisor: 4
GridSize: 4
TimelineZoom: 2

[Metadata]
Title:Lamprey
TitleUnicode:Lamprey
Artist:A Shell in the Pit
ArtistUnicode:A Shell in the Pit
Creator:Aleycks
Version:Normal
Source:Rogue Legacy
Tags:
BeatmapID:937635
BeatmapSetID:435168

[Difficulty]
HPDrainRate:4
CircleSize:3
OverallDifficulty:4
ApproachRate:5
SliderMultiplier:1.4
SliderTickRate:1

[Events]
//Background and Video events
0,0,"rogue legacy.jpg",0,0
//Break Periods
//Storyboard Layer 0 (Background)
//Storyboard Layer 1 (Fail)
//Storyboard Layer 2 (Pass)
//Storyboard Layer 3 (Foreground)
//Storyboard Sound Samples

[TimingPoints]
42,324.324324324324,4,1,0,100,1,0
3933,-133.333333333333,4,1,0,100,0,0
49339,-133.333333333333,4,1,0,100,0,1
59069,-133.333333333333,4,1,0,100,0,0

[HitObjects]
256,192,42,12,0,1987,0:0:0:0:
145,100,3933,6,0,L|99:132,6,52.5000020027161
185,197,5231,1,0,0:0:0:0:
252,117,5555,6,0,L|292:166,6,52.5000020027161
350,78,6852,2,0,L|393:125,1,52.5000020027161
388,169,7177,6,0,P|350:238|263:257,1,157.500006008148
210,117,8150,2,0,L|178:222,1,105.000004005432
47,303,8960,2,0,L|96:272,1,52.5000020027161
188,315,9447,1,0,0:0:0:0:
272,253,9771,6,0,B|296:208|285:152|285:152|325:112|321:38,2,210.000008010865
108,121,11717,2,0,L|189:189,1,105.000004005432
114,262,12366,6,0,P|190:296|257:262,1,157.500006008148
331,129,13339,1,0,0:0:0:0:
279,37,13663,2,0,P|241:79|241:180,1,157.500006008148
378,248,14636,5,0,0:0:0:0:
430,340,14960,2,0,P|468:298|468:197,2,157.500006008148
378,248,16258,2,0,B|338:273|278:270|278:270|220:239|190:183,1,210.000008010865
349,52,17555,6,0,P|310:98|214:100,1,157.500006008148
79,25,18528,2,0,L|51:127,1,105.000004005432
120,268,19339,2,0,L|90:208,1,52.5000020027161
157,135,19825,1,0,0:0:0:0:
208,226,20150,6,0,B|257:199|268:145|268:145|321:155|365:115,2,210.000008010865
105,42,22096,2,0,L|156:134,1,105.000004005432
223,54,22744,6,0,P|287:38|380:52,1,157.500006008148
304,190,23717,1,0,0:0:0:0:
212,241,24041,2,0,P|276:292|366:272,1,157.500006008148
472,187,25014,1,0,0:0:0:0:
458,291,25339,1,0,0:0:0:0:
256,192,25420,12,0,27285,0:0:0:0:
200,135,28582,6,0,P|131:92|39:107,1,157.500006008148
50,150,29231,2,0,B|64:206|108:240|108:240|163:237|214:265,1,210.000008010865
289,197,30204,6,0,L|341:151,1,52.5000020027161
317,110,30528,2,0,L|369:64,3,52.5000020027161
409,76,31177,2,0,P|453:136|442:215,1,157.500006008148
393,232,31825,2,0,P|380:289|404:333,1,105.000004005432
237,194,32798,6,0,L|194:154,1,52.5000020027161
147,172,33123,2,0,L|104:132,3,52.5000020027161
110,83,33771,2,0,B|203:32|203:32|304:60,1,210.000008010865
404,89,34744,1,0,0:0:0:0:
427,191,35069,6,0,B|334:242|334:242|233:214,1,210.000008010865
133,184,36041,1,0,0:0:0:0:
110,83,36366,2,0,P|48:128|59:254,2,210.000008010865
288,193,38312,6,0,L|256:297,1,105.000004005432
360,273,38960,6,0,P|389:185|356:116,1,157.500006008148
334,85,39609,2,0,B|276:111|276:111|219:50|139:63,1,210.000008010865
59,124,40582,6,0,L|88:190,1,52.5000020027161
62,221,40906,2,0,L|126:252,1,52.5000020027161
127,294,41231,2,0,L|197:276,1,52.5000020027161
223,308,41555,2,0,L|320:181,1,157.500006008148
353,142,42204,2,0,P|398:174|450:176,1,105.000004005432
430,73,42852,1,0,0:0:0:0:
327,47,43177,6,0,L|262:79,1,52.5000020027161
231,55,43501,2,0,L|202:121,1,52.5000020027161
161,124,43826,2,0,L|181:193,1,52.5000020027161
152,221,44150,2,0,L|283:311,1,157.500006008148
334,310,44798,6,0,P|349:255|326:192,1,105.000004005432
248,152,45447,2,0,P|233:97|256:34,1,105.000004005432
337,100,46096,2,0,P|389:85|456:106,1,105.000004005432
393,190,46744,2,0,P|341:205|274:184,1,105.000004005432
233,107,47393,2,0,P|181:92|114:113,1,105.000004005432
70,186,48041,6,0,B|111:209|111:209|154:255|154:255|206:221|206:221|266:207,1,210.000008010865
374,48,49339,6,0,P|378:136|338:197,1,157.500006008148
321,240,49987,2,0,P|313:296|336:346,1,105.000004005432
225,333,50636,1,0,0:0:0:0:
212,228,50960,6,0,L|231:158,1,52.5000020027161
201,132,51284,2,0,L|260:90,1,52.5000020027161
256,50,51609,2,0,L|327:56,1,52.5000020027161
349,22,51933,2,0,L|462:133,1,157.500006008148
463,185,52582,2,0,P|412:203|362:191,1,105.000004005432
291,115,53231,1,0,0:0:0:0:
252,212,53555,6,0,L|226:276,4,52.5000020027161
186,129,54528,1,0,0:0:0:0:
141,223,54852,1,0,0:0:0:0:
80,137,55177,1,0,0:0:0:0:
122,41,55501,1,0,0:0:0:0:
226,32,55825,6,0,P|290:41|327:73,1,105.000004005432
241,133,56474,1,0,0:0:0:0:
341,163,56798,1,0,0:0:0:0:
424,98,57123,1,0,0:0:0:0:
256,192,57204,12,0,59069,0:0:0:0:
